  0
SECTION
  2
HEADER
  9
$ACADVER
  1
AC1009
  9
$INSBASE
 10
0.0
 20
0.0
 30
0.0
  9
$EXTMIN
 10
375.0
 20
450.0
 30
0.0
  9
$EXTMAX
 10
2775.0
 20
4179.978392
 30
0.0
  9
$LIMMIN
 10
0.0
 20
0.0
  9
$LIMMAX
 10
297.0
 20
210.0
  9
$ORTHOMODE
 70
     0
  9
$REGENMODE
 70
     1
  9
$FILLMODE
 70
     0
  9
$QTEXTMODE
 70
     0
  9
$MIRRTEXT
 70
     1
  9
$DRAGMODE
 70
     2
  9
$LTSCALE
 40
100.0
  9
$OSMODE
 70
    37
  9
$ATTMODE
 70
     1
  9
$TEXTSIZE
 40
180.0
  9
$TRACEWID
 40
0.05
  9
$TEXTSTYLE
  7
STANDARD
  9
$CLAYER
  8
3
  9
$CELTYPE
  6
BYLAYER
  9
$CECOLOR
 62
   256
  9
$DIMSCALE
 40
15.0
  9
$DIMASZ
 40
2.0
  9
$DIMEXO
 40
0.5
  9
$DIMDLI
 40
10.0
  9
$DIMRND
 40
0.0
  9
$DIMDLE
 40
0.0
  9
$DIMEXE
 40
1.0
  9
$DIMTP
 40
1.0
  9
$DIMTM
 40
1.0
  9
$DIMTXT
 40
3.0
  9
$DIMCEN
 40
0.0
  9
$DIMTSZ
 40
0.0
  9
$DIMTOL
 70
     0
  9
$DIMLIM
 70
     0
  9
$DIMTIH
 70
     0
  9
$DIMTOH
 70
     0
  9
$DIMSE1
 70
     0
  9
$DIMSE2
 70
     0
  9
$DIMTAD
 70
     1
  9
$DIMZIN
 70
     8
  9
$DIMBLK
  1

  9
$DIMASO
 70
     1
  9
$DIMSHO
 70
     1
  9
$DIMPOST
  1

  9
$DIMAPOST
  1

  9
$DIMALT
 70
     0
  9
$DIMALTD
 70
     2
  9
$DIMALTF
 40
0.039
  9
$DIMLFAC
 40
1.0
  9
$DIMTOFL
 70
     1
  9
$DIMTVP
 40
0.0
  9
$DIMTIX
 70
     0
  9
$DIMSOXD
 70
     0
  9
$DIMSAH
 70
     1
  9
$DIMBLK1
  1
OPEN
  9
$DIMBLK2
  1
OPEN
  9
$DIMSTYLE
  2
IGA
  9
$DIMCLRD
 70
     0
  9
$DIMCLRE
 70
     0
  9
$DIMCLRT
 70
     0
  9
$DIMTFAC
 40
10.0
  9
$DIMGAP
 40
1.0
  9
$LUNITS
 70
     2
  9
$LUPREC
 70
     3
  9
$SKETCHINC
 40
0.1
  9
$FILLETRAD
 40
50.0
  9
$AUNITS
 70
     0
  9
$AUPREC
 70
     0
  9
$MENU
  1
acad
  9
$ELEVATION
 40
0.0
  9
$PELEVATION
 40
0.0
  9
$THICKNESS
 40
0.0
  9
$LIMCHECK
 70
     0
  9
$BLIPMODE
 70
     0
  9
$CHAMFERA
 40
0.5
  9
$CHAMFERB
 40
0.5
  9
$SKPOLY
 70
     0
  9
$TDCREATE
 40
2450725.3472377309
  9
$TDUPDATE
 40
2454953.8684877078
  9
$TDINDWG
 40
0.0024819676
  9
$TDUSRTIMER
 40
0.0024819676
  9
$USRTIMER
 70
     1
  9
$ANGBASE
 50
0.0
  9
$ANGDIR
 70
     0
  9
$PDMODE
 70
     0
  9
$PDSIZE
 40
0.0
  9
$PLINEWID
 40
0.0
  9
$COORDS
 70
     1
  9
$SPLFRAME
 70
     0
  9
$SPLINETYPE
 70
     6
  9
$SPLINESEGS
 70
     8
  9
$ATTDIA
 70
     0
  9
$ATTREQ
 70
     1
  9
$HANDLING
 70
 10241
  9
$HANDSEED
  5
7B7E
  9
$SURFTAB1
 70
     6
  9
$SURFTAB2
 70
     6
  9
$SURFTYPE
 70
     6
  9
$SURFU
 70
     6
  9
$SURFV
 70
     6
  9
$UCSNAME
  2

  9
$UCSORG
 10
0.0
 20
0.0
 30
0.0
  9
$UCSXDIR
 10
1.0
 20
0.0
 30
0.0
  9
$UCSYDIR
 10
0.0
 20
1.0
 30
0.0
  9
$PUCSNAME
  2

  9
$PUCSORG
 10
0.0
 20
0.0
 30
0.0
  9
$PUCSXDIR
 10
1.0
 20
0.0
 30
0.0
  9
$PUCSYDIR
 10
0.0
 20
1.0
 30
0.0
  9
$USERI1
 70
     0
  9
$USERI2
 70
     0
  9
$USERI3
 70
     0
  9
$USERI4
 70
     0
  9
$USERI5
 70
     0
  9
$USERR1
 40
0.0
  9
$USERR2
 40
0.0
  9
$USERR3
 40
0.0
  9
$USERR4
 40
0.0
  9
$USERR5
 40
0.0
  9
$WORLDVIEW
 70
     1
  9
$SHADEDGE
 70
     3
  9
$SHADEDIF
 70
    70
  9
$TILEMODE
 70
     1
  9
$MAXACTVP
 70
    16
  9
$PLIMCHECK
 70
     0
  9
$PEXTMIN
 10
1.0000000000000000E+020
 20
1.0000000000000000E+020
 30
1.0000000000000000E+020
  9
$PEXTMAX
 10
-1.0000000000000000E+020
 20
-1.0000000000000000E+020
 30
-1.0000000000000000E+020
  9
$PLIMMIN
 10
0.0
 20
0.0
  9
$PLIMMAX
 10
12.0
 20
9.0
  9
$UNITMODE
 70
     0
  9
$VISRETAIN
 70
     0
  9
$PLINEGEN
 70
     0
  9
$PSLTSCALE
 70
     1
  0
ENDSEC
  0
SECTION
  2
TABLES
  0
TABLE
  2
VPORT
 70
     2
  0
VPORT
  2
*ACTIVE
 70
     0
 10
0.0
 20
0.0
 11
1.0
 21
1.0
 12
1880.553223798353
 22
611.85008892485246
 13
0.0
 23
0.0
 14
10.0
 24
10.0
 15
10.0
 25
10.0
 16
0.0
 26
0.0
 36
1.0
 17
0.0
 27
0.0
 37
0.0
 40
1396.473123468925
 41
1.5051150895140659
 42
50.0
 43
0.0
 44
0.0
 50
0.0
 51
0.0
 71
     0
 72
   100
 73
     1
 74
     0
 75
     0
 76
     0
 77
     0
 78
     0
  0
ENDTAB
  0
TABLE
  2
LTYPE
 70
     2
  0
LTYPE
  2
CONTINUOUS
 70
     0
  3
Solid line
 72
    65
 73
     0
 40
0.0
  0
LTYPE
  2
CENTER
 70
     0
  3
____ _ ____ _ ____ _ ____ _ ____ _ ____ _ ____ 
 72
    65
 73
     4
 40
2.0
 49
1.25
 49
-0.25
 49
0.25
 49
-0.25
  0
ENDTAB
  0
TABLE
  2
LAYER
 70
     6
  0
LAYER
  2
0
 70
     0
 62
     7
  6
CONTINUOUS
  0
LAYER
  2
3
 70
     0
 62
     2
  6
CONTINUOUS
  0
LAYER
  2
2
 70
     0
 62
     3
  6
CENTER
  0
LAYER
  2
1
 70
     0
 62
     4
  6
CONTINUOUS
  0
LAYER
  2
4
 70
     0
 62
     7
  6
CONTINUOUS
  0
LAYER
  2
DEFPOINTS
 70
     0
 62
     7
  6
CONTINUOUS
  0
ENDTAB
  0
TABLE
  2
STYLE
 70
     1
  0
STYLE
  2
STANDARD
 70
     0
 40
0.0
 41
1.0
 50
0.0
 71
     0
 42
180.0
  3
simplex.shx
  4
extfont.shx
  0
ENDTAB
  0
TABLE
  2
VIEW
 70
     0
  0
ENDTAB
  0
TABLE
  2
UCS
 70
     0
  0
ENDTAB
  0
TABLE
  2
APPID
 70
     1
  0
APPID
  2
ACAD
 70
     0
  0
ENDTAB
  0
TABLE
  2
DIMSTYLE
 70
     1
  0
DIMSTYLE
  2
IGA
 70
     0
  3

  4

  5

  6
OPEN
  7
OPEN
 40
2.0
 41
2.0
 42
0.5
 43
10.0
 44
1.0
 45
0.0
 46
0.0
 47
1.0
 48
1.0
140
3.0
141
0.0
142
0.0
143
0.03937
144
1.0
145
0.0
146
10.0
147
1.0
 71
     0
 72
     0
 73
     0
 74
     0
 75
     0
 76
     0
 77
     1
 78
     8
170
     0
171
     2
172
     0
173
     1
174
     0
175
     0
176
     0
177
     0
178
     0
  0
ENDTAB
  0
ENDSEC
  0
SECTION
  2
BLOCKS
  0
BLOCK
  8
0
  2
$MODEL_SPACE
 70
     0
 10
0.0
 20
0.0
 30
0.0
  3
$MODEL_SPACE
  1

  0
ENDBLK
  5
1B
  8
0
  0
BLOCK
 67
     1
  8
0
  2
$PAPER_SPACE
 70
     0
 10
0.0
 20
0.0
 30
0.0
  3
$PAPER_SPACE
  1

  0
ENDBLK
  5
18
 67
     1
  8
0
  0
BLOCK
  8
0
  2
_OPEN
 70
     0
 10
0.0
 20
0.0
 30
0.0
  3
_OPEN
  1

  0
LINE
  5
7A55
  8
0
  6
BYBLOCK
 62
     0
 10
-1.0
 20
0.166667
 30
0.0
 11
0.0
 21
0.0
 31
0.0
  0
LINE
  5
7A56
  8
0
  6
BYBLOCK
 62
     0
 10
0.0
 20
0.0
 30
0.0
 11
-1.0
 21
-0.166667
 31
0.0
  0
LINE
  5
7A57
  8
0
  6
BYBLOCK
 62
     0
 10
0.0
 20
0.0
 30
0.0
 11
-1.0
 21
0.0
 31
0.0
  0
ENDBLK
  5
7A58
  8
0
  0
BLOCK
  8
0
  2
*D1
 70
     1
 10
0.0
 20
0.0
 30
0.0
  3
*D1
  1

  0
LINE
  5
7B4C
  8
3
  6
CONTINUOUS
 62
     0
 10
1399.2062109999999
 20
2572.0272669999999
 30
0.0
 11
1399.2062109999999
 21
2917.2794130000002
 31
0.0
  0
LINE
  5
7B4D
  8
3
  6
CONTINUOUS
 62
     0
 10
2569.2062110000002
 20
2572.0272669999999
 30
0.0
 11
2569.2062110000002
 21
2917.2794130000002
 31
0.0
  0
LINE
  5
7B4E
  8
3
  6
CONTINUOUS
 62
     0
 10
1429.2062109999999
 20
2902.2794130000002
 30
0.0
 11
2539.2062110000002
 21
2902.2794130000002
 31
0.0
  0
INSERT
  5
7B4F
  8
3
  6
CONTINUOUS
 62
     0
  2
_OPEN
 10
1399.2062109999999
 20
2902.2794130000002
 30
0.0
 41
30.0
 42
30.0
 43
30.0
 50
180.0
  0
INSERT
  5
7B50
  8
3
  6
CONTINUOUS
 62
     0
  2
_OPEN
 10
2569.2062110000002
 20
2902.2794130000002
 30
0.0
 41
30.0
 42
30.0
 43
30.0
  0
TEXT
  8
3
  40
45
  5
7B79
  62
0
  72
0
  71
0
 10
1893.88
 20
2860.13
 30
0.000000
  1
1170
  0
POINT
  5
7B52
  8
DEFPOINTS
  6
CONTINUOUS
 62
     0
 10
1399.2062109999999
 20
2564.5272669999999
 30
0.0
  0
POINT
  5
7B53
  8
DEFPOINTS
  6
CONTINUOUS
 62
     0
 10
2569.2062110000002
 20
2564.5272669999999
 30
0.0
  0
POINT
  5
7B54
  8
DEFPOINTS
  6
CONTINUOUS
 62
     0
 10
2569.2062110000002
 20
2902.2794130000002
 30
0.0
  0
ENDBLK
  5
7AAE
  8
0
  0
BLOCK
  8
0
  2
*D2
 70
     1
 10
0.0
 20
0.0
 30
0.0
  3
*D2
  1

  0
LINE
  5
7B55
  8
3
  6
CONTINUOUS
 62
     0
 10
1499.206210999999
 20
2674.5272669999999
 30
0.0
 11
1499.206210999999
 21
2813.1617670000001
 31
0.0
  0
LINE
  5
7B56
  8
3
  6
CONTINUOUS
 62
     0
 10
2469.2062110000002
 20
2674.5272669999999
 30
0.0
 11
2469.2062110000002
 21
2813.1617670000001
 31
0.0
  0
LINE
  5
7B57
  8
3
  6
CONTINUOUS
 62
     0
 10
1529.206210999999
 20
2798.1617670000001
 30
0.0
 11
2439.2062110000002
 21
2798.1617670000001
 31
0.0
  0
INSERT
  5
7B58
  8
3
  6
CONTINUOUS
 62
     0
  2
_OPEN
 10
1499.206210999999
 20
2798.1617670000001
 30
0.0
 41
30.0
 42
30.0
 43
30.0
 50
180.0
  0
INSERT
  5
7B59
  8
3
  6
CONTINUOUS
 62
     0
  2
_OPEN
 10
2469.2062110000002
 20
2798.1617670000001
 30
0.0
 41
30.0
 42
30.0
 43
30.0
  0
TEXT
  8
3
  40
45
  5
7B7A
  62
0
  72
0
  71
0
 10
1893.88
 20
2756.01
 30
0.000000
  1
970
  0
POINT
  5
7B5B
  8
DEFPOINTS
  6
CONTINUOUS
 62
     0
 10
1499.206210999999
 20
2667.0272669999999
 30
0.0
  0
POINT
  5
7B5C
  8
DEFPOINTS
  6
CONTINUOUS
 62
     0
 10
2469.2062110000002
 20
2667.0272669999999
 30
0.0
  0
POINT
  5
7B5D
  8
DEFPOINTS
  6
CONTINUOUS
 62
     0
 10
2469.2062110000002
 20
2798.1617670000001
 30
0.0
  0
ENDBLK
  5
7A98
  8
0
  0
BLOCK
  8
0
  2
*D3
 70
     1
 10
0.0
 20
0.0
 30
0.0
  3
*D3
  1

  0
LINE
  5
7B5E
  8
3
  6
CONTINUOUS
 62
     0
 10
1391.7062109999999
 20
2564.5272669999999
 30
0.0
 11
1213.5267019999999
 21
2564.5272669999999
 31
0.0
  0
LINE
  5
7B5F
  8
3
  6
CONTINUOUS
 62
     0
 10
1391.7062109999999
 20
1969.5272669999999
 30
0.0
 11
1213.5267019999999
 21
1969.5272669999999
 31
0.0
  0
LINE
  5
7B60
  8
3
  6
CONTINUOUS
 62
     0
 10
1228.5267019999999
 20
2534.5272669999999
 30
0.0
 11
1228.5267019999999
 21
1999.5272669999999
 31
0.0
  0
INSERT
  5
7B61
  8
3
  6
CONTINUOUS
 62
     0
  2
_OPEN
 10
1228.5267019999999
 20
2564.5272669999999
 30
0.0
 41
30.0
 42
30.0
 43
30.0
 50
90.0
  0
INSERT
  5
7B62
  8
3
  6
CONTINUOUS
 62
     0
  2
_OPEN
 10
1228.5267019999999
 20
1969.5272669999999
 30
0.0
 41
30.0
 42
30.0
 43
30.0
 50
270.0
  0
TEXT
  8
3
  40
45
  5
7B7B
  62
0
  72
0
  71
0
 10
1101.03
 20
2206.60
 30
0.000000
  1
595
  0
POINT
  5
7B64
  8
DEFPOINTS
  6
CONTINUOUS
 62
     0
 10
1399.2062109999999
 20
2564.5272669999999
 30
0.0
  0
POINT
  5
7B65
  8
DEFPOINTS
  6
CONTINUOUS
 62
     0
 10
1399.2062109999999
 20
1969.5272669999999
 30
0.0
  0
POINT
  5
7B66
  8
DEFPOINTS
  6
CONTINUOUS
 62
     0
 10
1228.5267019999999
 20
1969.5272669999999
 30
0.0
  0
ENDBLK
  5
7A7F
  8
0
  0
BLOCK
  8
0
  2
*D4
 70
     1
 10
0.0
 20
0.0
 30
0.0
  3
*D4
  1

  0
LINE
  5
7B67
  8
3
  6
CONTINUOUS
 62
     0
 10
1391.7062109999999
 20
2067.0272669999999
 30
0.0
 11
1317.7127069999999
 21
2067.0272669999999
 31
0.0
  0
LINE
  5
7B68
  8
3
  6
CONTINUOUS
 62
     0
 10
1391.7062109999999
 20
2467.0272669999999
 30
0.0
 11
1317.7127069999999
 21
2467.0272669999999
 31
0.0
  0
LINE
  5
7B69
  8
3
  6
CONTINUOUS
 62
     0
 10
1332.7127069999999
 20
2097.0272669999999
 30
0.0
 11
1332.7127069999999
 21
2437.0272669999999
 31
0.0
  0
INSERT
  5
7B6A
  8
3
  6
CONTINUOUS
 62
     0
  2
_OPEN
 10
1332.7127069999999
 20
2067.0272669999999
 30
0.0
 41
30.0
 42
30.0
 43
30.0
 50
270.0
  0
INSERT
  5
7B6B
  8
3
  6
CONTINUOUS
 62
     0
  2
_OPEN
 10
1332.7127069999999
 20
2467.0272669999999
 30
0.0
 41
30.0
 42
30.0
 43
30.0
 50
90.0
  0
TEXT
  8
3
  40
45
  5
7B7C
  62
0
  72
0
  71
0
 10
1205.21
 20
2197.92
 30
0.000000
  1
400
  0
POINT
  5
7B6D
  8
DEFPOINTS
  6
CONTINUOUS
 62
     0
 10
1399.2062109999999
 20
2067.0272669999999
 30
0.0
  0
POINT
  5
7B6E
  8
DEFPOINTS
  6
CONTINUOUS
 62
     0
 10
1399.2062109999999
 20
2467.0272669999999
 30
0.0
  0
POINT
  5
7B6F
  8
DEFPOINTS
  6
CONTINUOUS
 62
     0
 10
1332.7127069999999
 20
2467.0272669999999
 30
0.0
  0
ENDBLK
  5
7A8C
  8
0
  0
BLOCK
  8
0
  2
*D5
 70
     1
 10
0.0
 20
0.0
 30
0.0
  3
*D5
  1

  0
LINE
  5
7B70
  8
3
  6
CONTINUOUS
 62
     0
 10
446.02261499999997
 20
2674.5272669999999
 30
0.0
 11
446.02261499999997
 21
2917.2794130000002
 31
0.0
  0
LINE
  5
7B71
  8
3
  6
CONTINUOUS
 62
     0
 10
1076.0226150000001
 20
2674.5272669999999
 30
0.0
 11
1076.0226150000001
 21
2917.2794130000002
 31
0.0
  0
LINE
  5
7B72
  8
3
  6
CONTINUOUS
 62
     0
 10
476.02261499999997
 20
2902.2794130000002
 30
0.0
 11
1046.0226150000001
 21
2902.2794130000002
 31
0.0
  0
INSERT
  5
7B73
  8
3
  6
CONTINUOUS
 62
     0
  2
_OPEN
 10
446.02261499999997
 20
2902.2794130000002
 30
0.0
 41
30.0
 42
30.0
 43
30.0
 50
180.0
  0
INSERT
  5
7B74
  8
3
  6
CONTINUOUS
 62
     0
  2
_OPEN
 10
1076.0226150000001
 20
2902.2794130000002
 30
0.0
 41
30.0
 42
30.0
 43
30.0
  0
TEXT
  8
3
  40
45
  5
7B7D
  62
0
  72
0
  71
0
 10
661.007
 20
2860.13
 30
0.000000
  1
630
  0
POINT
  5
7B76
  8
DEFPOINTS
  6
CONTINUOUS
 62
     0
 10
446.02261499999997
 20
2667.0272669999999
 30
0.0
  0
POINT
  5
7B77
  8
DEFPOINTS
  6
CONTINUOUS
 62
     0
 10
1076.0226150000001
 20
2667.0272669999999
 30
0.0
  0
POINT
  5
7B78
  8
DEFPOINTS
  6
CONTINUOUS
 62
     0
 10
1076.0226150000001
 20
2902.2794130000002
 30
0.0
  0
ENDBLK
  5
7ABA
  8
0
  0
ENDSEC
  0
SECTION
  2
ENTITIES
  0
LINE
  5
7A1D
  8
2
  6
CENTER
 10
443.52261499999997
 20
2267.0272669999999
 30
0.0
 11
1078.5226150000001
 21
2267.0272669999999
 31
0.0
  0
CIRCLE
  5
7A1E
  8
1
  6
CONTINUOUS
 10
761.02261499999997
 20
2267.0272669999999
 30
0.0
 40
297.5
  0
CIRCLE
  5
7A1F
  8
1
  6
CONTINUOUS
 10
761.02261499999997
 20
2267.0272669999999
 30
0.0
 40
200.0
  0
LINE
  5
7A20
  8
2
  6
CENTER
 10
761.02261499999997
 20
1949.5272669999999
 30
0.0
 11
761.02261499999997
 21
2584.5272669999999
 31
0.0
  0
LINE
  5
7A21
  8
2
  6
CENTER
 10
446.02261499999997
 20
2667.0272669999999
 30
0.0
 11
446.02261499999997
 21
2257.0272669999999
 31
0.0
  0
LINE
  5
7A22
  8
4
  6
CONTINUOUS
 10
2628.502547
 20
2267.0272669999999
 30
0.0
 11
2763.1246120000001
 21
2267.0272669999999
 31
0.0
  0
LINE
  5
7A23
  8
1
  6
CONTINUOUS
 10
1399.2062109999999
 20
2564.5272669999999
 30
0.0
 11
1399.2062109999999
 21
1969.5272669999999
 31
0.0
  0
LINE
  5
7A24
  8
1
  6
CONTINUOUS
 10
2569.2062110000002
 20
2564.5272669999999
 30
0.0
 11
2569.2062110000002
 21
1969.5272669999999
 31
0.0
  0
LINE
  5
7A25
  8
1
  6
CONTINUOUS
 10
2169.2062110000002
 20
2467.0272669999999
 30
0.0
 11
2169.2062110000002
 21
2067.0272669999999
 31
0.0
  0
LINE
  5
7A26
  8
2
  6
CENTER
 10
2469.2062110000002
 20
2667.0272669999999
 30
0.0
 11
2469.2062110000002
 21
2257.0272669999999
 31
0.0
  0
LINE
  5
7A27
  8
2
  6
CENTER
 10
1499.206210999999
 20
2667.0272669999999
 30
0.0
 11
1499.206210999999
 21
2257.0272669999999
 31
0.0
  0
LINE
  5
7A28
  8
2
  6
CENTER
 10
1076.0226150000001
 20
2667.0272669999999
 30
0.0
 11
1076.0226150000001
 21
2257.0272669999999
 31
0.0
  0
LINE
  5
7A29
  8
1
  6
CONTINUOUS
 10
2169.2062110000002
 20
2067.0272669999999
 30
0.0
 11
1399.2062109999999
 21
2067.0272669999999
 31
0.0
  0
LINE
  5
7A2A
  8
1
  6
CONTINUOUS
 10
1399.2062109999999
 20
1969.5272669999999
 30
0.0
 11
2569.2062110000002
 21
1969.5272669999999
 31
0.0
  0
LINE
  5
7A2B
  8
2
  6
CENTER
 10
2589.2062110000002
 20
2267.0272669999999
 30
0.0
 11
1379.2062109999999
 21
2267.0272669999999
 31
0.0
  0
LINE
  5
7A2C
  8
1
  6
CONTINUOUS
 10
2369.2062110000002
 20
1987.0272669999999
 30
0.0
 11
2169.2062110000002
 21
2067.0272669999999
 31
0.0
  0
LINE
  5
7A2D
  8
1
  6
CONTINUOUS
 10
2369.2062110000002
 20
1987.0272669999999
 30
0.0
 11
2569.2062110000002
 21
2067.0272669999999
 31
0.0
  0
LINE
  5
7A2E
  8
1
  6
CONTINUOUS
 10
2169.2062110000002
 20
2467.0272669999999
 30
0.0
 11
1399.2062109999999
 21
2467.0272669999999
 31
0.0
  0
LINE
  5
7A2F
  8
1
  6
CONTINUOUS
 10
1399.2062109999999
 20
2564.5272669999999
 30
0.0
 11
2569.2062110000002
 21
2564.5272669999999
 31
0.0
  0
LINE
  5
7A30
  8
1
  6
CONTINUOUS
 10
2369.2062110000002
 20
2547.0272669999999
 30
0.0
 11
2169.2062110000002
 21
2467.0272669999999
 31
0.0
  0
LINE
  5
7A31
  8
1
  6
CONTINUOUS
 10
2369.2062110000002
 20
2547.0272669999999
 30
0.0
 11
2569.2062110000002
 21
2467.0272669999999
 31
0.0
  0
LINE
  5
7A32
  8
4
  6
CONTINUOUS
 10
2763.1246120000001
 20
2267.0272669999999
 30
0.0
 11
2727.0403469999992
 21
2253.6146289999988
 31
0.0
  0
LINE
  5
7A33
  8
4
  6
CONTINUOUS
 10
2763.1246120000001
 20
2267.0272669999999
 30
0.0
 11
2727.0403469999992
 21
2280.4399050000002
 31
0.0
  0
LINE
  5
7A34
  8
4
  6
CONTINUOUS
 10
2775.0
 20
750.0
 30
0.0
 11
2775.0
 21
450.0
 31
0.0
  0
LINE
  5
7A35
  8
4
  6
CONTINUOUS
 10
1725.0
 20
750.0
 30
0.0
 11
1725.0
 21
450.0
 31
0.0
  0
LINE
  5
7A36
  8
4
  6
CONTINUOUS
 10
975.0
 20
750.0
 30
0.0
 11
975.0
 21
450.0
 31
0.0
  0
LINE
  5
7A39
  8
4
  6
CONTINUOUS
 10
975.0
 20
450.0
 30
0.0
 11
2775.0
 21
450.0
 31
0.0
  0
LINE
  5
7A3A
  8
4
  6
CONTINUOUS
 10
975.0
 20
600.0
 30
0.0
 11
2775.0
 21
600.0
 31
0.0
  0
TEXT
  5
7A3B
  8
4
  6
CONTINUOUS
 10
1032.753121
 20
647.31453899999985
 30
0.0
 40
75.0
  1
機器名称
  0
TEXT
  5
7A3C
  8
4
  6
CONTINUOUS
 10
1029.387158999999
 20
482.46773499999989
 30
0.0
 40
75.0
  1
機器型番
  0
TEXT
  5
7A3D
  8
4
  6
CONTINUOUS
 10
1770.1121659999999
 20
652.7557569999999
 30
0.0
 40
45.0
  1
ミツヤ低騒音ダクトファンユニット
  0
TEXT
  5
7A3E
  8
4
  6
CONTINUOUS
 10
1779.9817430000001
 20
475.73937599999999
 30
0.0
 40
75.0
  1
SAL#400
  0
TEXT
  5
7A40
  8
4
  6
CONTINUOUS
 10
1461.364652999999
 20
3575.1432619999991
 30
0.0
 40
81.0
  1
天井吊形
  0
TEXT
  5
7A41
  8
4
  6
CONTINUOUS
 10
606.85240599999986
 20
3790.7275070000001
 30
0.0
 40
84.239999999999995
  1
電動機直動式消音ボックス付き斜流ファン
  0
LINE
  5
7A42
  8
4
  6
CONTINUOUS
 10
375.0
 20
3704.1131310000001
 30
0.0
 11
2775.0
 21
3704.1131310000001
 31
0.0
  0
LINE
  5
7A43
  8
4
  6
CONTINUOUS
 10
375.0
 20
4004.1131310000001
 30
0.0
 11
2775.0
 21
4004.1131310000001
 31
0.0
  0
LINE
  5
7A44
  8
4
  6
CONTINUOUS
 10
975.0
 20
750.0
 30
0.0
 11
2775.0
 21
750.0
 31
0.0
  0
LINE
  5
7A45
  8
4
  6
CONTINUOUS
 10
375.0
 20
4004.1131310000001
 30
0.0
 11
375.0
 21
3704.1131310000001
 31
0.0
  0
TEXT
  5
7A46
  8
4
  6
CONTINUOUS
 10
616.56875000000002
 20
3573.4792159999988
 30
0.0
 40
81.0
  1
右回転後方吐出
  0
TEXT
  5
7A47
  8
4
  6
CONTINUOUS
 10
2203.454338999999
 20
4059.091621999999
 30
0.0
 40
84.0
  1
No.
  0
TEXT
  5
7A48
  8
4
  6
CONTINUOUS
 10
1966.944094
 20
3575.1432619999991
 30
0.0
 40
81.0
  1
縮尺：1/15
  0
LINE
  5
7A49
  8
4
  6
CONTINUOUS
 10
2775.0
 20
4004.1131310000001
 30
0.0
 11
2775.0
 21
3704.1131310000001
 31
0.0
  0
LINE
  5
7A4B
  8
4
  6
CONTINUOUS
 10
2160.9261339999989
 20
4021.8953750000001
 30
0.0
 11
2160.9261339999989
 21
4179.978392
 31
0.0
  0
LINE
  5
7A4C
  8
4
  6
CONTINUOUS
 10
2160.9261339999989
 20
4179.978392
 30
0.0
 11
2775.0
 21
4179.978392
 31
0.0
  0
LINE
  5
7A4D
  8
4
  6
CONTINUOUS
 10
2775.0
 20
4179.978392
 30
0.0
 11
2775.0
 21
4021.8953750000001
 31
0.0
  0
LINE
  5
7A4E
  8
4
  6
CONTINUOUS
 10
2775.0
 20
4021.8953750000001
 30
0.0
 11
2160.9261339999989
 21
4021.8953750000001
 31
0.0
  0
DIMENSION
  5
7A66
  8
3
  6
CONTINUOUS
  2
*D1
 10
2569.2062110000002
 20
2902.2794130000002
 30
0.0
 11
1983.8752689999999
 21
2902.2794130000002
 31
0.0
 70
   128
 13
1399.2062109999999
 23
2564.5272669999999
 33
0.0
 14
2569.2062110000002
 24
2564.5272669999999
 34
0.0
1001
ACAD
1000
DSTYLE
1002
{
1070
   287
1070
     3
1070
   287
1070
     3
1070
    40
1040
15.0
1070
   143
1040
0.039
1070
   172
1070
     1
1070
   271
1070
     0
1070
   279
1070
     0
1070
   288
1070
     1
1002
}
  0
DIMENSION
  5
7A73
  8
3
  6
CONTINUOUS
  2
*D2
 10
2469.2062110000002
 20
2798.1617670000001
 30
0.0
 11
1983.8752689999999
 21
2798.1617670000001
 31
0.0
 70
   128
 13
1499.206210999999
 23
2667.0272669999999
 33
0.0
 14
2469.2062110000002
 24
2667.0272669999999
 34
0.0
1001
ACAD
1000
DSTYLE
1002
{
1070
   287
1070
     3
1070
   287
1070
     3
1070
    40
1040
15.0
1070
   143
1040
0.039
1070
   172
1070
     1
1070
   271
1070
     0
1070
   279
1070
     0
1070
   288
1070
     1
1002
}
  0
DIMENSION
  5
7A80
  8
3
  6
CONTINUOUS
  2
*D3
 10
1228.5267019999999
 20
1969.5272669999999
 30
0.0
 11
1228.526701999999
 21
2286.2500070000001
 31
0.0
 70
   128
 13
1399.2062109999999
 23
2564.5272669999999
 33
0.0
 14
1399.2062109999999
 24
1969.5272669999999
 34
0.0
 50
90.0
1001
ACAD
1000
DSTYLE
1002
{
1070
   287
1070
     3
1070
   287
1070
     3
1070
    40
1040
15.0
1070
   143
1040
0.039
1070
   172
1070
     1
1070
   271
1070
     0
1070
   279
1070
     0
1070
   288
1070
     1
1002
}
  0
DIMENSION
  5
7A8D
  8
3
  6
CONTINUOUS
  2
*D4
 10
1332.7127069999999
 20
2467.0272669999999
 30
0.0
 11
1332.7127069999999
 21
2277.573535
 31
0.0
 70
   128
 13
1399.2062109999999
 23
2067.0272669999999
 33
0.0
 14
1399.2062109999999
 24
2467.0272669999999
 34
0.0
 50
90.0
1001
ACAD
1000
DSTYLE
1002
{
1070
   287
1070
     3
1070
   287
1070
     3
1070
    40
1040
15.0
1070
   143
1040
0.039
1070
   172
1070
     1
1070
   271
1070
     0
1070
   279
1070
     0
1070
   288
1070
     1
1002
}
  0
DIMENSION
  5
7ABB
  8
3
  6
CONTINUOUS
  2
*D5
 10
1076.0226150000001
 20
2902.2794130000002
 30
0.0
 11
751.00748099999987
 21
2902.2794130000002
 31
0.0
 70
   128
 13
446.02261499999997
 23
2667.0272669999999
 33
0.0
 14
1076.0226150000001
 24
2667.0272669999999
 34
0.0
1001
ACAD
1000
DSTYLE
1002
{
1070
   287
1070
     3
1070
   287
1070
     3
1070
    40
1040
15.0
1070
   143
1040
0.039
1070
   172
1070
     1
1070
   271
1070
     0
1070
   279
1070
     0
1070
   288
1070
     1
1002
}
  0
ENDSEC
  0
EOF
