  0
SECTION
  2
HEADER
  9
$ACADVER
  1
AC1009
  9
$INSBASE
 10
0.0
 20
0.0
 30
0.0
  9
$EXTMIN
 10
375.0
 20
450.0
 30
0.0
  9
$EXTMAX
 10
2775.0
 20
4179.978392
 30
0.0
  9
$LIMMIN
 10
0.0
 20
0.0
  9
$LIMMAX
 10
297.0
 20
210.0
  9
$ORTHOMODE
 70
     0
  9
$REGENMODE
 70
     1
  9
$FILLMODE
 70
     0
  9
$QTEXTMODE
 70
     0
  9
$MIRRTEXT
 70
     1
  9
$DRAGMODE
 70
     2
  9
$LTSCALE
 40
100.0
  9
$OSMODE
 70
    37
  9
$ATTMODE
 70
     1
  9
$TEXTSIZE
 40
180.0
  9
$TRACEWID
 40
0.05
  9
$TEXTSTYLE
  7
STANDARD
  9
$CLAYER
  8
3
  9
$CELTYPE
  6
BYLAYER
  9
$CECOLOR
 62
   256
  9
$DIMSCALE
 40
15.0
  9
$DIMASZ
 40
2.0
  9
$DIMEXO
 40
0.5
  9
$DIMDLI
 40
10.0
  9
$DIMRND
 40
0.0
  9
$DIMDLE
 40
0.0
  9
$DIMEXE
 40
1.0
  9
$DIMTP
 40
1.0
  9
$DIMTM
 40
1.0
  9
$DIMTXT
 40
3.0
  9
$DIMCEN
 40
0.0
  9
$DIMTSZ
 40
0.0
  9
$DIMTOL
 70
     0
  9
$DIMLIM
 70
     0
  9
$DIMTIH
 70
     0
  9
$DIMTOH
 70
     0
  9
$DIMSE1
 70
     0
  9
$DIMSE2
 70
     0
  9
$DIMTAD
 70
     1
  9
$DIMZIN
 70
     8
  9
$DIMBLK
  1

  9
$DIMASO
 70
     1
  9
$DIMSHO
 70
     1
  9
$DIMPOST
  1

  9
$DIMAPOST
  1

  9
$DIMALT
 70
     0
  9
$DIMALTD
 70
     2
  9
$DIMALTF
 40
0.039
  9
$DIMLFAC
 40
1.0
  9
$DIMTOFL
 70
     1
  9
$DIMTVP
 40
0.0
  9
$DIMTIX
 70
     0
  9
$DIMSOXD
 70
     0
  9
$DIMSAH
 70
     1
  9
$DIMBLK1
  1
OPEN
  9
$DIMBLK2
  1
OPEN
  9
$DIMSTYLE
  2
IGA
  9
$DIMCLRD
 70
     0
  9
$DIMCLRE
 70
     0
  9
$DIMCLRT
 70
     0
  9
$DIMTFAC
 40
10.0
  9
$DIMGAP
 40
1.0
  9
$LUNITS
 70
     2
  9
$LUPREC
 70
     3
  9
$SKETCHINC
 40
0.1
  9
$FILLETRAD
 40
50.0
  9
$AUNITS
 70
     0
  9
$AUPREC
 70
     0
  9
$MENU
  1
acad
  9
$ELEVATION
 40
0.0
  9
$PELEVATION
 40
0.0
  9
$THICKNESS
 40
0.0
  9
$LIMCHECK
 70
     0
  9
$BLIPMODE
 70
     0
  9
$CHAMFERA
 40
0.5
  9
$CHAMFERB
 40
0.5
  9
$SKPOLY
 70
     0
  9
$TDCREATE
 40
2450725.3644102998
  9
$TDUPDATE
 40
2454953.8684324189
  9
$TDINDWG
 40
0.0029489815
  9
$TDUSRTIMER
 40
0.0029489815
  9
$USRTIMER
 70
     1
  9
$ANGBASE
 50
0.0
  9
$ANGDIR
 70
     0
  9
$PDMODE
 70
     0
  9
$PDSIZE
 40
0.0
  9
$PLINEWID
 40
0.0
  9
$COORDS
 70
     1
  9
$SPLFRAME
 70
     0
  9
$SPLINETYPE
 70
     6
  9
$SPLINESEGS
 70
     8
  9
$ATTDIA
 70
     0
  9
$ATTREQ
 70
     1
  9
$HANDLING
 70
 10241
  9
$HANDSEED
  5
7C31
  9
$SURFTAB1
 70
     6
  9
$SURFTAB2
 70
     6
  9
$SURFTYPE
 70
     6
  9
$SURFU
 70
     6
  9
$SURFV
 70
     6
  9
$UCSNAME
  2

  9
$UCSORG
 10
0.0
 20
0.0
 30
0.0
  9
$UCSXDIR
 10
1.0
 20
0.0
 30
0.0
  9
$UCSYDIR
 10
0.0
 20
1.0
 30
0.0
  9
$PUCSNAME
  2

  9
$PUCSORG
 10
0.0
 20
0.0
 30
0.0
  9
$PUCSXDIR
 10
1.0
 20
0.0
 30
0.0
  9
$PUCSYDIR
 10
0.0
 20
1.0
 30
0.0
  9
$USERI1
 70
     0
  9
$USERI2
 70
     0
  9
$USERI3
 70
     0
  9
$USERI4
 70
     0
  9
$USERI5
 70
     0
  9
$USERR1
 40
0.0
  9
$USERR2
 40
0.0
  9
$USERR3
 40
0.0
  9
$USERR4
 40
0.0
  9
$USERR5
 40
0.0
  9
$WORLDVIEW
 70
     1
  9
$SHADEDGE
 70
     3
  9
$SHADEDIF
 70
    70
  9
$TILEMODE
 70
     1
  9
$MAXACTVP
 70
    16
  9
$PLIMCHECK
 70
     0
  9
$PEXTMIN
 10
1.0000000000000000E+020
 20
1.0000000000000000E+020
 30
1.0000000000000000E+020
  9
$PEXTMAX
 10
-1.0000000000000000E+020
 20
-1.0000000000000000E+020
 30
-1.0000000000000000E+020
  9
$PLIMMIN
 10
0.0
 20
0.0
  9
$PLIMMAX
 10
12.0
 20
9.0
  9
$UNITMODE
 70
     0
  9
$VISRETAIN
 70
     0
  9
$PLINEGEN
 70
     0
  9
$PSLTSCALE
 70
     1
  0
ENDSEC
  0
SECTION
  2
TABLES
  0
TABLE
  2
VPORT
 70
     2
  0
VPORT
  2
*ACTIVE
 70
     0
 10
0.0
 20
0.0
 11
1.0
 21
1.0
 12
1996.171575195448
 22
530.76893033199485
 13
0.0
 23
0.0
 14
10.0
 24
10.0
 15
10.0
 25
10.0
 16
0.0
 26
0.0
 36
1.0
 17
0.0
 27
0.0
 37
0.0
 40
1383.6510991964969
 41
1.5051150895140659
 42
50.0
 43
0.0
 44
0.0
 50
0.0
 51
0.0
 71
     0
 72
   100
 73
     1
 74
     0
 75
     0
 76
     0
 77
     0
 78
     0
  0
ENDTAB
  0
TABLE
  2
LTYPE
 70
     2
  0
LTYPE
  2
CONTINUOUS
 70
     0
  3
Solid line
 72
    65
 73
     0
 40
0.0
  0
LTYPE
  2
CENTER
 70
     0
  3
____ _ ____ _ ____ _ ____ _ ____ _ ____ _ ____ 
 72
    65
 73
     4
 40
2.0
 49
1.25
 49
-0.25
 49
0.25
 49
-0.25
  0
ENDTAB
  0
TABLE
  2
LAYER
 70
     6
  0
LAYER
  2
0
 70
     0
 62
     7
  6
CONTINUOUS
  0
LAYER
  2
3
 70
     0
 62
     2
  6
CONTINUOUS
  0
LAYER
  2
2
 70
     0
 62
     3
  6
CENTER
  0
LAYER
  2
1
 70
     0
 62
     4
  6
CONTINUOUS
  0
LAYER
  2
4
 70
     0
 62
     7
  6
CONTINUOUS
  0
LAYER
  2
DEFPOINTS
 70
     0
 62
     7
  6
CONTINUOUS
  0
ENDTAB
  0
TABLE
  2
STYLE
 70
     1
  0
STYLE
  2
STANDARD
 70
     0
 40
0.0
 41
1.0
 50
0.0
 71
     0
 42
180.0
  3
simplex.shx
  4
extfont.shx
  0
ENDTAB
  0
TABLE
  2
VIEW
 70
     0
  0
ENDTAB
  0
TABLE
  2
UCS
 70
     0
  0
ENDTAB
  0
TABLE
  2
APPID
 70
     1
  0
APPID
  2
ACAD
 70
     0
  0
ENDTAB
  0
TABLE
  2
DIMSTYLE
 70
     1
  0
DIMSTYLE
  2
IGA
 70
     0
  3

  4

  5

  6
OPEN
  7
OPEN
 40
2.0
 41
2.0
 42
0.5
 43
10.0
 44
1.0
 45
0.0
 46
0.0
 47
1.0
 48
1.0
140
3.0
141
0.0
142
0.0
143
0.03937
144
1.0
145
0.0
146
10.0
147
1.0
 71
     0
 72
     0
 73
     0
 74
     0
 75
     0
 76
     0
 77
     1
 78
     8
170
     0
171
     2
172
     0
173
     1
174
     0
175
     0
176
     0
177
     0
178
     0
  0
ENDTAB
  0
ENDSEC
  0
SECTION
  2
BLOCKS
  0
BLOCK
  8
0
  2
$MODEL_SPACE
 70
     0
 10
0.0
 20
0.0
 30
0.0
  3
$MODEL_SPACE
  1

  0
ENDBLK
  5
1B
  8
0
  0
BLOCK
 67
     1
  8
0
  2
$PAPER_SPACE
 70
     0
 10
0.0
 20
0.0
 30
0.0
  3
$PAPER_SPACE
  1

  0
ENDBLK
  5
18
 67
     1
  8
0
  0
BLOCK
  8
0
  2
_OPEN
 70
     0
 10
0.0
 20
0.0
 30
0.0
  3
_OPEN
  1

  0
LINE
  5
7A36
  8
0
  6
BYBLOCK
 62
     0
 10
-1.0
 20
0.166667
 30
0.0
 11
0.0
 21
0.0
 31
0.0
  0
LINE
  5
7A37
  8
0
  6
BYBLOCK
 62
     0
 10
0.0
 20
0.0
 30
0.0
 11
-1.0
 21
-0.166667
 31
0.0
  0
LINE
  5
7A38
  8
0
  6
BYBLOCK
 62
     0
 10
0.0
 20
0.0
 30
0.0
 11
-1.0
 21
0.0
 31
0.0
  0
ENDBLK
  5
7A39
  8
0
  0
BLOCK
  8
0
  2
*D1
 70
     1
 10
0.0
 20
0.0
 30
0.0
  3
*D1
  1

  0
LINE
  5
7BCD
  8
3
  6
CONTINUOUS
 62
     0
 10
1532.4219479999999
 20
2528.3840539999992
 30
0.0
 11
1532.4219479999999
 21
2865.220593
 31
0.0
  0
LINE
  5
7BCE
  8
3
  6
CONTINUOUS
 62
     0
 10
2502.4219480000002
 20
2528.3840539999992
 30
0.0
 11
2502.4219480000002
 21
2865.220593
 31
0.0
  0
LINE
  5
7BCF
  8
3
  6
CONTINUOUS
 62
     0
 10
1562.4219479999999
 20
2850.220593
 30
0.0
 11
2472.4219480000002
 21
2850.220593
 31
0.0
  0
INSERT
  5
7BD0
  8
3
  6
CONTINUOUS
 62
     0
  2
_OPEN
 10
1532.4219479999999
 20
2850.220593
 30
0.0
 41
30.0
 42
30.0
 43
30.0
 50
180.0
  0
INSERT
  5
7BD1
  8
3
  6
CONTINUOUS
 62
     0
  2
_OPEN
 10
2502.4219480000002
 20
2850.220593
 30
0.0
 41
30.0
 42
30.0
 43
30.0
  0
TEXT
  8
3
  40
45
  5
7C27
  62
0
  72
0
  71
0
 10
1919.92
 20
2808.07
 30
0.000000
  1
970
  0
POINT
  5
7BD3
  8
DEFPOINTS
  6
CONTINUOUS
 62
     0
 10
1532.4219479999999
 20
2520.8840540000001
 30
0.0
  0
POINT
  5
7BD4
  8
DEFPOINTS
  6
CONTINUOUS
 62
     0
 10
2502.4219480000002
 20
2520.8840540000001
 30
0.0
  0
POINT
  5
7BD5
  8
DEFPOINTS
  6
CONTINUOUS
 62
     0
 10
2502.4219480000002
 20
2850.220593
 30
0.0
  0
ENDBLK
  5
7A46
  8
0
  0
BLOCK
  8
0
  2
*D2
 70
     1
 10
0.0
 20
0.0
 30
0.0
  3
*D2
  1

  0
LINE
  5
7BD6
  8
3
  6
CONTINUOUS
 62
     0
 10
1627.4219479999999
 20
2655.8840540000001
 30
0.0
 11
1627.4219479999999
 21
2735.073531999999
 31
0.0
  0
LINE
  5
7BD7
  8
3
  6
CONTINUOUS
 62
     0
 10
2407.4219480000002
 20
2655.8840540000001
 30
0.0
 11
2407.4219480000002
 21
2735.073531999999
 31
0.0
  0
LINE
  5
7BD8
  8
3
  6
CONTINUOUS
 62
     0
 10
1657.4219479999999
 20
2720.0735319999999
 30
0.0
 11
2377.4219480000002
 21
2720.0735319999999
 31
0.0
  0
INSERT
  5
7BD9
  8
3
  6
CONTINUOUS
 62
     0
  2
_OPEN
 10
1627.4219479999999
 20
2720.0735319999999
 30
0.0
 41
30.0
 42
30.0
 43
30.0
 50
180.0
  0
INSERT
  5
7BDA
  8
3
  6
CONTINUOUS
 62
     0
  2
_OPEN
 10
2407.4219480000002
 20
2720.0735319999999
 30
0.0
 41
30.0
 42
30.0
 43
30.0
  0
TEXT
  8
3
  40
45
  5
7C28
  62
0
  72
0
  71
0
 10
1928.60
 20
2677.92
 30
0.000000
  1
780
  0
POINT
  5
7BDC
  8
DEFPOINTS
  6
CONTINUOUS
 62
     0
 10
1627.4219479999999
 20
2648.3840540000001
 30
0.0
  0
POINT
  5
7BDD
  8
DEFPOINTS
  6
CONTINUOUS
 62
     0
 10
2407.4219480000002
 20
2648.3840540000001
 30
0.0
  0
POINT
  5
7BDE
  8
DEFPOINTS
  6
CONTINUOUS
 62
     0
 10
2407.4219480000002
 20
2720.0735319999999
 30
0.0
  0
ENDBLK
  5
7A53
  8
0
  0
BLOCK
  8
0
  2
*D3
 70
     1
 10
0.0
 20
0.0
 30
0.0
  3
*D3
  1

  0
LINE
  5
7BDF
  8
3
  6
CONTINUOUS
 62
     0
 10
1524.9219479999999
 20
2090.8840539999992
 30
0.0
 11
1413.216539
 21
2090.8840539999992
 31
0.0
  0
LINE
  5
7BE0
  8
3
  6
CONTINUOUS
 62
     0
 10
1524.9219479999999
 20
2405.8840540000001
 30
0.0
 11
1413.216539
 21
2405.8840540000001
 31
0.0
  0
LINE
  5
7BE1
  8
3
  6
CONTINUOUS
 62
     0
 10
1428.216539
 20
2120.8840540000001
 30
0.0
 11
1428.216539
 21
2375.8840540000001
 31
0.0
  0
INSERT
  5
7BE2
  8
3
  6
CONTINUOUS
 62
     0
  2
_OPEN
 10
1428.216539
 20
2090.8840539999992
 30
0.0
 41
30.0
 42
30.0
 43
30.0
 50
270.0
  0
INSERT
  5
7BE3
  8
3
  6
CONTINUOUS
 62
     0
  2
_OPEN
 10
1428.216539
 20
2405.8840540000001
 30
0.0
 41
30.0
 42
30.0
 43
30.0
 50
90.0
  0
TEXT
  8
3
  40
45
  5
7C29
  62
0
  72
0
  71
0
 10
1300.72
 20
2180.57
 30
0.000000
  1
315
  0
POINT
  5
7BE5
  8
DEFPOINTS
  6
CONTINUOUS
 62
     0
 10
1532.4219479999999
 20
2090.8840539999992
 30
0.0
  0
POINT
  5
7BE6
  8
DEFPOINTS
  6
CONTINUOUS
 62
     0
 10
1532.4219479999999
 20
2405.8840540000001
 30
0.0
  0
POINT
  5
7BE7
  8
DEFPOINTS
  6
CONTINUOUS
 62
     0
 10
1428.216539
 20
2405.8840540000001
 30
0.0
  0
ENDBLK
  5
7A60
  8
0
  0
BLOCK
  8
0
  2
*D4
 70
     1
 10
0.0
 20
0.0
 30
0.0
  3
*D4
  1

  0
LINE
  5
7BE8
  8
3
  6
CONTINUOUS
 62
     0
 10
1524.9219479999999
 20
1975.884053999999
 30
0.0
 11
1300.348362
 21
1975.884053999999
 31
0.0
  0
LINE
  5
7BE9
  8
3
  6
CONTINUOUS
 62
     0
 10
1524.9219479999999
 20
2520.8840540000001
 30
0.0
 11
1300.348362
 21
2520.8840540000001
 31
0.0
  0
LINE
  5
7BEA
  8
3
  6
CONTINUOUS
 62
     0
 10
1315.348362
 20
2005.8840540000001
 30
0.0
 11
1315.348362
 21
2490.8840540000001
 31
0.0
  0
INSERT
  5
7BEB
  8
3
  6
CONTINUOUS
 62
     0
  2
_OPEN
 10
1315.348362
 20
1975.884053999999
 30
0.0
 41
30.0
 42
30.0
 43
30.0
 50
270.0
  0
INSERT
  5
7BEC
  8
3
  6
CONTINUOUS
 62
     0
  2
_OPEN
 10
1315.348362
 20
2520.8840540000001
 30
0.0
 41
30.0
 42
30.0
 43
30.0
 50
90.0
  0
TEXT
  8
3
  40
45
  5
7C2A
  62
0
  72
0
  71
0
 10
1187.85
 20
2163.22
 30
0.000000
  1
545
  0
POINT
  5
7BEE
  8
DEFPOINTS
  6
CONTINUOUS
 62
     0
 10
1532.4219479999999
 20
1975.884053999999
 30
0.0
  0
POINT
  5
7BEF
  8
DEFPOINTS
  6
CONTINUOUS
 62
     0
 10
1532.4219479999999
 20
2520.8840540000001
 30
0.0
  0
POINT
  5
7BF0
  8
DEFPOINTS
  6
CONTINUOUS
 62
     0
 10
1315.348362
 20
2520.8840540000001
 30
0.0
  0
ENDBLK
  5
7A6D
  8
0
  0
BLOCK
  8
0
  2
*D5
 70
     1
 10
0.0
 20
0.0
 30
0.0
  3
*D5
  1

  0
LINE
  5
7BF1
  8
3
  6
CONTINUOUS
 62
     0
 10
527.79871300000002
 20
2655.8840540000001
 30
0.0
 11
527.79871300000002
 21
2856.5441270000001
 31
0.0
  0
LINE
  5
7BF2
  8
3
  6
CONTINUOUS
 62
     0
 10
1092.7987129999999
 20
2655.8840540000001
 30
0.0
 11
1092.7987129999999
 21
2856.5441270000001
 31
0.0
  0
LINE
  5
7BF3
  8
3
  6
CONTINUOUS
 62
     0
 10
557.79871300000002
 20
2841.5441270000001
 30
0.0
 11
1062.7987129999999
 21
2841.5441270000001
 31
0.0
  0
INSERT
  5
7BF4
  8
3
  6
CONTINUOUS
 62
     0
  2
_OPEN
 10
527.79871300000002
 20
2841.5441270000001
 30
0.0
 41
30.0
 42
30.0
 43
30.0
 50
180.0
  0
INSERT
  5
7BF5
  8
3
  6
CONTINUOUS
 62
     0
  2
_OPEN
 10
1092.7987129999999
 20
2841.5441270000001
 30
0.0
 41
30.0
 42
30.0
 43
30.0
  0
TEXT
  8
3
  40
45
  5
7C2B
  62
0
  72
0
  71
0
 10
704.418
 20
2799.39
 30
0.000000
  1
565
  0
POINT
  5
7BF7
  8
DEFPOINTS
  6
CONTINUOUS
 62
     0
 10
527.79871300000002
 20
2648.3840540000001
 30
0.0
  0
POINT
  5
7BF8
  8
DEFPOINTS
  6
CONTINUOUS
 62
     0
 10
1092.7987129999999
 20
2648.3840540000001
 30
0.0
  0
POINT
  5
7BF9
  8
DEFPOINTS
  6
CONTINUOUS
 62
     0
 10
1092.7987129999999
 20
2841.5441270000001
 30
0.0
  0
ENDBLK
  5
7A7A
  8
0
  0
BLOCK
  8
0
  2
*D6
 70
     1
 10
0.0
 20
0.0
 30
0.0
  3
*D6
  1

  0
LINE
  5
7BFA
  8
3
  6
CONTINUOUS
 62
     0
 10
1532.4219479999999
 20
2528.3840539999992
 30
0.0
 11
1532.4219479999999
 21
2865.220593
 31
0.0
  0
LINE
  5
7BFB
  8
3
  6
CONTINUOUS
 62
     0
 10
2502.4219480000002
 20
2528.3840539999992
 30
0.0
 11
2502.4219480000002
 21
2865.220593
 31
0.0
  0
LINE
  5
7BFC
  8
3
  6
CONTINUOUS
 62
     0
 10
1562.4219479999999
 20
2850.220593
 30
0.0
 11
2472.4219480000002
 21
2850.220593
 31
0.0
  0
INSERT
  5
7BFD
  8
3
  6
CONTINUOUS
 62
     0
  2
_OPEN
 10
1532.4219479999999
 20
2850.220593
 30
0.0
 41
30.0
 42
30.0
 43
30.0
 50
180.0
  0
INSERT
  5
7BFE
  8
3
  6
CONTINUOUS
 62
     0
  2
_OPEN
 10
2502.4219480000002
 20
2850.220593
 30
0.0
 41
30.0
 42
30.0
 43
30.0
  0
TEXT
  8
3
  40
45
  5
7C2C
  62
0
  72
0
  71
0
 10
1919.92
 20
2808.07
 30
0.000000
  1
970
  0
POINT
  5
7C00
  8
DEFPOINTS
  6
CONTINUOUS
 62
     0
 10
1532.4219479999999
 20
2520.8840540000001
 30
0.0
  0
POINT
  5
7C01
  8
DEFPOINTS
  6
CONTINUOUS
 62
     0
 10
2502.4219480000002
 20
2520.8840540000001
 30
0.0
  0
POINT
  5
7C02
  8
DEFPOINTS
  6
CONTINUOUS
 62
     0
 10
2502.4219480000002
 20
2850.220593
 30
0.0
  0
ENDBLK
  5
7AC3
  8
0
  0
BLOCK
  8
0
  2
*D7
 70
     1
 10
0.0
 20
0.0
 30
0.0
  3
*D7
  1

  0
LINE
  5
7C03
  8
3
  6
CONTINUOUS
 62
     0
 10
1627.4219479999999
 20
2655.8840540000001
 30
0.0
 11
1627.4219479999999
 21
2735.073531999999
 31
0.0
  0
LINE
  5
7C04
  8
3
  6
CONTINUOUS
 62
     0
 10
2407.4219480000002
 20
2655.8840540000001
 30
0.0
 11
2407.4219480000002
 21
2735.073531999999
 31
0.0
  0
LINE
  5
7C05
  8
3
  6
CONTINUOUS
 62
     0
 10
1657.4219479999999
 20
2720.0735319999999
 30
0.0
 11
2377.4219480000002
 21
2720.0735319999999
 31
0.0
  0
INSERT
  5
7C06
  8
3
  6
CONTINUOUS
 62
     0
  2
_OPEN
 10
1627.4219479999999
 20
2720.0735319999999
 30
0.0
 41
30.0
 42
30.0
 43
30.0
 50
180.0
  0
INSERT
  5
7C07
  8
3
  6
CONTINUOUS
 62
     0
  2
_OPEN
 10
2407.4219480000002
 20
2720.0735319999999
 30
0.0
 41
30.0
 42
30.0
 43
30.0
  0
TEXT
  8
3
  40
45
  5
7C2D
  62
0
  72
0
  71
0
 10
1928.60
 20
2677.92
 30
0.000000
  1
780
  0
POINT
  5
7C09
  8
DEFPOINTS
  6
CONTINUOUS
 62
     0
 10
1627.4219479999999
 20
2648.3840540000001
 30
0.0
  0
POINT
  5
7C0A
  8
DEFPOINTS
  6
CONTINUOUS
 62
     0
 10
2407.4219480000002
 20
2648.3840540000001
 30
0.0
  0
POINT
  5
7C0B
  8
DEFPOINTS
  6
CONTINUOUS
 62
     0
 10
2407.4219480000002
 20
2720.0735319999999
 30
0.0
  0
ENDBLK
  5
7AD0
  8
0
  0
BLOCK
  8
0
  2
*D8
 70
     1
 10
0.0
 20
0.0
 30
0.0
  3
*D8
  1

  0
LINE
  5
7C0C
  8
3
  6
CONTINUOUS
 62
     0
 10
1524.9219479999999
 20
2090.8840539999992
 30
0.0
 11
1413.216539
 21
2090.8840539999992
 31
0.0
  0
LINE
  5
7C0D
  8
3
  6
CONTINUOUS
 62
     0
 10
1524.9219479999999
 20
2405.8840540000001
 30
0.0
 11
1413.216539
 21
2405.8840540000001
 31
0.0
  0
LINE
  5
7C0E
  8
3
  6
CONTINUOUS
 62
     0
 10
1428.216539
 20
2120.8840540000001
 30
0.0
 11
1428.216539
 21
2375.8840540000001
 31
0.0
  0
INSERT
  5
7C0F
  8
3
  6
CONTINUOUS
 62
     0
  2
_OPEN
 10
1428.216539
 20
2090.8840539999992
 30
0.0
 41
30.0
 42
30.0
 43
30.0
 50
270.0
  0
INSERT
  5
7C10
  8
3
  6
CONTINUOUS
 62
     0
  2
_OPEN
 10
1428.216539
 20
2405.8840540000001
 30
0.0
 41
30.0
 42
30.0
 43
30.0
 50
90.0
  0
TEXT
  8
3
  40
45
  5
7C2E
  62
0
  72
0
  71
0
 10
1300.72
 20
2180.57
 30
0.000000
  1
315
  0
POINT
  5
7C12
  8
DEFPOINTS
  6
CONTINUOUS
 62
     0
 10
1532.4219479999999
 20
2090.8840539999992
 30
0.0
  0
POINT
  5
7C13
  8
DEFPOINTS
  6
CONTINUOUS
 62
     0
 10
1532.4219479999999
 20
2405.8840540000001
 30
0.0
  0
POINT
  5
7C14
  8
DEFPOINTS
  6
CONTINUOUS
 62
     0
 10
1428.216539
 20
2405.8840540000001
 30
0.0
  0
ENDBLK
  5
7ADD
  8
0
  0
BLOCK
  8
0
  2
*D9
 70
     1
 10
0.0
 20
0.0
 30
0.0
  3
*D9
  1

  0
LINE
  5
7C15
  8
3
  6
CONTINUOUS
 62
     0
 10
1524.9219479999999
 20
1975.884053999999
 30
0.0
 11
1300.348362
 21
1975.884053999999
 31
0.0
  0
LINE
  5
7C16
  8
3
  6
CONTINUOUS
 62
     0
 10
1524.9219479999999
 20
2520.8840540000001
 30
0.0
 11
1300.348362
 21
2520.8840540000001
 31
0.0
  0
LINE
  5
7C17
  8
3
  6
CONTINUOUS
 62
     0
 10
1315.348362
 20
2005.8840540000001
 30
0.0
 11
1315.348362
 21
2490.8840540000001
 31
0.0
  0
INSERT
  5
7C18
  8
3
  6
CONTINUOUS
 62
     0
  2
_OPEN
 10
1315.348362
 20
1975.884053999999
 30
0.0
 41
30.0
 42
30.0
 43
30.0
 50
270.0
  0
INSERT
  5
7C19
  8
3
  6
CONTINUOUS
 62
     0
  2
_OPEN
 10
1315.348362
 20
2520.8840540000001
 30
0.0
 41
30.0
 42
30.0
 43
30.0
 50
90.0
  0
TEXT
  8
3
  40
45
  5
7C2F
  62
0
  72
0
  71
0
 10
1187.85
 20
2163.22
 30
0.000000
  1
545
  0
POINT
  5
7C1B
  8
DEFPOINTS
  6
CONTINUOUS
 62
     0
 10
1532.4219479999999
 20
1975.884053999999
 30
0.0
  0
POINT
  5
7C1C
  8
DEFPOINTS
  6
CONTINUOUS
 62
     0
 10
1532.4219479999999
 20
2520.8840540000001
 30
0.0
  0
POINT
  5
7C1D
  8
DEFPOINTS
  6
CONTINUOUS
 62
     0
 10
1315.348362
 20
2520.8840540000001
 30
0.0
  0
ENDBLK
  5
7AEA
  8
0
  0
BLOCK
  8
0
  2
*D10
 70
     1
 10
0.0
 20
0.0
 30
0.0
  3
*D10
  1

  0
LINE
  5
7C1E
  8
3
  6
CONTINUOUS
 62
     0
 10
527.79871300000002
 20
2655.8840540000001
 30
0.0
 11
527.79871300000002
 21
2856.5441270000001
 31
0.0
  0
LINE
  5
7C1F
  8
3
  6
CONTINUOUS
 62
     0
 10
1092.7987129999999
 20
2655.8840540000001
 30
0.0
 11
1092.7987129999999
 21
2856.5441270000001
 31
0.0
  0
LINE
  5
7C20
  8
3
  6
CONTINUOUS
 62
     0
 10
557.79871300000002
 20
2841.5441270000001
 30
0.0
 11
1062.7987129999999
 21
2841.5441270000001
 31
0.0
  0
INSERT
  5
7C21
  8
3
  6
CONTINUOUS
 62
     0
  2
_OPEN
 10
527.79871300000002
 20
2841.5441270000001
 30
0.0
 41
30.0
 42
30.0
 43
30.0
 50
180.0
  0
INSERT
  5
7C22
  8
3
  6
CONTINUOUS
 62
     0
  2
_OPEN
 10
1092.7987129999999
 20
2841.5441270000001
 30
0.0
 41
30.0
 42
30.0
 43
30.0
  0
TEXT
  8
3
  40
45
  5
7C30
  62
0
  72
0
  71
0
 10
704.418
 20
2799.39
 30
0.000000
  1
565
  0
POINT
  5
7C24
  8
DEFPOINTS
  6
CONTINUOUS
 62
     0
 10
527.79871300000002
 20
2648.3840540000001
 30
0.0
  0
POINT
  5
7C25
  8
DEFPOINTS
  6
CONTINUOUS
 62
     0
 10
1092.7987129999999
 20
2648.3840540000001
 30
0.0
  0
POINT
  5
7C26
  8
DEFPOINTS
  6
CONTINUOUS
 62
     0
 10
1092.7987129999999
 20
2841.5441270000001
 30
0.0
  0
ENDBLK
  5
7AF7
  8
0
  0
ENDSEC
  0
SECTION
  2
ENTITIES
  0
LINE
  5
7A1D
  8
2
  6
CENTER
 10
517.79871299999991
 20
2248.3840540000001
 30
0.0
 11
1102.7987129999999
 21
2248.3840540000001
 31
0.0
  0
CIRCLE
  5
7A1E
  8
1
  6
CONTINUOUS
 10
810.29871300000002
 20
2248.3840540000001
 30
0.0
 40
272.5
  0
CIRCLE
  5
7A1F
  8
1
  6
CONTINUOUS
 10
810.29871300000002
 20
2248.3840540000001
 30
0.0
 40
157.5
  0
LINE
  5
7A20
  8
2
  6
CENTER
 10
810.29871300000002
 20
1955.8840540000001
 30
0.0
 11
810.29871300000002
 21
2540.8840540000001
 31
0.0
  0
LINE
  5
7A21
  8
2
  6
CENTER
 10
527.79871300000002
 20
2648.3840540000001
 30
0.0
 11
527.79871300000002
 21
2238.3840540000001
 31
0.0
  0
LINE
  5
7A22
  8
1
  6
CONTINUOUS
 10
1532.4219479999999
 20
2520.8840540000001
 30
0.0
 11
1532.4219479999999
 21
1975.884053999999
 31
0.0
  0
LINE
  5
7A23
  8
2
  6
CENTER
 10
2407.4219480000002
 20
2648.3840540000001
 30
0.0
 11
2407.4219480000002
 21
2238.3840540000001
 31
0.0
  0
LINE
  5
7A24
  8
2
  6
CENTER
 10
1627.4219479999999
 20
2648.3840540000001
 30
0.0
 11
1627.4219479999999
 21
2238.3840540000001
 31
0.0
  0
LINE
  5
7A25
  8
2
  6
CENTER
 10
1092.7987129999999
 20
2648.3840540000001
 30
0.0
 11
1092.7987129999999
 21
2238.3840540000001
 31
0.0
  0
LINE
  5
7A26
  8
1
  6
CONTINUOUS
 10
2502.4219480000002
 20
2520.8840540000001
 30
0.0
 11
2502.4219480000002
 21
1975.884053999999
 31
0.0
  0
LINE
  5
7A27
  8
1
  6
CONTINUOUS
 10
2157.4219480000002
 20
2405.8840540000001
 30
0.0
 11
2157.4219480000002
 21
2090.8840539999992
 31
0.0
  0
LINE
  5
7A28
  8
1
  6
CONTINUOUS
 10
2157.4219480000002
 20
2090.8840539999992
 30
0.0
 11
1532.4219479999999
 21
2090.8840539999992
 31
0.0
  0
LINE
  5
7A29
  8
1
  6
CONTINUOUS
 10
1532.4219479999999
 20
1975.884053999999
 30
0.0
 11
2502.4219480000002
 21
1975.884053999999
 31
0.0
  0
LINE
  5
7A2A
  8
2
  6
CENTER
 10
2522.4219480000002
 20
2248.3840540000001
 30
0.0
 11
1512.4219479999999
 21
2248.3840540000001
 31
0.0
  0
LINE
  5
7A2B
  8
4
  6
CONTINUOUS
 10
2542.3295090000001
 20
2248.3840540000001
 30
0.0
 11
2676.9515740000002
 21
2248.3840540000001
 31
0.0
  0
LINE
  5
7A2C
  8
1
  6
CONTINUOUS
 10
2329.9219480000002
 20
1998.384053999999
 30
0.0
 11
2157.4219480000002
 21
2090.8840539999992
 31
0.0
  0
LINE
  5
7A2D
  8
1
  6
CONTINUOUS
 10
2329.9219480000002
 20
1998.384053999999
 30
0.0
 11
2502.4219480000002
 21
2090.8840539999992
 31
0.0
  0
LINE
  5
7A2E
  8
4
  6
CONTINUOUS
 10
2676.9515740000002
 20
2248.3840540000001
 30
0.0
 11
2640.8673090000002
 21
2234.9714159999999
 31
0.0
  0
LINE
  5
7A2F
  8
4
  6
CONTINUOUS
 10
2676.9515740000002
 20
2248.3840540000001
 30
0.0
 11
2640.8673090000002
 21
2261.7966919999999
 31
0.0
  0
LINE
  5
7A30
  8
1
  6
CONTINUOUS
 10
2157.4219480000002
 20
2405.8840540000001
 30
0.0
 11
1532.4219479999999
 21
2405.8840540000001
 31
0.0
  0
LINE
  5
7A31
  8
1
  6
CONTINUOUS
 10
1532.4219479999999
 20
2520.8840540000001
 30
0.0
 11
2502.4219480000002
 21
2520.8840540000001
 31
0.0
  0
LINE
  5
7A32
  8
1
  6
CONTINUOUS
 10
2329.9219480000002
 20
2498.3840540000001
 30
0.0
 11
2157.4219480000002
 21
2405.8840540000001
 31
0.0
  0
LINE
  5
7A33
  8
1
  6
CONTINUOUS
 10
2329.9219480000002
 20
2498.3840540000001
 30
0.0
 11
2502.4219480000002
 21
2405.8840540000001
 31
0.0
  0
DIMENSION
  5
7A47
  8
3
  6
CONTINUOUS
  2
*D1
 10
2502.4219480000002
 20
2850.220593
 30
0.0
 11
2009.9217699999999
 21
2850.220593
 31
0.0
 70
   128
 13
1532.4219479999999
 23
2520.8840540000001
 33
0.0
 14
2502.4219480000002
 24
2520.8840540000001
 34
0.0
1001
ACAD
1000
DSTYLE
1002
{
1070
   287
1070
     3
1070
   287
1070
     3
1070
    40
1040
15.0
1070
   143
1040
0.039
1070
   172
1070
     1
1070
   271
1070
     0
1070
   279
1070
     0
1070
   288
1070
     1
1002
}
  0
DIMENSION
  5
7A54
  8
3
  6
CONTINUOUS
  2
*D2
 10
2407.4219480000002
 20
2720.0735319999999
 30
0.0
 11
2018.6039270000001
 21
2720.0735319999999
 31
0.0
 70
   128
 13
1627.4219479999999
 23
2648.3840540000001
 33
0.0
 14
2407.4219480000002
 24
2648.3840540000001
 34
0.0
1001
ACAD
1000
DSTYLE
1002
{
1070
   287
1070
     3
1070
   287
1070
     3
1070
    40
1040
15.0
1070
   143
1040
0.039
1070
   172
1070
     1
1070
   271
1070
     0
1070
   279
1070
     0
1070
   288
1070
     1
1002
}
  0
DIMENSION
  5
7A61
  8
3
  6
CONTINUOUS
  2
*D3
 10
1428.216539
 20
2405.8840540000001
 30
0.0
 11
1428.216539
 21
2260.220589
 31
0.0
 70
   128
 13
1532.4219479999999
 23
2090.8840539999992
 33
0.0
 14
1532.4219479999999
 24
2405.8840540000001
 34
0.0
 50
90.0
1001
ACAD
1000
DSTYLE
1002
{
1070
   287
1070
     3
1070
   287
1070
     3
1070
    40
1040
15.0
1070
   143
1040
0.039
1070
   172
1070
     1
1070
   271
1070
     0
1070
   279
1070
     0
1070
   288
1070
     1
1002
}
  0
DIMENSION
  5
7A6E
  8
3
  6
CONTINUOUS
  2
*D4
 10
1315.348362
 20
2520.8840540000001
 30
0.0
 11
1315.348361999999
 21
2242.8676460000001
 31
0.0
 70
   128
 13
1532.4219479999999
 23
1975.884053999999
 33
0.0
 14
1532.4219479999999
 24
2520.8840540000001
 34
0.0
 50
90.0
1001
ACAD
1000
DSTYLE
1002
{
1070
   287
1070
     3
1070
   287
1070
     3
1070
    40
1040
15.0
1070
   143
1040
0.039
1070
   172
1070
     1
1070
   271
1070
     0
1070
   279
1070
     0
1070
   288
1070
     1
1002
}
  0
DIMENSION
  5
7A7B
  8
3
  6
CONTINUOUS
  2
*D5
 10
1092.7987129999999
 20
2841.5441270000001
 30
0.0
 11
794.41832099999999
 21
2841.5441270000001
 31
0.0
 70
   128
 13
527.79871300000002
 23
2648.3840540000001
 33
0.0
 14
1092.7987129999999
 24
2648.3840540000001
 34
0.0
1001
ACAD
1000
DSTYLE
1002
{
1070
   287
1070
     3
1070
   287
1070
     3
1070
    40
1040
15.0
1070
   143
1040
0.039
1070
   172
1070
     1
1070
   271
1070
     0
1070
   279
1070
     0
1070
   288
1070
     1
1002
}
  0
LINE
  5
7A7C
  8
4
  6
CONTINUOUS
 10
2775.0
 20
750.0
 30
0.0
 11
2775.0
 21
450.0
 31
0.0
  0
LINE
  5
7A7D
  8
4
  6
CONTINUOUS
 10
1725.0
 20
750.0
 30
0.0
 11
1725.0
 21
450.0
 31
0.0
  0
LINE
  5
7A7E
  8
4
  6
CONTINUOUS
 10
975.0
 20
750.0
 30
0.0
 11
975.0
 21
450.0
 31
0.0
  0
LINE
  5
7A81
  8
4
  6
CONTINUOUS
 10
975.0
 20
450.0
 30
0.0
 11
2775.0
 21
450.0
 31
0.0
  0
LINE
  5
7A82
  8
4
  6
CONTINUOUS
 10
975.0
 20
600.0
 30
0.0
 11
2775.0
 21
600.0
 31
0.0
  0
TEXT
  5
7A83
  8
4
  6
CONTINUOUS
 10
1032.753121
 20
647.31453899999985
 30
0.0
 40
75.0
  1
機器名称
  0
TEXT
  5
7A84
  8
4
  6
CONTINUOUS
 10
1029.387158999999
 20
482.46773499999989
 30
0.0
 40
75.0
  1
機器型番
  0
TEXT
  5
7A85
  8
4
  6
CONTINUOUS
 10
1729.6169239999999
 20
634.76574500000004
 30
0.0
 40
54.0
  1
ミツヤ低騒音ダクトファンユニット
  0
TEXT
  5
7A86
  8
4
  6
CONTINUOUS
 10
1779.9817430000001
 20
475.73937599999999
 30
0.0
 40
75.0
  1
SAL#315
  0
TEXT
  5
7A88
  8
4
  6
CONTINUOUS
 10
1357.1786480000001
 20
3575.1432619999991
 30
0.0
 40
81.0
  1
天井吊形
  0
TEXT
  5
7A89
  8
4
  6
CONTINUOUS
 10
474.14406300000002
 20
3800.334906999999
 30
0.0
 40
97.200000000000003
  1
電動機直動式消音ボックス付き斜流ファン
  0
LINE
  5
7A8A
  8
4
  6
CONTINUOUS
 10
375.0
 20
3704.1131310000001
 30
0.0
 11
2775.0
 21
3704.1131310000001
 31
0.0
  0
LINE
  5
7A8B
  8
4
  6
CONTINUOUS
 10
375.0
 20
4004.1131310000001
 30
0.0
 11
2775.0
 21
4004.1131310000001
 31
0.0
  0
LINE
  5
7A8C
  8
4
  6
CONTINUOUS
 10
975.0
 20
750.0
 30
0.0
 11
2775.0
 21
750.0
 31
0.0
  0
LINE
  5
7A8D
  8
4
  6
CONTINUOUS
 10
375.0
 20
4004.1131310000001
 30
0.0
 11
375.0
 21
3704.1131310000001
 31
0.0
  0
TEXT
  5
7A8E
  8
4
  6
CONTINUOUS
 10
555.79354899999998
 20
3573.4792159999988
 30
0.0
 40
81.0
  1
左回転後方吐出
  0
TEXT
  5
7A8F
  8
4
  6
CONTINUOUS
 10
2203.454338999999
 20
4059.091621999999
 30
0.0
 40
84.0
  1
No.
  0
TEXT
  5
7A90
  8
4
  6
CONTINUOUS
 10
1966.944094
 20
3575.1432619999991
 30
0.0
 40
81.0
  1
縮尺：1/15
  0
LINE
  5
7A91
  8
4
  6
CONTINUOUS
 10
2775.0
 20
4004.1131310000001
 30
0.0
 11
2775.0
 21
3704.1131310000001
 31
0.0
  0
LINE
  5
7A93
  8
4
  6
CONTINUOUS
 10
2160.9261339999989
 20
4021.8953750000001
 30
0.0
 11
2160.9261339999989
 21
4179.978392
 31
0.0
  0
LINE
  5
7A94
  8
4
  6
CONTINUOUS
 10
2160.9261339999989
 20
4179.978392
 30
0.0
 11
2775.0
 21
4179.978392
 31
0.0
  0
LINE
  5
7A95
  8
4
  6
CONTINUOUS
 10
2775.0
 20
4179.978392
 30
0.0
 11
2775.0
 21
4021.8953750000001
 31
0.0
  0
LINE
  5
7A96
  8
4
  6
CONTINUOUS
 10
2775.0
 20
4021.8953750000001
 30
0.0
 11
2160.9261339999989
 21
4021.8953750000001
 31
0.0
  0
LINE
  5
7AA1
  8
2
  6
CENTER
 10
517.79871299999991
 20
2248.3840540000001
 30
0.0
 11
1102.7987129999999
 21
2248.3840540000001
 31
0.0
  0
CIRCLE
  5
7AA2
  8
1
  6
CONTINUOUS
 10
810.29871300000002
 20
2248.3840540000001
 30
0.0
 40
272.5
  0
CIRCLE
  5
7AA3
  8
1
  6
CONTINUOUS
 10
810.29871300000002
 20
2248.3840540000001
 30
0.0
 40
157.5
  0
LINE
  5
7AA4
  8
2
  6
CENTER
 10
810.29871300000002
 20
1955.8840540000001
 30
0.0
 11
810.29871300000002
 21
2540.8840540000001
 31
0.0
  0
LINE
  5
7AA5
  8
2
  6
CENTER
 10
527.79871300000002
 20
2648.3840540000001
 30
0.0
 11
527.79871300000002
 21
2238.3840540000001
 31
0.0
  0
LINE
  5
7AA6
  8
1
  6
CONTINUOUS
 10
1532.4219479999999
 20
2520.8840540000001
 30
0.0
 11
1532.4219479999999
 21
1975.884053999999
 31
0.0
  0
LINE
  5
7AA7
  8
2
  6
CENTER
 10
2407.4219480000002
 20
2648.3840540000001
 30
0.0
 11
2407.4219480000002
 21
2238.3840540000001
 31
0.0
  0
LINE
  5
7AA8
  8
2
  6
CENTER
 10
1627.4219479999999
 20
2648.3840540000001
 30
0.0
 11
1627.4219479999999
 21
2238.3840540000001
 31
0.0
  0
LINE
  5
7AA9
  8
2
  6
CENTER
 10
1092.7987129999999
 20
2648.3840540000001
 30
0.0
 11
1092.7987129999999
 21
2238.3840540000001
 31
0.0
  0
LINE
  5
7AAA
  8
1
  6
CONTINUOUS
 10
2502.4219480000002
 20
2520.8840540000001
 30
0.0
 11
2502.4219480000002
 21
1975.884053999999
 31
0.0
  0
LINE
  5
7AAB
  8
1
  6
CONTINUOUS
 10
2157.4219480000002
 20
2405.8840540000001
 30
0.0
 11
2157.4219480000002
 21
2090.8840539999992
 31
0.0
  0
LINE
  5
7AAC
  8
1
  6
CONTINUOUS
 10
2157.4219480000002
 20
2090.8840539999992
 30
0.0
 11
1532.4219479999999
 21
2090.8840539999992
 31
0.0
  0
LINE
  5
7AAD
  8
1
  6
CONTINUOUS
 10
1532.4219479999999
 20
1975.884053999999
 30
0.0
 11
2502.4219480000002
 21
1975.884053999999
 31
0.0
  0
LINE
  5
7AAE
  8
2
  6
CENTER
 10
2522.4219480000002
 20
2248.3840540000001
 30
0.0
 11
1512.4219479999999
 21
2248.3840540000001
 31
0.0
  0
LINE
  5
7AAF
  8
4
  6
CONTINUOUS
 10
2542.3295090000001
 20
2248.3840540000001
 30
0.0
 11
2676.9515740000002
 21
2248.3840540000001
 31
0.0
  0
LINE
  5
7AB0
  8
1
  6
CONTINUOUS
 10
2329.9219480000002
 20
1998.384053999999
 30
0.0
 11
2157.4219480000002
 21
2090.8840539999992
 31
0.0
  0
LINE
  5
7AB1
  8
1
  6
CONTINUOUS
 10
2329.9219480000002
 20
1998.384053999999
 30
0.0
 11
2502.4219480000002
 21
2090.8840539999992
 31
0.0
  0
LINE
  5
7AB2
  8
4
  6
CONTINUOUS
 10
2676.9515740000002
 20
2248.3840540000001
 30
0.0
 11
2640.8673090000002
 21
2234.9714159999999
 31
0.0
  0
LINE
  5
7AB3
  8
4
  6
CONTINUOUS
 10
2676.9515740000002
 20
2248.3840540000001
 30
0.0
 11
2640.8673090000002
 21
2261.7966919999999
 31
0.0
  0
LINE
  5
7AB4
  8
1
  6
CONTINUOUS
 10
2157.4219480000002
 20
2405.8840540000001
 30
0.0
 11
1532.4219479999999
 21
2405.8840540000001
 31
0.0
  0
LINE
  5
7AB5
  8
1
  6
CONTINUOUS
 10
1532.4219479999999
 20
2520.8840540000001
 30
0.0
 11
2502.4219480000002
 21
2520.8840540000001
 31
0.0
  0
LINE
  5
7AB6
  8
1
  6
CONTINUOUS
 10
2329.9219480000002
 20
2498.3840540000001
 30
0.0
 11
2157.4219480000002
 21
2405.8840540000001
 31
0.0
  0
LINE
  5
7AB7
  8
1
  6
CONTINUOUS
 10
2329.9219480000002
 20
2498.3840540000001
 30
0.0
 11
2502.4219480000002
 21
2405.8840540000001
 31
0.0
  0
DIMENSION
  5
7AC4
  8
3
  6
CONTINUOUS
  2
*D6
 10
2502.4219480000002
 20
2850.220593
 30
0.0
 11
2009.9217699999999
 21
2850.220593
 31
0.0
 70
   128
 13
1532.4219479999999
 23
2520.8840540000001
 33
0.0
 14
2502.4219480000002
 24
2520.8840540000001
 34
0.0
1001
ACAD
1000
DSTYLE
1002
{
1070
   287
1070
     3
1070
   287
1070
     3
1070
    40
1040
15.0
1070
   143
1040
0.039
1070
   172
1070
     1
1070
   271
1070
     0
1070
   279
1070
     0
1070
   288
1070
     1
1002
}
  0
DIMENSION
  5
7AD1
  8
3
  6
CONTINUOUS
  2
*D7
 10
2407.4219480000002
 20
2720.0735319999999
 30
0.0
 11
2018.6039270000001
 21
2720.0735319999999
 31
0.0
 70
   128
 13
1627.4219479999999
 23
2648.3840540000001
 33
0.0
 14
2407.4219480000002
 24
2648.3840540000001
 34
0.0
1001
ACAD
1000
DSTYLE
1002
{
1070
   287
1070
     3
1070
   287
1070
     3
1070
    40
1040
15.0
1070
   143
1040
0.039
1070
   172
1070
     1
1070
   271
1070
     0
1070
   279
1070
     0
1070
   288
1070
     1
1002
}
  0
DIMENSION
  5
7ADE
  8
3
  6
CONTINUOUS
  2
*D8
 10
1428.216539
 20
2405.8840540000001
 30
0.0
 11
1428.216539
 21
2260.220589
 31
0.0
 70
   128
 13
1532.4219479999999
 23
2090.8840539999992
 33
0.0
 14
1532.4219479999999
 24
2405.8840540000001
 34
0.0
 50
90.0
1001
ACAD
1000
DSTYLE
1002
{
1070
   287
1070
     3
1070
   287
1070
     3
1070
    40
1040
15.0
1070
   143
1040
0.039
1070
   172
1070
     1
1070
   271
1070
     0
1070
   279
1070
     0
1070
   288
1070
     1
1002
}
  0
DIMENSION
  5
7AEB
  8
3
  6
CONTINUOUS
  2
*D9
 10
1315.348362
 20
2520.8840540000001
 30
0.0
 11
1315.348361999999
 21
2242.8676460000001
 31
0.0
 70
   128
 13
1532.4219479999999
 23
1975.884053999999
 33
0.0
 14
1532.4219479999999
 24
2520.8840540000001
 34
0.0
 50
90.0
1001
ACAD
1000
DSTYLE
1002
{
1070
   287
1070
     3
1070
   287
1070
     3
1070
    40
1040
15.0
1070
   143
1040
0.039
1070
   172
1070
     1
1070
   271
1070
     0
1070
   279
1070
     0
1070
   288
1070
     1
1002
}
  0
DIMENSION
  5
7AF8
  8
3
  6
CONTINUOUS
  2
*D10
 10
1092.7987129999999
 20
2841.5441270000001
 30
0.0
 11
794.41832099999999
 21
2841.5441270000001
 31
0.0
 70
   128
 13
527.79871300000002
 23
2648.3840540000001
 33
0.0
 14
1092.7987129999999
 24
2648.3840540000001
 34
0.0
1001
ACAD
1000
DSTYLE
1002
{
1070
   287
1070
     3
1070
   287
1070
     3
1070
    40
1040
15.0
1070
   143
1040
0.039
1070
   172
1070
     1
1070
   271
1070
     0
1070
   279
1070
     0
1070
   288
1070
     1
1002
}
  0
LINE
  5
7AF9
  8
4
  6
CONTINUOUS
 10
2775.0
 20
750.0
 30
0.0
 11
2775.0
 21
450.0
 31
0.0
  0
LINE
  5
7AFA
  8
4
  6
CONTINUOUS
 10
1725.0
 20
750.0
 30
0.0
 11
1725.0
 21
450.0
 31
0.0
  0
LINE
  5
7AFB
  8
4
  6
CONTINUOUS
 10
975.0
 20
750.0
 30
0.0
 11
975.0
 21
450.0
 31
0.0
  0
LINE
  5
7AFE
  8
4
  6
CONTINUOUS
 10
975.0
 20
450.0
 30
0.0
 11
2775.0
 21
450.0
 31
0.0
  0
LINE
  5
7AFF
  8
4
  6
CONTINUOUS
 10
975.0
 20
600.0
 30
0.0
 11
2775.0
 21
600.0
 31
0.0
  0
TEXT
  5
7B00
  8
4
  6
CONTINUOUS
 10
1032.753121
 20
647.31453899999985
 30
0.0
 40
75.0
  1
機器名称
  0
TEXT
  5
7B01
  8
4
  6
CONTINUOUS
 10
1029.387158999999
 20
482.46773499999989
 30
0.0
 40
75.0
  1
機器型番
  0
TEXT
  5
7B02
  8
4
  6
CONTINUOUS
 10
1729.6169239999999
 20
634.76574500000004
 30
0.0
 40
54.0
  1
ミツヤ低騒音ダクトファンユニット
  0
TEXT
  5
7B03
  8
4
  6
CONTINUOUS
 10
1779.9817430000001
 20
475.73937599999999
 30
0.0
 40
75.0
  1
SAL#315
  0
TEXT
  5
7B05
  8
4
  6
CONTINUOUS
 10
1357.1786480000001
 20
3575.1432619999991
 30
0.0
 40
81.0
  1
天井吊形
  0
TEXT
  5
7B06
  8
4
  6
CONTINUOUS
 10
474.14406300000002
 20
3800.334906999999
 30
0.0
 40
97.200000000000003
  1
電動機直動式消音ボックス付き斜流ファン
  0
LINE
  5
7B07
  8
4
  6
CONTINUOUS
 10
375.0
 20
3704.1131310000001
 30
0.0
 11
2775.0
 21
3704.1131310000001
 31
0.0
  0
LINE
  5
7B08
  8
4
  6
CONTINUOUS
 10
375.0
 20
4004.1131310000001
 30
0.0
 11
2775.0
 21
4004.1131310000001
 31
0.0
  0
LINE
  5
7B09
  8
4
  6
CONTINUOUS
 10
975.0
 20
750.0
 30
0.0
 11
2775.0
 21
750.0
 31
0.0
  0
LINE
  5
7B0A
  8
4
  6
CONTINUOUS
 10
375.0
 20
4004.1131310000001
 30
0.0
 11
375.0
 21
3704.1131310000001
 31
0.0
  0
TEXT
  5
7B0B
  8
4
  6
CONTINUOUS
 10
555.79354899999998
 20
3573.4792159999988
 30
0.0
 40
81.0
  1
左回転後方吐出
  0
TEXT
  5
7B0C
  8
4
  6
CONTINUOUS
 10
2203.454338999999
 20
4059.091621999999
 30
0.0
 40
84.0
  1
No.
  0
TEXT
  5
7B0D
  8
4
  6
CONTINUOUS
 10
1966.944094
 20
3575.1432619999991
 30
0.0
 40
81.0
  1
縮尺：1/15
  0
LINE
  5
7B0E
  8
4
  6
CONTINUOUS
 10
2775.0
 20
4004.1131310000001
 30
0.0
 11
2775.0
 21
3704.1131310000001
 31
0.0
  0
LINE
  5
7B10
  8
4
  6
CONTINUOUS
 10
2160.9261339999989
 20
4021.8953750000001
 30
0.0
 11
2160.9261339999989
 21
4179.978392
 31
0.0
  0
LINE
  5
7B11
  8
4
  6
CONTINUOUS
 10
2160.9261339999989
 20
4179.978392
 30
0.0
 11
2775.0
 21
4179.978392
 31
0.0
  0
LINE
  5
7B12
  8
4
  6
CONTINUOUS
 10
2775.0
 20
4179.978392
 30
0.0
 11
2775.0
 21
4021.8953750000001
 31
0.0
  0
LINE
  5
7B13
  8
4
  6
CONTINUOUS
 10
2775.0
 20
4021.8953750000001
 30
0.0
 11
2160.9261339999989
 21
4021.8953750000001
 31
0.0
  0
ENDSEC
  0
EOF
