  0
SECTION
  2
HEADER
  9
$ACADVER
  1
AC1009
  9
$INSBASE
 10
0.0
 20
0.0
 30
0.0
  9
$EXTMIN
 10
250.0
 20
300.0
 30
0.0
  9
$EXTMAX
 10
1890.787392
 20
2786.6522620000001
 30
0.0
  9
$LIMMIN
 10
0.0
 20
0.0
  9
$LIMMAX
 10
297.0
 20
210.0
  9
$ORTHOMODE
 70
     0
  9
$REGENMODE
 70
     1
  9
$FILLMODE
 70
     0
  9
$QTEXTMODE
 70
     0
  9
$MIRRTEXT
 70
     1
  9
$DRAGMODE
 70
     2
  9
$LTSCALE
 40
100.0
  9
$OSMODE
 70
    37
  9
$ATTMODE
 70
     1
  9
$TEXTSIZE
 40
180.0
  9
$TRACEWID
 40
0.05
  9
$TEXTSTYLE
  7
STANDARD
  9
$CLAYER
  8
3
  9
$CELTYPE
  6
BYLAYER
  9
$CECOLOR
 62
   256
  9
$DIMSCALE
 40
10.0
  9
$DIMASZ
 40
2.0
  9
$DIMEXO
 40
0.5
  9
$DIMDLI
 40
10.0
  9
$DIMRND
 40
0.0
  9
$DIMDLE
 40
0.0
  9
$DIMEXE
 40
1.0
  9
$DIMTP
 40
1.0
  9
$DIMTM
 40
1.0
  9
$DIMTXT
 40
3.0
  9
$DIMCEN
 40
0.0
  9
$DIMTSZ
 40
0.0
  9
$DIMTOL
 70
     0
  9
$DIMLIM
 70
     0
  9
$DIMTIH
 70
     0
  9
$DIMTOH
 70
     0
  9
$DIMSE1
 70
     0
  9
$DIMSE2
 70
     0
  9
$DIMTAD
 70
     1
  9
$DIMZIN
 70
     8
  9
$DIMBLK
  1

  9
$DIMASO
 70
     1
  9
$DIMSHO
 70
     1
  9
$DIMPOST
  1

  9
$DIMAPOST
  1

  9
$DIMALT
 70
     0
  9
$DIMALTD
 70
     2
  9
$DIMALTF
 40
0.039
  9
$DIMLFAC
 40
1.0
  9
$DIMTOFL
 70
     1
  9
$DIMTVP
 40
0.0
  9
$DIMTIX
 70
     0
  9
$DIMSOXD
 70
     0
  9
$DIMSAH
 70
     1
  9
$DIMBLK1
  1
OPEN
  9
$DIMBLK2
  1
OPEN
  9
$DIMSTYLE
  2
IGA
  9
$DIMCLRD
 70
     0
  9
$DIMCLRE
 70
     0
  9
$DIMCLRT
 70
     0
  9
$DIMTFAC
 40
10.0
  9
$DIMGAP
 40
1.0
  9
$LUNITS
 70
     2
  9
$LUPREC
 70
     3
  9
$SKETCHINC
 40
0.1
  9
$FILLETRAD
 40
50.0
  9
$AUNITS
 70
     0
  9
$AUPREC
 70
     0
  9
$MENU
  1
acad
  9
$ELEVATION
 40
0.0
  9
$PELEVATION
 40
0.0
  9
$THICKNESS
 40
0.0
  9
$LIMCHECK
 70
     0
  9
$BLIPMODE
 70
     0
  9
$CHAMFERA
 40
0.5
  9
$CHAMFERB
 40
0.5
  9
$SKPOLY
 70
     0
  9
$TDCREATE
 40
2450725.3834777768
  9
$TDUPDATE
 40
2454953.8685408328
  9
$TDINDWG
 40
0.0032796181
  9
$TDUSRTIMER
 40
0.0032796181
  9
$USRTIMER
 70
     1
  9
$ANGBASE
 50
0.0
  9
$ANGDIR
 70
     0
  9
$PDMODE
 70
     0
  9
$PDSIZE
 40
0.0
  9
$PLINEWID
 40
0.0
  9
$COORDS
 70
     1
  9
$SPLFRAME
 70
     0
  9
$SPLINETYPE
 70
     6
  9
$SPLINESEGS
 70
     8
  9
$ATTDIA
 70
     0
  9
$ATTREQ
 70
     1
  9
$HANDLING
 70
 10241
  9
$HANDSEED
  5
7B4D
  9
$SURFTAB1
 70
     6
  9
$SURFTAB2
 70
     6
  9
$SURFTYPE
 70
     6
  9
$SURFU
 70
     6
  9
$SURFV
 70
     6
  9
$UCSNAME
  2

  9
$UCSORG
 10
0.0
 20
0.0
 30
0.0
  9
$UCSXDIR
 10
1.0
 20
0.0
 30
0.0
  9
$UCSYDIR
 10
0.0
 20
1.0
 30
0.0
  9
$PUCSNAME
  2

  9
$PUCSORG
 10
0.0
 20
0.0
 30
0.0
  9
$PUCSXDIR
 10
1.0
 20
0.0
 30
0.0
  9
$PUCSYDIR
 10
0.0
 20
1.0
 30
0.0
  9
$USERI1
 70
     0
  9
$USERI2
 70
     0
  9
$USERI3
 70
     0
  9
$USERI4
 70
     0
  9
$USERI5
 70
     0
  9
$USERR1
 40
0.0
  9
$USERR2
 40
0.0
  9
$USERR3
 40
0.0
  9
$USERR4
 40
0.0
  9
$USERR5
 40
0.0
  9
$WORLDVIEW
 70
     1
  9
$SHADEDGE
 70
     3
  9
$SHADEDIF
 70
    70
  9
$TILEMODE
 70
     1
  9
$MAXACTVP
 70
    16
  9
$PLIMCHECK
 70
     0
  9
$PEXTMIN
 10
1.0000000000000000E+020
 20
1.0000000000000000E+020
 30
1.0000000000000000E+020
  9
$PEXTMAX
 10
-1.0000000000000000E+020
 20
-1.0000000000000000E+020
 30
-1.0000000000000000E+020
  9
$PLIMMIN
 10
0.0
 20
0.0
  9
$PLIMMAX
 10
12.0
 20
9.0
  9
$UNITMODE
 70
     0
  9
$VISRETAIN
 70
     0
  9
$PLINEGEN
 70
     0
  9
$PSLTSCALE
 70
     1
  0
ENDSEC
  0
SECTION
  2
TABLES
  0
TABLE
  2
VPORT
 70
     2
  0
VPORT
  2
*ACTIVE
 70
     0
 10
0.0
 20
0.0
 11
1.0
 21
1.0
 12
1191.970531324795
 22
1496.286512952742
 13
0.0
 23
0.0
 14
10.0
 24
10.0
 15
10.0
 25
10.0
 16
0.0
 26
0.0
 36
1.0
 17
0.0
 27
0.0
 37
0.0
 40
3234.5507582389068
 41
1.5051150895140659
 42
50.0
 43
0.0
 44
0.0
 50
0.0
 51
0.0
 71
     0
 72
   100
 73
     1
 74
     0
 75
     0
 76
     0
 77
     0
 78
     0
  0
ENDTAB
  0
TABLE
  2
LTYPE
 70
     2
  0
LTYPE
  2
CONTINUOUS
 70
     0
  3
Solid line
 72
    65
 73
     0
 40
0.0
  0
LTYPE
  2
CENTER
 70
     0
  3
____ _ ____ _ ____ _ ____ _ ____ _ ____ _ ____ 
 72
    65
 73
     4
 40
2.0
 49
1.25
 49
-0.25
 49
0.25
 49
-0.25
  0
ENDTAB
  0
TABLE
  2
LAYER
 70
     6
  0
LAYER
  2
0
 70
     0
 62
     7
  6
CONTINUOUS
  0
LAYER
  2
3
 70
     0
 62
     2
  6
CONTINUOUS
  0
LAYER
  2
2
 70
     0
 62
     3
  6
CENTER
  0
LAYER
  2
1
 70
     0
 62
     4
  6
CONTINUOUS
  0
LAYER
  2
4
 70
     0
 62
     7
  6
CONTINUOUS
  0
LAYER
  2
DEFPOINTS
 70
     0
 62
     7
  6
CONTINUOUS
  0
ENDTAB
  0
TABLE
  2
STYLE
 70
     1
  0
STYLE
  2
STANDARD
 70
     0
 40
0.0
 41
1.0
 50
0.0
 71
     0
 42
180.0
  3
simplex.shx
  4
extfont.shx
  0
ENDTAB
  0
TABLE
  2
VIEW
 70
     0
  0
ENDTAB
  0
TABLE
  2
UCS
 70
     0
  0
ENDTAB
  0
TABLE
  2
APPID
 70
     1
  0
APPID
  2
ACAD
 70
     0
  0
ENDTAB
  0
TABLE
  2
DIMSTYLE
 70
     1
  0
DIMSTYLE
  2
IGA
 70
     0
  3

  4

  5

  6
OPEN
  7
OPEN
 40
2.0
 41
2.0
 42
0.5
 43
10.0
 44
1.0
 45
0.0
 46
0.0
 47
1.0
 48
1.0
140
3.0
141
0.0
142
0.0
143
0.03937
144
1.0
145
0.0
146
10.0
147
1.0
 71
     0
 72
     0
 73
     0
 74
     0
 75
     0
 76
     0
 77
     1
 78
     8
170
     0
171
     2
172
     0
173
     1
174
     0
175
     0
176
     0
177
     0
178
     0
  0
ENDTAB
  0
ENDSEC
  0
SECTION
  2
BLOCKS
  0
BLOCK
  8
0
  2
$MODEL_SPACE
 70
     0
 10
0.0
 20
0.0
 30
0.0
  3
$MODEL_SPACE
  1

  0
ENDBLK
  5
1B
  8
0
  0
BLOCK
 67
     1
  8
0
  2
$PAPER_SPACE
 70
     0
 10
0.0
 20
0.0
 30
0.0
  3
$PAPER_SPACE
  1

  0
ENDBLK
  5
18
 67
     1
  8
0
  0
BLOCK
  8
0
  2
_OPEN
 70
     0
 10
0.0
 20
0.0
 30
0.0
  3
_OPEN
  1

  0
LINE
  5
7A55
  8
0
  6
BYBLOCK
 62
     0
 10
-1.0
 20
0.166667
 30
0.0
 11
0.0
 21
0.0
 31
0.0
  0
LINE
  5
7A56
  8
0
  6
BYBLOCK
 62
     0
 10
0.0
 20
0.0
 30
0.0
 11
-1.0
 21
-0.166667
 31
0.0
  0
LINE
  5
7A57
  8
0
  6
BYBLOCK
 62
     0
 10
0.0
 20
0.0
 30
0.0
 11
-1.0
 21
0.0
 31
0.0
  0
ENDBLK
  5
7A58
  8
0
  0
BLOCK
  8
0
  2
*D1
 70
     1
 10
0.0
 20
0.0
 30
0.0
  3
*D1
  1

  0
LINE
  5
7B20
  8
3
  6
CONTINUOUS
 62
     0
 10
1142.718644
 20
1733.5239079999999
 30
0.0
 11
1142.718644
 21
1794.460787
 31
0.0
  0
LINE
  5
7B21
  8
3
  6
CONTINUOUS
 62
     0
 10
1632.718644
 20
1733.5239079999999
 30
0.0
 11
1632.718644
 21
1794.460787
 31
0.0
  0
LINE
  5
7B22
  8
3
  6
CONTINUOUS
 62
     0
 10
1612.718644
 20
1784.460787
 30
0.0
 11
1326.105086428571
 21
1784.460787
 31
0.0
  0
INSERT
  5
7B23
  8
3
  6
CONTINUOUS
 62
     0
  2
_OPEN
 10
1632.718644
 20
1784.460787
 30
0.0
 41
20.0
 42
20.0
 43
20.0
  0
TEXT
  8
3
  40
30
  5
7B48
  62
0
  72
0
  71
0
 10
1314.68
 20
1756.36
 30
0.000000
  1
490
  0
POINT
  5
7B25
  8
DEFPOINTS
  6
CONTINUOUS
 62
     0
 10
1142.718644
 20
1728.5239079999999
 30
0.0
  0
POINT
  5
7B26
  8
DEFPOINTS
  6
CONTINUOUS
 62
     0
 10
1632.718644
 20
1728.5239079999999
 30
0.0
  0
POINT
  5
7B27
  8
DEFPOINTS
  6
CONTINUOUS
 62
     0
 10
1632.718644
 20
1784.460787
 30
0.0
  0
ENDBLK
  5
7A65
  8
0
  0
BLOCK
  8
0
  2
*D2
 70
     1
 10
0.0
 20
0.0
 30
0.0
  3
*D2
  1

  0
LINE
  5
7B28
  8
3
  6
CONTINUOUS
 62
     0
 10
1062.718644
 20
1516.0239079999999
 30
0.0
 11
1062.718644
 21
1863.872548999999
 31
0.0
  0
LINE
  5
7B29
  8
3
  6
CONTINUOUS
 62
     0
 10
1712.7186439999989
 20
1516.0239079999999
 30
0.0
 11
1712.7186439999989
 21
1863.872548999999
 31
0.0
  0
LINE
  5
7B2A
  8
3
  6
CONTINUOUS
 62
     0
 10
1692.718644
 20
1853.8725489999999
 30
0.0
 11
1331.893201428571
 21
1853.8725489999999
 31
0.0
  0
INSERT
  5
7B2B
  8
3
  6
CONTINUOUS
 62
     0
  2
_OPEN
 10
1712.7186439999989
 20
1853.8725489999999
 30
0.0
 41
20.0
 42
20.0
 43
20.0
  0
TEXT
  8
3
  40
30
  5
7B49
  62
0
  72
0
  71
0
 10
1320.46
 20
1825.77
 30
0.000000
  1
650
  0
POINT
  5
7B2D
  8
DEFPOINTS
  6
CONTINUOUS
 62
     0
 10
1062.718644
 20
1511.0239079999999
 30
0.0
  0
POINT
  5
7B2E
  8
DEFPOINTS
  6
CONTINUOUS
 62
     0
 10
1712.7186439999989
 20
1511.0239079999999
 30
0.0
  0
POINT
  5
7B2F
  8
DEFPOINTS
  6
CONTINUOUS
 62
     0
 10
1712.7186439999989
 20
1853.8725489999999
 30
0.0
  0
ENDBLK
  5
7A72
  8
0
  0
BLOCK
  8
0
  2
*D3
 70
     1
 10
0.0
 20
0.0
 30
0.0
  3
*D3
  1

  0
LINE
  5
7B30
  8
3
  6
CONTINUOUS
 62
     0
 10
1057.718644
 20
1511.0239079999999
 30
0.0
 11
907.41569100000015
 21
1511.0239079999999
 31
0.0
  0
LINE
  5
7B31
  8
3
  6
CONTINUOUS
 62
     0
 10
1057.718644
 20
1146.0239079999999
 30
0.0
 11
907.41569100000015
 21
1146.0239079999999
 31
0.0
  0
LINE
  5
7B32
  8
3
  6
CONTINUOUS
 62
     0
 10
917.41569100000015
 20
1166.0239079999999
 30
0.0
 11
917.41569100000015
 21
1387.640056571428
 31
0.0
  0
INSERT
  5
7B33
  8
3
  6
CONTINUOUS
 62
     0
  2
_OPEN
 10
917.41569100000015
 20
1146.0239079999999
 30
0.0
 41
20.0
 42
20.0
 43
20.0
 50
270.0
  0
TEXT
  8
3
  40
30
  5
7B4A
  62
0
  72
0
  71
0
 10
832.416
 20
1285.97
 30
0.000000
  1
365
  0
POINT
  5
7B35
  8
DEFPOINTS
  6
CONTINUOUS
 62
     0
 10
1062.718644
 20
1511.0239079999999
 30
0.0
  0
POINT
  5
7B36
  8
DEFPOINTS
  6
CONTINUOUS
 62
     0
 10
1062.718644
 20
1146.0239079999999
 30
0.0
  0
POINT
  5
7B37
  8
DEFPOINTS
  6
CONTINUOUS
 62
     0
 10
917.41569100000015
 20
1146.0239079999999
 30
0.0
  0
ENDBLK
  5
7A7F
  8
0
  0
BLOCK
  8
0
  2
*D4
 70
     1
 10
0.0
 20
0.0
 30
0.0
  3
*D4
  1

  0
LINE
  5
7B38
  8
3
  6
CONTINUOUS
 62
     0
 10
1057.718644
 20
1428.5239079999999
 30
0.0
 11
982.66114200000015
 21
1428.5239079999999
 31
0.0
  0
LINE
  5
7B39
  8
3
  6
CONTINUOUS
 62
     0
 10
1057.718644
 20
1228.5239079999999
 30
0.0
 11
982.66114200000015
 21
1228.5239079999999
 31
0.0
  0
LINE
  5
7B3A
  8
3
  6
CONTINUOUS
 62
     0
 10
992.66114200000015
 20
1248.5239079999999
 30
0.0
 11
992.66114200000015
 21
1381.855738571428
 31
0.0
  0
INSERT
  5
7B3B
  8
3
  6
CONTINUOUS
 62
     0
  2
_OPEN
 10
992.66114200000015
 20
1228.5239079999999
 30
0.0
 41
20.0
 42
20.0
 43
20.0
 50
270.0
  0
TEXT
  8
3
  40
30
  5
7B4B
  62
0
  72
0
  71
0
 10
907.661
 20
1280.18
 30
0.000000
  1
200
  0
POINT
  5
7B3D
  8
DEFPOINTS
  6
CONTINUOUS
 62
     0
 10
1062.718644
 20
1428.5239079999999
 30
0.0
  0
POINT
  5
7B3E
  8
DEFPOINTS
  6
CONTINUOUS
 62
     0
 10
1062.718644
 20
1228.5239079999999
 30
0.0
  0
POINT
  5
7B3F
  8
DEFPOINTS
  6
CONTINUOUS
 62
     0
 10
992.66114200000015
 20
1228.5239079999999
 30
0.0
  0
ENDBLK
  5
7A8C
  8
0
  0
BLOCK
  8
0
  2
*D5
 70
     1
 10
0.0
 20
0.0
 30
0.0
  3
*D5
  1

  0
LINE
  5
7B40
  8
3
  6
CONTINUOUS
 62
     0
 10
283.12756000000002
 20
1733.5239079999999
 30
0.0
 11
283.12756000000002
 21
1852.3039209999999
 31
0.0
  0
LINE
  5
7B41
  8
3
  6
CONTINUOUS
 62
     0
 10
668.12756000000002
 20
1733.5239079999999
 30
0.0
 11
668.12756000000002
 21
1852.3039209999999
 31
0.0
  0
LINE
  5
7B42
  8
3
  6
CONTINUOUS
 62
     0
 10
648.12756000000002
 20
1842.3039209999999
 30
0.0
 11
428.94778242857149
 21
1842.3039209999999
 31
0.0
  0
INSERT
  5
7B43
  8
3
  6
CONTINUOUS
 62
     0
  2
_OPEN
 10
668.12756000000002
 20
1842.3039209999999
 30
0.0
 41
20.0
 42
20.0
 43
20.0
  0
TEXT
  8
3
  40
30
  5
7B4C
  62
0
  72
0
  71
0
 10
417.519
 20
1814.20
 30
0.000000
  1
385
  0
POINT
  5
7B45
  8
DEFPOINTS
  6
CONTINUOUS
 62
     0
 10
283.12756000000002
 20
1728.5239079999999
 30
0.0
  0
POINT
  5
7B46
  8
DEFPOINTS
  6
CONTINUOUS
 62
     0
 10
668.12756000000002
 20
1728.5239079999999
 30
0.0
  0
POINT
  5
7B47
  8
DEFPOINTS
  6
CONTINUOUS
 62
     0
 10
668.12756000000002
 20
1842.3039209999999
 30
0.0
  0
ENDBLK
  5
7A99
  8
0
  0
ENDSEC
  0
SECTION
  2
ENTITIES
  0
LINE
  5
7A1D
  8
2
  6
CENTER
 10
273.12756000000002
 20
1328.5239079999999
 30
0.0
 11
678.12756000000002
 21
1328.5239079999999
 31
0.0
  0
CIRCLE
  5
7A1E
  8
1
  6
CONTINUOUS
 10
475.6275599999999
 20
1328.5239079999999
 30
0.0
 40
182.5
  0
CIRCLE
  5
7A1F
  8
1
  6
CONTINUOUS
 10
475.6275599999999
 20
1328.5239079999999
 30
0.0
 40
100.0
  0
LINE
  5
7A20
  8
2
  6
CENTER
 10
475.6275599999999
 20
1126.0239079999999
 30
0.0
 11
475.6275599999999
 21
1531.0239079999999
 31
0.0
  0
LINE
  5
7A21
  8
2
  6
CENTER
 10
283.12756000000002
 20
1728.5239079999999
 30
0.0
 11
283.12756000000002
 21
1318.5239079999999
 31
0.0
  0
LINE
  5
7A22
  8
1
  6
CONTINUOUS
 10
1062.718644
 20
1511.0239079999999
 30
0.0
 11
1062.718644
 21
1146.0239079999999
 31
0.0
  0
LINE
  5
7A23
  8
2
  6
CENTER
 10
1632.718644
 20
1728.5239079999999
 30
0.0
 11
1632.718644
 21
1318.5239079999999
 31
0.0
  0
LINE
  5
7A24
  8
2
  6
CENTER
 10
1142.718644
 20
1728.5239079999999
 30
0.0
 11
1142.718644
 21
1318.5239079999999
 31
0.0
  0
LINE
  5
7A25
  8
1
  6
CONTINUOUS
 10
1572.718644
 20
1493.5239079999999
 30
0.0
 11
1432.718644
 21
1428.5239079999999
 31
0.0
  0
LINE
  5
7A26
  8
1
  6
CONTINUOUS
 10
1572.718644
 20
1493.5239079999999
 30
0.0
 11
1712.7186439999989
 21
1428.5239079999999
 31
0.0
  0
LINE
  5
7A27
  8
1
  6
CONTINUOUS
 10
1712.7186439999989
 20
1511.0239079999999
 30
0.0
 11
1712.7186439999989
 21
1146.0239079999999
 31
0.0
  0
LINE
  5
7A28
  8
2
  6
CENTER
 10
668.12756000000002
 20
1728.5239079999999
 30
0.0
 11
668.12756000000002
 21
1318.5239079999999
 31
0.0
  0
LINE
  5
7A29
  8
1
  6
CONTINUOUS
 10
1432.718644
 20
1228.5239079999999
 30
0.0
 11
1062.718644
 21
1228.5239079999999
 31
0.0
  0
LINE
  5
7A2A
  8
1
  6
CONTINUOUS
 10
1432.718644
 20
1428.5239079999999
 30
0.0
 11
1062.718644
 21
1428.5239079999999
 31
0.0
  0
LINE
  5
7A2B
  8
1
  6
CONTINUOUS
 10
1062.718644
 20
1146.0239079999999
 30
0.0
 11
1712.7186439999989
 21
1146.0239079999999
 31
0.0
  0
LINE
  5
7A2C
  8
2
  6
CENTER
 10
1042.718644
 20
1328.5239079999999
 30
0.0
 11
1732.718644
 21
1328.5239079999999
 31
0.0
  0
LINE
  5
7A2D
  8
4
  6
CONTINUOUS
 10
1756.1653269999999
 20
1328.5239079999999
 30
0.0
 11
1890.787392
 21
1328.5239079999999
 31
0.0
  0
LINE
  5
7A2E
  8
1
  6
CONTINUOUS
 10
1572.718644
 20
1163.5239079999999
 30
0.0
 11
1432.718644
 21
1228.5239079999999
 31
0.0
  0
LINE
  5
7A2F
  8
1
  6
CONTINUOUS
 10
1432.718644
 20
1428.5239079999999
 30
0.0
 11
1432.718644
 21
1228.5239079999999
 31
0.0
  0
LINE
  5
7A30
  8
1
  6
CONTINUOUS
 10
1572.718644
 20
1163.5239079999999
 30
0.0
 11
1712.7186439999989
 21
1228.5239079999999
 31
0.0
  0
LINE
  5
7A31
  8
4
  6
CONTINUOUS
 10
1890.787392
 20
1328.5239079999999
 30
0.0
 11
1854.703127
 21
1315.1112689999991
 31
0.0
  0
LINE
  5
7A32
  8
4
  6
CONTINUOUS
 10
1890.787392
 20
1328.5239079999999
 30
0.0
 11
1854.703127
 21
1341.9365459999999
 31
0.0
  0
LINE
  5
7A33
  8
1
  6
CONTINUOUS
 10
1062.718644
 20
1511.0239079999999
 30
0.0
 11
1712.7186439999989
 21
1511.0239079999999
 31
0.0
  0
LINE
  5
7A34
  8
4
  6
CONTINUOUS
 10
1850.0
 20
500.0
 30
0.0
 11
1850.0
 21
300.0
 31
0.0
  0
LINE
  5
7A35
  8
4
  6
CONTINUOUS
 10
1150.0
 20
500.0
 30
0.0
 11
1150.0
 21
300.0
 31
0.0
  0
LINE
  5
7A36
  8
4
  6
CONTINUOUS
 10
650.0
 20
500.0
 30
0.0
 11
650.0
 21
300.0
 31
0.0
  0
LINE
  5
7A39
  8
4
  6
CONTINUOUS
 10
650.0
 20
300.0
 30
0.0
 11
1850.0
 21
300.0
 31
0.0
  0
LINE
  5
7A3A
  8
4
  6
CONTINUOUS
 10
650.0
 20
400.0
 30
0.0
 11
1850.0
 21
400.0
 31
0.0
  0
TEXT
  5
7A3B
  8
4
  6
CONTINUOUS
 10
688.50208099999998
 20
431.543026
 30
0.0
 40
50.0
  1
機器名称
  0
TEXT
  5
7A3C
  8
4
  6
CONTINUOUS
 10
686.258106
 20
321.64515699999993
 30
0.0
 40
50.0
  1
機器型番
  0
TEXT
  5
7A3D
  8
4
  6
CONTINUOUS
 10
1160.375002
 20
426.81494500000002
 30
0.0
 40
35.0
  1
ミツヤ低騒音ダクトファンユニット
  0
TEXT
  5
7A3E
  8
4
  6
CONTINUOUS
 10
1186.6544960000001
 20
317.159584
 30
0.0
 40
50.0
  1
SAL#200
  0
TEXT
  5
7A40
  8
4
  6
CONTINUOUS
 10
904.78576499999997
 20
2383.4288409999999
 30
0.0
 40
54.0
  1
天井吊形
  0
TEXT
  5
7A41
  8
4
  6
CONTINUOUS
 10
313.78079700000001
 20
2532.978173
 30
0.0
 40
64.799999999999997
  1
電動機直動式消音ボックス付き斜流ファン
  0
LINE
  5
7A42
  8
4
  6
CONTINUOUS
 10
250.0
 20
2469.408754
 30
0.0
 11
1850.0
 21
2469.408754
 31
0.0
  0
LINE
  5
7A43
  8
4
  6
CONTINUOUS
 10
250.0
 20
2669.408754
 30
0.0
 11
1850.0
 21
2669.408754
 31
0.0
  0
LINE
  5
7A44
  8
4
  6
CONTINUOUS
 10
650.0
 20
500.0
 30
0.0
 11
1850.0
 21
500.0
 31
0.0
  0
LINE
  5
7A45
  8
4
  6
CONTINUOUS
 10
250.0
 20
2669.408754
 30
0.0
 11
250.0
 21
2469.408754
 31
0.0
  0
TEXT
  5
7A46
  8
4
  6
CONTINUOUS
 10
376.31714799999997
 20
2382.3194779999999
 30
0.0
 40
54.0
  1
右回転後方吐出
  0
TEXT
  5
7A47
  8
4
  6
CONTINUOUS
 10
1468.9695589999999
 20
2706.0610809999998
 30
0.0
 40
56.0
  1
No.
  0
TEXT
  5
7A48
  8
4
  6
CONTINUOUS
 10
1311.296063
 20
2383.4288409999999
 30
0.0
 40
54.0
  1
縮尺：1/10
  0
LINE
  5
7A49
  8
4
  6
CONTINUOUS
 10
1850.0
 20
2669.408754
 30
0.0
 11
1850.0
 21
2469.408754
 31
0.0
  0
LINE
  5
7A4B
  8
4
  6
CONTINUOUS
 10
1440.617422
 20
2681.2635829999999
 30
0.0
 11
1440.617422
 21
2786.6522620000001
 31
0.0
  0
LINE
  5
7A4C
  8
4
  6
CONTINUOUS
 10
1440.617422
 20
2786.6522620000001
 30
0.0
 11
1850.0
 21
2786.6522620000001
 31
0.0
  0
LINE
  5
7A4D
  8
4
  6
CONTINUOUS
 10
1850.0
 20
2786.6522620000001
 30
0.0
 11
1850.0
 21
2681.2635829999999
 31
0.0
  0
LINE
  5
7A4E
  8
4
  6
CONTINUOUS
 10
1850.0
 20
2681.2635829999999
 30
0.0
 11
1440.617422
 21
2681.2635829999999
 31
0.0
  0
DIMENSION
  5
7A66
  8
3
  6
CONTINUOUS
  2
*D1
 10
1632.718644
 20
1784.460787
 30
0.0
 11
1374.6765150000001
 21
1784.460787
 31
0.0
 70
   128
 13
1142.718644
 23
1728.5239079999999
 33
0.0
 14
1632.718644
 24
1728.5239079999999
 34
0.0
1001
ACAD
1000
DSTYLE
1002
{
1070
   287
1070
     3
1070
   287
1070
     3
1070
    40
1040
10.0
1070
   143
1040
0.039
1070
   172
1070
     1
1070
   271
1070
     0
1070
   279
1070
     0
1070
   281
1070
     1
1070
   288
1070
     1
1002
}
  0
DIMENSION
  5
7A73
  8
3
  6
CONTINUOUS
  2
*D2
 10
1712.7186439999989
 20
1853.8725489999999
 30
0.0
 11
1380.4646299999999
 21
1853.8725489999999
 31
0.0
 70
   128
 13
1062.718644
 23
1511.0239079999999
 33
0.0
 14
1712.7186439999989
 24
1511.0239079999999
 34
0.0
1001
ACAD
1000
DSTYLE
1002
{
1070
   287
1070
     3
1070
   287
1070
     3
1070
    40
1040
10.0
1070
   143
1040
0.039
1070
   172
1070
     1
1070
   271
1070
     0
1070
   279
1070
     0
1070
   281
1070
     1
1070
   288
1070
     1
1002
}
  0
DIMENSION
  5
7A80
  8
3
  6
CONTINUOUS
  2
*D3
 10
917.41569100000015
 20
1146.0239079999999
 30
0.0
 11
917.41569100000004
 21
1339.068628
 31
0.0
 70
   128
 13
1062.718644
 23
1511.0239079999999
 33
0.0
 14
1062.718644
 24
1146.0239079999999
 34
0.0
 50
90.0
1001
ACAD
1000
DSTYLE
1002
{
1070
   287
1070
     3
1070
   287
1070
     3
1070
    40
1040
10.0
1070
   143
1040
0.039
1070
   172
1070
     1
1070
   271
1070
     0
1070
   279
1070
     0
1070
   281
1070
     1
1070
   288
1070
     1
1002
}
  0
DIMENSION
  5
7A8D
  8
3
  6
CONTINUOUS
  2
*D4
 10
992.66114200000015
 20
1228.5239079999999
 30
0.0
 11
992.66114200000004
 21
1333.28431
 31
0.0
 70
   128
 13
1062.718644
 23
1428.5239079999999
 33
0.0
 14
1062.718644
 24
1228.5239079999999
 34
0.0
 50
90.0
1001
ACAD
1000
DSTYLE
1002
{
1070
   287
1070
     3
1070
   287
1070
     3
1070
    40
1040
10.0
1070
   143
1040
0.039
1070
   172
1070
     1
1070
   271
1070
     0
1070
   279
1070
     0
1070
   281
1070
     1
1070
   288
1070
     1
1002
}
  0
DIMENSION
  5
7A9A
  8
3
  6
CONTINUOUS
  2
*D5
 10
668.12756000000002
 20
1842.3039209999999
 30
0.0
 11
477.51921099999998
 21
1842.3039209999999
 31
0.0
 70
   128
 13
283.12756000000002
 23
1728.5239079999999
 33
0.0
 14
668.12756000000002
 24
1728.5239079999999
 34
0.0
1001
ACAD
1000
DSTYLE
1002
{
1070
   287
1070
     3
1070
   287
1070
     3
1070
    40
1040
10.0
1070
   143
1040
0.039
1070
   172
1070
     1
1070
   271
1070
     0
1070
   279
1070
     0
1070
   281
1070
     1
1070
   288
1070
     1
1002
}
  0
ENDSEC
  0
EOF
