  0
SECTION
  2
HEADER
  9
$ACADVER
  1
AC1009
  9
$INSBASE
 10
0.0
 20
0.0
 30
0.0
  9
$EXTMIN
 10
250.0
 20
300.0
 30
0.0
  9
$EXTMAX
 10
1870.6740139999999
 20
2786.6522620000001
 30
0.0
  9
$LIMMIN
 10
0.0
 20
0.0
  9
$LIMMAX
 10
297.0
 20
210.0
  9
$ORTHOMODE
 70
     0
  9
$REGENMODE
 70
     1
  9
$FILLMODE
 70
     0
  9
$QTEXTMODE
 70
     0
  9
$MIRRTEXT
 70
     1
  9
$DRAGMODE
 70
     2
  9
$LTSCALE
 40
100.0
  9
$OSMODE
 70
    37
  9
$ATTMODE
 70
     1
  9
$TEXTSIZE
 40
180.0
  9
$TRACEWID
 40
0.05
  9
$TEXTSTYLE
  7
STANDARD
  9
$CLAYER
  8
3
  9
$CELTYPE
  6
BYLAYER
  9
$CECOLOR
 62
   256
  9
$DIMSCALE
 40
10.0
  9
$DIMASZ
 40
2.0
  9
$DIMEXO
 40
0.5
  9
$DIMDLI
 40
10.0
  9
$DIMRND
 40
0.0
  9
$DIMDLE
 40
0.0
  9
$DIMEXE
 40
1.0
  9
$DIMTP
 40
1.0
  9
$DIMTM
 40
1.0
  9
$DIMTXT
 40
3.0
  9
$DIMCEN
 40
0.0
  9
$DIMTSZ
 40
0.0
  9
$DIMTOL
 70
     0
  9
$DIMLIM
 70
     0
  9
$DIMTIH
 70
     0
  9
$DIMTOH
 70
     0
  9
$DIMSE1
 70
     0
  9
$DIMSE2
 70
     0
  9
$DIMTAD
 70
     1
  9
$DIMZIN
 70
     8
  9
$DIMBLK
  1

  9
$DIMASO
 70
     1
  9
$DIMSHO
 70
     1
  9
$DIMPOST
  1

  9
$DIMAPOST
  1

  9
$DIMALT
 70
     0
  9
$DIMALTD
 70
     2
  9
$DIMALTF
 40
0.039
  9
$DIMLFAC
 40
1.0
  9
$DIMTOFL
 70
     1
  9
$DIMTVP
 40
0.0
  9
$DIMTIX
 70
     0
  9
$DIMSOXD
 70
     0
  9
$DIMSAH
 70
     1
  9
$DIMBLK1
  1
OPEN
  9
$DIMBLK2
  1
OPEN
  9
$DIMSTYLE
  2
IGA
  9
$DIMCLRD
 70
     0
  9
$DIMCLRE
 70
     0
  9
$DIMCLRT
 70
     0
  9
$DIMTFAC
 40
10.0
  9
$DIMGAP
 40
1.0
  9
$LUNITS
 70
     2
  9
$LUPREC
 70
     3
  9
$SKETCHINC
 40
0.1
  9
$FILLETRAD
 40
50.0
  9
$AUNITS
 70
     0
  9
$AUPREC
 70
     0
  9
$MENU
  1
acad
  9
$ELEVATION
 40
0.0
  9
$PELEVATION
 40
0.0
  9
$THICKNESS
 40
0.0
  9
$LIMCHECK
 70
     0
  9
$BLIPMODE
 70
     0
  9
$CHAMFERA
 40
0.5
  9
$CHAMFERB
 40
0.5
  9
$SKPOLY
 70
     0
  9
$TDCREATE
 40
2450725.3923714119
  9
$TDUPDATE
 40
2454953.8674405091
  9
$TDINDWG
 40
0.0029248843
  9
$TDUSRTIMER
 40
0.0029248843
  9
$USRTIMER
 70
     1
  9
$ANGBASE
 50
0.0
  9
$ANGDIR
 70
     0
  9
$PDMODE
 70
     0
  9
$PDSIZE
 40
0.0
  9
$PLINEWID
 40
0.0
  9
$COORDS
 70
     1
  9
$SPLFRAME
 70
     0
  9
$SPLINETYPE
 70
     6
  9
$SPLINESEGS
 70
     8
  9
$ATTDIA
 70
     0
  9
$ATTREQ
 70
     1
  9
$HANDLING
 70
 10241
  9
$HANDSEED
  5
7B2F
  9
$SURFTAB1
 70
     6
  9
$SURFTAB2
 70
     6
  9
$SURFTYPE
 70
     6
  9
$SURFU
 70
     6
  9
$SURFV
 70
     6
  9
$UCSNAME
  2

  9
$UCSORG
 10
0.0
 20
0.0
 30
0.0
  9
$UCSXDIR
 10
1.0
 20
0.0
 30
0.0
  9
$UCSYDIR
 10
0.0
 20
1.0
 30
0.0
  9
$PUCSNAME
  2

  9
$PUCSORG
 10
0.0
 20
0.0
 30
0.0
  9
$PUCSXDIR
 10
1.0
 20
0.0
 30
0.0
  9
$PUCSYDIR
 10
0.0
 20
1.0
 30
0.0
  9
$USERI1
 70
     0
  9
$USERI2
 70
     0
  9
$USERI3
 70
     0
  9
$USERI4
 70
     0
  9
$USERI5
 70
     0
  9
$USERR1
 40
0.0
  9
$USERR2
 40
0.0
  9
$USERR3
 40
0.0
  9
$USERR4
 40
0.0
  9
$USERR5
 40
0.0
  9
$WORLDVIEW
 70
     1
  9
$SHADEDGE
 70
     3
  9
$SHADEDIF
 70
    70
  9
$TILEMODE
 70
     1
  9
$MAXACTVP
 70
    16
  9
$PLIMCHECK
 70
     0
  9
$PEXTMIN
 10
1.0000000000000000E+020
 20
1.0000000000000000E+020
 30
1.0000000000000000E+020
  9
$PEXTMAX
 10
-1.0000000000000000E+020
 20
-1.0000000000000000E+020
 30
-1.0000000000000000E+020
  9
$PLIMMIN
 10
0.0
 20
0.0
  9
$PLIMMAX
 10
12.0
 20
9.0
  9
$UNITMODE
 70
     0
  9
$VISRETAIN
 70
     0
  9
$PLINEGEN
 70
     0
  9
$PSLTSCALE
 70
     1
  0
ENDSEC
  0
SECTION
  2
TABLES
  0
TABLE
  2
VPORT
 70
     2
  0
VPORT
  2
*ACTIVE
 70
     0
 10
0.0
 20
0.0
 11
1.0
 21
1.0
 12
1257.0352115894991
 22
367.44963598504
 13
0.0
 23
0.0
 14
10.0
 24
10.0
 15
10.0
 25
10.0
 16
0.0
 26
0.0
 36
1.0
 17
0.0
 27
0.0
 37
0.0
 40
902.28823031292313
 41
1.5051150895140659
 42
50.0
 43
0.0
 44
0.0
 50
0.0
 51
0.0
 71
     0
 72
   100
 73
     1
 74
     0
 75
     0
 76
     0
 77
     0
 78
     0
  0
ENDTAB
  0
TABLE
  2
LTYPE
 70
     2
  0
LTYPE
  2
CONTINUOUS
 70
     0
  3
Solid line
 72
    65
 73
     0
 40
0.0
  0
LTYPE
  2
CENTER
 70
     0
  3
____ _ ____ _ ____ _ ____ _ ____ _ ____ _ ____ 
 72
    65
 73
     4
 40
2.0
 49
1.25
 49
-0.25
 49
0.25
 49
-0.25
  0
ENDTAB
  0
TABLE
  2
LAYER
 70
     6
  0
LAYER
  2
0
 70
     0
 62
     7
  6
CONTINUOUS
  0
LAYER
  2
3
 70
     0
 62
     2
  6
CONTINUOUS
  0
LAYER
  2
2
 70
     0
 62
     3
  6
CENTER
  0
LAYER
  2
1
 70
     0
 62
     4
  6
CONTINUOUS
  0
LAYER
  2
4
 70
     0
 62
     7
  6
CONTINUOUS
  0
LAYER
  2
DEFPOINTS
 70
     0
 62
     7
  6
CONTINUOUS
  0
ENDTAB
  0
TABLE
  2
STYLE
 70
     1
  0
STYLE
  2
STANDARD
 70
     0
 40
0.0
 41
1.0
 50
0.0
 71
     0
 42
180.0
  3
simplex.shx
  4
extfont.shx
  0
ENDTAB
  0
TABLE
  2
VIEW
 70
     0
  0
ENDTAB
  0
TABLE
  2
UCS
 70
     0
  0
ENDTAB
  0
TABLE
  2
APPID
 70
     1
  0
APPID
  2
ACAD
 70
     0
  0
ENDTAB
  0
TABLE
  2
DIMSTYLE
 70
     1
  0
DIMSTYLE
  2
IGA
 70
     0
  3

  4

  5

  6
OPEN
  7
OPEN
 40
2.0
 41
2.0
 42
0.5
 43
10.0
 44
1.0
 45
0.0
 46
0.0
 47
1.0
 48
1.0
140
3.0
141
0.0
142
0.0
143
0.03937
144
1.0
145
0.0
146
10.0
147
1.0
 71
     0
 72
     0
 73
     0
 74
     0
 75
     0
 76
     0
 77
     1
 78
     8
170
     0
171
     2
172
     0
173
     1
174
     0
175
     0
176
     0
177
     0
178
     0
  0
ENDTAB
  0
ENDSEC
  0
SECTION
  2
BLOCKS
  0
BLOCK
  8
0
  2
$MODEL_SPACE
 70
     0
 10
0.0
 20
0.0
 30
0.0
  3
$MODEL_SPACE
  1

  0
ENDBLK
  5
1B
  8
0
  0
BLOCK
 67
     1
  8
0
  2
$PAPER_SPACE
 70
     0
 10
0.0
 20
0.0
 30
0.0
  3
$PAPER_SPACE
  1

  0
ENDBLK
  5
18
 67
     1
  8
0
  0
BLOCK
  8
0
  2
_OPEN
 70
     0
 10
0.0
 20
0.0
 30
0.0
  3
_OPEN
  1

  0
LINE
  5
7A8F
  8
0
  6
BYBLOCK
 62
     0
 10
-1.0
 20
0.166667
 30
0.0
 11
0.0
 21
0.0
 31
0.0
  0
LINE
  5
7A90
  8
0
  6
BYBLOCK
 62
     0
 10
0.0
 20
0.0
 30
0.0
 11
-1.0
 21
-0.166667
 31
0.0
  0
LINE
  5
7A91
  8
0
  6
BYBLOCK
 62
     0
 10
0.0
 20
0.0
 30
0.0
 11
-1.0
 21
0.0
 31
0.0
  0
ENDBLK
  5
7A92
  8
0
  0
BLOCK
  8
0
  2
*D1
 70
     1
 10
0.0
 20
0.0
 30
0.0
  3
*D1
  1

  0
LINE
  5
7AFD
  8
3
  6
CONTINUOUS
 62
     0
 10
329.79079200000001
 20
1889.6746920000001
 30
0.0
 11
329.79079200000001
 21
1991.127451999999
 31
0.0
  0
LINE
  5
7AFE
  8
3
  6
CONTINUOUS
 62
     0
 10
809.79079200000001
 20
1889.6746920000001
 30
0.0
 11
809.79079200000001
 21
1991.127451999999
 31
0.0
  0
LINE
  5
7AFF
  8
3
  6
CONTINUOUS
 62
     0
 10
349.79079200000001
 20
1981.1274519999999
 30
0.0
 11
789.79079200000001
 21
1981.1274519999999
 31
0.0
  0
INSERT
  5
7B00
  8
3
  6
CONTINUOUS
 62
     0
  2
_OPEN
 10
329.79079200000001
 20
1981.1274519999999
 30
0.0
 41
20.0
 42
20.0
 43
20.0
 50
180.0
  0
INSERT
  5
7B01
  8
3
  6
CONTINUOUS
 62
     0
  2
_OPEN
 10
809.79079200000001
 20
1981.1274519999999
 30
0.0
 41
20.0
 42
20.0
 43
20.0
  0
TEXT
  8
3
  40
30
  5
7B2A
  62
0
  72
0
  71
0
 10
510.129
 20
1953.03
 30
0.000000
  1
480
  0
POINT
  5
7B03
  8
DEFPOINTS
  6
CONTINUOUS
 62
     0
 10
329.79079200000001
 20
1884.6746920000001
 30
0.0
  0
POINT
  5
7B04
  8
DEFPOINTS
  6
CONTINUOUS
 62
     0
 10
809.79079200000001
 20
1884.6746920000001
 30
0.0
  0
POINT
  5
7B05
  8
DEFPOINTS
  6
CONTINUOUS
 62
     0
 10
809.79079200000001
 20
1981.1274519999999
 30
0.0
  0
ENDBLK
  5
7A9F
  8
0
  0
BLOCK
  8
0
  2
*D2
 70
     1
 10
0.0
 20
0.0
 30
0.0
  3
*D2
  1

  0
LINE
  5
7B06
  8
3
  6
CONTINUOUS
 62
     0
 10
1313.781187
 20
1889.6746920000001
 30
0.0
 11
1313.781187
 21
1950.6372570000001
 31
0.0
  0
LINE
  5
7B07
  8
3
  6
CONTINUOUS
 62
     0
 10
1533.7811869999989
 20
1889.6746920000001
 30
0.0
 11
1533.7811869999989
 21
1950.6372570000001
 31
0.0
  0
LINE
  5
7B08
  8
3
  6
CONTINUOUS
 62
     0
 10
1333.7811869999989
 20
1940.6372570000001
 30
0.0
 11
1513.781187
 21
1940.6372570000001
 31
0.0
  0
INSERT
  5
7B09
  8
3
  6
CONTINUOUS
 62
     0
  2
_OPEN
 10
1313.781187
 20
1940.6372570000001
 30
0.0
 41
20.0
 42
20.0
 43
20.0
 50
180.0
  0
INSERT
  5
7B0A
  8
3
  6
CONTINUOUS
 62
     0
  2
_OPEN
 10
1533.7811869999989
 20
1940.6372570000001
 30
0.0
 41
20.0
 42
20.0
 43
20.0
  0
TEXT
  8
3
  40
30
  5
7B2B
  62
0
  72
0
  71
0
 10
1360.98
 20
1912.54
 30
0.000000
  1
220
  0
POINT
  5
7B0C
  8
DEFPOINTS
  6
CONTINUOUS
 62
     0
 10
1313.781187
 20
1884.6746920000001
 30
0.0
  0
POINT
  5
7B0D
  8
DEFPOINTS
  6
CONTINUOUS
 62
     0
 10
1533.7811869999989
 20
1884.6746920000001
 30
0.0
  0
POINT
  5
7B0E
  8
DEFPOINTS
  6
CONTINUOUS
 62
     0
 10
1533.7811869999989
 20
1940.6372570000001
 30
0.0
  0
ENDBLK
  5
7AAC
  8
0
  0
BLOCK
  8
0
  2
*D3
 70
     1
 10
0.0
 20
0.0
 30
0.0
  3
*D3
  1

  0
LINE
  5
7B0F
  8
3
  6
CONTINUOUS
 62
     0
 10
1223.7811869999989
 20
1689.6746920000001
 30
0.0
 11
1223.7811869999989
 21
2008.4803910000001
 31
0.0
  0
LINE
  5
7B10
  8
3
  6
CONTINUOUS
 62
     0
 10
1623.7811869999989
 20
1689.6746920000001
 30
0.0
 11
1623.7811869999989
 21
2008.4803910000001
 31
0.0
  0
LINE
  5
7B11
  8
3
  6
CONTINUOUS
 62
     0
 10
1243.7811869999989
 20
1998.4803910000001
 30
0.0
 11
1603.781187
 21
1998.4803910000001
 31
0.0
  0
INSERT
  5
7B12
  8
3
  6
CONTINUOUS
 62
     0
  2
_OPEN
 10
1223.7811869999989
 20
1998.4803910000001
 30
0.0
 41
20.0
 42
20.0
 43
20.0
 50
180.0
  0
INSERT
  5
7B13
  8
3
  6
CONTINUOUS
 62
     0
  2
_OPEN
 10
1623.7811869999989
 20
1998.4803910000001
 30
0.0
 41
20.0
 42
20.0
 43
20.0
  0
TEXT
  8
3
  40
30
  5
7B2C
  62
0
  72
0
  71
0
 10
1360.98
 20
1970.38
 30
0.000000
  1
400
  0
POINT
  5
7B15
  8
DEFPOINTS
  6
CONTINUOUS
 62
     0
 10
1223.7811869999989
 20
1684.6746920000001
 30
0.0
  0
POINT
  5
7B16
  8
DEFPOINTS
  6
CONTINUOUS
 62
     0
 10
1623.7811869999989
 20
1684.6746920000001
 30
0.0
  0
POINT
  5
7B17
  8
DEFPOINTS
  6
CONTINUOUS
 62
     0
 10
1623.7811869999989
 20
1998.4803910000001
 30
0.0
  0
ENDBLK
  5
7AB9
  8
0
  0
BLOCK
  8
0
  2
*D4
 70
     1
 10
0.0
 20
0.0
 30
0.0
  3
*D4
  1

  0
LINE
  5
7B18
  8
3
  6
CONTINUOUS
 62
     0
 10
1418.7811869999989
 20
1764.6746920000001
 30
0.0
 11
1069.4828239999999
 21
1764.6746920000001
 31
0.0
  0
LINE
  5
7B19
  8
3
  6
CONTINUOUS
 62
     0
 10
1418.7811869999989
 20
1204.6746920000001
 30
0.0
 11
1069.4828239999999
 21
1204.6746920000001
 31
0.0
  0
LINE
  5
7B1A
  8
3
  6
CONTINUOUS
 62
     0
 10
1079.4828239999999
 20
1744.6746920000001
 30
0.0
 11
1079.4828239999999
 21
1224.6746920000001
 31
0.0
  0
INSERT
  5
7B1B
  8
3
  6
CONTINUOUS
 62
     0
  2
_OPEN
 10
1079.4828239999999
 20
1764.6746920000001
 30
0.0
 41
20.0
 42
20.0
 43
20.0
 50
90.0
  0
INSERT
  5
7B1C
  8
3
  6
CONTINUOUS
 62
     0
  2
_OPEN
 10
1079.4828239999999
 20
1204.6746920000001
 30
0.0
 41
20.0
 42
20.0
 43
20.0
 50
270.0
  0
TEXT
  8
3
  40
30
  5
7B2D
  62
0
  72
0
  71
0
 10
994.483
 20
1442.15
 30
0.000000
  1
560
  0
POINT
  5
7B1E
  8
DEFPOINTS
  6
CONTINUOUS
 62
     0
 10
1423.7811869999989
 20
1764.6746920000001
 30
0.0
  0
POINT
  5
7B1F
  8
DEFPOINTS
  6
CONTINUOUS
 62
     0
 10
1423.7811869999989
 20
1204.6746920000001
 30
0.0
  0
POINT
  5
7B20
  8
DEFPOINTS
  6
CONTINUOUS
 62
     0
 10
1079.4828239999999
 20
1204.6746920000001
 30
0.0
  0
ENDBLK
  5
7AC6
  8
0
  0
BLOCK
  8
0
  2
*D5
 70
     1
 10
0.0
 20
0.0
 30
0.0
  3
*D5
  1

  0
LINE
  5
7B21
  8
3
  6
CONTINUOUS
 62
     0
 10
1218.781187
 20
1684.6746920000001
 30
0.0
 11
1162.092609
 21
1684.6746920000001
 31
0.0
  0
LINE
  5
7B22
  8
3
  6
CONTINUOUS
 62
     0
 10
1218.781187
 20
1284.6746920000001
 30
0.0
 11
1162.092609
 21
1284.6746920000001
 31
0.0
  0
LINE
  5
7B23
  8
3
  6
CONTINUOUS
 62
     0
 10
1172.092609
 20
1664.6746920000001
 30
0.0
 11
1172.092609
 21
1304.6746920000001
 31
0.0
  0
INSERT
  5
7B24
  8
3
  6
CONTINUOUS
 62
     0
  2
_OPEN
 10
1172.092609
 20
1684.6746920000001
 30
0.0
 41
20.0
 42
20.0
 43
20.0
 50
90.0
  0
INSERT
  5
7B25
  8
3
  6
CONTINUOUS
 62
     0
  2
_OPEN
 10
1172.092609
 20
1284.6746920000001
 30
0.0
 41
20.0
 42
20.0
 43
20.0
 50
270.0
  0
TEXT
  8
3
  40
30
  5
7B2E
  62
0
  72
0
  71
0
 10
1087.09
 20
1436.36
 30
0.000000
  1
400
  0
POINT
  5
7B27
  8
DEFPOINTS
  6
CONTINUOUS
 62
     0
 10
1223.7811869999989
 20
1684.6746920000001
 30
0.0
  0
POINT
  5
7B28
  8
DEFPOINTS
  6
CONTINUOUS
 62
     0
 10
1223.7811869999989
 20
1284.6746920000001
 30
0.0
  0
POINT
  5
7B29
  8
DEFPOINTS
  6
CONTINUOUS
 62
     0
 10
1172.092609
 20
1284.6746920000001
 30
0.0
  0
ENDBLK
  5
7AD3
  8
0
  0
ENDSEC
  0
SECTION
  2
ENTITIES
  0
LINE
  5
7A3A
  8
2
  6
CENTER
 10
284.79079200000001
 20
1484.6746920000001
 30
0.0
 11
854.79079200000001
 21
1484.6746920000001
 31
0.0
  0
CIRCLE
  5
7A3B
  8
1
  6
CONTINUOUS
 10
569.79079200000001
 20
1484.6746920000001
 30
0.0
 40
280.0
  0
CIRCLE
  5
7A3C
  8
1
  6
CONTINUOUS
 10
569.79079200000001
 20
1484.6746920000001
 30
0.0
 40
200.0
  0
LINE
  5
7A3D
  8
2
  6
CENTER
 10
569.79079200000001
 20
1199.6746920000001
 30
0.0
 11
569.79079200000001
 21
1769.6746920000001
 31
0.0
  0
LINE
  5
7A3E
  8
2
  6
CENTER
 10
329.79079200000001
 20
1884.6746920000001
 30
0.0
 11
329.79079200000001
 21
1474.6746920000001
 31
0.0
  0
LINE
  5
7A3F
  8
1
  6
CONTINUOUS
 10
318.79927400000003
 20
1482.3746920000001
 30
0.0
 11
351.52498900000001
 21
1482.3746920000001
 31
0.0
  0
LINE
  5
7A40
  8
1
  6
CONTINUOUS
 10
318.79927400000003
 20
1484.6746920000001
 30
0.0
 11
318.79927400000003
 21
1482.3746920000001
 31
0.0
  0
LINE
  5
7A41
  8
1
  6
CONTINUOUS
 10
351.52498900000001
 20
1484.6746920000001
 30
0.0
 11
351.52498900000001
 21
1482.3746920000001
 31
0.0
  0
LINE
  5
7A42
  8
1
  6
CONTINUOUS
 10
1623.7811869999989
 20
1684.6746920000001
 30
0.0
 11
1623.7811869999989
 21
1284.6746920000001
 31
0.0
  0
LINE
  5
7A43
  8
1
  6
CONTINUOUS
 10
1223.7811869999989
 20
1684.6746920000001
 30
0.0
 11
1223.7811869999989
 21
1284.6746920000001
 31
0.0
  0
LINE
  5
7A44
  8
1
  6
CONTINUOUS
 10
1345.675659999999
 20
1596.442867
 30
0.0
 11
1293.1371549999999
 21
1652.734123
 31
0.0
  0
LINE
  5
7A45
  8
1
  6
CONTINUOUS
 10
1343.781187
 20
1594.6746920000001
 30
0.0
 11
1418.7811869999989
 21
1664.6746920000001
 31
0.0
  0
LINE
  5
7A46
  8
1
  6
CONTINUOUS
 10
1418.7811869999989
 20
1664.6746920000001
 30
0.0
 11
1418.7811869999989
 21
1304.6746920000001
 31
0.0
  0
LINE
  5
7A47
  8
2
  6
CENTER
 10
1533.7811869999989
 20
1884.6746920000001
 30
0.0
 11
1533.7811869999989
 21
1474.6746920000001
 31
0.0
  0
LINE
  5
7A48
  8
2
  6
CENTER
 10
1313.781187
 20
1884.6746920000001
 30
0.0
 11
1313.781187
 21
1474.6746920000001
 31
0.0
  0
LINE
  5
7A49
  8
2
  6
CENTER
 10
809.79079200000001
 20
1884.6746920000001
 30
0.0
 11
809.79079200000001
 21
1474.6746920000001
 31
0.0
  0
LINE
  5
7A4A
  8
1
  6
CONTINUOUS
 10
1423.7811869999989
 20
1774.6746920000001
 30
0.0
 11
1423.7811869999989
 21
1194.6746920000001
 31
0.0
  0
LINE
  5
7A4B
  8
1
  6
CONTINUOUS
 10
788.05659500000002
 20
1484.6746920000001
 30
0.0
 11
788.05659500000002
 21
1482.3746920000001
 31
0.0
  0
LINE
  5
7A4C
  8
1
  6
CONTINUOUS
 10
820.78230999999982
 20
1484.6746920000001
 30
0.0
 11
820.78230999999982
 21
1482.3746920000001
 31
0.0
  0
LINE
  5
7A4D
  8
1
  6
CONTINUOUS
 10
820.78230999999982
 20
1482.3746920000001
 30
0.0
 11
788.05659500000002
 21
1482.3746920000001
 31
0.0
  0
LINE
  5
7A4E
  8
1
  6
CONTINUOUS
 10
1423.7811869999989
 20
1204.6746920000001
 30
0.0
 11
1223.7811869999989
 21
1284.6746920000001
 31
0.0
  0
LINE
  5
7A4F
  8
1
  6
CONTINUOUS
 10
1386.0299110000001
 20
1269.5840390000001
 30
0.0
 11
1294.28448
 21
1310.9066270000001
 31
0.0
  0
LINE
  5
7A50
  8
1
  6
CONTINUOUS
 10
1343.781187
 20
1374.6746920000001
 30
0.0
 11
1418.7811869999989
 21
1304.6746920000001
 31
0.0
  0
LINE
  5
7A51
  8
2
  6
CENTER
 10
1633.781187
 20
1484.6746920000001
 30
0.0
 11
1213.7811869999989
 21
1484.6746920000001
 31
0.0
  0
LINE
  5
7A52
  8
1
  6
CONTINUOUS
 10
1343.781187
 20
1594.6746920000001
 30
0.0
 11
1343.781187
 21
1374.6746920000001
 31
0.0
  0
LINE
  5
7A53
  8
1
  6
CONTINUOUS
 10
1345.675659999999
 20
1372.906516999999
 30
0.0
 11
1293.1371549999999
 21
1316.615260999999
 31
0.0
  0
LINE
  5
7A54
  8
1
  6
CONTINUOUS
 10
1294.28448
 20
1310.9066270000001
 30
0.0
 11
1293.1371549999999
 21
1316.615260999999
 31
0.0
  0
LINE
  5
7A55
  8
1
  6
CONTINUOUS
 10
1336.7330439999989
 20
1482.3746920000001
 30
0.0
 11
1303.919678999999
 21
1482.3746920000001
 31
0.0
  0
LINE
  5
7A56
  8
1
  6
CONTINUOUS
 10
1303.919678999999
 20
1484.6746920000001
 30
0.0
 11
1303.919678999999
 21
1482.3746920000001
 31
0.0
  0
LINE
  5
7A57
  8
1
  6
CONTINUOUS
 10
1336.7330439999989
 20
1484.6746920000001
 30
0.0
 11
1336.7330439999989
 21
1482.3746920000001
 31
0.0
  0
LINE
  5
7A58
  8
1
  6
CONTINUOUS
 10
1423.7811869999989
 20
1204.6746920000001
 30
0.0
 11
1623.7811869999989
 21
1284.6746920000001
 31
0.0
  0
LINE
  5
7A59
  8
1
  6
CONTINUOUS
 10
1524.7811869999989
 20
1424.6746920000001
 30
0.0
 11
1418.7811869999989
 21
1424.6746920000001
 31
0.0
  0
LINE
  5
7A5A
  8
1
  6
CONTINUOUS
 10
1524.7811869999989
 20
1544.6746920000001
 30
0.0
 11
1418.7811869999989
 21
1544.6746920000001
 31
0.0
  0
LINE
  5
7A5B
  8
1
  6
CONTINUOUS
 10
1434.781187
 20
1424.6746920000001
 30
0.0
 11
1434.781187
 21
1374.6746920000001
 31
0.0
  0
LINE
  5
7A5C
  8
1
  6
CONTINUOUS
 10
1434.781187
 20
1374.6746920000001
 30
0.0
 11
1423.7811869999989
 21
1374.6746920000001
 31
0.0
  0
LINE
  5
7A5D
  8
1
  6
CONTINUOUS
 10
1418.7811869999989
 20
1304.6746920000001
 30
0.0
 11
1386.0299110000001
 21
1269.5840390000001
 31
0.0
  0
LINE
  5
7A5E
  8
1
  6
CONTINUOUS
 10
1434.781187
 20
1594.6746920000001
 30
0.0
 11
1423.7811869999989
 21
1594.6746920000001
 31
0.0
  0
LINE
  5
7A5F
  8
1
  6
CONTINUOUS
 10
1434.781187
 20
1594.6746920000001
 30
0.0
 11
1434.781187
 21
1544.6746920000001
 31
0.0
  0
ARC
  5
7A60
  8
1
  6
CONTINUOUS
 10
1524.7811869999989
 20
1434.6746920000001
 30
0.0
 40
10.0
 50
270.0
 51
0.0
  0
ARC
  5
7A61
  8
1
  6
CONTINUOUS
 10
1524.7811869999989
 20
1534.6746920000001
 30
0.0
 40
10.0
 50
0.0
 51
90.0
  0
LINE
  5
7A62
  8
1
  6
CONTINUOUS
 10
1534.781187
 20
1534.6746920000001
 30
0.0
 11
1534.781187
 21
1434.6746920000001
 31
0.0
  0
LINE
  5
7A63
  8
1
  6
CONTINUOUS
 10
1510.829328999999
 20
1484.6746920000001
 30
0.0
 11
1510.829328999999
 21
1482.3746920000001
 31
0.0
  0
LINE
  5
7A64
  8
1
  6
CONTINUOUS
 10
1543.6426949999991
 20
1484.6746920000001
 30
0.0
 11
1543.6426949999991
 21
1482.3746920000001
 31
0.0
  0
LINE
  5
7A65
  8
1
  6
CONTINUOUS
 10
1510.829328999999
 20
1482.3746920000001
 30
0.0
 11
1543.6426949999991
 21
1482.3746920000001
 31
0.0
  0
LINE
  5
7A66
  8
1
  6
CONTINUOUS
 10
1423.7811869999989
 20
1764.6746920000001
 30
0.0
 11
1223.7811869999989
 21
1684.6746920000001
 31
0.0
  0
LINE
  5
7A67
  8
1
  6
CONTINUOUS
 10
1386.0299110000001
 20
1699.765345
 30
0.0
 11
1294.28448
 21
1658.4427569999989
 31
0.0
  0
LINE
  5
7A68
  8
1
  6
CONTINUOUS
 10
1294.28448
 20
1658.4427569999989
 30
0.0
 11
1293.1371549999999
 21
1652.734123
 31
0.0
  0
LINE
  5
7A69
  8
1
  6
CONTINUOUS
 10
1423.7811869999989
 20
1764.6746920000001
 30
0.0
 11
1623.7811869999989
 21
1684.6746920000001
 31
0.0
  0
LINE
  5
7A6A
  8
4
  6
CONTINUOUS
 10
1736.051948999999
 20
1487.747695
 30
0.0
 11
1870.6740139999999
 21
1487.747695
 31
0.0
  0
LINE
  5
7A6B
  8
1
  6
CONTINUOUS
 10
1418.7811869999989
 20
1664.6746920000001
 30
0.0
 11
1386.0299110000001
 21
1699.765345
 31
0.0
  0
LINE
  5
7A6C
  8
4
  6
CONTINUOUS
 10
1870.6740139999999
 20
1487.747695
 30
0.0
 11
1834.589749
 21
1474.335057
 31
0.0
  0
LINE
  5
7A6D
  8
4
  6
CONTINUOUS
 10
1870.6740139999999
 20
1487.747695
 30
0.0
 11
1834.589749
 21
1501.160333
 31
0.0
  0
LINE
  5
7A6E
  8
4
  6
CONTINUOUS
 10
1850.0
 20
500.0
 30
0.0
 11
1850.0
 21
300.0
 31
0.0
  0
LINE
  5
7A6F
  8
4
  6
CONTINUOUS
 10
1150.0
 20
500.0
 30
0.0
 11
1150.0
 21
300.0
 31
0.0
  0
LINE
  5
7A70
  8
4
  6
CONTINUOUS
 10
650.0
 20
500.0
 30
0.0
 11
650.0
 21
300.0
 31
0.0
  0
LINE
  5
7A73
  8
4
  6
CONTINUOUS
 10
650.0
 20
300.0
 30
0.0
 11
1850.0
 21
300.0
 31
0.0
  0
LINE
  5
7A74
  8
4
  6
CONTINUOUS
 10
650.0
 20
400.0
 30
0.0
 11
1850.0
 21
400.0
 31
0.0
  0
TEXT
  5
7A75
  8
4
  6
CONTINUOUS
 10
688.50208099999998
 20
431.543026
 30
0.0
 40
50.0
  1
機器名称
  0
TEXT
  5
7A76
  8
4
  6
CONTINUOUS
 10
686.258106
 20
321.64515699999993
 30
0.0
 40
50.0
  1
機器型番
  0
TEXT
  5
7A77
  8
4
  6
CONTINUOUS
 10
1177.678744999999
 20
422.57176900000002
 30
0.0
 40
50.0
  1
ミツヤダクトファン
  0
TEXT
  5
7A78
  8
4
  6
CONTINUOUS
 10
1192.4426100000001
 20
322.94390199999998
 30
0.0
 40
50.0
  1
SA#400
  0
TEXT
  5
7A7A
  8
4
  6
CONTINUOUS
 10
898.99765099999991
 20
2377.6445309999999
 30
0.0
 40
54.0
  1
天井吊形
  0
TEXT
  5
7A7B
  8
4
  6
CONTINUOUS
 10
316.16759300000001
 20
2533.8809759999999
 30
0.0
 40
72.0
  1
電動機直動式横型斜流ファン
  0
LINE
  5
7A7C
  8
4
  6
CONTINUOUS
 10
250.0
 20
2469.408754
 30
0.0
 11
1850.0
 21
2469.408754
 31
0.0
  0
LINE
  5
7A7D
  8
4
  6
CONTINUOUS
 10
250.0
 20
2669.408754
 30
0.0
 11
1850.0
 21
2669.408754
 31
0.0
  0
LINE
  5
7A7E
  8
4
  6
CONTINUOUS
 10
650.0
 20
500.0
 30
0.0
 11
1850.0
 21
500.0
 31
0.0
  0
LINE
  5
7A7F
  8
4
  6
CONTINUOUS
 10
250.0
 20
2669.408754
 30
0.0
 11
250.0
 21
2469.408754
 31
0.0
  0
TEXT
  5
7A80
  8
4
  6
CONTINUOUS
 10
382.10526199999998
 20
2382.3194779999999
 30
0.0
 40
54.0
  1
右回転後方吐出
  0
TEXT
  5
7A81
  8
4
  6
CONTINUOUS
 10
1468.9695589999999
 20
2706.0610809999998
 30
0.0
 40
56.0
  1
No.
  0
TEXT
  5
7A82
  8
4
  6
CONTINUOUS
 10
1282.355499
 20
2383.4288409999999
 30
0.0
 40
54.0
  1
縮尺：1/10
  0
LINE
  5
7A83
  8
4
  6
CONTINUOUS
 10
1850.0
 20
2669.408754
 30
0.0
 11
1850.0
 21
2469.408754
 31
0.0
  0
LINE
  5
7A85
  8
4
  6
CONTINUOUS
 10
1440.617422
 20
2681.2635829999999
 30
0.0
 11
1440.617422
 21
2786.6522620000001
 31
0.0
  0
LINE
  5
7A86
  8
4
  6
CONTINUOUS
 10
1440.617422
 20
2786.6522620000001
 30
0.0
 11
1850.0
 21
2786.6522620000001
 31
0.0
  0
LINE
  5
7A87
  8
4
  6
CONTINUOUS
 10
1850.0
 20
2786.6522620000001
 30
0.0
 11
1850.0
 21
2681.2635829999999
 31
0.0
  0
LINE
  5
7A88
  8
4
  6
CONTINUOUS
 10
1850.0
 20
2681.2635829999999
 30
0.0
 11
1440.617422
 21
2681.2635829999999
 31
0.0
  0
DIMENSION
  5
7AA0
  8
3
  6
CONTINUOUS
  2
*D1
 10
809.79079200000001
 20
1981.1274519999999
 30
0.0
 11
570.12899700000003
 21
1981.1274519999999
 31
0.0
 70
   128
 13
329.79079200000001
 23
1884.6746920000001
 33
0.0
 14
809.79079200000001
 24
1884.6746920000001
 34
0.0
1001
ACAD
1000
DSTYLE
1002
{
1070
   287
1070
     3
1070
    40
1040
10.0
1070
   143
1040
0.039
1070
   172
1070
     1
1070
   271
1070
     0
1070
   279
1070
     0
1070
   288
1070
     1
1002
}
  0
DIMENSION
  5
7AAD
  8
3
  6
CONTINUOUS
  2
*D2
 10
1533.7811869999989
 20
1940.6372570000001
 30
0.0
 11
1420.981403
 21
1940.6372570000001
 31
0.0
 70
   128
 13
1313.781187
 23
1884.6746920000001
 33
0.0
 14
1533.7811869999989
 24
1884.6746920000001
 34
0.0
1001
ACAD
1000
DSTYLE
1002
{
1070
   287
1070
     3
1070
    40
1040
10.0
1070
   143
1040
0.039
1070
   172
1070
     1
1070
   271
1070
     0
1070
   279
1070
     0
1070
   288
1070
     1
1002
}
  0
DIMENSION
  5
7ABA
  8
3
  6
CONTINUOUS
  2
*D3
 10
1623.7811869999989
 20
1998.4803910000001
 30
0.0
 11
1420.981403
 21
1998.4803910000001
 31
0.0
 70
   128
 13
1223.7811869999989
 23
1684.6746920000001
 33
0.0
 14
1623.7811869999989
 24
1684.6746920000001
 34
0.0
1001
ACAD
1000
DSTYLE
1002
{
1070
   287
1070
     3
1070
    40
1040
10.0
1070
   143
1040
0.039
1070
   172
1070
     1
1070
   271
1070
     0
1070
   279
1070
     0
1070
   288
1070
     1
1002
}
  0
DIMENSION
  5
7AC7
  8
3
  6
CONTINUOUS
  2
*D4
 10
1079.4828239999999
 20
1204.6746920000001
 30
0.0
 11
1079.4828239999999
 21
1495.2450980000001
 31
0.0
 70
   128
 13
1423.7811869999989
 23
1764.6746920000001
 33
0.0
 14
1423.7811869999989
 24
1204.6746920000001
 34
0.0
 50
90.0
1001
ACAD
1000
DSTYLE
1002
{
1070
   287
1070
     3
1070
    40
1040
10.0
1070
   143
1040
0.039
1070
   172
1070
     1
1070
   271
1070
     0
1070
   279
1070
     0
1070
   288
1070
     1
1002
}
  0
DIMENSION
  5
7AD4
  8
3
  6
CONTINUOUS
  2
*D5
 10
1172.092609
 20
1284.6746920000001
 30
0.0
 11
1172.092609
 21
1489.460787
 31
0.0
 70
   128
 13
1223.7811869999989
 23
1684.6746920000001
 33
0.0
 14
1223.7811869999989
 24
1284.6746920000001
 34
0.0
 50
90.0
1001
ACAD
1000
DSTYLE
1002
{
1070
   287
1070
     3
1070
    40
1040
10.0
1070
   143
1040
0.039
1070
   172
1070
     1
1070
   271
1070
     0
1070
   279
1070
     0
1070
   288
1070
     1
1002
}
  0
ENDSEC
  0
EOF
