  0
SECTION
  2
HEADER
  9
$ACADVER
  1
AC1009
  9
$INSBASE
 10
0.0
 20
0.0
 30
0.0
  9
$EXTMIN
 10
250.0
 20
300.0
 30
0.0
  9
$EXTMAX
 10
1850.0
 20
2786.6522620000001
 30
0.0
  9
$LIMMIN
 10
0.0
 20
0.0
  9
$LIMMAX
 10
297.0
 20
210.0
  9
$ORTHOMODE
 70
     0
  9
$REGENMODE
 70
     1
  9
$FILLMODE
 70
     0
  9
$QTEXTMODE
 70
     0
  9
$MIRRTEXT
 70
     1
  9
$DRAGMODE
 70
     2
  9
$LTSCALE
 40
100.0
  9
$OSMODE
 70
    37
  9
$ATTMODE
 70
     1
  9
$TEXTSIZE
 40
180.0
  9
$TRACEWID
 40
0.05
  9
$TEXTSTYLE
  7
STANDARD
  9
$CLAYER
  8
3
  9
$CELTYPE
  6
BYLAYER
  9
$CECOLOR
 62
   256
  9
$DIMSCALE
 40
10.0
  9
$DIMASZ
 40
2.0
  9
$DIMEXO
 40
0.5
  9
$DIMDLI
 40
10.0
  9
$DIMRND
 40
0.0
  9
$DIMDLE
 40
0.0
  9
$DIMEXE
 40
1.0
  9
$DIMTP
 40
1.0
  9
$DIMTM
 40
1.0
  9
$DIMTXT
 40
3.0
  9
$DIMCEN
 40
0.0
  9
$DIMTSZ
 40
0.0
  9
$DIMTOL
 70
     0
  9
$DIMLIM
 70
     0
  9
$DIMTIH
 70
     0
  9
$DIMTOH
 70
     0
  9
$DIMSE1
 70
     0
  9
$DIMSE2
 70
     0
  9
$DIMTAD
 70
     1
  9
$DIMZIN
 70
     8
  9
$DIMBLK
  1

  9
$DIMASO
 70
     1
  9
$DIMSHO
 70
     1
  9
$DIMPOST
  1

  9
$DIMAPOST
  1

  9
$DIMALT
 70
     0
  9
$DIMALTD
 70
     2
  9
$DIMALTF
 40
0.039
  9
$DIMLFAC
 40
1.0
  9
$DIMTOFL
 70
     1
  9
$DIMTVP
 40
0.0
  9
$DIMTIX
 70
     0
  9
$DIMSOXD
 70
     0
  9
$DIMSAH
 70
     1
  9
$DIMBLK1
  1
OPEN
  9
$DIMBLK2
  1
OPEN
  9
$DIMSTYLE
  2
IGA
  9
$DIMCLRD
 70
     0
  9
$DIMCLRE
 70
     0
  9
$DIMCLRT
 70
     0
  9
$DIMTFAC
 40
10.0
  9
$DIMGAP
 40
1.0
  9
$LUNITS
 70
     2
  9
$LUPREC
 70
     3
  9
$SKETCHINC
 40
0.1
  9
$FILLETRAD
 40
50.0
  9
$AUNITS
 70
     0
  9
$AUPREC
 70
     0
  9
$MENU
  1
acad
  9
$ELEVATION
 40
0.0
  9
$PELEVATION
 40
0.0
  9
$THICKNESS
 40
0.0
  9
$LIMCHECK
 70
     0
  9
$BLIPMODE
 70
     0
  9
$CHAMFERA
 40
0.5
  9
$CHAMFERB
 40
0.5
  9
$SKPOLY
 70
     0
  9
$TDCREATE
 40
2450725.4185773139
  9
$TDUPDATE
 40
2454953.8673329982
  9
$TDINDWG
 40
0.0029810301
  9
$TDUSRTIMER
 40
0.0029810301
  9
$USRTIMER
 70
     1
  9
$ANGBASE
 50
0.0
  9
$ANGDIR
 70
     0
  9
$PDMODE
 70
     0
  9
$PDSIZE
 40
0.0
  9
$PLINEWID
 40
0.0
  9
$COORDS
 70
     1
  9
$SPLFRAME
 70
     0
  9
$SPLINETYPE
 70
     6
  9
$SPLINESEGS
 70
     8
  9
$ATTDIA
 70
     0
  9
$ATTREQ
 70
     1
  9
$HANDLING
 70
 10241
  9
$HANDSEED
  5
7BAA
  9
$SURFTAB1
 70
     6
  9
$SURFTAB2
 70
     6
  9
$SURFTYPE
 70
     6
  9
$SURFU
 70
     6
  9
$SURFV
 70
     6
  9
$UCSNAME
  2

  9
$UCSORG
 10
0.0
 20
0.0
 30
0.0
  9
$UCSXDIR
 10
1.0
 20
0.0
 30
0.0
  9
$UCSYDIR
 10
0.0
 20
1.0
 30
0.0
  9
$PUCSNAME
  2

  9
$PUCSORG
 10
0.0
 20
0.0
 30
0.0
  9
$PUCSXDIR
 10
1.0
 20
0.0
 30
0.0
  9
$PUCSYDIR
 10
0.0
 20
1.0
 30
0.0
  9
$USERI1
 70
     0
  9
$USERI2
 70
     0
  9
$USERI3
 70
     0
  9
$USERI4
 70
     0
  9
$USERI5
 70
     0
  9
$USERR1
 40
0.0
  9
$USERR2
 40
0.0
  9
$USERR3
 40
0.0
  9
$USERR4
 40
0.0
  9
$USERR5
 40
0.0
  9
$WORLDVIEW
 70
     1
  9
$SHADEDGE
 70
     3
  9
$SHADEDIF
 70
    70
  9
$TILEMODE
 70
     1
  9
$MAXACTVP
 70
    16
  9
$PLIMCHECK
 70
     0
  9
$PEXTMIN
 10
1.0000000000000000E+020
 20
1.0000000000000000E+020
 30
1.0000000000000000E+020
  9
$PEXTMAX
 10
-1.0000000000000000E+020
 20
-1.0000000000000000E+020
 30
-1.0000000000000000E+020
  9
$PLIMMIN
 10
0.0
 20
0.0
  9
$PLIMMAX
 10
12.0
 20
9.0
  9
$UNITMODE
 70
     0
  9
$VISRETAIN
 70
     0
  9
$PLINEGEN
 70
     0
  9
$PSLTSCALE
 70
     1
  0
ENDSEC
  0
SECTION
  2
TABLES
  0
TABLE
  2
VPORT
 70
     2
  0
VPORT
  2
*ACTIVE
 70
     0
 10
0.0
 20
0.0
 11
1.0
 21
1.0
 12
1270.8191826755401
 22
515.90875066278613
 13
0.0
 23
0.0
 14
10.0
 24
10.0
 15
10.0
 25
10.0
 16
0.0
 26
0.0
 36
1.0
 17
0.0
 27
0.0
 37
0.0
 40
1051.372777798161
 41
1.5051150895140659
 42
50.0
 43
0.0
 44
0.0
 50
0.0
 51
0.0
 71
     0
 72
   100
 73
     1
 74
     0
 75
     0
 76
     0
 77
     0
 78
     0
  0
ENDTAB
  0
TABLE
  2
LTYPE
 70
     2
  0
LTYPE
  2
CONTINUOUS
 70
     0
  3
Solid line
 72
    65
 73
     0
 40
0.0
  0
LTYPE
  2
CENTER
 70
     0
  3
____ _ ____ _ ____ _ ____ _ ____ _ ____ _ ____ 
 72
    65
 73
     4
 40
2.0
 49
1.25
 49
-0.25
 49
0.25
 49
-0.25
  0
ENDTAB
  0
TABLE
  2
LAYER
 70
     6
  0
LAYER
  2
0
 70
     0
 62
     7
  6
CONTINUOUS
  0
LAYER
  2
3
 70
     0
 62
     2
  6
CONTINUOUS
  0
LAYER
  2
2
 70
     0
 62
     3
  6
CENTER
  0
LAYER
  2
1
 70
     0
 62
     4
  6
CONTINUOUS
  0
LAYER
  2
4
 70
     0
 62
     7
  6
CONTINUOUS
  0
LAYER
  2
DEFPOINTS
 70
     0
 62
     7
  6
CONTINUOUS
  0
ENDTAB
  0
TABLE
  2
STYLE
 70
     1
  0
STYLE
  2
STANDARD
 70
     0
 40
0.0
 41
1.0
 50
0.0
 71
     0
 42
180.0
  3
simplex.shx
  4
extfont.shx
  0
ENDTAB
  0
TABLE
  2
VIEW
 70
     0
  0
ENDTAB
  0
TABLE
  2
UCS
 70
     0
  0
ENDTAB
  0
TABLE
  2
APPID
 70
     1
  0
APPID
  2
ACAD
 70
     0
  0
ENDTAB
  0
TABLE
  2
DIMSTYLE
 70
     1
  0
DIMSTYLE
  2
IGA
 70
     0
  3

  4

  5

  6
OPEN
  7
OPEN
 40
2.0
 41
2.0
 42
0.5
 43
10.0
 44
1.0
 45
0.0
 46
0.0
 47
1.0
 48
1.0
140
3.0
141
0.0
142
0.0
143
0.03937
144
1.0
145
0.0
146
10.0
147
1.0
 71
     0
 72
     0
 73
     0
 74
     0
 75
     0
 76
     0
 77
     1
 78
     8
170
     0
171
     2
172
     0
173
     1
174
     0
175
     0
176
     0
177
     0
178
     0
  0
ENDTAB
  0
ENDSEC
  0
SECTION
  2
BLOCKS
  0
BLOCK
  8
0
  2
$MODEL_SPACE
 70
     0
 10
0.0
 20
0.0
 30
0.0
  3
$MODEL_SPACE
  1

  0
ENDBLK
  5
1B
  8
0
  0
BLOCK
 67
     1
  8
0
  2
$PAPER_SPACE
 70
     0
 10
0.0
 20
0.0
 30
0.0
  3
$PAPER_SPACE
  1

  0
ENDBLK
  5
18
 67
     1
  8
0
  0
BLOCK
  8
0
  2
_OPEN
 70
     0
 10
0.0
 20
0.0
 30
0.0
  3
_OPEN
  1

  0
LINE
  5
7A6D
  8
0
  6
BYBLOCK
 62
     0
 10
-1.0
 20
0.166667
 30
0.0
 11
0.0
 21
0.0
 31
0.0
  0
LINE
  5
7A6E
  8
0
  6
BYBLOCK
 62
     0
 10
0.0
 20
0.0
 30
0.0
 11
-1.0
 21
-0.166667
 31
0.0
  0
LINE
  5
7A6F
  8
0
  6
BYBLOCK
 62
     0
 10
0.0
 20
0.0
 30
0.0
 11
-1.0
 21
0.0
 31
0.0
  0
ENDBLK
  5
7A70
  8
0
  0
BLOCK
  8
0
  2
*D1
 70
     1
 10
0.0
 20
0.0
 30
0.0
  3
*D1
  1

  0
LINE
  5
7B78
  8
3
  6
CONTINUOUS
 62
     0
 10
1248.850371
 20
1832.7694499999991
 30
0.0
 11
1248.850371
 21
1852.3039209999999
 31
0.0
  0
LINE
  5
7B79
  8
3
  6
CONTINUOUS
 62
     0
 10
1428.850371
 20
1832.7694499999991
 30
0.0
 11
1428.850371
 21
1852.3039209999999
 31
0.0
  0
LINE
  5
7B7A
  8
3
  6
CONTINUOUS
 62
     0
 10
1268.850371
 20
1842.3039209999999
 30
0.0
 11
1408.8503709999991
 21
1842.3039209999999
 31
0.0
  0
INSERT
  5
7B7B
  8
3
  6
CONTINUOUS
 62
     0
  2
_OPEN
 10
1248.850371
 20
1842.3039209999999
 30
0.0
 41
20.0
 42
20.0
 43
20.0
 50
180.0
  0
INSERT
  5
7B7C
  8
3
  6
CONTINUOUS
 62
     0
  2
_OPEN
 10
1428.850371
 20
1842.3039209999999
 30
0.0
 41
20.0
 42
20.0
 43
20.0
  0
TEXT
  8
3
  40
30
  5
7BA5
  62
0
  72
0
  71
0
 10
1268.37
 20
1814.20
 30
0.000000
  1
180
  0
POINT
  5
7B7E
  8
DEFPOINTS
  6
CONTINUOUS
 62
     0
 10
1248.850371
 20
1827.7694499999991
 30
0.0
  0
POINT
  5
7B7F
  8
DEFPOINTS
  6
CONTINUOUS
 62
     0
 10
1428.850371
 20
1827.7694499999991
 30
0.0
  0
POINT
  5
7B80
  8
DEFPOINTS
  6
CONTINUOUS
 62
     0
 10
1428.850371
 20
1842.3039209999999
 30
0.0
  0
ENDBLK
  5
7A7D
  8
0
  0
BLOCK
  8
0
  2
*D2
 70
     1
 10
0.0
 20
0.0
 30
0.0
  3
*D2
  1

  0
LINE
  5
7B81
  8
3
  6
CONTINUOUS
 62
     0
 10
1193.850371
 20
1557.76945
 30
0.0
 11
1193.850371
 21
1898.578434
 31
0.0
  0
LINE
  5
7B82
  8
3
  6
CONTINUOUS
 62
     0
 10
1483.8503709999991
 20
1557.76945
 30
0.0
 11
1483.8503709999991
 21
1898.578434
 31
0.0
  0
LINE
  5
7B83
  8
3
  6
CONTINUOUS
 62
     0
 10
1213.850371
 20
1888.578434
 30
0.0
 11
1463.850371
 21
1888.578434
 31
0.0
  0
INSERT
  5
7B84
  8
3
  6
CONTINUOUS
 62
     0
  2
_OPEN
 10
1193.850371
 20
1888.578434
 30
0.0
 41
20.0
 42
20.0
 43
20.0
 50
180.0
  0
INSERT
  5
7B85
  8
3
  6
CONTINUOUS
 62
     0
  2
_OPEN
 10
1483.8503709999991
 20
1888.578434
 30
0.0
 41
20.0
 42
20.0
 43
20.0
  0
TEXT
  8
3
  40
30
  5
7BA6
  62
0
  72
0
  71
0
 10
1274.16
 20
1860.48
 30
0.000000
  1
290
  0
POINT
  5
7B87
  8
DEFPOINTS
  6
CONTINUOUS
 62
     0
 10
1193.850371
 20
1552.76945
 30
0.0
  0
POINT
  5
7B88
  8
DEFPOINTS
  6
CONTINUOUS
 62
     0
 10
1483.8503709999991
 20
1552.76945
 30
0.0
  0
POINT
  5
7B89
  8
DEFPOINTS
  6
CONTINUOUS
 62
     0
 10
1483.8503709999991
 20
1888.578434
 30
0.0
  0
ENDBLK
  5
7A8A
  8
0
  0
BLOCK
  8
0
  2
*D3
 70
     1
 10
0.0
 20
0.0
 30
0.0
  3
*D3
  1

  0
LINE
  5
7B8A
  8
3
  6
CONTINUOUS
 62
     0
 10
1188.850371
 20
1552.76945
 30
0.0
 11
1081.059043
 21
1552.76945
 31
0.0
  0
LINE
  5
7B8B
  8
3
  6
CONTINUOUS
 62
     0
 10
1188.850371
 20
1302.76945
 30
0.0
 11
1081.059043
 21
1302.76945
 31
0.0
  0
LINE
  5
7B8C
  8
3
  6
CONTINUOUS
 62
     0
 10
1091.059043
 20
1532.7694499999991
 30
0.0
 11
1091.059043
 21
1322.76945
 31
0.0
  0
INSERT
  5
7B8D
  8
3
  6
CONTINUOUS
 62
     0
  2
_OPEN
 10
1091.059043
 20
1552.76945
 30
0.0
 41
20.0
 42
20.0
 43
20.0
 50
90.0
  0
INSERT
  5
7B8E
  8
3
  6
CONTINUOUS
 62
     0
  2
_OPEN
 10
1091.059043
 20
1302.76945
 30
0.0
 41
20.0
 42
20.0
 43
20.0
 50
270.0
  0
TEXT
  8
3
  40
30
  5
7BA7
  62
0
  72
0
  71
0
 10
1006.06
 20
1378.52
 30
0.000000
  1
250
  0
POINT
  5
7B90
  8
DEFPOINTS
  6
CONTINUOUS
 62
     0
 10
1193.850371
 20
1552.76945
 30
0.0
  0
POINT
  5
7B91
  8
DEFPOINTS
  6
CONTINUOUS
 62
     0
 10
1193.850371
 20
1302.76945
 30
0.0
  0
POINT
  5
7B92
  8
DEFPOINTS
  6
CONTINUOUS
 62
     0
 10
1091.059043
 20
1302.76945
 30
0.0
  0
ENDBLK
  5
7A97
  8
0
  0
BLOCK
  8
0
  2
*D4
 70
     1
 10
0.0
 20
0.0
 30
0.0
  3
*D4
  1

  0
LINE
  5
7B93
  8
3
  6
CONTINUOUS
 62
     0
 10
1333.850371
 20
1617.76945
 30
0.0
 11
1017.389811
 21
1617.76945
 31
0.0
  0
LINE
  5
7B94
  8
3
  6
CONTINUOUS
 62
     0
 10
1333.850371
 20
1237.76945
 30
0.0
 11
1017.389811
 21
1237.76945
 31
0.0
  0
LINE
  5
7B95
  8
3
  6
CONTINUOUS
 62
     0
 10
1027.389811
 20
1597.76945
 30
0.0
 11
1027.389811
 21
1257.76945
 31
0.0
  0
INSERT
  5
7B96
  8
3
  6
CONTINUOUS
 62
     0
  2
_OPEN
 10
1027.389811
 20
1617.76945
 30
0.0
 41
20.0
 42
20.0
 43
20.0
 50
90.0
  0
INSERT
  5
7B97
  8
3
  6
CONTINUOUS
 62
     0
  2
_OPEN
 10
1027.389811
 20
1237.76945
 30
0.0
 41
20.0
 42
20.0
 43
20.0
 50
270.0
  0
TEXT
  8
3
  40
30
  5
7BA8
  62
0
  72
0
  71
0
 10
942.390
 20
1372.73
 30
0.000000
  1
380
  0
POINT
  5
7B99
  8
DEFPOINTS
  6
CONTINUOUS
 62
     0
 10
1338.850371
 20
1617.76945
 30
0.0
  0
POINT
  5
7B9A
  8
DEFPOINTS
  6
CONTINUOUS
 62
     0
 10
1338.850371
 20
1237.76945
 30
0.0
  0
POINT
  5
7B9B
  8
DEFPOINTS
  6
CONTINUOUS
 62
     0
 10
1027.389811
 20
1237.76945
 30
0.0
  0
ENDBLK
  5
7ABB
  8
0
  0
BLOCK
  8
0
  2
*D5
 70
     1
 10
0.0
 20
0.0
 30
0.0
  3
*D5
  1

  0
LINE
  5
7B9C
  8
3
  6
CONTINUOUS
 62
     0
 10
409.181646
 20
1832.7694499999991
 30
0.0
 11
409.181646
 21
1898.578434
 31
0.0
  0
LINE
  5
7B9D
  8
3
  6
CONTINUOUS
 62
     0
 10
734.181646
 20
1832.7694499999991
 30
0.0
 11
734.181646
 21
1898.578434
 31
0.0
  0
LINE
  5
7B9E
  8
3
  6
CONTINUOUS
 62
     0
 10
429.18164599999989
 20
1888.578434
 30
0.0
 11
714.181646
 21
1888.578434
 31
0.0
  0
INSERT
  5
7B9F
  8
3
  6
CONTINUOUS
 62
     0
  2
_OPEN
 10
409.181646
 20
1888.578434
 30
0.0
 41
20.0
 42
20.0
 43
20.0
 50
180.0
  0
INSERT
  5
7BA0
  8
3
  6
CONTINUOUS
 62
     0
  2
_OPEN
 10
734.181646
 20
1888.578434
 30
0.0
 41
20.0
 42
20.0
 43
20.0
  0
TEXT
  8
3
  40
30
  5
7BA9
  62
0
  72
0
  71
0
 10
498.553
 20
1860.48
 30
0.000000
  1
325
  0
POINT
  5
7BA2
  8
DEFPOINTS
  6
CONTINUOUS
 62
     0
 10
409.181646
 20
1827.7694499999991
 30
0.0
  0
POINT
  5
7BA3
  8
DEFPOINTS
  6
CONTINUOUS
 62
     0
 10
734.181646
 20
1827.7694499999991
 30
0.0
  0
POINT
  5
7BA4
  8
DEFPOINTS
  6
CONTINUOUS
 62
     0
 10
734.181646
 20
1888.578434
 30
0.0
  0
ENDBLK
  5
7AC7
  8
0
  0
ENDSEC
  0
SECTION
  2
ENTITIES
  0
CIRCLE
  5
7A37
  8
1
  6
CONTINUOUS
 10
571.681646
 20
1427.76945
 30
0.0
 40
125.0
  0
CIRCLE
  5
7A38
  8
1
  6
CONTINUOUS
 10
571.681646
 20
1427.76945
 30
0.0
 40
190.0
  0
LINE
  5
7A39
  8
2
  6
CENTER
 10
361.68164599999989
 20
1427.76945
 30
0.0
 11
781.681646
 21
1427.76945
 31
0.0
  0
LINE
  5
7A3A
  8
2
  6
CENTER
 10
409.181646
 20
1827.7694499999991
 30
0.0
 11
409.181646
 21
1417.76945
 31
0.0
  0
LINE
  5
7A3B
  8
2
  6
CENTER
 10
571.681646
 20
1637.76945
 30
0.0
 11
571.681646
 21
1217.76945
 31
0.0
  0
LINE
  5
7A3C
  8
1
  6
CONTINUOUS
 10
398.181646
 20
1425.4694500000001
 30
0.0
 11
427.24019699999991
 21
1425.4694500000001
 31
0.0
  0
LINE
  5
7A3D
  8
1
  6
CONTINUOUS
 10
427.24019699999991
 20
1427.76945
 30
0.0
 11
427.24019699999991
 21
1425.4694500000001
 31
0.0
  0
LINE
  5
7A3E
  8
1
  6
CONTINUOUS
 10
398.181646
 20
1427.76945
 30
0.0
 11
398.181646
 21
1425.4694500000001
 31
0.0
  0
LINE
  5
7A3F
  8
2
  6
CENTER
 10
1428.850371
 20
1827.7694499999991
 30
0.0
 11
1428.850371
 21
1392.0121079999999
 31
0.0
  0
LINE
  5
7A40
  8
2
  6
CENTER
 10
1248.850371
 20
1827.7694499999991
 30
0.0
 11
1248.850371
 21
1395.822946
 31
0.0
  0
LINE
  5
7A41
  8
2
  6
CENTER
 10
734.181646
 20
1827.7694499999991
 30
0.0
 11
734.181646
 21
1417.76945
 31
0.0
  0
LINE
  5
7A42
  8
1
  6
CONTINUOUS
 10
1298.3160310000001
 20
1578.8114779999989
 30
0.0
 11
1239.2754729999999
 21
1540.3910269999999
 31
0.0
  0
LINE
  5
7A43
  8
1
  6
CONTINUOUS
 10
1298.3160310000001
 20
1578.8114779999989
 30
0.0
 11
1331.850371
 21
1537.76945
 31
0.0
  0
LINE
  5
7A44
  8
1
  6
CONTINUOUS
 10
1338.850371
 20
1617.76945
 30
0.0
 11
1338.850371
 21
1237.76945
 31
0.0
  0
LINE
  5
7A45
  8
1
  6
CONTINUOUS
 10
1483.8503709999991
 20
1552.76945
 30
0.0
 11
1338.850371
 21
1617.76945
 31
0.0
  0
LINE
  5
7A46
  8
1
  6
CONTINUOUS
 10
1338.850371
 20
1617.76945
 30
0.0
 11
1193.850371
 21
1552.76945
 31
0.0
  0
LINE
  5
7A47
  8
1
  6
CONTINUOUS
 10
745.18164599999989
 20
1427.76945
 30
0.0
 11
745.18164599999989
 21
1425.4694500000001
 31
0.0
  0
LINE
  5
7A48
  8
1
  6
CONTINUOUS
 10
716.12309500000003
 20
1427.76945
 30
0.0
 11
716.12309500000003
 21
1425.4694500000001
 31
0.0
  0
LINE
  5
7A49
  8
1
  6
CONTINUOUS
 10
745.18164599999989
 20
1425.4694500000001
 30
0.0
 11
716.12309500000003
 21
1425.4694500000001
 31
0.0
  0
LINE
  5
7A4A
  8
1
  6
CONTINUOUS
 10
1298.3160310000001
 20
1276.7274219999999
 30
0.0
 11
1239.2754729999999
 21
1315.1478729999999
 31
0.0
  0
LINE
  5
7A4B
  8
1
  6
CONTINUOUS
 10
1290.850371
 20
1351.26945
 30
0.0
 11
1239.3743539999989
 21
1320.4438170000001
 31
0.0
  0
LINE
  5
7A4C
  8
1
  6
CONTINUOUS
 10
1290.850371
 20
1504.2694499999991
 30
0.0
 11
1239.3743539999989
 21
1535.0950829999999
 31
0.0
  0
LINE
  5
7A4D
  8
2
  6
CENTER
 10
1503.850371
 20
1427.76945
 30
0.0
 11
1173.850371
 21
1427.76945
 31
0.0
  0
LINE
  5
7A4E
  8
1
  6
CONTINUOUS
 10
1270.070093
 20
1425.4694500000001
 30
0.0
 11
1237.219758
 21
1425.4694500000001
 31
0.0
  0
LINE
  5
7A4F
  8
1
  6
CONTINUOUS
 10
1193.850371
 20
1302.76945
 30
0.0
 11
1338.850371
 21
1237.76945
 31
0.0
  0
LINE
  5
7A50
  8
1
  6
CONTINUOUS
 10
1193.850371
 20
1552.76945
 30
0.0
 11
1193.850371
 21
1302.76945
 31
0.0
  0
LINE
  5
7A51
  8
1
  6
CONTINUOUS
 10
1239.3743539999989
 20
1320.4438170000001
 30
0.0
 11
1239.2754729999999
 21
1315.1478729999999
 31
0.0
  0
LINE
  5
7A52
  8
1
  6
CONTINUOUS
 10
1239.3743539999989
 20
1535.0950829999999
 30
0.0
 11
1239.2754729999999
 21
1540.3910269999999
 31
0.0
  0
LINE
  5
7A53
  8
1
  6
CONTINUOUS
 10
1237.219758
 20
1427.76945
 30
0.0
 11
1237.219758
 21
1425.4694500000001
 31
0.0
  0
LINE
  5
7A54
  8
1
  6
CONTINUOUS
 10
1442.350371
 20
1377.76945
 30
0.0
 11
1331.850371
 21
1377.76945
 31
0.0
  0
LINE
  5
7A55
  8
1
  6
CONTINUOUS
 10
1442.350371
 20
1477.76945
 30
0.0
 11
1331.850371
 21
1477.76945
 31
0.0
  0
LINE
  5
7A56
  8
1
  6
CONTINUOUS
 10
1407.6306489999999
 20
1425.4694500000001
 30
0.0
 11
1440.480984
 21
1425.4694500000001
 31
0.0
  0
LINE
  5
7A57
  8
1
  6
CONTINUOUS
 10
1338.850371
 20
1237.76945
 30
0.0
 11
1483.8503709999991
 21
1302.76945
 31
0.0
  0
LINE
  5
7A58
  8
1
  6
CONTINUOUS
 10
1353.350371
 20
1377.76945
 30
0.0
 11
1353.350371
 21
1343.26945
 31
0.0
  0
LINE
  5
7A59
  8
1
  6
CONTINUOUS
 10
1290.850371
 20
1504.2694499999991
 30
0.0
 11
1290.850371
 21
1351.26945
 31
0.0
  0
LINE
  5
7A5A
  8
1
  6
CONTINUOUS
 10
1331.850371
 20
1537.76945
 30
0.0
 11
1331.850371
 21
1317.76945
 31
0.0
  0
LINE
  5
7A5B
  8
1
  6
CONTINUOUS
 10
1353.350371
 20
1343.26945
 30
0.0
 11
1338.850371
 21
1343.26945
 31
0.0
  0
LINE
  5
7A5C
  8
1
  6
CONTINUOUS
 10
1298.3160310000001
 20
1276.7274219999999
 30
0.0
 11
1331.850371
 21
1317.76945
 31
0.0
  0
LINE
  5
7A5D
  8
1
  6
CONTINUOUS
 10
1331.850371
 20
1317.76945
 30
0.0
 11
1290.850371
 21
1351.26945
 31
0.0
  0
LINE
  5
7A5E
  8
1
  6
CONTINUOUS
 10
1353.350371
 20
1512.2694499999991
 30
0.0
 11
1338.850371
 21
1512.2694499999991
 31
0.0
  0
LINE
  5
7A5F
  8
1
  6
CONTINUOUS
 10
1331.850371
 20
1537.76945
 30
0.0
 11
1290.850371
 21
1504.2694499999991
 31
0.0
  0
LINE
  5
7A60
  8
1
  6
CONTINUOUS
 10
1270.070093
 20
1427.76945
 30
0.0
 11
1270.070093
 21
1425.4694500000001
 31
0.0
  0
LINE
  5
7A61
  8
1
  6
CONTINUOUS
 10
1353.350371
 20
1512.2694499999991
 30
0.0
 11
1353.350371
 21
1477.76945
 31
0.0
  0
LINE
  5
7A62
  8
1
  6
CONTINUOUS
 10
1407.6306489999999
 20
1427.76945
 30
0.0
 11
1407.6306489999999
 21
1425.4694500000001
 31
0.0
  0
LINE
  5
7A63
  8
1
  6
CONTINUOUS
 10
1483.8503709999991
 20
1552.76945
 30
0.0
 11
1483.8503709999991
 21
1302.76945
 31
0.0
  0
ARC
  5
7A64
  8
1
  6
CONTINUOUS
 10
1442.350371
 20
1387.76945
 30
0.0
 40
10.0
 50
270.0
 51
0.0
  0
ARC
  5
7A65
  8
1
  6
CONTINUOUS
 10
1442.350371
 20
1467.76945
 30
0.0
 40
10.0
 50
0.0
 51
90.0
  0
LINE
  5
7A66
  8
1
  6
CONTINUOUS
 10
1452.350371
 20
1467.76945
 30
0.0
 11
1452.350371
 21
1387.76945
 31
0.0
  0
LINE
  5
7A67
  8
1
  6
CONTINUOUS
 10
1440.480984
 20
1427.76945
 30
0.0
 11
1440.480984
 21
1425.4694500000001
 31
0.0
  0
LINE
  5
7A68
  8
4
  6
CONTINUOUS
 10
1552.207259
 20
1428.407866
 30
0.0
 11
1686.829322999999
 21
1428.407866
 31
0.0
  0
LINE
  5
7A69
  8
4
  6
CONTINUOUS
 10
1686.829322999999
 20
1428.407866
 30
0.0
 11
1650.7450590000001
 21
1414.9952270000001
 31
0.0
  0
LINE
  5
7A6A
  8
4
  6
CONTINUOUS
 10
1686.829322999999
 20
1428.407866
 30
0.0
 11
1650.7450590000001
 21
1441.8205039999989
 31
0.0
  0
DIMENSION
  5
7A7E
  8
3
  6
CONTINUOUS
  2
*D1
 10
1428.850371
 20
1842.3039209999999
 30
0.0
 11
1328.371617
 21
1842.3039209999999
 31
0.0
 70
   128
 13
1248.850371
 23
1827.7694499999991
 33
0.0
 14
1428.850371
 24
1827.7694499999991
 34
0.0
1001
ACAD
1000
DSTYLE
1002
{
1070
   287
1070
     3
1070
   287
1070
     3
1070
    40
1040
10.0
1070
   143
1040
0.039
1070
   172
1070
     1
1070
   271
1070
     0
1070
   279
1070
     0
1070
   288
1070
     1
1002
}
  0
DIMENSION
  5
7A8B
  8
3
  6
CONTINUOUS
  2
*D2
 10
1483.8503709999991
 20
1888.578434
 30
0.0
 11
1334.1597320000001
 21
1888.578434
 31
0.0
 70
   128
 13
1193.850371
 23
1552.76945
 33
0.0
 14
1483.8503709999991
 24
1552.76945
 34
0.0
1001
ACAD
1000
DSTYLE
1002
{
1070
   287
1070
     3
1070
   287
1070
     3
1070
    40
1040
10.0
1070
   143
1040
0.039
1070
   172
1070
     1
1070
   271
1070
     0
1070
   279
1070
     0
1070
   288
1070
     1
1002
}
  0
DIMENSION
  5
7A98
  8
3
  6
CONTINUOUS
  2
*D3
 10
1091.059043
 20
1302.76945
 30
0.0
 11
1091.059043
 21
1431.6176459999999
 31
0.0
 70
   128
 13
1193.850371
 23
1552.76945
 33
0.0
 14
1193.850371
 24
1302.76945
 34
0.0
 50
90.0
1001
ACAD
1000
DSTYLE
1002
{
1070
   287
1070
     3
1070
   287
1070
     3
1070
    40
1040
10.0
1070
   143
1040
0.039
1070
   172
1070
     1
1070
   271
1070
     0
1070
   279
1070
     0
1070
   288
1070
     1
1002
}
  0
DIMENSION
  5
7AA5
  8
3
  6
CONTINUOUS
  2
*D4
 10
1027.389811
 20
1237.76945
 30
0.0
 11
1027.389811
 21
1425.8333359999999
 31
0.0
 70
   128
 13
1338.850371
 23
1617.76945
 33
0.0
 14
1338.850371
 24
1237.76945
 34
0.0
 50
90.0
1001
ACAD
1000
DSTYLE
1002
{
1070
   287
1070
     3
1070
   287
1070
     3
1070
    40
1040
10.0
1070
   143
1040
0.039
1070
   172
1070
     1
1070
   271
1070
     0
1070
   279
1070
     0
1070
   288
1070
     1
1002
}
  0
DIMENSION
  5
7AC8
  8
3
  6
CONTINUOUS
  2
*D5
 10
734.181646
 20
1888.578434
 30
0.0
 11
558.55276700000002
 21
1888.578434
 31
0.0
 70
   128
 13
409.181646
 23
1827.7694499999991
 33
0.0
 14
734.181646
 24
1827.7694499999991
 34
0.0
1001
ACAD
1000
DSTYLE
1002
{
1070
   287
1070
     3
1070
   287
1070
     3
1070
    40
1040
10.0
1070
   143
1040
0.039
1070
   172
1070
     1
1070
   271
1070
     0
1070
   279
1070
     0
1070
   288
1070
     1
1002
}
  0
LINE
  5
7AC9
  8
4
  6
CONTINUOUS
 10
1850.0
 20
500.0
 30
0.0
 11
1850.0
 21
300.0
 31
0.0
  0
LINE
  5
7ACA
  8
4
  6
CONTINUOUS
 10
1150.0
 20
500.0
 30
0.0
 11
1150.0
 21
300.0
 31
0.0
  0
LINE
  5
7ACB
  8
4
  6
CONTINUOUS
 10
650.0
 20
500.0
 30
0.0
 11
650.0
 21
300.0
 31
0.0
  0
LINE
  5
7ACE
  8
4
  6
CONTINUOUS
 10
650.0
 20
300.0
 30
0.0
 11
1850.0
 21
300.0
 31
0.0
  0
LINE
  5
7ACF
  8
4
  6
CONTINUOUS
 10
650.0
 20
400.0
 30
0.0
 11
1850.0
 21
400.0
 31
0.0
  0
TEXT
  5
7AD0
  8
4
  6
CONTINUOUS
 10
688.50208099999998
 20
431.543026
 30
0.0
 40
50.0
  1
機器名称
  0
TEXT
  5
7AD1
  8
4
  6
CONTINUOUS
 10
686.258106
 20
321.64515699999993
 30
0.0
 40
50.0
  1
機器型番
  0
TEXT
  5
7AD2
  8
4
  6
CONTINUOUS
 10
1177.678744999999
 20
422.57176900000002
 30
0.0
 40
50.0
  1
ミツヤダクトファン
  0
TEXT
  5
7AD3
  8
4
  6
CONTINUOUS
 10
1186.6544960000001
 20
317.159584
 30
0.0
 40
50.0
  1
SA#250
  0
TEXT
  5
7AD5
  8
4
  6
CONTINUOUS
 10
846.15192999999999
 20
2383.4288409999999
 30
0.0
 40
54.0
  1
天井吊形
  0
TEXT
  5
7AD6
  8
4
  6
CONTINUOUS
 10
426.14171299999992
 20
2533.8809759999999
 30
0.0
 40
72.0
  1
電動機直動式横型斜流ファン
  0
LINE
  5
7AD7
  8
4
  6
CONTINUOUS
 10
250.0
 20
2469.408754
 30
0.0
 11
1850.0
 21
2469.408754
 31
0.0
  0
LINE
  5
7AD8
  8
4
  6
CONTINUOUS
 10
250.0
 20
2669.408754
 30
0.0
 11
1850.0
 21
2669.408754
 31
0.0
  0
LINE
  5
7AD9
  8
4
  6
CONTINUOUS
 10
650.0
 20
500.0
 30
0.0
 11
1850.0
 21
500.0
 31
0.0
  0
LINE
  5
7ADA
  8
4
  6
CONTINUOUS
 10
250.0
 20
2669.408754
 30
0.0
 11
250.0
 21
2469.408754
 31
0.0
  0
TEXT
  5
7ADB
  8
4
  6
CONTINUOUS
 10
323.47141699999992
 20
2382.3194779999999
 30
0.0
 40
54.0
  1
右回転後方吐出
  0
TEXT
  5
7ADC
  8
4
  6
CONTINUOUS
 10
1468.9695589999999
 20
2706.0610809999998
 30
0.0
 40
56.0
  1
No.
  0
TEXT
  5
7ADD
  8
4
  6
CONTINUOUS
 10
1311.296063
 20
2383.4288409999999
 30
0.0
 40
54.0
  1
縮尺：1/10
  0
LINE
  5
7ADE
  8
4
  6
CONTINUOUS
 10
1850.0
 20
2669.408754
 30
0.0
 11
1850.0
 21
2469.408754
 31
0.0
  0
LINE
  5
7AE0
  8
4
  6
CONTINUOUS
 10
1440.617422
 20
2681.2635829999999
 30
0.0
 11
1440.617422
 21
2786.6522620000001
 31
0.0
  0
LINE
  5
7AE1
  8
4
  6
CONTINUOUS
 10
1440.617422
 20
2786.6522620000001
 30
0.0
 11
1850.0
 21
2786.6522620000001
 31
0.0
  0
LINE
  5
7AE2
  8
4
  6
CONTINUOUS
 10
1850.0
 20
2786.6522620000001
 30
0.0
 11
1850.0
 21
2681.2635829999999
 31
0.0
  0
LINE
  5
7AE3
  8
4
  6
CONTINUOUS
 10
1850.0
 20
2681.2635829999999
 30
0.0
 11
1440.617422
 21
2681.2635829999999
 31
0.0
  0
ENDSEC
  0
EOF
