  0
SECTION
  2
HEADER
  9
$ACADVER
  1
AC1009
  9
$INSBASE
 10
0.0
 20
0.0
 30
0.0
  9
$EXTMIN
 10
250.0
 20
300.0
 30
0.0
  9
$EXTMAX
 10
1850.0
 20
2786.6522620000001
 30
0.0
  9
$LIMMIN
 10
0.0
 20
0.0
  9
$LIMMAX
 10
297.0
 20
210.0
  9
$ORTHOMODE
 70
     0
  9
$REGENMODE
 70
     1
  9
$FILLMODE
 70
     0
  9
$QTEXTMODE
 70
     0
  9
$MIRRTEXT
 70
     1
  9
$DRAGMODE
 70
     2
  9
$LTSCALE
 40
100.0
  9
$OSMODE
 70
    37
  9
$ATTMODE
 70
     1
  9
$TEXTSIZE
 40
180.0
  9
$TRACEWID
 40
0.05
  9
$TEXTSTYLE
  7
STANDARD
  9
$CLAYER
  8
3
  9
$CELTYPE
  6
BYLAYER
  9
$CECOLOR
 62
   256
  9
$DIMSCALE
 40
10.0
  9
$DIMASZ
 40
2.0
  9
$DIMEXO
 40
0.5
  9
$DIMDLI
 40
10.0
  9
$DIMRND
 40
0.0
  9
$DIMDLE
 40
0.0
  9
$DIMEXE
 40
1.0
  9
$DIMTP
 40
1.0
  9
$DIMTM
 40
1.0
  9
$DIMTXT
 40
3.0
  9
$DIMCEN
 40
0.0
  9
$DIMTSZ
 40
0.0
  9
$DIMTOL
 70
     0
  9
$DIMLIM
 70
     0
  9
$DIMTIH
 70
     0
  9
$DIMTOH
 70
     0
  9
$DIMSE1
 70
     0
  9
$DIMSE2
 70
     0
  9
$DIMTAD
 70
     1
  9
$DIMZIN
 70
     8
  9
$DIMBLK
  1

  9
$DIMASO
 70
     1
  9
$DIMSHO
 70
     1
  9
$DIMPOST
  1

  9
$DIMAPOST
  1

  9
$DIMALT
 70
     0
  9
$DIMALTD
 70
     2
  9
$DIMALTF
 40
0.039
  9
$DIMLFAC
 40
1.0
  9
$DIMTOFL
 70
     1
  9
$DIMTVP
 40
0.0
  9
$DIMTIX
 70
     0
  9
$DIMSOXD
 70
     0
  9
$DIMSAH
 70
     1
  9
$DIMBLK1
  1
OPEN
  9
$DIMBLK2
  1
OPEN
  9
$DIMSTYLE
  2
IGA
  9
$DIMCLRD
 70
     0
  9
$DIMCLRE
 70
     0
  9
$DIMCLRT
 70
     0
  9
$DIMTFAC
 40
10.0
  9
$DIMGAP
 40
1.0
  9
$LUNITS
 70
     2
  9
$LUPREC
 70
     3
  9
$SKETCHINC
 40
0.1
  9
$FILLETRAD
 40
50.0
  9
$AUNITS
 70
     0
  9
$AUPREC
 70
     0
  9
$MENU
  1
acad
  9
$ELEVATION
 40
0.0
  9
$PELEVATION
 40
0.0
  9
$THICKNESS
 40
0.0
  9
$LIMCHECK
 70
     0
  9
$BLIPMODE
 70
     0
  9
$CHAMFERA
 40
0.5
  9
$CHAMFERB
 40
0.5
  9
$SKPOLY
 70
     0
  9
$TDCREATE
 40
2450725.424369907
  9
$TDUPDATE
 40
2454953.867278622
  9
$TDINDWG
 40
0.0046054977
  9
$TDUSRTIMER
 40
0.0046054977
  9
$USRTIMER
 70
     1
  9
$ANGBASE
 50
0.0
  9
$ANGDIR
 70
     0
  9
$PDMODE
 70
     0
  9
$PDSIZE
 40
0.0
  9
$PLINEWID
 40
0.0
  9
$COORDS
 70
     1
  9
$SPLFRAME
 70
     0
  9
$SPLINETYPE
 70
     6
  9
$SPLINESEGS
 70
     8
  9
$ATTDIA
 70
     0
  9
$ATTREQ
 70
     1
  9
$HANDLING
 70
 10241
  9
$HANDSEED
  5
7BC4
  9
$SURFTAB1
 70
     6
  9
$SURFTAB2
 70
     6
  9
$SURFTYPE
 70
     6
  9
$SURFU
 70
     6
  9
$SURFV
 70
     6
  9
$UCSNAME
  2

  9
$UCSORG
 10
0.0
 20
0.0
 30
0.0
  9
$UCSXDIR
 10
1.0
 20
0.0
 30
0.0
  9
$UCSYDIR
 10
0.0
 20
1.0
 30
0.0
  9
$PUCSNAME
  2

  9
$PUCSORG
 10
0.0
 20
0.0
 30
0.0
  9
$PUCSXDIR
 10
1.0
 20
0.0
 30
0.0
  9
$PUCSYDIR
 10
0.0
 20
1.0
 30
0.0
  9
$USERI1
 70
     0
  9
$USERI2
 70
     0
  9
$USERI3
 70
     0
  9
$USERI4
 70
     0
  9
$USERI5
 70
     0
  9
$USERR1
 40
0.0
  9
$USERR2
 40
0.0
  9
$USERR3
 40
0.0
  9
$USERR4
 40
0.0
  9
$USERR5
 40
0.0
  9
$WORLDVIEW
 70
     1
  9
$SHADEDGE
 70
     3
  9
$SHADEDIF
 70
    70
  9
$TILEMODE
 70
     1
  9
$MAXACTVP
 70
    16
  9
$PLIMCHECK
 70
     0
  9
$PEXTMIN
 10
1.0000000000000000E+020
 20
1.0000000000000000E+020
 30
1.0000000000000000E+020
  9
$PEXTMAX
 10
-1.0000000000000000E+020
 20
-1.0000000000000000E+020
 30
-1.0000000000000000E+020
  9
$PLIMMIN
 10
0.0
 20
0.0
  9
$PLIMMAX
 10
12.0
 20
9.0
  9
$UNITMODE
 70
     0
  9
$VISRETAIN
 70
     0
  9
$PLINEGEN
 70
     0
  9
$PSLTSCALE
 70
     1
  0
ENDSEC
  0
SECTION
  2
TABLES
  0
TABLE
  2
VPORT
 70
     2
  0
VPORT
  2
*ACTIVE
 70
     0
 10
0.0
 20
0.0
 11
1.0
 21
1.0
 12
1390.8708984177831
 22
327.57355604711762
 13
0.0
 23
0.0
 14
10.0
 24
10.0
 15
10.0
 25
10.0
 16
0.0
 26
0.0
 36
1.0
 17
0.0
 27
0.0
 37
0.0
 40
1218.841293149726
 41
1.5051150895140659
 42
50.0
 43
0.0
 44
0.0
 50
0.0
 51
0.0
 71
     0
 72
   100
 73
     1
 74
     0
 75
     0
 76
     0
 77
     0
 78
     0
  0
ENDTAB
  0
TABLE
  2
LTYPE
 70
     2
  0
LTYPE
  2
CONTINUOUS
 70
     0
  3
Solid line
 72
    65
 73
     0
 40
0.0
  0
LTYPE
  2
CENTER
 70
     0
  3
____ _ ____ _ ____ _ ____ _ ____ _ ____ _ ____ 
 72
    65
 73
     4
 40
2.0
 49
1.25
 49
-0.25
 49
0.25
 49
-0.25
  0
ENDTAB
  0
TABLE
  2
LAYER
 70
     6
  0
LAYER
  2
0
 70
     0
 62
     7
  6
CONTINUOUS
  0
LAYER
  2
3
 70
     0
 62
     2
  6
CONTINUOUS
  0
LAYER
  2
2
 70
     0
 62
     3
  6
CENTER
  0
LAYER
  2
1
 70
     0
 62
     4
  6
CONTINUOUS
  0
LAYER
  2
4
 70
     0
 62
     7
  6
CONTINUOUS
  0
LAYER
  2
DEFPOINTS
 70
     0
 62
     7
  6
CONTINUOUS
  0
ENDTAB
  0
TABLE
  2
STYLE
 70
     1
  0
STYLE
  2
STANDARD
 70
     0
 40
0.0
 41
1.0
 50
0.0
 71
     0
 42
180.0
  3
simplex.shx
  4
extfont.shx
  0
ENDTAB
  0
TABLE
  2
VIEW
 70
     0
  0
ENDTAB
  0
TABLE
  2
UCS
 70
     0
  0
ENDTAB
  0
TABLE
  2
APPID
 70
     1
  0
APPID
  2
ACAD
 70
     0
  0
ENDTAB
  0
TABLE
  2
DIMSTYLE
 70
     1
  0
DIMSTYLE
  2
IGA
 70
     0
  3

  4

  5

  6
OPEN
  7
OPEN
 40
2.0
 41
2.0
 42
0.5
 43
10.0
 44
1.0
 45
0.0
 46
0.0
 47
1.0
 48
1.0
140
3.0
141
0.0
142
0.0
143
0.03937
144
1.0
145
0.0
146
10.0
147
1.0
 71
     0
 72
     0
 73
     0
 74
     0
 75
     0
 76
     0
 77
     1
 78
     8
170
     0
171
     2
172
     0
173
     1
174
     0
175
     0
176
     0
177
     0
178
     0
  0
ENDTAB
  0
ENDSEC
  0
SECTION
  2
BLOCKS
  0
BLOCK
  8
0
  2
$MODEL_SPACE
 70
     0
 10
0.0
 20
0.0
 30
0.0
  3
$MODEL_SPACE
  1

  0
ENDBLK
  5
1B
  8
0
  0
BLOCK
 67
     1
  8
0
  2
$PAPER_SPACE
 70
     0
 10
0.0
 20
0.0
 30
0.0
  3
$PAPER_SPACE
  1

  0
ENDBLK
  5
18
 67
     1
  8
0
  0
BLOCK
  8
0
  2
_OPEN
 70
     0
 10
0.0
 20
0.0
 30
0.0
  3
_OPEN
  1

  0
LINE
  5
7A76
  8
0
  6
BYBLOCK
 62
     0
 10
-1.0
 20
0.166667
 30
0.0
 11
0.0
 21
0.0
 31
0.0
  0
LINE
  5
7A77
  8
0
  6
BYBLOCK
 62
     0
 10
0.0
 20
0.0
 30
0.0
 11
-1.0
 21
-0.166667
 31
0.0
  0
LINE
  5
7A78
  8
0
  6
BYBLOCK
 62
     0
 10
0.0
 20
0.0
 30
0.0
 11
-1.0
 21
0.0
 31
0.0
  0
ENDBLK
  5
7A79
  8
0
  0
BLOCK
  8
0
  2
*D1
 70
     1
 10
0.0
 20
0.0
 30
0.0
  3
*D1
  1

  0
LINE
  5
7B92
  8
3
  6
CONTINUOUS
 62
     0
 10
1260.927756
 20
1633.2059469999999
 30
0.0
 11
1260.927756
 21
1649.8529390000001
 31
0.0
  0
LINE
  5
7B93
  8
3
  6
CONTINUOUS
 62
     0
 10
1420.927756
 20
1633.2059469999999
 30
0.0
 11
1420.927756
 21
1649.8529390000001
 31
0.0
  0
LINE
  5
7B94
  8
3
  6
CONTINUOUS
 62
     0
 10
1280.927756
 20
1639.8529390000001
 30
0.0
 11
1400.927756
 21
1639.8529390000001
 31
0.0
  0
INSERT
  5
7B95
  8
3
  6
CONTINUOUS
 62
     0
  2
_OPEN
 10
1260.927756
 20
1639.8529390000001
 30
0.0
 41
20.0
 42
20.0
 43
20.0
 50
180.0
  0
INSERT
  5
7B96
  8
3
  6
CONTINUOUS
 62
     0
  2
_OPEN
 10
1420.927756
 20
1639.8529390000001
 30
0.0
 41
20.0
 42
20.0
 43
20.0
  0
TEXT
  8
3
  40
30
  5
7BBF
  62
0
  72
0
  71
0
 10
1266.64
 20
1611.75
 30
0.000000
  1
160
  0
POINT
  5
7B98
  8
DEFPOINTS
  6
CONTINUOUS
 62
     0
 10
1260.927756
 20
1628.2059469999999
 30
0.0
  0
POINT
  5
7B99
  8
DEFPOINTS
  6
CONTINUOUS
 62
     0
 10
1420.927756
 20
1628.2059469999999
 30
0.0
  0
POINT
  5
7B9A
  8
DEFPOINTS
  6
CONTINUOUS
 62
     0
 10
1420.927756
 20
1639.8529390000001
 30
0.0
  0
ENDBLK
  5
7AE7
  8
0
  0
BLOCK
  8
0
  2
*D2
 70
     1
 10
0.0
 20
0.0
 30
0.0
  3
*D2
  1

  0
LINE
  5
7B9B
  8
3
  6
CONTINUOUS
 62
     0
 10
1200.927756
 20
1419.9706550000001
 30
0.0
 11
1200.927756
 21
1719.2647079999999
 31
0.0
  0
LINE
  5
7B9C
  8
3
  6
CONTINUOUS
 62
     0
 10
1480.9277559999989
 20
1419.9706550000001
 30
0.0
 11
1480.9277559999989
 21
1719.2647079999999
 31
0.0
  0
LINE
  5
7B9D
  8
3
  6
CONTINUOUS
 62
     0
 10
1220.927756
 20
1709.2647079999999
 30
0.0
 11
1460.927756
 21
1709.2647079999999
 31
0.0
  0
INSERT
  5
7B9E
  8
3
  6
CONTINUOUS
 62
     0
  2
_OPEN
 10
1200.927756
 20
1709.2647079999999
 30
0.0
 41
20.0
 42
20.0
 43
20.0
 50
180.0
  0
INSERT
  5
7B9F
  8
3
  6
CONTINUOUS
 62
     0
  2
_OPEN
 10
1480.9277559999989
 20
1709.2647079999999
 30
0.0
 41
20.0
 42
20.0
 43
20.0
  0
TEXT
  8
3
  40
30
  5
7BC0
  62
0
  72
0
  71
0
 10
1274.16
 20
1681.16
 30
0.000000
  1
280
  0
POINT
  5
7BA1
  8
DEFPOINTS
  6
CONTINUOUS
 62
     0
 10
1200.927756
 20
1414.9706550000001
 30
0.0
  0
POINT
  5
7BA2
  8
DEFPOINTS
  6
CONTINUOUS
 62
     0
 10
1480.9277559999989
 20
1414.9706550000001
 30
0.0
  0
POINT
  5
7BA3
  8
DEFPOINTS
  6
CONTINUOUS
 62
     0
 10
1480.9277559999989
 20
1709.2647079999999
 30
0.0
  0
ENDBLK
  5
7ADC
  8
0
  0
BLOCK
  8
0
  2
*D3
 70
     1
 10
0.0
 20
0.0
 30
0.0
  3
*D3
  1

  0
LINE
  5
7BA4
  8
3
  6
CONTINUOUS
 62
     0
 10
387.45414399999993
 20
1633.2059469999999
 30
0.0
 11
387.45414399999993
 21
1701.911762
 31
0.0
  0
LINE
  5
7BA5
  8
3
  6
CONTINUOUS
 62
     0
 10
667.45414400000004
 20
1633.2059469999999
 30
0.0
 11
667.45414400000004
 21
1701.911762
 31
0.0
  0
LINE
  5
7BA6
  8
3
  6
CONTINUOUS
 62
     0
 10
407.45414399999993
 20
1691.911762
 30
0.0
 11
647.45414400000004
 21
1691.911762
 31
0.0
  0
INSERT
  5
7BA7
  8
3
  6
CONTINUOUS
 62
     0
  2
_OPEN
 10
387.45414399999993
 20
1691.911762
 30
0.0
 41
20.0
 42
20.0
 43
20.0
 50
180.0
  0
INSERT
  5
7BA8
  8
3
  6
CONTINUOUS
 62
     0
  2
_OPEN
 10
667.45414400000004
 20
1691.911762
 30
0.0
 41
20.0
 42
20.0
 43
20.0
  0
TEXT
  8
3
  40
30
  5
7BC1
  62
0
  72
0
  71
0
 10
463.824
 20
1663.81
 30
0.000000
  1
280
  0
POINT
  5
7BAA
  8
DEFPOINTS
  6
CONTINUOUS
 62
     0
 10
387.45414399999993
 20
1628.2059469999999
 30
0.0
  0
POINT
  5
7BAB
  8
DEFPOINTS
  6
CONTINUOUS
 62
     0
 10
667.45414400000004
 20
1628.2059469999999
 30
0.0
  0
POINT
  5
7BAC
  8
DEFPOINTS
  6
CONTINUOUS
 62
     0
 10
667.45414400000004
 20
1691.911762
 30
0.0
  0
ENDBLK
  5
7AA0
  8
0
  0
BLOCK
  8
0
  2
*D4
 70
     1
 10
0.0
 20
0.0
 30
0.0
  3
*D4
  1

  0
LINE
  5
7BAD
  8
3
  6
CONTINUOUS
 62
     0
 10
1195.927756
 20
1414.9706550000001
 30
0.0
 11
1098.4233770000001
 21
1414.9706550000001
 31
0.0
  0
LINE
  5
7BAE
  8
3
  6
CONTINUOUS
 62
     0
 10
1195.927756
 20
1214.9706550000001
 30
0.0
 11
1098.4233770000001
 21
1214.9706550000001
 31
0.0
  0
LINE
  5
7BAF
  8
3
  6
CONTINUOUS
 62
     0
 10
1108.4233770000001
 20
1394.9706550000001
 30
0.0
 11
1108.4233770000001
 21
1234.9706550000001
 31
0.0
  0
INSERT
  5
7BB0
  8
3
  6
CONTINUOUS
 62
     0
  2
_OPEN
 10
1108.4233770000001
 20
1414.9706550000001
 30
0.0
 41
20.0
 42
20.0
 43
20.0
 50
90.0
  0
INSERT
  5
7BB1
  8
3
  6
CONTINUOUS
 62
     0
  2
_OPEN
 10
1108.4233770000001
 20
1214.9706550000001
 30
0.0
 41
20.0
 42
20.0
 43
20.0
 50
270.0
  0
TEXT
  8
3
  40
30
  5
7BC2
  62
0
  72
0
  71
0
 10
1023.42
 20
1262.83
 30
0.000000
  1
200
  0
POINT
  5
7BB3
  8
DEFPOINTS
  6
CONTINUOUS
 62
     0
 10
1200.927756
 20
1414.9706550000001
 30
0.0
  0
POINT
  5
7BB4
  8
DEFPOINTS
  6
CONTINUOUS
 62
     0
 10
1200.927756
 20
1214.9706550000001
 30
0.0
  0
POINT
  5
7BB5
  8
DEFPOINTS
  6
CONTINUOUS
 62
     0
 10
1108.4233770000001
 20
1214.9706550000001
 30
0.0
  0
ENDBLK
  5
7AAD
  8
0
  0
BLOCK
  8
0
  2
*D5
 70
     1
 10
0.0
 20
0.0
 30
0.0
  3
*D5
  1

  0
LINE
  5
7BB6
  8
3
  6
CONTINUOUS
 62
     0
 10
1335.927756
 20
1479.9706550000001
 30
0.0
 11
1025.8052729999999
 21
1479.9706550000001
 31
0.0
  0
LINE
  5
7BB7
  8
3
  6
CONTINUOUS
 62
     0
 10
1335.927756
 20
1149.9706550000001
 30
0.0
 11
1025.8052729999999
 21
1149.9706550000001
 31
0.0
  0
LINE
  5
7BB8
  8
3
  6
CONTINUOUS
 62
     0
 10
1035.8052729999999
 20
1459.9706550000001
 30
0.0
 11
1035.8052729999999
 21
1169.9706549999989
 31
0.0
  0
INSERT
  5
7BB9
  8
3
  6
CONTINUOUS
 62
     0
  2
_OPEN
 10
1035.8052729999999
 20
1479.9706550000001
 30
0.0
 41
20.0
 42
20.0
 43
20.0
 50
90.0
  0
INSERT
  5
7BBA
  8
3
  6
CONTINUOUS
 62
     0
  2
_OPEN
 10
1035.8052729999999
 20
1149.9706550000001
 30
0.0
 41
20.0
 42
20.0
 43
20.0
 50
270.0
  0
TEXT
  8
3
  40
30
  5
7BC3
  62
0
  72
0
  71
0
 10
950.805
 20
1255.70
 30
0.000000
  1
330
  0
POINT
  5
7BBC
  8
DEFPOINTS
  6
CONTINUOUS
 62
     0
 10
1340.927756
 20
1479.9706550000001
 30
0.0
  0
POINT
  5
7BBD
  8
DEFPOINTS
  6
CONTINUOUS
 62
     0
 10
1340.927756
 20
1149.9706550000001
 30
0.0
  0
POINT
  5
7BBE
  8
DEFPOINTS
  6
CONTINUOUS
 62
     0
 10
1035.8052729999999
 20
1149.9706550000001
 30
0.0
  0
ENDBLK
  5
7AD1
  8
0
  0
ENDSEC
  0
SECTION
  2
ENTITIES
  0
CIRCLE
  5
7A3D
  8
1
  6
CONTINUOUS
 10
527.45414400000004
 20
1314.9706550000001
 30
0.0
 40
100.0
  0
LINE
  5
7A3E
  8
2
  6
CENTER
 10
342.45414399999999
 20
1314.9706550000001
 30
0.0
 11
712.45414400000004
 21
1314.9706550000001
 31
0.0
  0
CIRCLE
  5
7A3F
  8
1
  6
CONTINUOUS
 10
527.45414400000004
 20
1314.9706550000001
 30
0.0
 40
165.0
  0
LINE
  5
7A40
  8
2
  6
CENTER
 10
387.45414399999993
 20
1628.2059469999999
 30
0.0
 11
387.45414399999993
 21
1304.9706550000001
 31
0.0
  0
LINE
  5
7A41
  8
2
  6
CENTER
 10
527.45414400000004
 20
1129.9706550000001
 30
0.0
 11
527.45414400000004
 21
1499.9706550000001
 31
0.0
  0
LINE
  5
7A42
  8
1
  6
CONTINUOUS
 10
376.45414399999993
 20
1312.6706549999999
 30
0.0
 11
403.76031999999998
 21
1312.6706549999999
 31
0.0
  0
LINE
  5
7A43
  8
1
  6
CONTINUOUS
 10
376.45414399999993
 20
1312.6706549999999
 30
0.0
 11
376.45414399999993
 21
1314.9706550000001
 31
0.0
  0
LINE
  5
7A44
  8
1
  6
CONTINUOUS
 10
403.76031999999998
 20
1314.9706550000001
 30
0.0
 11
403.76031999999998
 21
1312.6706549999999
 31
0.0
  0
LINE
  5
7A45
  8
2
  6
CENTER
 10
1420.927756
 20
1628.2059469999999
 30
0.0
 11
1420.927756
 21
1304.9706550000001
 31
0.0
  0
LINE
  5
7A46
  8
2
  6
CENTER
 10
1260.927756
 20
1628.2059469999999
 30
0.0
 11
1260.927756
 21
1304.9706550000001
 31
0.0
  0
LINE
  5
7A47
  8
1
  6
CONTINUOUS
 10
1340.927756
 20
1479.9706550000001
 30
0.0
 11
1340.927756
 21
1149.9706550000001
 31
0.0
  0
LINE
  5
7A48
  8
1
  6
CONTINUOUS
 10
1340.927756
 20
1479.9706550000001
 30
0.0
 11
1200.927756
 21
1414.9706550000001
 31
0.0
  0
LINE
  5
7A49
  8
1
  6
CONTINUOUS
 10
1340.927756
 20
1479.9706550000001
 30
0.0
 11
1480.9277559999989
 21
1414.9706550000001
 31
0.0
  0
LINE
  5
7A4A
  8
2
  6
CENTER
 10
667.45414400000004
 20
1628.2059469999999
 30
0.0
 11
667.45414400000004
 21
1304.9706550000001
 31
0.0
  0
LINE
  5
7A4B
  8
1
  6
CONTINUOUS
 10
678.45414400000004
 20
1312.6706549999999
 30
0.0
 11
651.14796699999988
 21
1312.6706549999999
 31
0.0
  0
LINE
  5
7A4C
  8
1
  6
CONTINUOUS
 10
678.45414400000004
 20
1312.6706549999999
 30
0.0
 11
678.45414400000004
 21
1314.9706550000001
 31
0.0
  0
LINE
  5
7A4D
  8
1
  6
CONTINUOUS
 10
651.14796699999988
 20
1314.9706550000001
 30
0.0
 11
651.14796699999988
 21
1312.6706549999999
 31
0.0
  0
LINE
  5
7A4E
  8
1
  6
CONTINUOUS
 10
1261.204571
 20
1215.590522
 30
0.0
 11
1308.117675
 21
1187.4263960000001
 31
0.0
  0
LINE
  5
7A4F
  8
1
  6
CONTINUOUS
 10
1260.1896850000001
 20
1223.3591369999999
 30
0.0
 11
1283.821535
 21
1247.714849
 31
0.0
  0
LINE
  5
7A50
  8
1
  6
CONTINUOUS
 10
1260.1896850000001
 20
1406.582173
 30
0.0
 11
1283.821535
 21
1382.226461
 31
0.0
  0
LINE
  5
7A51
  8
1
  6
CONTINUOUS
 10
1261.204571
 20
1414.350788
 30
0.0
 11
1308.117675
 21
1442.5149140000001
 31
0.0
  0
LINE
  5
7A52
  8
2
  6
CENTER
 10
1180.9277559999989
 20
1314.9706550000001
 30
0.0
 11
1500.927756
 21
1314.9706550000001
 31
0.0
  0
LINE
  5
7A53
  8
1
  6
CONTINUOUS
 10
1340.927756
 20
1149.9706550000001
 30
0.0
 11
1200.927756
 21
1214.9706550000001
 31
0.0
  0
LINE
  5
7A54
  8
1
  6
CONTINUOUS
 10
1249.927756
 20
1312.6706549999999
 30
0.0
 11
1279.1708759999999
 21
1312.6706549999999
 31
0.0
  0
LINE
  5
7A55
  8
1
  6
CONTINUOUS
 10
1200.927756
 20
1414.9706550000001
 30
0.0
 11
1200.927756
 21
1214.9706550000001
 31
0.0
  0
ARC
  5
7A56
  8
1
  6
CONTINUOUS
 10
1263.7781419999999
 20
1219.8773309999999
 30
0.0
 40
5.0
 50
135.864205
 51
239.02164099999999
  0
ARC
  5
7A57
  8
1
  6
CONTINUOUS
 10
1263.7781419999999
 20
1410.063979
 30
0.0
 40
5.0
 50
120.978359
 51
224.135795
  0
LINE
  5
7A58
  8
1
  6
CONTINUOUS
 10
1249.927756
 20
1314.9706550000001
 30
0.0
 11
1249.927756
 21
1312.6706549999999
 31
0.0
  0
LINE
  5
7A59
  8
1
  6
CONTINUOUS
 10
1333.927756
 20
1264.9706550000001
 30
0.0
 11
1429.927756
 21
1264.9706550000001
 31
0.0
  0
LINE
  5
7A5A
  8
1
  6
CONTINUOUS
 10
1333.927756
 20
1364.9706550000001
 30
0.0
 11
1429.927756
 21
1364.9706550000001
 31
0.0
  0
LINE
  5
7A5B
  8
1
  6
CONTINUOUS
 10
1340.927756
 20
1149.9706550000001
 30
0.0
 11
1480.9277559999989
 21
1214.9706550000001
 31
0.0
  0
LINE
  5
7A5C
  8
1
  6
CONTINUOUS
 10
1431.927756
 20
1312.6706549999999
 30
0.0
 11
1402.684636
 21
1312.6706549999999
 31
0.0
  0
LINE
  5
7A5D
  8
1
  6
CONTINUOUS
 10
1325.927756
 20
1204.9706550000001
 30
0.0
 11
1283.821535
 21
1247.714849
 31
0.0
  0
LINE
  5
7A5E
  8
1
  6
CONTINUOUS
 10
1325.927756
 20
1204.9706550000001
 30
0.0
 11
1325.927756
 21
1424.9706550000001
 31
0.0
  0
LINE
  5
7A5F
  8
1
  6
CONTINUOUS
 10
1292.927756
 20
1238.4706550000001
 30
0.0
 11
1292.927756
 21
1391.4706550000001
 31
0.0
  0
LINE
  5
7A60
  8
1
  6
CONTINUOUS
 10
1333.927756
 20
1204.9706550000001
 30
0.0
 11
1333.927756
 21
1424.9706550000001
 31
0.0
  0
LINE
  5
7A61
  8
1
  6
CONTINUOUS
 10
1355.427756
 20
1230.4706550000001
 30
0.0
 11
1355.427756
 21
1264.9706550000001
 31
0.0
  0
LINE
  5
7A62
  8
1
  6
CONTINUOUS
 10
1340.927756
 20
1230.4706550000001
 30
0.0
 11
1355.427756
 21
1230.4706550000001
 31
0.0
  0
LINE
  5
7A63
  8
1
  6
CONTINUOUS
 10
1333.927756
 20
1204.9706550000001
 30
0.0
 11
1325.927756
 21
1204.9706550000001
 31
0.0
  0
LINE
  5
7A64
  8
1
  6
CONTINUOUS
 10
1325.927756
 20
1204.9706550000001
 30
0.0
 11
1308.117675
 21
1187.4263960000001
 31
0.0
  0
LINE
  5
7A65
  8
1
  6
CONTINUOUS
 10
1340.927756
 20
1399.4706550000001
 30
0.0
 11
1355.427756
 21
1399.4706550000001
 31
0.0
  0
LINE
  5
7A66
  8
1
  6
CONTINUOUS
 10
1325.927756
 20
1424.9706550000001
 30
0.0
 11
1308.117675
 21
1442.5149140000001
 31
0.0
  0
LINE
  5
7A67
  8
1
  6
CONTINUOUS
 10
1325.927756
 20
1424.9706550000001
 30
0.0
 11
1283.821535
 21
1382.226461
 31
0.0
  0
LINE
  5
7A68
  8
1
  6
CONTINUOUS
 10
1333.927756
 20
1424.9706550000001
 30
0.0
 11
1325.927756
 21
1424.9706550000001
 31
0.0
  0
LINE
  5
7A69
  8
1
  6
CONTINUOUS
 10
1279.1708759999999
 20
1314.9706550000001
 30
0.0
 11
1279.1708759999999
 21
1312.6706549999999
 31
0.0
  0
LINE
  5
7A6A
  8
1
  6
CONTINUOUS
 10
1355.427756
 20
1399.4706550000001
 30
0.0
 11
1355.427756
 21
1364.9706550000001
 31
0.0
  0
LINE
  5
7A6B
  8
1
  6
CONTINUOUS
 10
1402.684636
 20
1314.9706550000001
 30
0.0
 11
1402.684636
 21
1312.6706549999999
 31
0.0
  0
LINE
  5
7A6C
  8
1
  6
CONTINUOUS
 10
1480.9277559999989
 20
1414.9706550000001
 30
0.0
 11
1480.9277559999989
 21
1214.9706550000001
 31
0.0
  0
ARC
  5
7A6D
  8
1
  6
CONTINUOUS
 10
1429.927756
 20
1354.9706550000001
 30
0.0
 40
10.0
 50
0.0
 51
90.0
  0
ARC
  5
7A6E
  8
1
  6
CONTINUOUS
 10
1429.927756
 20
1274.9706550000001
 30
0.0
 40
10.0
 50
270.0
 51
0.0
  0
LINE
  5
7A6F
  8
1
  6
CONTINUOUS
 10
1439.927756
 20
1354.9706550000001
 30
0.0
 11
1439.927756
 21
1274.9706550000001
 31
0.0
  0
LINE
  5
7A70
  8
1
  6
CONTINUOUS
 10
1431.927756
 20
1314.9706550000001
 30
0.0
 11
1431.927756
 21
1312.6706549999999
 31
0.0
  0
LINE
  5
7A71
  8
4
  6
CONTINUOUS
 10
1590.191607
 20
1314.1909889999999
 30
0.0
 11
1724.8136719999991
 21
1314.1909889999999
 31
0.0
  0
LINE
  5
7A72
  8
4
  6
CONTINUOUS
 10
1724.8136719999991
 20
1314.1909889999999
 30
0.0
 11
1688.729407
 21
1300.77835
 31
0.0
  0
LINE
  5
7A73
  8
4
  6
CONTINUOUS
 10
1724.8136719999991
 20
1314.1909889999999
 30
0.0
 11
1688.729407
 21
1327.603627
 31
0.0
  0
DIMENSION
  5
7A87
  8
3
  6
CONTINUOUS
  2
*D1
 10
1420.927756
 20
1639.8529390000001
 30
0.0
 11
1326.6420419999999
 21
1639.8529390000001
 31
0.0
 70
   128
 13
1260.927756
 23
1628.2059469999999
 33
0.0
 14
1420.927756
 24
1628.2059469999999
 34
0.0
1001
ACAD
1000
DSTYLE
1002
{
1070
   287
1070
     3
1070
   287
1070
     3
1070
    40
1040
10.0
1070
   143
1040
0.039
1070
   172
1070
     1
1070
   271
1070
     0
1070
   279
1070
     0
1070
   288
1070
     1
1002
}
  0
DIMENSION
  5
7A94
  8
3
  6
CONTINUOUS
  2
*D2
 10
1480.9277559999989
 20
1709.2647079999999
 30
0.0
 11
1334.1597320000001
 21
1709.2647079999999
 31
0.0
 70
   128
 13
1200.927756
 23
1414.9706550000001
 33
0.0
 14
1480.9277559999989
 24
1414.9706550000001
 34
0.0
1001
ACAD
1000
DSTYLE
1002
{
1070
   287
1070
     3
1070
   287
1070
     3
1070
    40
1040
10.0
1070
   143
1040
0.039
1070
   172
1070
     1
1070
   271
1070
     0
1070
   279
1070
     0
1070
   288
1070
     1
1002
}
  0
DIMENSION
  5
7AA1
  8
3
  6
CONTINUOUS
  2
*D3
 10
667.45414400000004
 20
1691.911762
 30
0.0
 11
523.82409900000005
 21
1691.911762
 31
0.0
 70
   128
 13
387.45414399999993
 23
1628.2059469999999
 33
0.0
 14
667.45414400000004
 24
1628.2059469999999
 34
0.0
1001
ACAD
1000
DSTYLE
1002
{
1070
   287
1070
     3
1070
   287
1070
     3
1070
    40
1040
10.0
1070
   143
1040
0.039
1070
   172
1070
     1
1070
   271
1070
     0
1070
   279
1070
     0
1070
   288
1070
     1
1002
}
  0
DIMENSION
  5
7AAE
  8
3
  6
CONTINUOUS
  2
*D4
 10
1108.4233770000001
 20
1214.9706550000001
 30
0.0
 11
1108.4233770000001
 21
1315.931372
 31
0.0
 70
   128
 13
1200.927756
 23
1414.9706550000001
 33
0.0
 14
1200.927756
 24
1214.9706550000001
 34
0.0
 50
90.0
1001
ACAD
1000
DSTYLE
1002
{
1070
   287
1070
     3
1070
   287
1070
     3
1070
    40
1040
10.0
1070
   143
1040
0.039
1070
   172
1070
     1
1070
   271
1070
     0
1070
   279
1070
     0
1070
   288
1070
     1
1002
}
  0
DIMENSION
  5
7ABB
  8
3
  6
CONTINUOUS
  2
*D5
 10
1035.8052729999999
 20
1149.9706550000001
 30
0.0
 11
1035.8052729999999
 21
1308.8030530000001
 31
0.0
 70
   128
 13
1340.927756
 23
1479.9706550000001
 33
0.0
 14
1340.927756
 24
1149.9706550000001
 34
0.0
 50
90.0
1001
ACAD
1000
DSTYLE
1002
{
1070
   287
1070
     3
1070
   287
1070
     3
1070
    40
1040
10.0
1070
   143
1040
0.039
1070
   172
1070
     1
1070
   271
1070
     0
1070
   279
1070
     0
1070
   288
1070
     1
1002
}
  0
LINE
  5
7AE8
  8
4
  6
CONTINUOUS
 10
1850.0
 20
500.0
 30
0.0
 11
1850.0
 21
300.0
 31
0.0
  0
LINE
  5
7AE9
  8
4
  6
CONTINUOUS
 10
1150.0
 20
500.0
 30
0.0
 11
1150.0
 21
300.0
 31
0.0
  0
LINE
  5
7AEA
  8
4
  6
CONTINUOUS
 10
650.0
 20
500.0
 30
0.0
 11
650.0
 21
300.0
 31
0.0
  0
LINE
  5
7AED
  8
4
  6
CONTINUOUS
 10
650.0
 20
300.0
 30
0.0
 11
1850.0
 21
300.0
 31
0.0
  0
LINE
  5
7AEE
  8
4
  6
CONTINUOUS
 10
650.0
 20
400.0
 30
0.0
 11
1850.0
 21
400.0
 31
0.0
  0
TEXT
  5
7AEF
  8
4
  6
CONTINUOUS
 10
688.50208099999998
 20
431.543026
 30
0.0
 40
50.0
  1
機器名称
  0
TEXT
  5
7AF0
  8
4
  6
CONTINUOUS
 10
686.258106
 20
321.64515699999993
 30
0.0
 40
50.0
  1
機器型番
  0
TEXT
  5
7AF1
  8
4
  6
CONTINUOUS
 10
1177.678744999999
 20
422.57176900000002
 30
0.0
 40
50.0
  1
ミツヤダクトファン
  0
TEXT
  5
7AF2
  8
4
  6
CONTINUOUS
 10
1186.6544960000001
 20
317.159584
 30
0.0
 40
50.0
  1
SA#200
  0
TEXT
  5
7AF4
  8
4
  6
CONTINUOUS
 10
904.78576499999997
 20
2383.4288409999999
 30
0.0
 40
54.0
  1
天井吊形
  0
TEXT
  5
7AF5
  8
4
  6
CONTINUOUS
 10
316.16759300000001
 20
2533.8809759999999
 30
0.0
 40
72.0
  1
電動機直動式横型斜流ファン
  0
LINE
  5
7AF6
  8
4
  6
CONTINUOUS
 10
250.0
 20
2469.408754
 30
0.0
 11
1850.0
 21
2469.408754
 31
0.0
  0
LINE
  5
7AF7
  8
4
  6
CONTINUOUS
 10
250.0
 20
2669.408754
 30
0.0
 11
1850.0
 21
2669.408754
 31
0.0
  0
LINE
  5
7AF8
  8
4
  6
CONTINUOUS
 10
650.0
 20
500.0
 30
0.0
 11
1850.0
 21
500.0
 31
0.0
  0
LINE
  5
7AF9
  8
4
  6
CONTINUOUS
 10
250.0
 20
2669.408754
 30
0.0
 11
250.0
 21
2469.408754
 31
0.0
  0
TEXT
  5
7AFA
  8
4
  6
CONTINUOUS
 10
371.04966300000001
 20
2382.3194779999999
 30
0.0
 40
54.0
  1
右回転後方吐出
  0
TEXT
  5
7AFB
  8
4
  6
CONTINUOUS
 10
1468.9695589999999
 20
2706.0610809999998
 30
0.0
 40
56.0
  1
No.
  0
TEXT
  5
7AFC
  8
4
  6
CONTINUOUS
 10
1311.296063
 20
2383.4288409999999
 30
0.0
 40
54.0
  1
縮尺：1/10
  0
LINE
  5
7AFD
  8
4
  6
CONTINUOUS
 10
1850.0
 20
2669.408754
 30
0.0
 11
1850.0
 21
2469.408754
 31
0.0
  0
LINE
  5
7AFF
  8
4
  6
CONTINUOUS
 10
1440.617422
 20
2681.2635829999999
 30
0.0
 11
1440.617422
 21
2786.6522620000001
 31
0.0
  0
LINE
  5
7B00
  8
4
  6
CONTINUOUS
 10
1440.617422
 20
2786.6522620000001
 30
0.0
 11
1850.0
 21
2786.6522620000001
 31
0.0
  0
LINE
  5
7B01
  8
4
  6
CONTINUOUS
 10
1850.0
 20
2786.6522620000001
 30
0.0
 11
1850.0
 21
2681.2635829999999
 31
0.0
  0
LINE
  5
7B02
  8
4
  6
CONTINUOUS
 10
1850.0
 20
2681.2635829999999
 30
0.0
 11
1440.617422
 21
2681.2635829999999
 31
0.0
  0
ENDSEC
  0
EOF
