  0
SECTION
  2
HEADER
  9
$ACADVER
  1
AC1009
  9
$INSBASE
 10
0.0
 20
0.0
 30
0.0
  9
$EXTMIN
 10
0.0
 20
0.0
 30
-0.00000001
  9
$EXTMAX
 10
3150.0
 20
4425.0
 30
0.00000001
  9
$LIMMIN
 10
0.0
 20
0.0
  9
$LIMMAX
 10
297.0
 20
210.0
  9
$ORTHOMODE
 70
     0
  9
$REGENMODE
 70
     1
  9
$FILLMODE
 70
     0
  9
$QTEXTMODE
 70
     0
  9
$MIRRTEXT
 70
     1
  9
$DRAGMODE
 70
     2
  9
$LTSCALE
 40
100.0
  9
$OSMODE
 70
    37
  9
$ATTMODE
 70
     1
  9
$TEXTSIZE
 40
180.0
  9
$TRACEWID
 40
0.05
  9
$TEXTSTYLE
  7
STANDARD
  9
$CLAYER
  8
3
  9
$CELTYPE
  6
BYLAYER
  9
$CECOLOR
 62
   256
  9
$DIMSCALE
 40
15.0
  9
$DIMASZ
 40
2.0
  9
$DIMEXO
 40
0.5
  9
$DIMDLI
 40
10.0
  9
$DIMRND
 40
0.0
  9
$DIMDLE
 40
0.0
  9
$DIMEXE
 40
1.0
  9
$DIMTP
 40
1.0
  9
$DIMTM
 40
1.0
  9
$DIMTXT
 40
3.0
  9
$DIMCEN
 40
0.0
  9
$DIMTSZ
 40
0.0
  9
$DIMTOL
 70
     0
  9
$DIMLIM
 70
     0
  9
$DIMTIH
 70
     0
  9
$DIMTOH
 70
     0
  9
$DIMSE1
 70
     0
  9
$DIMSE2
 70
     0
  9
$DIMTAD
 70
     1
  9
$DIMZIN
 70
     8
  9
$DIMBLK
  1

  9
$DIMASO
 70
     1
  9
$DIMSHO
 70
     1
  9
$DIMPOST
  1
(<>)
  9
$DIMAPOST
  1

  9
$DIMALT
 70
     0
  9
$DIMALTD
 70
     2
  9
$DIMALTF
 40
0.039
  9
$DIMLFAC
 40
1.0
  9
$DIMTOFL
 70
     1
  9
$DIMTVP
 40
0.0
  9
$DIMTIX
 70
     0
  9
$DIMSOXD
 70
     0
  9
$DIMSAH
 70
     1
  9
$DIMBLK1
  1
OPEN
  9
$DIMBLK2
  1
OPEN
  9
$DIMSTYLE
  2
IGA
  9
$DIMCLRD
 70
     0
  9
$DIMCLRE
 70
     0
  9
$DIMCLRT
 70
     0
  9
$DIMTFAC
 40
10.0
  9
$DIMGAP
 40
1.0
  9
$LUNITS
 70
     2
  9
$LUPREC
 70
     3
  9
$SKETCHINC
 40
0.1
  9
$FILLETRAD
 40
50.0
  9
$AUNITS
 70
     0
  9
$AUPREC
 70
     0
  9
$MENU
  1
acad
  9
$ELEVATION
 40
0.0
  9
$PELEVATION
 40
0.0
  9
$THICKNESS
 40
0.0
  9
$LIMCHECK
 70
     0
  9
$BLIPMODE
 70
     0
  9
$CHAMFERA
 40
0.5
  9
$CHAMFERB
 40
0.5
  9
$SKPOLY
 70
     0
  9
$TDCREATE
 40
2453060.621764814
  9
$TDUPDATE
 40
2454953.8680734141
  9
$TDINDWG
 40
0.2082679977
  9
$TDUSRTIMER
 40
0.2082679977
  9
$USRTIMER
 70
     1
  9
$ANGBASE
 50
0.0
  9
$ANGDIR
 70
     0
  9
$PDMODE
 70
     0
  9
$PDSIZE
 40
0.0
  9
$PLINEWID
 40
0.0
  9
$COORDS
 70
     1
  9
$SPLFRAME
 70
     0
  9
$SPLINETYPE
 70
     6
  9
$SPLINESEGS
 70
     8
  9
$ATTDIA
 70
     0
  9
$ATTREQ
 70
     1
  9
$HANDLING
 70
 10241
  9
$HANDSEED
  5
9C17
  9
$SURFTAB1
 70
     6
  9
$SURFTAB2
 70
     6
  9
$SURFTYPE
 70
     6
  9
$SURFU
 70
     6
  9
$SURFV
 70
     6
  9
$UCSNAME
  2

  9
$UCSORG
 10
0.0
 20
0.0
 30
0.0
  9
$UCSXDIR
 10
1.0
 20
0.0
 30
0.0
  9
$UCSYDIR
 10
0.0
 20
1.0
 30
0.0
  9
$PUCSNAME
  2

  9
$PUCSORG
 10
0.0
 20
0.0
 30
0.0
  9
$PUCSXDIR
 10
1.0
 20
0.0
 30
0.0
  9
$PUCSYDIR
 10
0.0
 20
1.0
 30
0.0
  9
$USERI1
 70
     0
  9
$USERI2
 70
     0
  9
$USERI3
 70
     0
  9
$USERI4
 70
     0
  9
$USERI5
 70
     0
  9
$USERR1
 40
0.0
  9
$USERR2
 40
0.0
  9
$USERR3
 40
0.0
  9
$USERR4
 40
0.0
  9
$USERR5
 40
0.0
  9
$WORLDVIEW
 70
     1
  9
$SHADEDGE
 70
     3
  9
$SHADEDIF
 70
    70
  9
$TILEMODE
 70
     1
  9
$MAXACTVP
 70
    16
  9
$PLIMCHECK
 70
     0
  9
$PEXTMIN
 10
1.0000000000000000E+020
 20
1.0000000000000000E+020
 30
1.0000000000000000E+020
  9
$PEXTMAX
 10
-1.0000000000000000E+020
 20
-1.0000000000000000E+020
 30
-1.0000000000000000E+020
  9
$PLIMMIN
 10
0.0
 20
0.0
  9
$PLIMMAX
 10
12.0
 20
9.0
  9
$UNITMODE
 70
     0
  9
$VISRETAIN
 70
     0
  9
$PLINEGEN
 70
     0
  9
$PSLTSCALE
 70
     1
  0
ENDSEC
  0
SECTION
  2
TABLES
  0
TABLE
  2
VPORT
 70
     2
  0
VPORT
  2
*ACTIVE
 70
     0
 10
0.0
 20
0.0
 11
1.0
 21
1.0
 12
2392.6544165902501
 22
532.77172792649264
 13
0.0
 23
0.0
 14
10.0
 24
10.0
 15
10.0
 25
10.0
 16
0.0
 26
0.0
 36
1.0
 17
0.0
 27
0.0
 37
0.0
 40
2734.806488601881
 41
1.5051150895140659
 42
50.0
 43
0.0
 44
0.0
 50
0.0
 51
0.0
 71
     0
 72
   100
 73
     1
 74
     0
 75
     0
 76
     0
 77
     0
 78
     0
  0
ENDTAB
  0
TABLE
  2
LTYPE
 70
     2
  0
LTYPE
  2
CONTINUOUS
 70
     0
  3
Solid line
 72
    65
 73
     0
 40
0.0
  0
LTYPE
  2
CENTER
 70
     0
  3
____ _ ____ _ ____ _ ____ _ ____ _ ____ _ ____ 
 72
    65
 73
     4
 40
2.0
 49
1.25
 49
-0.25
 49
0.25
 49
-0.25
  0
ENDTAB
  0
TABLE
  2
LAYER
 70
     7
  0
LAYER
  2
0
 70
     0
 62
     7
  6
CONTINUOUS
  0
LAYER
  2
3
 70
     0
 62
     2
  6
CONTINUOUS
  0
LAYER
  2
2
 70
     0
 62
     3
  6
CENTER
  0
LAYER
  2
1
 70
     0
 62
     4
  6
CONTINUOUS
  0
LAYER
  2
4
 70
     0
 62
     7
  6
CONTINUOUS
  0
LAYER
  2
DEFPOINTS
 70
     0
 62
     7
  6
CONTINUOUS
  0
LAYER
  2
FUTO
 70
     0
 62
     4
  6
CONTINUOUS
  0
ENDTAB
  0
TABLE
  2
STYLE
 70
     1
  0
STYLE
  2
STANDARD
 70
     0
 40
0.0
 41
1.0
 50
0.0
 71
     0
 42
180.0
  3
simplex.shx
  4
extfont.shx
  0
ENDTAB
  0
TABLE
  2
VIEW
 70
     0
  0
ENDTAB
  0
TABLE
  2
UCS
 70
     0
  0
ENDTAB
  0
TABLE
  2
APPID
 70
     2
  0
APPID
  2
ACAD
 70
     0
  0
APPID
  2
CONTENTBLOCKICON
 70
     0
  0
ENDTAB
  0
TABLE
  2
DIMSTYLE
 70
     1
  0
DIMSTYLE
  2
IGA
 70
     0
  3

  4

  5

  6
OPEN
  7
OPEN
 40
2.0
 41
2.0
 42
0.5
 43
10.0
 44
1.0
 45
0.0
 46
0.0
 47
1.0
 48
1.0
140
3.0
141
0.0
142
0.0
143
0.03937
144
1.0
145
0.0
146
10.0
147
1.0
 71
     0
 72
     0
 73
     0
 74
     0
 75
     0
 76
     0
 77
     1
 78
     8
170
     0
171
     2
172
     0
173
     1
174
     0
175
     0
176
     0
177
     0
178
     0
  0
ENDTAB
  0
ENDSEC
  0
SECTION
  2
BLOCKS
  0
BLOCK
  8
0
  2
$MODEL_SPACE
 70
     0
 10
0.0
 20
0.0
 30
0.0
  3
$MODEL_SPACE
  1

  0
ENDBLK
  5
1B
  8
0
  0
BLOCK
 67
     1
  8
0
  2
$PAPER_SPACE
 70
     0
 10
0.0
 20
0.0
 30
0.0
  3
$PAPER_SPACE
  1

  0
ENDBLK
  5
18
 67
     1
  8
0
  0
BLOCK
  8
0
  2
_OPEN
 70
     0
 10
0.0
 20
0.0
 30
0.0
  3
_OPEN
  1

  0
LINE
  5
7AC4
  8
0
  6
BYBLOCK
 62
     0
 10
-1.0
 20
0.1666666666666666
 30
0.0
 11
0.0
 21
0.0
 31
0.0
  0
LINE
  5
7AC5
  8
0
  6
BYBLOCK
 62
     0
 10
0.0
 20
0.0
 30
0.0
 11
-1.0
 21
-0.1666666666666666
 31
0.0
  0
LINE
  5
7AC6
  8
0
  6
BYBLOCK
 62
     0
 10
0.0
 20
0.0
 30
0.0
 11
-1.0
 21
0.0
 31
0.0
  0
ENDBLK
  5
7AC8
  8
0
  0
BLOCK
  8
0
  2
_DOT
 70
     0
 10
0.0
 20
0.0
 30
0.0
  3
_DOT
  1

  0
LINE
  5
90CA
  8
0
  6
BYBLOCK
 62
     0
 10
0.0
 20
0.0
 30
0.0
 11
-1.0
 21
-0.0000000000000284
 31
0.0
  0
POLYLINE
  5
90CB
  8
0
  6
BYBLOCK
 62
     0
 66
     1
 10
0.0
 20
0.0
 30
0.0
 70
     1
 40
0.1666666666666666
 41
0.1666666666666666
  0
VERTEX
  5
98C0
  8
0
  6
BYBLOCK
 62
     0
 10
-0.0833333333333286
 20
-0.0000000000000284
 30
0.0
 42
1.0
  0
VERTEX
  5
98C1
  8
0
  6
BYBLOCK
 62
     0
 10
0.0833333333333286
 20
-0.0000000000000284
 30
0.0
 42
1.0
  0
SEQEND
  5
98C2
  8
0
  6
BYBLOCK
 62
     0
  0
ENDBLK
  5
90AE
  8
0
  0
BLOCK
  8
0
  2
*D2
 70
     1
 10
0.0
 20
0.0
 30
0.0
  3
*D2
  1

  0
LINE
  5
95A3
  8
0
  6
BYBLOCK
 62
     0
 10
636.58346190320481
 20
2553.6791838482332
 30
0.0
 11
636.58346190320481
 21
2660.8620486684258
 31
0.0
  0
LINE
  5
95A4
  8
0
  6
BYBLOCK
 62
     0
 10
1306.5834619032039
 20
2553.6791838482332
 30
0.0
 11
1306.5834619032039
 21
2660.8620486684258
 31
0.0
  0
LINE
  5
95A5
  8
0
  6
BYBLOCK
 62
     0
 10
666.58346190320481
 20
2645.8620486684258
 30
0.0
 11
1276.583461903205
 21
2645.8620486684258
 31
0.0
  0
INSERT
  5
95A6
  8
0
  6
BYBLOCK
 62
     0
  2
_OPEN
 10
636.58346190320481
 20
2645.8620486684258
 30
0.0
 41
30.0
 42
30.0
 43
30.0
 50
180.0
  0
INSERT
  5
95A7
  8
0
  6
BYBLOCK
 62
     0
  2
_OPEN
 10
1306.5834619032039
 20
2645.8620486684258
 30
0.0
 41
30.0
 42
30.0
 43
30.0
  0
TEXT
  5
95A8
  8
3
 62
     0
 10
913.7263190460618
 20
2660.8620486684258
 30
0.0
 40
45.0
  1
670
  0
POINT
  5
95A9
  8
DEFPOINTS
  6
BYBLOCK
 62
     0
 10
636.58346190320481
 20
2546.1791838482332
 30
0.0
  0
POINT
  5
95AA
  8
DEFPOINTS
  6
BYBLOCK
 62
     0
 10
1306.5834619032039
 20
2546.1791838482332
 30
0.0
  0
POINT
  5
95AB
  8
DEFPOINTS
  6
BYBLOCK
 62
     0
 10
1306.5834619032039
 20
2645.8620486684258
 30
0.0
  0
ENDBLK
  5
95AC
  8
0
  0
BLOCK
  8
0
  2
*D3
 70
     1
 10
0.0
 20
0.0
 30
0.0
  3
*D3
  1

  0
LINE
  5
95B7
  8
0
  6
BYBLOCK
 62
     0
 10
629.08346190320481
 20
2506.1791838482341
 30
0.0
 11
501.92746597940823
 21
2506.1791838482341
 31
0.0
  0
LINE
  5
95B8
  8
0
  6
BYBLOCK
 62
     0
 10
629.08346190320481
 20
1796.1791838482341
 30
0.0
 11
501.92746597940823
 21
1796.1791838482341
 31
0.0
  0
LINE
  5
95B9
  8
0
  6
BYBLOCK
 62
     0
 10
516.92746597940823
 20
2476.1791838482341
 30
0.0
 11
516.92746597940823
 21
1826.1791838482341
 31
0.0
  0
INSERT
  5
95BA
  8
0
  6
BYBLOCK
 62
     0
  2
_OPEN
 10
516.92746597940823
 20
2506.1791838482341
 30
0.0
 41
30.0
 42
30.0
 43
30.0
 50
90.0
  0
INSERT
  5
95BB
  8
0
  6
BYBLOCK
 62
     0
  2
_OPEN
 10
516.92746597940823
 20
1796.1791838482341
 30
0.0
 41
30.0
 42
30.0
 43
30.0
 50
270.0
  0
TEXT
  5
95BC
  8
3
 62
     0
 10
501.92746597940823
 20
2075.1077552768061
 30
0.0
 40
45.0
  1
φ710
 50
90.0
  0
POINT
  5
95BD
  8
DEFPOINTS
  6
BYBLOCK
 62
     0
 10
636.58346190320481
 20
2506.1791838482341
 30
0.0
  0
POINT
  5
95BE
  8
DEFPOINTS
  6
BYBLOCK
 62
     0
 10
636.58346190320481
 20
1796.1791838482341
 30
0.0
  0
POINT
  5
95BF
  8
DEFPOINTS
  6
BYBLOCK
 62
     0
 10
516.92746597940823
 20
1796.1791838482341
 30
0.0
  0
ENDBLK
  5
95C0
  8
0
  0
BLOCK
  8
0
  2
*D4
 70
     1
 10
0.0
 20
0.0
 30
0.0
  3
*D4
  1

  0
LINE
  5
95C4
  8
0
  6
BYBLOCK
 62
     0
 10
1833.101520766508
 20
2151.1791838482341
 30
0.0
 11
1739.3997789431289
 21
2151.1791838482341
 31
0.0
  0
LINE
  5
95C5
  8
0
  6
BYBLOCK
 62
     0
 10
1961.244943182571
 20
1701.1791838482341
 30
0.0
 11
1739.3997789431289
 21
1701.1791838482341
 31
0.0
  0
LINE
  5
95C6
  8
0
  6
BYBLOCK
 62
     0
 10
1754.399778943128
 20
2121.1791838482341
 30
0.0
 11
1754.399778943128
 21
1731.1791838482341
 31
0.0
  0
INSERT
  5
95C7
  8
0
  6
BYBLOCK
 62
     0
  2
_OPEN
 10
1754.399778943128
 20
2151.1791838482341
 30
0.0
 41
30.0
 42
30.0
 43
30.0
 50
90.0
  0
INSERT
  5
95C8
  8
0
  6
BYBLOCK
 62
     0
  2
_OPEN
 10
1754.399778943128
 20
1701.1791838482341
 30
0.0
 41
30.0
 42
30.0
 43
30.0
 50
270.0
  0
TEXT
  5
95C9
  8
3
 62
     0
 10
1739.3997789431289
 20
1868.3220409910909
 30
0.0
 40
45.0
  1
450
 50
90.0
  0
POINT
  5
95CA
  8
DEFPOINTS
  6
BYBLOCK
 62
     0
 10
1840.6015207665071
 20
2151.1791838482341
 30
0.0
  0
POINT
  5
95CB
  8
DEFPOINTS
  6
BYBLOCK
 62
     0
 10
1968.744943182571
 20
1701.1791838482341
 30
0.0
  0
POINT
  5
95CC
  8
DEFPOINTS
  6
BYBLOCK
 62
     0
 10
1754.399778943128
 20
1701.1791838482341
 30
0.0
  0
ENDBLK
  5
95CD
  8
0
  0
BLOCK
  8
0
  2
*D5
 70
     1
 10
0.0
 20
0.0
 30
0.0
  3
*D5
  1

  0
LINE
  5
9618
  8
0
  6
BYBLOCK
 62
     0
 10
1853.744943182242
 20
1605.6791838482341
 30
0.0
 11
1853.744943182242
 21
1471.97916584157
 31
0.0
  0
LINE
  5
9619
  8
0
  6
BYBLOCK
 62
     0
 10
2713.744943182242
 20
1605.6791838482341
 30
0.0
 11
2713.744943182242
 21
1471.97916584157
 31
0.0
  0
LINE
  5
961A
  8
0
  6
BYBLOCK
 62
     0
 10
1883.744943182242
 20
1486.97916584157
 30
0.0
 11
2683.744943182242
 21
1486.97916584157
 31
0.0
  0
INSERT
  5
961B
  8
0
  6
BYBLOCK
 62
     0
  2
_OPEN
 10
1853.744943182242
 20
1486.97916584157
 30
0.0
 41
30.0
 42
30.0
 43
30.0
 50
180.0
  0
INSERT
  5
961C
  8
0
  6
BYBLOCK
 62
     0
  2
_OPEN
 10
2713.744943182242
 20
1486.97916584157
 30
0.0
 41
30.0
 42
30.0
 43
30.0
  0
TEXT
  5
961D
  8
3
 62
     0
 10
2225.8878003251002
 20
1501.97916584157
 30
0.0
 40
45.0
  1
860
  0
POINT
  5
961E
  8
DEFPOINTS
  6
BYBLOCK
 62
     0
 10
1853.744943182242
 20
1613.1791838482341
 30
0.0
  0
POINT
  5
961F
  8
DEFPOINTS
  6
BYBLOCK
 62
     0
 10
2713.744943182242
 20
1613.1791838482341
 30
0.0
  0
POINT
  5
9620
  8
DEFPOINTS
  6
BYBLOCK
 62
     0
 10
2713.744943182242
 20
1486.97916584157
 30
0.0
  0
ENDBLK
  5
9621
  8
0
  0
BLOCK
  8
0
  2
*D6
 70
     1
 10
0.0
 20
0.0
 30
0.0
  3
*D6
  1

  0
LINE
  5
9625
  8
0
  6
BYBLOCK
 62
     0
 10
520.48141838824995
 20
1605.6791838482341
 30
0.0
 11
520.48141838824995
 21
1471.979134933302
 31
0.0
  0
LINE
  5
9626
  8
0
  6
BYBLOCK
 62
     0
 10
1290.4814183882499
 20
1605.6791838482341
 30
0.0
 11
1290.4814183882499
 21
1471.979134933302
 31
0.0
  0
LINE
  5
9627
  8
0
  6
BYBLOCK
 62
     0
 10
550.48141838824995
 20
1486.979134933302
 30
0.0
 11
1260.4814183882499
 21
1486.979134933302
 31
0.0
  0
INSERT
  5
9628
  8
0
  6
BYBLOCK
 62
     0
  2
_OPEN
 10
520.48141838824995
 20
1486.979134933302
 30
0.0
 41
30.0
 42
30.0
 43
30.0
 50
180.0
  0
INSERT
  5
9629
  8
0
  6
BYBLOCK
 62
     0
  2
_OPEN
 10
1290.4814183882499
 20
1486.979134933302
 30
0.0
 41
30.0
 42
30.0
 43
30.0
  0
TEXT
  5
962A
  8
3
 62
     0
 10
847.62427553110706
 20
1501.979134933302
 30
0.0
 40
45.0
  1
770
  0
POINT
  5
962B
  8
DEFPOINTS
  6
BYBLOCK
 62
     0
 10
520.48141838824995
 20
1613.1791838482341
 30
0.0
  0
POINT
  5
962C
  8
DEFPOINTS
  6
BYBLOCK
 62
     0
 10
1290.4814183882499
 20
1613.1791838482341
 30
0.0
  0
POINT
  5
962D
  8
DEFPOINTS
  6
BYBLOCK
 62
     0
 10
1290.4814183882499
 20
1486.979134933302
 30
0.0
  0
ENDBLK
  5
962E
  8
0
  0
BLOCK
  8
0
  2
*D7
 70
     1
 10
0.0
 20
0.0
 30
0.0
  3
*D7
  1

  0
LINE
  5
98C3
  8
3
 62
     0
 10
1846.244943182242
 20
1663.1791838482341
 30
0.0
 11
1738.3587446564511
 21
1663.1791838482341
 31
0.0
  0
LINE
  5
98C4
  8
3
 62
     0
 10
1846.244943182242
 20
1613.1791838482341
 30
0.0
 11
1738.3587446564511
 21
1613.1791838482341
 31
0.0
  0
LINE
  5
98C5
  8
3
 62
     0
 10
1753.35874465645
 20
1693.1791838482341
 30
0.0
 11
1753.35874465645
 21
1723.1791838482341
 31
0.0
  0
LINE
  5
98C6
  8
3
 62
     0
 10
1753.35874465645
 20
1583.1791838482341
 30
0.0
 11
1753.35874465645
 21
1450.3220409910909
 31
0.0
  0
LINE
  5
98C7
  8
3
 62
     0
 10
1753.35874465645
 20
1663.1791838482341
 30
0.0
 11
1753.35874465645
 21
1613.1791838482341
 31
0.0
  0
INSERT
  5
98C8
  8
3
 62
     0
  2
_DOT
 10
1753.35874465645
 20
1663.1791838482341
 30
0.0
 41
30.0
 42
30.0
 43
30.0
 50
270.0
  0
INSERT
  5
98C9
  8
3
 62
     0
  2
_OPEN
 10
1753.35874465645
 20
1613.1791838482341
 30
0.0
 41
30.0
 42
30.0
 43
30.0
 50
90.0
  0
TEXT
  8
3
  40
45
  5
98CE
  62
0
  72
0
  71
0
 10
1625.86
 20
1422.10
 30
0.000000
  1
50
  0
POINT
  5
98CB
  8
DEFPOINTS
 62
     0
 10
1853.744943182242
 20
1663.1791838482341
 30
0.0
  0
POINT
  5
98CC
  8
DEFPOINTS
 62
     0
 10
1853.744943182242
 20
1613.1791838482341
 30
0.0
  0
POINT
  5
98CD
  8
DEFPOINTS
 62
     0
 10
1753.35874465645
 20
1613.1791838482341
 30
0.0
  0
ENDBLK
  5
963D
  8
0
  0
BLOCK
  8
0
  2
*D8
 70
     1
 10
0.0
 20
0.0
 30
0.0
  3
*D8
  1

  0
LINE
  5
9697
  8
0
  6
BYBLOCK
 62
     0
 10
1754.2211637208759
 20
1663.1791838482341
 30
0.0
 11
1754.2211637208759
 21
1701.1791838482341
 31
0.0
  0
TEXT
  5
9698
  8
3
 62
     0
 10
1697.4354494351619
 20
1589.8220409910909
 30
0.0
 40
45.0
  1
  (38)
 50
90.0
  0
POINT
  5
9699
  8
DEFPOINTS
  6
BYBLOCK
 62
     0
 10
1853.744943182242
 20
1663.1791838482341
 30
0.0
  0
POINT
  5
969A
  8
DEFPOINTS
  6
BYBLOCK
 62
     0
 10
1968.744943182571
 20
1701.1791838482341
 30
0.0
  0
POINT
  5
969B
  8
DEFPOINTS
  6
BYBLOCK
 62
     0
 10
1754.2211637208759
 20
1701.1791838482341
 30
0.0
  0
ENDBLK
  5
969C
  8
0
  0
BLOCK
  8
0
  2
*D9
 70
     1
 10
0.0
 20
0.0
 30
0.0
  3
*D9
  1

  0
LINE
  5
96A8
  8
0
  6
BYBLOCK
 62
     0
 10
1846.244943182242
 20
1613.1791838482341
 30
0.0
 11
1593.6186419172529
 21
1613.1791838482341
 31
0.0
  0
LINE
  5
96A9
  8
0
  6
BYBLOCK
 62
     0
 10
2276.244943182242
 20
2546.1791838482341
 30
0.0
 11
1593.6186419172529
 21
2546.1791838482341
 31
0.0
  0
LINE
  5
96AA
  8
0
  6
BYBLOCK
 62
     0
 10
1608.6186419172529
 20
1643.1791838482341
 30
0.0
 11
1608.6186419172529
 21
2516.1791838482341
 31
0.0
  0
INSERT
  5
96AB
  8
0
  6
BYBLOCK
 62
     0
  2
_OPEN
 10
1608.6186419172529
 20
1613.1791838482341
 30
0.0
 41
30.0
 42
30.0
 43
30.0
 50
270.0
  0
INSERT
  5
96AC
  8
0
  6
BYBLOCK
 62
     0
  2
_OPEN
 10
1608.6186419172529
 20
2546.1791838482341
 30
0.0
 41
30.0
 42
30.0
 43
30.0
 50
90.0
  0
TEXT
  5
96AD
  8
3
 62
     0
 10
1574.332927631539
 20
1992.8934695625201
 30
0.0
 40
45.0
  1
(933)
 50
90.0
  0
POINT
  5
96AE
  8
DEFPOINTS
  6
BYBLOCK
 62
     0
 10
1853.744943182242
 20
1613.1791838482341
 30
0.0
  0
POINT
  5
96AF
  8
DEFPOINTS
  6
BYBLOCK
 62
     0
 10
2283.744943182242
 20
2546.1791838482341
 30
0.0
  0
POINT
  5
96B0
  8
DEFPOINTS
  6
BYBLOCK
 62
     0
 10
1608.6186419172529
 20
2546.1791838482341
 30
0.0
  0
ENDBLK
  5
96B1
  8
0
  0
ENDSEC
  0
SECTION
  2
ENTITIES
  0
LINE
  5
906F
  8
4
 10
2775.0
 20
750.0
 30
0.0
 11
2775.0
 21
450.0
 31
0.0
  0
LINE
  5
9070
  8
4
 10
1725.0
 20
750.0
 30
0.0
 11
1725.0
 21
450.0
 31
0.0
  0
LINE
  5
9071
  8
4
 10
975.0
 20
750.0
 30
0.0
 11
975.0
 21
450.0
 31
0.0
  0
LINE
  5
9074
  8
4
 10
975.0
 20
450.0
 30
0.0
 11
2775.0
 21
450.0
 31
0.0
  0
LINE
  5
9075
  8
4
 10
975.0
 20
600.0
 30
0.0
 11
2775.0
 21
600.0
 31
0.0
  0
TEXT
  5
9076
  8
4
 10
1032.753121270352
 20
647.31453879991932
 30
0.0
 40
75.0
  1
機器名称
  0
TEXT
  5
9077
  8
4
 10
1029.3871590371959
 20
482.46773509801642
 30
0.0
 40
75.0
  1
機器型番
  0
TEXT
  5
9078
  8
4
 10
1766.5181182314971
 20
633.85765343635285
 30
0.0
 40
75.0
  1
ミツヤダクトファン
  0
TEXT
  5
9079
  8
4
 10
1779.9817433782209
 20
475.739376419915
 30
0.0
 40
75.0
  1
SA#710-1
  0
TEXT
  5
907B
  8
4
 10
1172.484072127379
 20
3575.1432619987731
 30
0.0
 40
80.999999999999986
  1
天吊防振ベット
  0
TEXT
  5
907C
  8
4
 10
474.25138999416959
 20
3800.8214642989469
 30
0.0
 40
108.0
  1
電動機直動式横形斜流ファン
  0
LINE
  5
907D
  8
4
 10
375.0
 20
3704.1131313972069
 30
0.0
 11
2775.0
 21
3704.1131313972069
 31
0.0
  0
LINE
  5
907E
  8
4
 10
375.0
 20
4004.1131313972069
 30
0.0
 11
2775.0
 21
4004.1131313972069
 31
0.0
  0
LINE
  5
907F
  8
4
 10
975.0
 20
750.0
 30
0.0
 11
2775.0
 21
750.0
 31
0.0
  0
LINE
  5
9080
  8
4
 10
375.0
 20
4004.1131313972069
 30
0.0
 11
375.0
 21
3704.1131313972069
 31
0.0
  0
TEXT
  5
9081
  8
4
 10
417.1137994328891
 20
3573.4792163195152
 30
0.0
 40
80.999999999999986
  1
右回転後方吐出
  0
TEXT
  5
9082
  8
4
 10
2203.4543388739339
 20
4059.0916222429628
 30
0.0
 40
84.000000000000014
  1
No.
  0
TEXT
  5
9083
  8
4
 10
1966.944093900019
 20
3575.1432619987731
 30
0.0
 40
80.999999999999986
  1
縮尺：1/15
  0
LINE
  5
9084
  8
4
 10
2775.0
 20
4004.1131313972069
 30
0.0
 11
2775.0
 21
3704.1131313972069
 31
0.0
  0
LINE
  5
9085
  8
4
 10
3150.0
 20
4425.0
 30
0.0
 11
3150.0
 21
4425.0
 31
0.0
  0
LINE
  5
9086
  8
4
 10
2160.9261335397969
 20
4021.895374688102
 30
0.0
 11
2160.9261335397969
 21
4179.9783923246277
 31
0.0
  0
LINE
  5
9087
  8
4
 10
2160.9261335397969
 20
4179.9783923246277
 30
0.0
 11
2775.0
 21
4179.9783923246277
 31
0.0
  0
LINE
  5
9088
  8
4
 10
2775.0
 20
4179.9783923246277
 30
0.0
 11
2775.0
 21
4021.895374688102
 31
0.0
  0
LINE
  5
9089
  8
4
 10
2775.0
 20
4021.895374688102
 30
0.0
 11
2160.9261335397969
 21
4021.895374688102
 31
0.0
  0
LINE
  5
908A
  8
4
 10
0.0
 20
0.0
 30
0.0
 11
0.0
 21
4425.0
 31
0.0
  0
LINE
  5
908B
  8
4
 10
0.0
 20
4425.0
 30
0.0
 11
3150.0
 21
4425.0
 31
0.0
  0
LINE
  5
908C
  8
4
 10
3150.0
 20
4425.0
 30
0.0
 11
3150.0
 21
0.0
 31
0.0
  0
LINE
  5
908D
  8
4
 10
3150.0
 20
0.0
 30
0.0
 11
0.0
 21
0.0
 31
0.0
  0
LINE
  5
955F
  8
2
 10
2283.744943182242
 20
2594.3226062639692
 30
0.0
 11
2283.744943182242
 21
1613.1791838482341
 31
0.0
  0
LINE
  5
9560
  8
2
 10
1840.6015207665071
 20
2151.1791838482341
 30
0.0
 11
2726.8883655979771
 21
2151.1791838482341
 31
0.0
  0
LINE
  5
9561
  8
2
 10
1291.261258775748
 20
2151.1791838482341
 30
0.0
 11
515.94221279372323
 21
2151.1791838482341
 31
0.0
  0
CIRCLE
  5
9562
  8
1
 10
2283.7449431825721
 20
2151.1791838482341
 30
0.0
 40
355.0
  0
CIRCLE
  5
9563
  8
1
 10
2283.7449431825721
 20
2151.1791838482341
 30
0.0
 40
395.0
  0
CIRCLE
  5
9564
  8
1
 10
2283.7449431825721
 20
2151.1791838482341
 30
0.0
 40
358.19999999999987
  0
LINE
  5
9565
  8
1
 10
1968.744943182571
 20
1701.1791838482341
 30
0.0
 11
2598.7449431825712
 21
1701.1791838482341
 31
0.0
  0
LINE
  5
9566
  8
1
 10
1968.744943182571
 20
1912.8516780919731
 30
0.0
 11
1968.744943182571
 21
1701.1791838482341
 31
0.0
  0
LINE
  5
9567
  8
1
 10
2598.7449431825712
 20
1912.851678091974
 30
0.0
 11
2598.7449431825712
 21
1701.1791838482341
 31
0.0
  0
LINE
  5
9568
  8
1
 10
1240.4814183882499
 20
2546.1791838482332
 30
0.0
 11
1240.4814183882499
 21
1756.1791838482341
 31
0.0
  0
LINE
  5
9569
  8
1
 10
1000.481418388249
 20
2546.1791838482332
 30
0.0
 11
1000.481418388249
 21
1756.1791838482341
 31
0.0
  0
LINE
  5
956A
  8
1
 10
570.48141838824995
 20
2546.1791838482332
 30
0.0
 11
570.48141838824995
 21
1756.1791838482341
 31
0.0
  0
LINE
  5
956B
  8
1
 10
1240.4814183882499
 20
2546.1791838482332
 30
0.0
 11
1237.281418388249
 21
2546.1791838482341
 31
0.0
  0
LINE
  5
956C
  8
1
 10
1240.4814183882499
 20
1756.1791838482341
 30
0.0
 11
1237.2814183882499
 21
1756.1791838482341
 31
0.0
  0
LINE
  5
956D
  8
1
 10
1237.281418388249
 20
2546.1791838482332
 30
0.0
 11
1237.2814183882499
 21
1756.1791838482341
 31
0.0
  0
LINE
  5
956E
  8
1
 10
573.68141838824965
 20
2546.1791838482332
 30
0.0
 11
573.68141838824965
 21
1756.1791838482341
 31
0.0
  0
LINE
  5
956F
  8
1
 10
1003.681418388249
 20
2546.1791838482332
 30
0.0
 11
1003.681418388249
 21
1756.1791838482341
 31
0.0
  0
LINE
  5
9570
  8
1
 10
997.28141838825013
 20
2546.1791838482332
 30
0.0
 11
997.28141838824922
 21
1756.1791838482341
 31
0.0
  0
LINE
  5
9571
  8
1
 10
573.68141838824965
 20
2546.1791838482332
 30
0.0
 11
570.48141838824995
 21
2546.1791838482332
 31
0.0
  0
LINE
  5
9572
  8
1
 10
1003.681418388249
 20
2546.1791838482332
 30
0.0
 11
997.28141838825013
 21
2546.1791838482332
 31
0.0
  0
LINE
  5
9573
  8
1
 10
1003.681418388249
 20
1756.1791838482341
 30
0.0
 11
997.28141838824922
 21
1756.1791838482341
 31
0.0
  0
LINE
  5
9574
  8
1
 10
573.68141838824965
 20
1756.1791838482341
 30
0.0
 11
570.48141838824995
 21
1756.1791838482341
 31
0.0
  0
LINE
  5
9575
  8
1
 10
1237.2814183882499
 20
1701.1791838482341
 30
0.0
 11
1177.2814183882499
 21
1701.1791838482341
 31
0.0
  0
LINE
  5
9576
  8
1
 10
573.68141838824965
 20
1756.1791838482341
 30
0.0
 11
573.68141838824965
 21
1701.1791838482341
 31
0.0
  0
LINE
  5
9577
  8
1
 10
633.68141838824977
 20
1705.6791838482341
 30
0.0
 11
633.68141838824977
 21
1701.1791838482341
 31
0.0
  0
LINE
  5
9578
  8
1
 10
1232.7814183882499
 20
1705.6791838482341
 30
0.0
 11
1177.2814183882499
 21
1705.6791838482341
 31
0.0
  0
LINE
  5
9579
  8
1
 10
578.18141838824965
 20
1980.644026182724
 30
0.0
 11
578.18141838824965
 21
1705.6791838482341
 31
0.0
  0
LINE
  5
957A
  8
1
 10
1237.2814183882499
 20
1980.644026182724
 30
0.0
 11
1232.7814183882499
 21
1980.644026182724
 31
0.0
  0
LINE
  5
957B
  8
1
 10
1237.2814183882499
 20
1756.1791838482341
 30
0.0
 11
1237.2814183882499
 21
1701.1791838482341
 31
0.0
  0
LINE
  5
957C
  8
1
 10
1177.2814183882499
 20
1705.6791838482341
 30
0.0
 11
1177.2814183882499
 21
1701.1791838482341
 31
0.0
  0
LINE
  5
957D
  8
1
 10
1232.7814183882499
 20
1980.644026182724
 30
0.0
 11
1232.7814183882499
 21
1705.6791838482341
 31
0.0
  0
LINE
  5
957E
  8
1
 10
578.18141838824965
 20
1980.644026182724
 30
0.0
 11
573.68141838824965
 21
1980.644026182724
 31
0.0
  0
LINE
  5
957F
  8
1
 10
633.68141838824977
 20
1705.6791838482341
 30
0.0
 11
578.18141838824965
 21
1705.6791838482341
 31
0.0
  0
LINE
  5
9580
  8
1
 10
633.68141838824977
 20
1701.1791838482341
 30
0.0
 11
573.68141838824965
 21
1701.1791838482341
 31
0.0
  0
POLYLINE
  8
1
  5
98CF
  66
     1
 10
0.000000
 20
0.000000
 30
0.000000
  70
     8
  0
VERTEX
  8
1
  5
98D0
 10
997.281
 20
2506.18
 30
0.000000
  70
    32
  0
VERTEX
  8
1
  5
98D1
 10
995.891
 20
2505.44
 30
0.000000
  70
    32
  0
VERTEX
  8
1
  5
98D2
 10
994.500
 20
2504.70
 30
0.000000
  70
    32
  0
VERTEX
  8
1
  5
98D3
 10
993.109
 20
2503.97
 30
0.000000
  70
    32
  0
VERTEX
  8
1
  5
98D4
 10
991.718
 20
2503.23
 30
0.000000
  70
    32
  0
VERTEX
  8
1
  5
98D5
 10
990.327
 20
2502.49
 30
0.000000
  70
    32
  0
VERTEX
  8
1
  5
98D6
 10
988.936
 20
2501.75
 30
0.000000
  70
    32
  0
VERTEX
  8
1
  5
98D7
 10
987.545
 20
2501.02
 30
0.000000
  70
    32
  0
VERTEX
  8
1
  5
98D8
 10
986.154
 20
2500.28
 30
0.000000
  70
    32
  0
VERTEX
  8
1
  5
98D9
 10
984.763
 20
2499.54
 30
0.000000
  70
    32
  0
VERTEX
  8
1
  5
98DA
 10
983.371
 20
2498.81
 30
0.000000
  70
    32
  0
VERTEX
  8
1
  5
98DB
 10
981.980
 20
2498.07
 30
0.000000
  70
    32
  0
VERTEX
  8
1
  5
98DC
 10
980.589
 20
2497.33
 30
0.000000
  70
    32
  0
VERTEX
  8
1
  5
98DD
 10
979.197
 20
2496.60
 30
0.000000
  70
    32
  0
VERTEX
  8
1
  5
98DE
 10
977.805
 20
2495.86
 30
0.000000
  70
    32
  0
VERTEX
  8
1
  5
98DF
 10
976.413
 20
2495.12
 30
0.000000
  70
    32
  0
VERTEX
  8
1
  5
98E0
 10
975.021
 20
2494.39
 30
0.000000
  70
    32
  0
VERTEX
  8
1
  5
98E1
 10
973.629
 20
2493.65
 30
0.000000
  70
    32
  0
VERTEX
  8
1
  5
98E2
 10
972.237
 20
2492.92
 30
0.000000
  70
    32
  0
VERTEX
  8
1
  5
98E3
 10
970.845
 20
2492.18
 30
0.000000
  70
    32
  0
VERTEX
  8
1
  5
98E4
 10
969.452
 20
2491.45
 30
0.000000
  70
    32
  0
VERTEX
  8
1
  5
98E5
 10
968.059
 20
2490.71
 30
0.000000
  70
    32
  0
VERTEX
  8
1
  5
98E6
 10
966.666
 20
2489.98
 30
0.000000
  70
    32
  0
VERTEX
  8
1
  5
98E7
 10
965.273
 20
2489.25
 30
0.000000
  70
    32
  0
VERTEX
  8
1
  5
98E8
 10
963.880
 20
2488.51
 30
0.000000
  70
    32
  0
VERTEX
  8
1
  5
98E9
 10
962.486
 20
2487.78
 30
0.000000
  70
    32
  0
VERTEX
  8
1
  5
98EA
 10
961.092
 20
2487.05
 30
0.000000
  70
    32
  0
VERTEX
  8
1
  5
98EB
 10
959.698
 20
2486.32
 30
0.000000
  70
    32
  0
VERTEX
  8
1
  5
98EC
 10
958.304
 20
2485.58
 30
0.000000
  70
    32
  0
VERTEX
  8
1
  5
98ED
 10
956.909
 20
2484.85
 30
0.000000
  70
    32
  0
VERTEX
  8
1
  5
98EE
 10
955.514
 20
2484.12
 30
0.000000
  70
    32
  0
VERTEX
  8
1
  5
98EF
 10
954.119
 20
2483.39
 30
0.000000
  70
    32
  0
VERTEX
  8
1
  5
98F0
 10
952.724
 20
2482.66
 30
0.000000
  70
    32
  0
VERTEX
  8
1
  5
98F1
 10
951.328
 20
2481.93
 30
0.000000
  70
    32
  0
VERTEX
  8
1
  5
98F2
 10
949.932
 20
2481.20
 30
0.000000
  70
    32
  0
VERTEX
  8
1
  5
98F3
 10
948.535
 20
2480.47
 30
0.000000
  70
    32
  0
VERTEX
  8
1
  5
98F4
 10
947.139
 20
2479.75
 30
0.000000
  70
    32
  0
VERTEX
  8
1
  5
98F5
 10
945.742
 20
2479.02
 30
0.000000
  70
    32
  0
VERTEX
  8
1
  5
98F6
 10
944.344
 20
2478.29
 30
0.000000
  70
    32
  0
VERTEX
  8
1
  5
98F7
 10
942.947
 20
2477.57
 30
0.000000
  70
    32
  0
VERTEX
  8
1
  5
98F8
 10
941.549
 20
2476.84
 30
0.000000
  70
    32
  0
VERTEX
  8
1
  5
98F9
 10
940.150
 20
2476.12
 30
0.000000
  70
    32
  0
VERTEX
  8
1
  5
98FA
 10
938.751
 20
2475.39
 30
0.000000
  70
    32
  0
VERTEX
  8
1
  5
98FB
 10
937.352
 20
2474.67
 30
0.000000
  70
    32
  0
VERTEX
  8
1
  5
98FC
 10
935.953
 20
2473.95
 30
0.000000
  70
    32
  0
VERTEX
  8
1
  5
98FD
 10
934.553
 20
2473.23
 30
0.000000
  70
    32
  0
VERTEX
  8
1
  5
98FE
 10
933.152
 20
2472.50
 30
0.000000
  70
    32
  0
VERTEX
  8
1
  5
98FF
 10
931.751
 20
2471.78
 30
0.000000
  70
    32
  0
VERTEX
  8
1
  5
9900
 10
930.350
 20
2471.06
 30
0.000000
  70
    32
  0
VERTEX
  8
1
  5
9901
 10
928.948
 20
2470.34
 30
0.000000
  70
    32
  0
VERTEX
  8
1
  5
9902
 10
927.546
 20
2469.63
 30
0.000000
  70
    32
  0
VERTEX
  8
1
  5
9903
 10
926.143
 20
2468.91
 30
0.000000
  70
    32
  0
VERTEX
  8
1
  5
9904
 10
924.740
 20
2468.19
 30
0.000000
  70
    32
  0
VERTEX
  8
1
  5
9905
 10
923.337
 20
2467.48
 30
0.000000
  70
    32
  0
VERTEX
  8
1
  5
9906
 10
921.933
 20
2466.76
 30
0.000000
  70
    32
  0
VERTEX
  8
1
  5
9907
 10
920.528
 20
2466.05
 30
0.000000
  70
    32
  0
VERTEX
  8
1
  5
9908
 10
919.123
 20
2465.33
 30
0.000000
  70
    32
  0
VERTEX
  8
1
  5
9909
 10
917.717
 20
2464.62
 30
0.000000
  70
    32
  0
VERTEX
  8
1
  5
990A
 10
916.311
 20
2463.91
 30
0.000000
  70
    32
  0
VERTEX
  8
1
  5
990B
 10
914.904
 20
2463.20
 30
0.000000
  70
    32
  0
VERTEX
  8
1
  5
990C
 10
913.497
 20
2462.49
 30
0.000000
  70
    32
  0
VERTEX
  8
1
  5
990D
 10
912.089
 20
2461.78
 30
0.000000
  70
    32
  0
VERTEX
  8
1
  5
990E
 10
910.681
 20
2461.07
 30
0.000000
  70
    32
  0
VERTEX
  8
1
  5
990F
 10
909.272
 20
2460.36
 30
0.000000
  70
    32
  0
VERTEX
  8
1
  5
9910
 10
907.862
 20
2459.66
 30
0.000000
  70
    32
  0
VERTEX
  8
1
  5
9911
 10
906.452
 20
2458.95
 30
0.000000
  70
    32
  0
VERTEX
  8
1
  5
9912
 10
905.042
 20
2458.25
 30
0.000000
  70
    32
  0
VERTEX
  8
1
  5
9913
 10
903.630
 20
2457.55
 30
0.000000
  70
    32
  0
VERTEX
  8
1
  5
9914
 10
902.218
 20
2456.85
 30
0.000000
  70
    32
  0
VERTEX
  8
1
  5
9915
 10
900.806
 20
2456.14
 30
0.000000
  70
    32
  0
VERTEX
  8
1
  5
9916
 10
899.393
 20
2455.44
 30
0.000000
  70
    32
  0
VERTEX
  8
1
  5
9917
 10
897.979
 20
2454.75
 30
0.000000
  70
    32
  0
VERTEX
  8
1
  5
9918
 10
896.564
 20
2454.05
 30
0.000000
  70
    32
  0
VERTEX
  8
1
  5
9919
 10
895.149
 20
2453.35
 30
0.000000
  70
    32
  0
VERTEX
  8
1
  5
991A
 10
893.733
 20
2452.66
 30
0.000000
  70
    32
  0
VERTEX
  8
1
  5
991B
 10
892.317
 20
2451.96
 30
0.000000
  70
    32
  0
VERTEX
  8
1
  5
991C
 10
890.899
 20
2451.27
 30
0.000000
  70
    32
  0
VERTEX
  8
1
  5
991D
 10
889.481
 20
2450.58
 30
0.000000
  70
    32
  0
VERTEX
  8
1
  5
991E
 10
888.063
 20
2449.89
 30
0.000000
  70
    32
  0
VERTEX
  8
1
  5
991F
 10
886.643
 20
2449.20
 30
0.000000
  70
    32
  0
VERTEX
  8
1
  5
9920
 10
885.223
 20
2448.51
 30
0.000000
  70
    32
  0
VERTEX
  8
1
  5
9921
 10
883.803
 20
2447.82
 30
0.000000
  70
    32
  0
VERTEX
  8
1
  5
9922
 10
882.381
 20
2447.14
 30
0.000000
  70
    32
  0
VERTEX
  8
1
  5
9923
 10
880.959
 20
2446.46
 30
0.000000
  70
    32
  0
VERTEX
  8
1
  5
9924
 10
879.535
 20
2445.77
 30
0.000000
  70
    32
  0
VERTEX
  8
1
  5
9925
 10
878.112
 20
2445.09
 30
0.000000
  70
    32
  0
VERTEX
  8
1
  5
9926
 10
876.687
 20
2444.41
 30
0.000000
  70
    32
  0
VERTEX
  8
1
  5
9927
 10
875.261
 20
2443.73
 30
0.000000
  70
    32
  0
VERTEX
  8
1
  5
9928
 10
873.835
 20
2443.05
 30
0.000000
  70
    32
  0
VERTEX
  8
1
  5
9929
 10
872.408
 20
2442.38
 30
0.000000
  70
    32
  0
VERTEX
  8
1
  5
992A
 10
870.980
 20
2441.70
 30
0.000000
  70
    32
  0
VERTEX
  8
1
  5
992B
 10
869.551
 20
2441.03
 30
0.000000
  70
    32
  0
VERTEX
  8
1
  5
992C
 10
868.122
 20
2440.36
 30
0.000000
  70
    32
  0
VERTEX
  8
1
  5
992D
 10
866.691
 20
2439.69
 30
0.000000
  70
    32
  0
VERTEX
  8
1
  5
992E
 10
865.260
 20
2439.02
 30
0.000000
  70
    32
  0
VERTEX
  8
1
  5
992F
 10
863.828
 20
2438.35
 30
0.000000
  70
    32
  0
VERTEX
  8
1
  5
9930
 10
862.395
 20
2437.69
 30
0.000000
  70
    32
  0
VERTEX
  8
1
  5
9931
 10
860.961
 20
2437.02
 30
0.000000
  70
    32
  0
VERTEX
  8
1
  5
9932
 10
859.526
 20
2436.36
 30
0.000000
  70
    32
  0
VERTEX
  8
1
  5
9933
 10
858.090
 20
2435.70
 30
0.000000
  70
    32
  0
VERTEX
  8
1
  5
9934
 10
856.653
 20
2435.04
 30
0.000000
  70
    32
  0
VERTEX
  8
1
  5
9935
 10
855.216
 20
2434.38
 30
0.000000
  70
    32
  0
VERTEX
  8
1
  5
9936
 10
853.777
 20
2433.73
 30
0.000000
  70
    32
  0
VERTEX
  8
1
  5
9937
 10
852.337
 20
2433.07
 30
0.000000
  70
    32
  0
VERTEX
  8
1
  5
9938
 10
850.897
 20
2432.42
 30
0.000000
  70
    32
  0
VERTEX
  8
1
  5
9939
 10
849.455
 20
2431.77
 30
0.000000
  70
    32
  0
VERTEX
  8
1
  5
993A
 10
848.012
 20
2431.13
 30
0.000000
  70
    32
  0
VERTEX
  8
1
  5
993B
 10
846.569
 20
2430.48
 30
0.000000
  70
    32
  0
VERTEX
  8
1
  5
993C
 10
845.124
 20
2429.84
 30
0.000000
  70
    32
  0
VERTEX
  8
1
  5
993D
 10
843.678
 20
2429.20
 30
0.000000
  70
    32
  0
VERTEX
  8
1
  5
993E
 10
842.231
 20
2428.56
 30
0.000000
  70
    32
  0
VERTEX
  8
1
  5
993F
 10
840.783
 20
2427.93
 30
0.000000
  70
    32
  0
VERTEX
  8
1
  5
9940
 10
839.334
 20
2427.30
 30
0.000000
  70
    32
  0
VERTEX
  8
1
  5
9941
 10
837.884
 20
2426.67
 30
0.000000
  70
    32
  0
VERTEX
  8
1
  5
9942
 10
836.432
 20
2426.04
 30
0.000000
  70
    32
  0
VERTEX
  8
1
  5
9943
 10
834.980
 20
2425.42
 30
0.000000
  70
    32
  0
VERTEX
  8
1
  5
9944
 10
833.526
 20
2424.80
 30
0.000000
  70
    32
  0
VERTEX
  8
1
  5
9945
 10
832.071
 20
2424.18
 30
0.000000
  70
    32
  0
VERTEX
  8
1
  5
9946
 10
830.615
 20
2423.57
 30
0.000000
  70
    32
  0
VERTEX
  8
1
  5
9947
 10
829.158
 20
2422.96
 30
0.000000
  70
    32
  0
VERTEX
  8
1
  5
9948
 10
827.699
 20
2422.35
 30
0.000000
  70
    32
  0
VERTEX
  8
1
  5
9949
 10
826.239
 20
2421.75
 30
0.000000
  70
    32
  0
VERTEX
  8
1
  5
994A
 10
824.778
 20
2421.15
 30
0.000000
  70
    32
  0
VERTEX
  8
1
  5
994B
 10
823.316
 20
2420.56
 30
0.000000
  70
    32
  0
VERTEX
  8
1
  5
994C
 10
821.852
 20
2419.96
 30
0.000000
  70
    32
  0
VERTEX
  8
1
  5
994D
 10
820.387
 20
2419.37
 30
0.000000
  70
    32
  0
VERTEX
  8
1
  5
994E
 10
818.921
 20
2418.79
 30
0.000000
  70
    32
  0
VERTEX
  8
1
  5
994F
 10
817.454
 20
2418.21
 30
0.000000
  70
    32
  0
VERTEX
  8
1
  5
9950
 10
815.985
 20
2417.63
 30
0.000000
  70
    32
  0
VERTEX
  8
1
  5
9951
 10
814.514
 20
2417.06
 30
0.000000
  70
    32
  0
VERTEX
  8
1
  5
9952
 10
813.043
 20
2416.49
 30
0.000000
  70
    32
  0
VERTEX
  8
1
  5
9953
 10
811.570
 20
2415.93
 30
0.000000
  70
    32
  0
VERTEX
  8
1
  5
9954
 10
810.095
 20
2415.36
 30
0.000000
  70
    32
  0
VERTEX
  8
1
  5
9955
 10
808.619
 20
2414.81
 30
0.000000
  70
    32
  0
VERTEX
  8
1
  5
9956
 10
807.142
 20
2414.26
 30
0.000000
  70
    32
  0
VERTEX
  8
1
  5
9957
 10
805.663
 20
2413.71
 30
0.000000
  70
    32
  0
VERTEX
  8
1
  5
9958
 10
804.183
 20
2413.17
 30
0.000000
  70
    32
  0
VERTEX
  8
1
  5
9959
 10
802.701
 20
2412.63
 30
0.000000
  70
    32
  0
VERTEX
  8
1
  5
995A
 10
801.218
 20
2412.10
 30
0.000000
  70
    32
  0
VERTEX
  8
1
  5
995B
 10
799.733
 20
2411.57
 30
0.000000
  70
    32
  0
VERTEX
  8
1
  5
995C
 10
798.247
 20
2411.05
 30
0.000000
  70
    32
  0
VERTEX
  8
1
  5
995D
 10
796.759
 20
2410.53
 30
0.000000
  70
    32
  0
VERTEX
  8
1
  5
995E
 10
795.270
 20
2410.02
 30
0.000000
  70
    32
  0
VERTEX
  8
1
  5
995F
 10
793.779
 20
2409.51
 30
0.000000
  70
    32
  0
VERTEX
  8
1
  5
9960
 10
792.287
 20
2409.01
 30
0.000000
  70
    32
  0
VERTEX
  8
1
  5
9961
 10
790.793
 20
2408.51
 30
0.000000
  70
    32
  0
VERTEX
  8
1
  5
9962
 10
789.297
 20
2408.02
 30
0.000000
  70
    32
  0
VERTEX
  8
1
  5
9963
 10
787.800
 20
2407.53
 30
0.000000
  70
    32
  0
VERTEX
  8
1
  5
9964
 10
786.301
 20
2407.05
 30
0.000000
  70
    32
  0
VERTEX
  8
1
  5
9965
 10
784.800
 20
2406.57
 30
0.000000
  70
    32
  0
VERTEX
  8
1
  5
9966
 10
783.298
 20
2406.10
 30
0.000000
  70
    32
  0
VERTEX
  8
1
  5
9967
 10
781.794
 20
2405.64
 30
0.000000
  70
    32
  0
VERTEX
  8
1
  5
9968
 10
780.288
 20
2405.18
 30
0.000000
  70
    32
  0
VERTEX
  8
1
  5
9969
 10
778.781
 20
2404.73
 30
0.000000
  70
    32
  0
VERTEX
  8
1
  5
996A
 10
777.272
 20
2404.28
 30
0.000000
  70
    32
  0
VERTEX
  8
1
  5
996B
 10
775.761
 20
2403.84
 30
0.000000
  70
    32
  0
VERTEX
  8
1
  5
996C
 10
774.249
 20
2403.41
 30
0.000000
  70
    32
  0
VERTEX
  8
1
  5
996D
 10
772.734
 20
2402.98
 30
0.000000
  70
    32
  0
VERTEX
  8
1
  5
996E
 10
771.218
 20
2402.56
 30
0.000000
  70
    32
  0
VERTEX
  8
1
  5
996F
 10
769.700
 20
2402.15
 30
0.000000
  70
    32
  0
VERTEX
  8
1
  5
9970
 10
768.181
 20
2401.74
 30
0.000000
  70
    32
  0
VERTEX
  8
1
  5
9971
 10
766.659
 20
2401.34
 30
0.000000
  70
    32
  0
VERTEX
  8
1
  5
9972
 10
765.136
 20
2400.94
 30
0.000000
  70
    32
  0
VERTEX
  8
1
  5
9973
 10
763.611
 20
2400.55
 30
0.000000
  70
    32
  0
VERTEX
  8
1
  5
9974
 10
762.085
 20
2400.17
 30
0.000000
  70
    32
  0
VERTEX
  8
1
  5
9975
 10
760.557
 20
2399.79
 30
0.000000
  70
    32
  0
VERTEX
  8
1
  5
9976
 10
759.027
 20
2399.41
 30
0.000000
  70
    32
  0
VERTEX
  8
1
  5
9977
 10
757.497
 20
2399.04
 30
0.000000
  70
    32
  0
VERTEX
  8
1
  5
9978
 10
755.965
 20
2398.68
 30
0.000000
  70
    32
  0
VERTEX
  8
1
  5
9979
 10
754.431
 20
2398.32
 30
0.000000
  70
    32
  0
VERTEX
  8
1
  5
997A
 10
752.896
 20
2397.97
 30
0.000000
  70
    32
  0
VERTEX
  8
1
  5
997B
 10
751.361
 20
2397.62
 30
0.000000
  70
    32
  0
VERTEX
  8
1
  5
997C
 10
749.824
 20
2397.27
 30
0.000000
  70
    32
  0
VERTEX
  8
1
  5
997D
 10
748.286
 20
2396.93
 30
0.000000
  70
    32
  0
VERTEX
  8
1
  5
997E
 10
746.746
 20
2396.59
 30
0.000000
  70
    32
  0
VERTEX
  8
1
  5
997F
 10
745.206
 20
2396.25
 30
0.000000
  70
    32
  0
VERTEX
  8
1
  5
9980
 10
743.665
 20
2395.92
 30
0.000000
  70
    32
  0
VERTEX
  8
1
  5
9981
 10
742.124
 20
2395.59
 30
0.000000
  70
    32
  0
VERTEX
  8
1
  5
9982
 10
740.581
 20
2395.26
 30
0.000000
  70
    32
  0
VERTEX
  8
1
  5
9983
 10
739.038
 20
2394.94
 30
0.000000
  70
    32
  0
VERTEX
  8
1
  5
9984
 10
737.494
 20
2394.62
 30
0.000000
  70
    32
  0
VERTEX
  8
1
  5
9985
 10
735.949
 20
2394.30
 30
0.000000
  70
    32
  0
VERTEX
  8
1
  5
9986
 10
734.404
 20
2393.98
 30
0.000000
  70
    32
  0
VERTEX
  8
1
  5
9987
 10
732.858
 20
2393.66
 30
0.000000
  70
    32
  0
VERTEX
  8
1
  5
9988
 10
731.312
 20
2393.35
 30
0.000000
  70
    32
  0
VERTEX
  8
1
  5
9989
 10
729.766
 20
2393.04
 30
0.000000
  70
    32
  0
VERTEX
  8
1
  5
998A
 10
728.219
 20
2392.73
 30
0.000000
  70
    32
  0
VERTEX
  8
1
  5
998B
 10
726.672
 20
2392.41
 30
0.000000
  70
    32
  0
VERTEX
  8
1
  5
998C
 10
725.124
 20
2392.11
 30
0.000000
  70
    32
  0
VERTEX
  8
1
  5
998D
 10
723.577
 20
2391.80
 30
0.000000
  70
    32
  0
VERTEX
  8
1
  5
998E
 10
722.029
 20
2391.49
 30
0.000000
  70
    32
  0
VERTEX
  8
1
  5
998F
 10
720.481
 20
2391.18
 30
0.000000
  70
    32
  0
SEQEND
  8
1
  5
9990
  0
POLYLINE
  8
1
  5
9991
  66
     1
 10
0.000000
 20
0.000000
 30
0.000000
  70
     8
  0
VERTEX
  8
1
  5
9992
 10
997.281
 20
1796.18
 30
0.000000
  70
    32
  0
VERTEX
  8
1
  5
9993
 10
995.891
 20
1796.92
 30
0.000000
  70
    32
  0
VERTEX
  8
1
  5
9994
 10
994.500
 20
1797.65
 30
0.000000
  70
    32
  0
VERTEX
  8
1
  5
9995
 10
993.109
 20
1798.39
 30
0.000000
  70
    32
  0
VERTEX
  8
1
  5
9996
 10
991.718
 20
1799.13
 30
0.000000
  70
    32
  0
VERTEX
  8
1
  5
9997
 10
990.327
 20
1799.87
 30
0.000000
  70
    32
  0
VERTEX
  8
1
  5
9998
 10
988.936
 20
1800.60
 30
0.000000
  70
    32
  0
VERTEX
  8
1
  5
9999
 10
987.545
 20
1801.34
 30
0.000000
  70
    32
  0
VERTEX
  8
1
  5
999A
 10
986.154
 20
1802.08
 30
0.000000
  70
    32
  0
VERTEX
  8
1
  5
999B
 10
984.763
 20
1802.82
 30
0.000000
  70
    32
  0
VERTEX
  8
1
  5
999C
 10
983.371
 20
1803.55
 30
0.000000
  70
    32
  0
VERTEX
  8
1
  5
999D
 10
981.980
 20
1804.29
 30
0.000000
  70
    32
  0
VERTEX
  8
1
  5
999E
 10
980.589
 20
1805.03
 30
0.000000
  70
    32
  0
VERTEX
  8
1
  5
999F
 10
979.197
 20
1805.76
 30
0.000000
  70
    32
  0
VERTEX
  8
1
  5
99A0
 10
977.805
 20
1806.50
 30
0.000000
  70
    32
  0
VERTEX
  8
1
  5
99A1
 10
976.413
 20
1807.23
 30
0.000000
  70
    32
  0
VERTEX
  8
1
  5
99A2
 10
975.021
 20
1807.97
 30
0.000000
  70
    32
  0
VERTEX
  8
1
  5
99A3
 10
973.629
 20
1808.71
 30
0.000000
  70
    32
  0
VERTEX
  8
1
  5
99A4
 10
972.237
 20
1809.44
 30
0.000000
  70
    32
  0
VERTEX
  8
1
  5
99A5
 10
970.845
 20
1810.18
 30
0.000000
  70
    32
  0
VERTEX
  8
1
  5
99A6
 10
969.452
 20
1810.91
 30
0.000000
  70
    32
  0
VERTEX
  8
1
  5
99A7
 10
968.059
 20
1811.64
 30
0.000000
  70
    32
  0
VERTEX
  8
1
  5
99A8
 10
966.666
 20
1812.38
 30
0.000000
  70
    32
  0
VERTEX
  8
1
  5
99A9
 10
965.273
 20
1813.11
 30
0.000000
  70
    32
  0
VERTEX
  8
1
  5
99AA
 10
963.880
 20
1813.85
 30
0.000000
  70
    32
  0
VERTEX
  8
1
  5
99AB
 10
962.486
 20
1814.58
 30
0.000000
  70
    32
  0
VERTEX
  8
1
  5
99AC
 10
961.092
 20
1815.31
 30
0.000000
  70
    32
  0
VERTEX
  8
1
  5
99AD
 10
959.698
 20
1816.04
 30
0.000000
  70
    32
  0
VERTEX
  8
1
  5
99AE
 10
958.304
 20
1816.77
 30
0.000000
  70
    32
  0
VERTEX
  8
1
  5
99AF
 10
956.909
 20
1817.51
 30
0.000000
  70
    32
  0
VERTEX
  8
1
  5
99B0
 10
955.514
 20
1818.24
 30
0.000000
  70
    32
  0
VERTEX
  8
1
  5
99B1
 10
954.119
 20
1818.97
 30
0.000000
  70
    32
  0
VERTEX
  8
1
  5
99B2
 10
952.724
 20
1819.70
 30
0.000000
  70
    32
  0
VERTEX
  8
1
  5
99B3
 10
951.328
 20
1820.43
 30
0.000000
  70
    32
  0
VERTEX
  8
1
  5
99B4
 10
949.932
 20
1821.16
 30
0.000000
  70
    32
  0
VERTEX
  8
1
  5
99B5
 10
948.535
 20
1821.88
 30
0.000000
  70
    32
  0
VERTEX
  8
1
  5
99B6
 10
947.139
 20
1822.61
 30
0.000000
  70
    32
  0
VERTEX
  8
1
  5
99B7
 10
945.742
 20
1823.34
 30
0.000000
  70
    32
  0
VERTEX
  8
1
  5
99B8
 10
944.344
 20
1824.06
 30
0.000000
  70
    32
  0
VERTEX
  8
1
  5
99B9
 10
942.947
 20
1824.79
 30
0.000000
  70
    32
  0
VERTEX
  8
1
  5
99BA
 10
941.549
 20
1825.52
 30
0.000000
  70
    32
  0
VERTEX
  8
1
  5
99BB
 10
940.150
 20
1826.24
 30
0.000000
  70
    32
  0
VERTEX
  8
1
  5
99BC
 10
938.751
 20
1826.96
 30
0.000000
  70
    32
  0
VERTEX
  8
1
  5
99BD
 10
937.352
 20
1827.69
 30
0.000000
  70
    32
  0
VERTEX
  8
1
  5
99BE
 10
935.953
 20
1828.41
 30
0.000000
  70
    32
  0
VERTEX
  8
1
  5
99BF
 10
934.553
 20
1829.13
 30
0.000000
  70
    32
  0
VERTEX
  8
1
  5
99C0
 10
933.152
 20
1829.85
 30
0.000000
  70
    32
  0
VERTEX
  8
1
  5
99C1
 10
931.751
 20
1830.58
 30
0.000000
  70
    32
  0
VERTEX
  8
1
  5
99C2
 10
930.350
 20
1831.30
 30
0.000000
  70
    32
  0
VERTEX
  8
1
  5
99C3
 10
928.948
 20
1832.01
 30
0.000000
  70
    32
  0
VERTEX
  8
1
  5
99C4
 10
927.546
 20
1832.73
 30
0.000000
  70
    32
  0
VERTEX
  8
1
  5
99C5
 10
926.143
 20
1833.45
 30
0.000000
  70
    32
  0
VERTEX
  8
1
  5
99C6
 10
924.740
 20
1834.17
 30
0.000000
  70
    32
  0
VERTEX
  8
1
  5
99C7
 10
923.337
 20
1834.88
 30
0.000000
  70
    32
  0
VERTEX
  8
1
  5
99C8
 10
921.933
 20
1835.60
 30
0.000000
  70
    32
  0
VERTEX
  8
1
  5
99C9
 10
920.528
 20
1836.31
 30
0.000000
  70
    32
  0
VERTEX
  8
1
  5
99CA
 10
919.123
 20
1837.03
 30
0.000000
  70
    32
  0
VERTEX
  8
1
  5
99CB
 10
917.717
 20
1837.74
 30
0.000000
  70
    32
  0
VERTEX
  8
1
  5
99CC
 10
916.311
 20
1838.45
 30
0.000000
  70
    32
  0
VERTEX
  8
1
  5
99CD
 10
914.904
 20
1839.16
 30
0.000000
  70
    32
  0
VERTEX
  8
1
  5
99CE
 10
913.497
 20
1839.87
 30
0.000000
  70
    32
  0
VERTEX
  8
1
  5
99CF
 10
912.089
 20
1840.58
 30
0.000000
  70
    32
  0
VERTEX
  8
1
  5
99D0
 10
910.681
 20
1841.29
 30
0.000000
  70
    32
  0
VERTEX
  8
1
  5
99D1
 10
909.272
 20
1841.99
 30
0.000000
  70
    32
  0
VERTEX
  8
1
  5
99D2
 10
907.862
 20
1842.70
 30
0.000000
  70
    32
  0
VERTEX
  8
1
  5
99D3
 10
906.452
 20
1843.40
 30
0.000000
  70
    32
  0
VERTEX
  8
1
  5
99D4
 10
905.042
 20
1844.11
 30
0.000000
  70
    32
  0
VERTEX
  8
1
  5
99D5
 10
903.630
 20
1844.81
 30
0.000000
  70
    32
  0
VERTEX
  8
1
  5
99D6
 10
902.218
 20
1845.51
 30
0.000000
  70
    32
  0
VERTEX
  8
1
  5
99D7
 10
900.806
 20
1846.21
 30
0.000000
  70
    32
  0
VERTEX
  8
1
  5
99D8
 10
899.393
 20
1846.91
 30
0.000000
  70
    32
  0
VERTEX
  8
1
  5
99D9
 10
897.979
 20
1847.61
 30
0.000000
  70
    32
  0
VERTEX
  8
1
  5
99DA
 10
896.564
 20
1848.31
 30
0.000000
  70
    32
  0
VERTEX
  8
1
  5
99DB
 10
895.149
 20
1849.01
 30
0.000000
  70
    32
  0
VERTEX
  8
1
  5
99DC
 10
893.733
 20
1849.70
 30
0.000000
  70
    32
  0
VERTEX
  8
1
  5
99DD
 10
892.317
 20
1850.40
 30
0.000000
  70
    32
  0
VERTEX
  8
1
  5
99DE
 10
890.899
 20
1851.09
 30
0.000000
  70
    32
  0
VERTEX
  8
1
  5
99DF
 10
889.481
 20
1851.78
 30
0.000000
  70
    32
  0
VERTEX
  8
1
  5
99E0
 10
888.063
 20
1852.47
 30
0.000000
  70
    32
  0
VERTEX
  8
1
  5
99E1
 10
886.643
 20
1853.16
 30
0.000000
  70
    32
  0
VERTEX
  8
1
  5
99E2
 10
885.223
 20
1853.85
 30
0.000000
  70
    32
  0
VERTEX
  8
1
  5
99E3
 10
883.803
 20
1854.53
 30
0.000000
  70
    32
  0
VERTEX
  8
1
  5
99E4
 10
882.381
 20
1855.22
 30
0.000000
  70
    32
  0
VERTEX
  8
1
  5
99E5
 10
880.959
 20
1855.90
 30
0.000000
  70
    32
  0
VERTEX
  8
1
  5
99E6
 10
879.535
 20
1856.59
 30
0.000000
  70
    32
  0
VERTEX
  8
1
  5
99E7
 10
878.112
 20
1857.27
 30
0.000000
  70
    32
  0
VERTEX
  8
1
  5
99E8
 10
876.687
 20
1857.95
 30
0.000000
  70
    32
  0
VERTEX
  8
1
  5
99E9
 10
875.261
 20
1858.63
 30
0.000000
  70
    32
  0
VERTEX
  8
1
  5
99EA
 10
873.835
 20
1859.30
 30
0.000000
  70
    32
  0
VERTEX
  8
1
  5
99EB
 10
872.408
 20
1859.98
 30
0.000000
  70
    32
  0
VERTEX
  8
1
  5
99EC
 10
870.980
 20
1860.65
 30
0.000000
  70
    32
  0
VERTEX
  8
1
  5
99ED
 10
869.551
 20
1861.33
 30
0.000000
  70
    32
  0
VERTEX
  8
1
  5
99EE
 10
868.122
 20
1862.00
 30
0.000000
  70
    32
  0
VERTEX
  8
1
  5
99EF
 10
866.691
 20
1862.67
 30
0.000000
  70
    32
  0
VERTEX
  8
1
  5
99F0
 10
865.260
 20
1863.34
 30
0.000000
  70
    32
  0
VERTEX
  8
1
  5
99F1
 10
863.828
 20
1864.01
 30
0.000000
  70
    32
  0
VERTEX
  8
1
  5
99F2
 10
862.395
 20
1864.67
 30
0.000000
  70
    32
  0
VERTEX
  8
1
  5
99F3
 10
860.961
 20
1865.34
 30
0.000000
  70
    32
  0
VERTEX
  8
1
  5
99F4
 10
859.526
 20
1866.00
 30
0.000000
  70
    32
  0
VERTEX
  8
1
  5
99F5
 10
858.090
 20
1866.66
 30
0.000000
  70
    32
  0
VERTEX
  8
1
  5
99F6
 10
856.653
 20
1867.32
 30
0.000000
  70
    32
  0
VERTEX
  8
1
  5
99F7
 10
855.216
 20
1867.98
 30
0.000000
  70
    32
  0
VERTEX
  8
1
  5
99F8
 10
853.777
 20
1868.63
 30
0.000000
  70
    32
  0
VERTEX
  8
1
  5
99F9
 10
852.337
 20
1869.29
 30
0.000000
  70
    32
  0
VERTEX
  8
1
  5
99FA
 10
850.897
 20
1869.94
 30
0.000000
  70
    32
  0
VERTEX
  8
1
  5
99FB
 10
849.455
 20
1870.59
 30
0.000000
  70
    32
  0
VERTEX
  8
1
  5
99FC
 10
848.012
 20
1871.23
 30
0.000000
  70
    32
  0
VERTEX
  8
1
  5
99FD
 10
846.569
 20
1871.88
 30
0.000000
  70
    32
  0
VERTEX
  8
1
  5
99FE
 10
845.124
 20
1872.52
 30
0.000000
  70
    32
  0
VERTEX
  8
1
  5
99FF
 10
843.678
 20
1873.16
 30
0.000000
  70
    32
  0
VERTEX
  8
1
  5
9A00
 10
842.231
 20
1873.79
 30
0.000000
  70
    32
  0
VERTEX
  8
1
  5
9A01
 10
840.783
 20
1874.43
 30
0.000000
  70
    32
  0
VERTEX
  8
1
  5
9A02
 10
839.334
 20
1875.06
 30
0.000000
  70
    32
  0
VERTEX
  8
1
  5
9A03
 10
837.884
 20
1875.69
 30
0.000000
  70
    32
  0
VERTEX
  8
1
  5
9A04
 10
836.432
 20
1876.31
 30
0.000000
  70
    32
  0
VERTEX
  8
1
  5
9A05
 10
834.980
 20
1876.94
 30
0.000000
  70
    32
  0
VERTEX
  8
1
  5
9A06
 10
833.526
 20
1877.56
 30
0.000000
  70
    32
  0
VERTEX
  8
1
  5
9A07
 10
832.071
 20
1878.17
 30
0.000000
  70
    32
  0
VERTEX
  8
1
  5
9A08
 10
830.615
 20
1878.79
 30
0.000000
  70
    32
  0
VERTEX
  8
1
  5
9A09
 10
829.158
 20
1879.40
 30
0.000000
  70
    32
  0
VERTEX
  8
1
  5
9A0A
 10
827.699
 20
1880.00
 30
0.000000
  70
    32
  0
VERTEX
  8
1
  5
9A0B
 10
826.239
 20
1880.61
 30
0.000000
  70
    32
  0
VERTEX
  8
1
  5
9A0C
 10
824.778
 20
1881.21
 30
0.000000
  70
    32
  0
VERTEX
  8
1
  5
9A0D
 10
823.316
 20
1881.80
 30
0.000000
  70
    32
  0
VERTEX
  8
1
  5
9A0E
 10
821.852
 20
1882.40
 30
0.000000
  70
    32
  0
VERTEX
  8
1
  5
9A0F
 10
820.387
 20
1882.98
 30
0.000000
  70
    32
  0
VERTEX
  8
1
  5
9A10
 10
818.921
 20
1883.57
 30
0.000000
  70
    32
  0
VERTEX
  8
1
  5
9A11
 10
817.454
 20
1884.15
 30
0.000000
  70
    32
  0
VERTEX
  8
1
  5
9A12
 10
815.985
 20
1884.73
 30
0.000000
  70
    32
  0
VERTEX
  8
1
  5
9A13
 10
814.514
 20
1885.30
 30
0.000000
  70
    32
  0
VERTEX
  8
1
  5
9A14
 10
813.043
 20
1885.87
 30
0.000000
  70
    32
  0
VERTEX
  8
1
  5
9A15
 10
811.570
 20
1886.43
 30
0.000000
  70
    32
  0
VERTEX
  8
1
  5
9A16
 10
810.095
 20
1886.99
 30
0.000000
  70
    32
  0
VERTEX
  8
1
  5
9A17
 10
808.619
 20
1887.55
 30
0.000000
  70
    32
  0
VERTEX
  8
1
  5
9A18
 10
807.142
 20
1888.10
 30
0.000000
  70
    32
  0
VERTEX
  8
1
  5
9A19
 10
805.663
 20
1888.65
 30
0.000000
  70
    32
  0
VERTEX
  8
1
  5
9A1A
 10
804.183
 20
1889.19
 30
0.000000
  70
    32
  0
VERTEX
  8
1
  5
9A1B
 10
802.701
 20
1889.73
 30
0.000000
  70
    32
  0
VERTEX
  8
1
  5
9A1C
 10
801.218
 20
1890.26
 30
0.000000
  70
    32
  0
VERTEX
  8
1
  5
9A1D
 10
799.733
 20
1890.79
 30
0.000000
  70
    32
  0
VERTEX
  8
1
  5
9A1E
 10
798.247
 20
1891.31
 30
0.000000
  70
    32
  0
VERTEX
  8
1
  5
9A1F
 10
796.759
 20
1891.83
 30
0.000000
  70
    32
  0
VERTEX
  8
1
  5
9A20
 10
795.270
 20
1892.34
 30
0.000000
  70
    32
  0
VERTEX
  8
1
  5
9A21
 10
793.779
 20
1892.85
 30
0.000000
  70
    32
  0
VERTEX
  8
1
  5
9A22
 10
792.287
 20
1893.35
 30
0.000000
  70
    32
  0
VERTEX
  8
1
  5
9A23
 10
790.793
 20
1893.85
 30
0.000000
  70
    32
  0
VERTEX
  8
1
  5
9A24
 10
789.297
 20
1894.34
 30
0.000000
  70
    32
  0
VERTEX
  8
1
  5
9A25
 10
787.800
 20
1894.83
 30
0.000000
  70
    32
  0
VERTEX
  8
1
  5
9A26
 10
786.301
 20
1895.31
 30
0.000000
  70
    32
  0
VERTEX
  8
1
  5
9A27
 10
784.800
 20
1895.78
 30
0.000000
  70
    32
  0
VERTEX
  8
1
  5
9A28
 10
783.298
 20
1896.25
 30
0.000000
  70
    32
  0
VERTEX
  8
1
  5
9A29
 10
781.794
 20
1896.72
 30
0.000000
  70
    32
  0
VERTEX
  8
1
  5
9A2A
 10
780.288
 20
1897.18
 30
0.000000
  70
    32
  0
VERTEX
  8
1
  5
9A2B
 10
778.781
 20
1897.63
 30
0.000000
  70
    32
  0
VERTEX
  8
1
  5
9A2C
 10
777.272
 20
1898.07
 30
0.000000
  70
    32
  0
VERTEX
  8
1
  5
9A2D
 10
775.761
 20
1898.51
 30
0.000000
  70
    32
  0
VERTEX
  8
1
  5
9A2E
 10
774.249
 20
1898.95
 30
0.000000
  70
    32
  0
VERTEX
  8
1
  5
9A2F
 10
772.734
 20
1899.38
 30
0.000000
  70
    32
  0
VERTEX
  8
1
  5
9A30
 10
771.218
 20
1899.80
 30
0.000000
  70
    32
  0
VERTEX
  8
1
  5
9A31
 10
769.700
 20
1900.21
 30
0.000000
  70
    32
  0
VERTEX
  8
1
  5
9A32
 10
768.181
 20
1900.62
 30
0.000000
  70
    32
  0
VERTEX
  8
1
  5
9A33
 10
766.659
 20
1901.02
 30
0.000000
  70
    32
  0
VERTEX
  8
1
  5
9A34
 10
765.136
 20
1901.42
 30
0.000000
  70
    32
  0
VERTEX
  8
1
  5
9A35
 10
763.611
 20
1901.81
 30
0.000000
  70
    32
  0
VERTEX
  8
1
  5
9A36
 10
762.085
 20
1902.19
 30
0.000000
  70
    32
  0
VERTEX
  8
1
  5
9A37
 10
760.557
 20
1902.57
 30
0.000000
  70
    32
  0
VERTEX
  8
1
  5
9A38
 10
759.027
 20
1902.95
 30
0.000000
  70
    32
  0
VERTEX
  8
1
  5
9A39
 10
757.497
 20
1903.31
 30
0.000000
  70
    32
  0
VERTEX
  8
1
  5
9A3A
 10
755.965
 20
1903.68
 30
0.000000
  70
    32
  0
VERTEX
  8
1
  5
9A3B
 10
754.431
 20
1904.04
 30
0.000000
  70
    32
  0
VERTEX
  8
1
  5
9A3C
 10
752.896
 20
1904.39
 30
0.000000
  70
    32
  0
VERTEX
  8
1
  5
9A3D
 10
751.361
 20
1904.74
 30
0.000000
  70
    32
  0
VERTEX
  8
1
  5
9A3E
 10
749.824
 20
1905.09
 30
0.000000
  70
    32
  0
VERTEX
  8
1
  5
9A3F
 10
748.286
 20
1905.43
 30
0.000000
  70
    32
  0
VERTEX
  8
1
  5
9A40
 10
746.746
 20
1905.77
 30
0.000000
  70
    32
  0
VERTEX
  8
1
  5
9A41
 10
745.206
 20
1906.11
 30
0.000000
  70
    32
  0
VERTEX
  8
1
  5
9A42
 10
743.665
 20
1906.44
 30
0.000000
  70
    32
  0
VERTEX
  8
1
  5
9A43
 10
742.124
 20
1906.77
 30
0.000000
  70
    32
  0
VERTEX
  8
1
  5
9A44
 10
740.581
 20
1907.10
 30
0.000000
  70
    32
  0
VERTEX
  8
1
  5
9A45
 10
739.038
 20
1907.42
 30
0.000000
  70
    32
  0
VERTEX
  8
1
  5
9A46
 10
737.494
 20
1907.74
 30
0.000000
  70
    32
  0
VERTEX
  8
1
  5
9A47
 10
735.949
 20
1908.06
 30
0.000000
  70
    32
  0
VERTEX
  8
1
  5
9A48
 10
734.404
 20
1908.38
 30
0.000000
  70
    32
  0
VERTEX
  8
1
  5
9A49
 10
732.858
 20
1908.70
 30
0.000000
  70
    32
  0
VERTEX
  8
1
  5
9A4A
 10
731.312
 20
1909.01
 30
0.000000
  70
    32
  0
VERTEX
  8
1
  5
9A4B
 10
729.766
 20
1909.32
 30
0.000000
  70
    32
  0
VERTEX
  8
1
  5
9A4C
 10
728.219
 20
1909.63
 30
0.000000
  70
    32
  0
VERTEX
  8
1
  5
9A4D
 10
726.672
 20
1909.94
 30
0.000000
  70
    32
  0
VERTEX
  8
1
  5
9A4E
 10
725.124
 20
1910.25
 30
0.000000
  70
    32
  0
VERTEX
  8
1
  5
9A4F
 10
723.577
 20
1910.56
 30
0.000000
  70
    32
  0
VERTEX
  8
1
  5
9A50
 10
722.029
 20
1910.87
 30
0.000000
  70
    32
  0
VERTEX
  8
1
  5
9A51
 10
720.481
 20
1911.18
 30
0.000000
  70
    32
  0
SEQEND
  8
1
  5
9A52
  0
POLYLINE
  8
1
  5
9A53
  66
     1
 10
0.000000
 20
0.000000
 30
0.000000
  70
     8
  0
VERTEX
  8
1
  5
9A54
 10
720.481
 20
1911.18
 30
0.000000
  70
    32
  0
VERTEX
  8
1
  5
9A55
 10
719.559
 20
1911.12
 30
0.000000
  70
    32
  0
VERTEX
  8
1
  5
9A56
 10
718.637
 20
1911.05
 30
0.000000
  70
    32
  0
VERTEX
  8
1
  5
9A57
 10
717.715
 20
1910.99
 30
0.000000
  70
    32
  0
VERTEX
  8
1
  5
9A58
 10
716.793
 20
1910.92
 30
0.000000
  70
    32
  0
VERTEX
  8
1
  5
9A59
 10
715.871
 20
1910.86
 30
0.000000
  70
    32
  0
VERTEX
  8
1
  5
9A5A
 10
714.950
 20
1910.79
 30
0.000000
  70
    32
  0
VERTEX
  8
1
  5
9A5B
 10
714.028
 20
1910.73
 30
0.000000
  70
    32
  0
VERTEX
  8
1
  5
9A5C
 10
713.106
 20
1910.66
 30
0.000000
  70
    32
  0
VERTEX
  8
1
  5
9A5D
 10
712.184
 20
1910.59
 30
0.000000
  70
    32
  0
VERTEX
  8
1
  5
9A5E
 10
711.263
 20
1910.52
 30
0.000000
  70
    32
  0
VERTEX
  8
1
  5
9A5F
 10
710.341
 20
1910.46
 30
0.000000
  70
    32
  0
VERTEX
  8
1
  5
9A60
 10
709.420
 20
1910.39
 30
0.000000
  70
    32
  0
VERTEX
  8
1
  5
9A61
 10
708.498
 20
1910.31
 30
0.000000
  70
    32
  0
VERTEX
  8
1
  5
9A62
 10
707.577
 20
1910.24
 30
0.000000
  70
    32
  0
VERTEX
  8
1
  5
9A63
 10
706.656
 20
1910.17
 30
0.000000
  70
    32
  0
VERTEX
  8
1
  5
9A64
 10
705.735
 20
1910.09
 30
0.000000
  70
    32
  0
VERTEX
  8
1
  5
9A65
 10
704.815
 20
1910.02
 30
0.000000
  70
    32
  0
VERTEX
  8
1
  5
9A66
 10
703.894
 20
1909.94
 30
0.000000
  70
    32
  0
VERTEX
  8
1
  5
9A67
 10
702.974
 20
1909.86
 30
0.000000
  70
    32
  0
VERTEX
  8
1
  5
9A68
 10
702.053
 20
1909.78
 30
0.000000
  70
    32
  0
VERTEX
  8
1
  5
9A69
 10
701.133
 20
1909.70
 30
0.000000
  70
    32
  0
VERTEX
  8
1
  5
9A6A
 10
700.214
 20
1909.61
 30
0.000000
  70
    32
  0
VERTEX
  8
1
  5
9A6B
 10
699.294
 20
1909.53
 30
0.000000
  70
    32
  0
VERTEX
  8
1
  5
9A6C
 10
698.375
 20
1909.44
 30
0.000000
  70
    32
  0
VERTEX
  8
1
  5
9A6D
 10
697.455
 20
1909.35
 30
0.000000
  70
    32
  0
VERTEX
  8
1
  5
9A6E
 10
696.537
 20
1909.25
 30
0.000000
  70
    32
  0
VERTEX
  8
1
  5
9A6F
 10
695.618
 20
1909.16
 30
0.000000
  70
    32
  0
VERTEX
  8
1
  5
9A70
 10
694.699
 20
1909.06
 30
0.000000
  70
    32
  0
VERTEX
  8
1
  5
9A71
 10
693.781
 20
1908.96
 30
0.000000
  70
    32
  0
VERTEX
  8
1
  5
9A72
 10
692.863
 20
1908.86
 30
0.000000
  70
    32
  0
VERTEX
  8
1
  5
9A73
 10
691.946
 20
1908.75
 30
0.000000
  70
    32
  0
VERTEX
  8
1
  5
9A74
 10
691.029
 20
1908.64
 30
0.000000
  70
    32
  0
VERTEX
  8
1
  5
9A75
 10
690.112
 20
1908.53
 30
0.000000
  70
    32
  0
VERTEX
  8
1
  5
9A76
 10
689.195
 20
1908.42
 30
0.000000
  70
    32
  0
VERTEX
  8
1
  5
9A77
 10
688.279
 20
1908.30
 30
0.000000
  70
    32
  0
VERTEX
  8
1
  5
9A78
 10
687.363
 20
1908.18
 30
0.000000
  70
    32
  0
VERTEX
  8
1
  5
9A79
 10
686.447
 20
1908.06
 30
0.000000
  70
    32
  0
VERTEX
  8
1
  5
9A7A
 10
685.532
 20
1907.93
 30
0.000000
  70
    32
  0
VERTEX
  8
1
  5
9A7B
 10
684.617
 20
1907.80
 30
0.000000
  70
    32
  0
VERTEX
  8
1
  5
9A7C
 10
683.702
 20
1907.67
 30
0.000000
  70
    32
  0
VERTEX
  8
1
  5
9A7D
 10
682.788
 20
1907.53
 30
0.000000
  70
    32
  0
VERTEX
  8
1
  5
9A7E
 10
681.874
 20
1907.39
 30
0.000000
  70
    32
  0
VERTEX
  8
1
  5
9A7F
 10
680.961
 20
1907.25
 30
0.000000
  70
    32
  0
VERTEX
  8
1
  5
9A80
 10
680.048
 20
1907.10
 30
0.000000
  70
    32
  0
VERTEX
  8
1
  5
9A81
 10
679.135
 20
1906.94
 30
0.000000
  70
    32
  0
VERTEX
  8
1
  5
9A82
 10
678.223
 20
1906.79
 30
0.000000
  70
    32
  0
VERTEX
  8
1
  5
9A83
 10
677.312
 20
1906.63
 30
0.000000
  70
    32
  0
VERTEX
  8
1
  5
9A84
 10
676.401
 20
1906.46
 30
0.000000
  70
    32
  0
VERTEX
  8
1
  5
9A85
 10
675.491
 20
1906.30
 30
0.000000
  70
    32
  0
VERTEX
  8
1
  5
9A86
 10
674.581
 20
1906.12
 30
0.000000
  70
    32
  0
VERTEX
  8
1
  5
9A87
 10
673.672
 20
1905.95
 30
0.000000
  70
    32
  0
VERTEX
  8
1
  5
9A88
 10
672.764
 20
1905.76
 30
0.000000
  70
    32
  0
VERTEX
  8
1
  5
9A89
 10
671.857
 20
1905.58
 30
0.000000
  70
    32
  0
VERTEX
  8
1
  5
9A8A
 10
670.950
 20
1905.39
 30
0.000000
  70
    32
  0
VERTEX
  8
1
  5
9A8B
 10
670.045
 20
1905.19
 30
0.000000
  70
    32
  0
VERTEX
  8
1
  5
9A8C
 10
669.140
 20
1904.99
 30
0.000000
  70
    32
  0
VERTEX
  8
1
  5
9A8D
 10
668.237
 20
1904.79
 30
0.000000
  70
    32
  0
VERTEX
  8
1
  5
9A8E
 10
667.334
 20
1904.58
 30
0.000000
  70
    32
  0
VERTEX
  8
1
  5
9A8F
 10
666.433
 20
1904.37
 30
0.000000
  70
    32
  0
VERTEX
  8
1
  5
9A90
 10
665.533
 20
1904.15
 30
0.000000
  70
    32
  0
VERTEX
  8
1
  5
9A91
 10
664.634
 20
1903.92
 30
0.000000
  70
    32
  0
VERTEX
  8
1
  5
9A92
 10
663.736
 20
1903.69
 30
0.000000
  70
    32
  0
VERTEX
  8
1
  5
9A93
 10
662.840
 20
1903.46
 30
0.000000
  70
    32
  0
VERTEX
  8
1
  5
9A94
 10
661.945
 20
1903.22
 30
0.000000
  70
    32
  0
VERTEX
  8
1
  5
9A95
 10
661.052
 20
1902.97
 30
0.000000
  70
    32
  0
VERTEX
  8
1
  5
9A96
 10
660.160
 20
1902.72
 30
0.000000
  70
    32
  0
VERTEX
  8
1
  5
9A97
 10
659.269
 20
1902.47
 30
0.000000
  70
    32
  0
VERTEX
  8
1
  5
9A98
 10
658.380
 20
1902.21
 30
0.000000
  70
    32
  0
VERTEX
  8
1
  5
9A99
 10
657.493
 20
1901.94
 30
0.000000
  70
    32
  0
VERTEX
  8
1
  5
9A9A
 10
656.607
 20
1901.67
 30
0.000000
  70
    32
  0
VERTEX
  8
1
  5
9A9B
 10
655.723
 20
1901.39
 30
0.000000
  70
    32
  0
VERTEX
  8
1
  5
9A9C
 10
654.841
 20
1901.11
 30
0.000000
  70
    32
  0
VERTEX
  8
1
  5
9A9D
 10
653.961
 20
1900.82
 30
0.000000
  70
    32
  0
VERTEX
  8
1
  5
9A9E
 10
653.082
 20
1900.53
 30
0.000000
  70
    32
  0
VERTEX
  8
1
  5
9A9F
 10
652.206
 20
1900.22
 30
0.000000
  70
    32
  0
VERTEX
  8
1
  5
9AA0
 10
651.331
 20
1899.92
 30
0.000000
  70
    32
  0
VERTEX
  8
1
  5
9AA1
 10
650.458
 20
1899.60
 30
0.000000
  70
    32
  0
VERTEX
  8
1
  5
9AA2
 10
649.588
 20
1899.28
 30
0.000000
  70
    32
  0
VERTEX
  8
1
  5
9AA3
 10
648.719
 20
1898.96
 30
0.000000
  70
    32
  0
VERTEX
  8
1
  5
9AA4
 10
647.853
 20
1898.63
 30
0.000000
  70
    32
  0
VERTEX
  8
1
  5
9AA5
 10
646.989
 20
1898.29
 30
0.000000
  70
    32
  0
VERTEX
  8
1
  5
9AA6
 10
646.127
 20
1897.95
 30
0.000000
  70
    32
  0
VERTEX
  8
1
  5
9AA7
 10
645.267
 20
1897.59
 30
0.000000
  70
    32
  0
VERTEX
  8
1
  5
9AA8
 10
644.410
 20
1897.24
 30
0.000000
  70
    32
  0
VERTEX
  8
1
  5
9AA9
 10
643.556
 20
1896.87
 30
0.000000
  70
    32
  0
VERTEX
  8
1
  5
9AAA
 10
642.703
 20
1896.50
 30
0.000000
  70
    32
  0
VERTEX
  8
1
  5
9AAB
 10
641.853
 20
1896.12
 30
0.000000
  70
    32
  0
VERTEX
  8
1
  5
9AAC
 10
641.006
 20
1895.74
 30
0.000000
  70
    32
  0
VERTEX
  8
1
  5
9AAD
 10
640.161
 20
1895.35
 30
0.000000
  70
    32
  0
VERTEX
  8
1
  5
9AAE
 10
639.319
 20
1894.95
 30
0.000000
  70
    32
  0
VERTEX
  8
1
  5
9AAF
 10
638.480
 20
1894.55
 30
0.000000
  70
    32
  0
VERTEX
  8
1
  5
9AB0
 10
637.644
 20
1894.13
 30
0.000000
  70
    32
  0
VERTEX
  8
1
  5
9AB1
 10
636.810
 20
1893.71
 30
0.000000
  70
    32
  0
VERTEX
  8
1
  5
9AB2
 10
635.979
 20
1893.29
 30
0.000000
  70
    32
  0
VERTEX
  8
1
  5
9AB3
 10
635.151
 20
1892.85
 30
0.000000
  70
    32
  0
VERTEX
  8
1
  5
9AB4
 10
634.326
 20
1892.41
 30
0.000000
  70
    32
  0
VERTEX
  8
1
  5
9AB5
 10
633.504
 20
1891.96
 30
0.000000
  70
    32
  0
VERTEX
  8
1
  5
9AB6
 10
632.685
 20
1891.51
 30
0.000000
  70
    32
  0
VERTEX
  8
1
  5
9AB7
 10
631.870
 20
1891.05
 30
0.000000
  70
    32
  0
VERTEX
  8
1
  5
9AB8
 10
631.057
 20
1890.58
 30
0.000000
  70
    32
  0
VERTEX
  8
1
  5
9AB9
 10
630.248
 20
1890.10
 30
0.000000
  70
    32
  0
VERTEX
  8
1
  5
9ABA
 10
629.443
 20
1889.62
 30
0.000000
  70
    32
  0
VERTEX
  8
1
  5
9ABB
 10
628.641
 20
1889.13
 30
0.000000
  70
    32
  0
VERTEX
  8
1
  5
9ABC
 10
627.843
 20
1888.63
 30
0.000000
  70
    32
  0
VERTEX
  8
1
  5
9ABD
 10
627.048
 20
1888.13
 30
0.000000
  70
    32
  0
VERTEX
  8
1
  5
9ABE
 10
626.257
 20
1887.62
 30
0.000000
  70
    32
  0
VERTEX
  8
1
  5
9ABF
 10
625.470
 20
1887.10
 30
0.000000
  70
    32
  0
VERTEX
  8
1
  5
9AC0
 10
624.688
 20
1886.57
 30
0.000000
  70
    32
  0
VERTEX
  8
1
  5
9AC1
 10
623.909
 20
1886.04
 30
0.000000
  70
    32
  0
VERTEX
  8
1
  5
9AC2
 10
623.134
 20
1885.51
 30
0.000000
  70
    32
  0
VERTEX
  8
1
  5
9AC3
 10
622.363
 20
1884.96
 30
0.000000
  70
    32
  0
VERTEX
  8
1
  5
9AC4
 10
621.597
 20
1884.42
 30
0.000000
  70
    32
  0
VERTEX
  8
1
  5
9AC5
 10
620.835
 20
1883.86
 30
0.000000
  70
    32
  0
VERTEX
  8
1
  5
9AC6
 10
620.077
 20
1883.30
 30
0.000000
  70
    32
  0
VERTEX
  8
1
  5
9AC7
 10
619.324
 20
1882.73
 30
0.000000
  70
    32
  0
VERTEX
  8
1
  5
9AC8
 10
618.575
 20
1882.15
 30
0.000000
  70
    32
  0
VERTEX
  8
1
  5
9AC9
 10
617.831
 20
1881.57
 30
0.000000
  70
    32
  0
VERTEX
  8
1
  5
9ACA
 10
617.092
 20
1880.99
 30
0.000000
  70
    32
  0
VERTEX
  8
1
  5
9ACB
 10
616.358
 20
1880.40
 30
0.000000
  70
    32
  0
VERTEX
  8
1
  5
9ACC
 10
615.628
 20
1879.80
 30
0.000000
  70
    32
  0
VERTEX
  8
1
  5
9ACD
 10
614.904
 20
1879.19
 30
0.000000
  70
    32
  0
VERTEX
  8
1
  5
9ACE
 10
614.185
 20
1878.58
 30
0.000000
  70
    32
  0
VERTEX
  8
1
  5
9ACF
 10
613.470
 20
1877.97
 30
0.000000
  70
    32
  0
VERTEX
  8
1
  5
9AD0
 10
612.761
 20
1877.34
 30
0.000000
  70
    32
  0
VERTEX
  8
1
  5
9AD1
 10
612.057
 20
1876.72
 30
0.000000
  70
    32
  0
VERTEX
  8
1
  5
9AD2
 10
611.359
 20
1876.08
 30
0.000000
  70
    32
  0
VERTEX
  8
1
  5
9AD3
 10
610.666
 20
1875.44
 30
0.000000
  70
    32
  0
VERTEX
  8
1
  5
9AD4
 10
609.979
 20
1874.80
 30
0.000000
  70
    32
  0
VERTEX
  8
1
  5
9AD5
 10
609.297
 20
1874.15
 30
0.000000
  70
    32
  0
VERTEX
  8
1
  5
9AD6
 10
608.621
 20
1873.49
 30
0.000000
  70
    32
  0
VERTEX
  8
1
  5
9AD7
 10
607.951
 20
1872.83
 30
0.000000
  70
    32
  0
VERTEX
  8
1
  5
9AD8
 10
607.286
 20
1872.17
 30
0.000000
  70
    32
  0
VERTEX
  8
1
  5
9AD9
 10
606.628
 20
1871.49
 30
0.000000
  70
    32
  0
VERTEX
  8
1
  5
9ADA
 10
605.975
 20
1870.82
 30
0.000000
  70
    32
  0
VERTEX
  8
1
  5
9ADB
 10
605.329
 20
1870.14
 30
0.000000
  70
    32
  0
VERTEX
  8
1
  5
9ADC
 10
604.689
 20
1869.45
 30
0.000000
  70
    32
  0
VERTEX
  8
1
  5
9ADD
 10
604.055
 20
1868.76
 30
0.000000
  70
    32
  0
VERTEX
  8
1
  5
9ADE
 10
603.427
 20
1868.06
 30
0.000000
  70
    32
  0
VERTEX
  8
1
  5
9ADF
 10
602.806
 20
1867.36
 30
0.000000
  70
    32
  0
VERTEX
  8
1
  5
9AE0
 10
602.191
 20
1866.65
 30
0.000000
  70
    32
  0
VERTEX
  8
1
  5
9AE1
 10
601.583
 20
1865.94
 30
0.000000
  70
    32
  0
VERTEX
  8
1
  5
9AE2
 10
600.982
 20
1865.22
 30
0.000000
  70
    32
  0
VERTEX
  8
1
  5
9AE3
 10
600.387
 20
1864.50
 30
0.000000
  70
    32
  0
VERTEX
  8
1
  5
9AE4
 10
599.799
 20
1863.77
 30
0.000000
  70
    32
  0
VERTEX
  8
1
  5
9AE5
 10
599.218
 20
1863.04
 30
0.000000
  70
    32
  0
VERTEX
  8
1
  5
9AE6
 10
598.644
 20
1862.31
 30
0.000000
  70
    32
  0
VERTEX
  8
1
  5
9AE7
 10
598.077
 20
1861.56
 30
0.000000
  70
    32
  0
VERTEX
  8
1
  5
9AE8
 10
597.517
 20
1860.82
 30
0.000000
  70
    32
  0
VERTEX
  8
1
  5
9AE9
 10
596.964
 20
1860.07
 30
0.000000
  70
    32
  0
VERTEX
  8
1
  5
9AEA
 10
596.419
 20
1859.32
 30
0.000000
  70
    32
  0
VERTEX
  8
1
  5
9AEB
 10
595.881
 20
1858.56
 30
0.000000
  70
    32
  0
VERTEX
  8
1
  5
9AEC
 10
595.350
 20
1857.80
 30
0.000000
  70
    32
  0
VERTEX
  8
1
  5
9AED
 10
594.827
 20
1857.03
 30
0.000000
  70
    32
  0
VERTEX
  8
1
  5
9AEE
 10
594.312
 20
1856.26
 30
0.000000
  70
    32
  0
VERTEX
  8
1
  5
9AEF
 10
593.804
 20
1855.48
 30
0.000000
  70
    32
  0
VERTEX
  8
1
  5
9AF0
 10
593.304
 20
1854.70
 30
0.000000
  70
    32
  0
VERTEX
  8
1
  5
9AF1
 10
592.812
 20
1853.92
 30
0.000000
  70
    32
  0
VERTEX
  8
1
  5
9AF2
 10
592.328
 20
1853.13
 30
0.000000
  70
    32
  0
VERTEX
  8
1
  5
9AF3
 10
591.852
 20
1852.34
 30
0.000000
  70
    32
  0
VERTEX
  8
1
  5
9AF4
 10
591.384
 20
1851.55
 30
0.000000
  70
    32
  0
VERTEX
  8
1
  5
9AF5
 10
590.924
 20
1850.75
 30
0.000000
  70
    32
  0
VERTEX
  8
1
  5
9AF6
 10
590.472
 20
1849.94
 30
0.000000
  70
    32
  0
VERTEX
  8
1
  5
9AF7
 10
590.029
 20
1849.14
 30
0.000000
  70
    32
  0
VERTEX
  8
1
  5
9AF8
 10
589.594
 20
1848.33
 30
0.000000
  70
    32
  0
VERTEX
  8
1
  5
9AF9
 10
589.167
 20
1847.51
 30
0.000000
  70
    32
  0
VERTEX
  8
1
  5
9AFA
 10
588.748
 20
1846.70
 30
0.000000
  70
    32
  0
VERTEX
  8
1
  5
9AFB
 10
588.337
 20
1845.87
 30
0.000000
  70
    32
  0
VERTEX
  8
1
  5
9AFC
 10
587.934
 20
1845.05
 30
0.000000
  70
    32
  0
VERTEX
  8
1
  5
9AFD
 10
587.539
 20
1844.22
 30
0.000000
  70
    32
  0
VERTEX
  8
1
  5
9AFE
 10
587.151
 20
1843.39
 30
0.000000
  70
    32
  0
VERTEX
  8
1
  5
9AFF
 10
586.770
 20
1842.56
 30
0.000000
  70
    32
  0
VERTEX
  8
1
  5
9B00
 10
586.397
 20
1841.72
 30
0.000000
  70
    32
  0
VERTEX
  8
1
  5
9B01
 10
586.031
 20
1840.88
 30
0.000000
  70
    32
  0
VERTEX
  8
1
  5
9B02
 10
585.672
 20
1840.03
 30
0.000000
  70
    32
  0
VERTEX
  8
1
  5
9B03
 10
585.319
 20
1839.19
 30
0.000000
  70
    32
  0
VERTEX
  8
1
  5
9B04
 10
584.973
 20
1838.34
 30
0.000000
  70
    32
  0
VERTEX
  8
1
  5
9B05
 10
584.634
 20
1837.48
 30
0.000000
  70
    32
  0
VERTEX
  8
1
  5
9B06
 10
584.301
 20
1836.63
 30
0.000000
  70
    32
  0
VERTEX
  8
1
  5
9B07
 10
583.974
 20
1835.77
 30
0.000000
  70
    32
  0
VERTEX
  8
1
  5
9B08
 10
583.654
 20
1834.91
 30
0.000000
  70
    32
  0
VERTEX
  8
1
  5
9B09
 10
583.339
 20
1834.04
 30
0.000000
  70
    32
  0
VERTEX
  8
1
  5
9B0A
 10
583.030
 20
1833.18
 30
0.000000
  70
    32
  0
VERTEX
  8
1
  5
9B0B
 10
582.727
 20
1832.31
 30
0.000000
  70
    32
  0
VERTEX
  8
1
  5
9B0C
 10
582.430
 20
1831.44
 30
0.000000
  70
    32
  0
VERTEX
  8
1
  5
9B0D
 10
582.138
 20
1830.56
 30
0.000000
  70
    32
  0
VERTEX
  8
1
  5
9B0E
 10
581.851
 20
1829.69
 30
0.000000
  70
    32
  0
VERTEX
  8
1
  5
9B0F
 10
581.569
 20
1828.81
 30
0.000000
  70
    32
  0
VERTEX
  8
1
  5
9B10
 10
581.293
 20
1827.93
 30
0.000000
  70
    32
  0
VERTEX
  8
1
  5
9B11
 10
581.021
 20
1827.04
 30
0.000000
  70
    32
  0
VERTEX
  8
1
  5
9B12
 10
580.754
 20
1826.16
 30
0.000000
  70
    32
  0
VERTEX
  8
1
  5
9B13
 10
580.491
 20
1825.27
 30
0.000000
  70
    32
  0
VERTEX
  8
1
  5
9B14
 10
580.233
 20
1824.38
 30
0.000000
  70
    32
  0
VERTEX
  8
1
  5
9B15
 10
579.980
 20
1823.49
 30
0.000000
  70
    32
  0
VERTEX
  8
1
  5
9B16
 10
579.730
 20
1822.60
 30
0.000000
  70
    32
  0
VERTEX
  8
1
  5
9B17
 10
579.485
 20
1821.70
 30
0.000000
  70
    32
  0
VERTEX
  8
1
  5
9B18
 10
579.243
 20
1820.81
 30
0.000000
  70
    32
  0
VERTEX
  8
1
  5
9B19
 10
579.005
 20
1819.91
 30
0.000000
  70
    32
  0
VERTEX
  8
1
  5
9B1A
 10
578.771
 20
1819.01
 30
0.000000
  70
    32
  0
VERTEX
  8
1
  5
9B1B
 10
578.540
 20
1818.11
 30
0.000000
  70
    32
  0
VERTEX
  8
1
  5
9B1C
 10
578.313
 20
1817.21
 30
0.000000
  70
    32
  0
VERTEX
  8
1
  5
9B1D
 10
578.088
 20
1816.30
 30
0.000000
  70
    32
  0
VERTEX
  8
1
  5
9B1E
 10
577.867
 20
1815.40
 30
0.000000
  70
    32
  0
VERTEX
  8
1
  5
9B1F
 10
577.649
 20
1814.49
 30
0.000000
  70
    32
  0
VERTEX
  8
1
  5
9B20
 10
577.433
 20
1813.58
 30
0.000000
  70
    32
  0
VERTEX
  8
1
  5
9B21
 10
577.220
 20
1812.67
 30
0.000000
  70
    32
  0
VERTEX
  8
1
  5
9B22
 10
577.010
 20
1811.76
 30
0.000000
  70
    32
  0
VERTEX
  8
1
  5
9B23
 10
576.802
 20
1810.85
 30
0.000000
  70
    32
  0
VERTEX
  8
1
  5
9B24
 10
576.596
 20
1809.94
 30
0.000000
  70
    32
  0
VERTEX
  8
1
  5
9B25
 10
576.392
 20
1809.03
 30
0.000000
  70
    32
  0
VERTEX
  8
1
  5
9B26
 10
576.191
 20
1808.11
 30
0.000000
  70
    32
  0
VERTEX
  8
1
  5
9B27
 10
575.991
 20
1807.20
 30
0.000000
  70
    32
  0
VERTEX
  8
1
  5
9B28
 10
575.792
 20
1806.28
 30
0.000000
  70
    32
  0
VERTEX
  8
1
  5
9B29
 10
575.596
 20
1805.37
 30
0.000000
  70
    32
  0
VERTEX
  8
1
  5
9B2A
 10
575.400
 20
1804.45
 30
0.000000
  70
    32
  0
VERTEX
  8
1
  5
9B2B
 10
575.206
 20
1803.53
 30
0.000000
  70
    32
  0
VERTEX
  8
1
  5
9B2C
 10
575.013
 20
1802.61
 30
0.000000
  70
    32
  0
VERTEX
  8
1
  5
9B2D
 10
574.821
 20
1801.70
 30
0.000000
  70
    32
  0
VERTEX
  8
1
  5
9B2E
 10
574.630
 20
1800.78
 30
0.000000
  70
    32
  0
VERTEX
  8
1
  5
9B2F
 10
574.439
 20
1799.86
 30
0.000000
  70
    32
  0
VERTEX
  8
1
  5
9B30
 10
574.249
 20
1798.94
 30
0.000000
  70
    32
  0
VERTEX
  8
1
  5
9B31
 10
574.060
 20
1798.02
 30
0.000000
  70
    32
  0
VERTEX
  8
1
  5
9B32
 10
573.871
 20
1797.10
 30
0.000000
  70
    32
  0
VERTEX
  8
1
  5
9B33
 10
573.681
 20
1796.18
 30
0.000000
  70
    32
  0
SEQEND
  8
1
  5
9B34
  0
LINE
  5
9584
  8
2
 10
1250.481418388249
 20
2528.6791838482332
 30
0.0
 11
1227.281418388249
 21
2528.6791838482332
 31
0.0
  0
LINE
  5
9585
  8
2
 10
1250.481418388249
 20
1773.6791838482329
 30
0.0
 11
1227.2814183882499
 21
1773.6791838482329
 31
0.0
  0
LINE
  5
9586
  8
1
 10
1013.681418388249
 20
2528.6791838482332
 30
0.0
 11
987.28141838825024
 21
2528.6791838482332
 31
0.0
  0
LINE
  5
9587
  8
1
 10
1013.681418388249
 20
1773.6791838482329
 30
0.0
 11
987.28141838824934
 21
1773.6791838482329
 31
0.0
  0
LINE
  5
9588
  8
1
 10
1240.4814183882499
 20
1792.9791838482331
 30
0.0
 11
1003.681418388249
 21
1792.9791838482331
 31
0.0
  0
LINE
  5
9589
  8
1
 10
1240.4814183882499
 20
2509.379183848233
 30
0.0
 11
1003.681418388249
 21
2509.379183848233
 31
0.0
  0
LINE
  5
958A
  8
2
 10
560.48141838824995
 20
2528.6791838482332
 30
0.0
 11
583.68141838825056
 21
2528.6791838482332
 31
0.0
  0
LINE
  5
958B
  8
1
 10
560.48141838824995
 20
1773.6791838482329
 30
0.0
 11
583.68141838825056
 21
1773.6791838482329
 31
0.0
  0
LINE
  5
958C
  8
2
 10
583.68141838824977
 20
1773.6791838482329
 30
0.0
 11
560.48141838824995
 21
1773.6791838482329
 31
0.0
  0
POLYLINE
  8
1
  5
9B35
  66
     1
 10
0.000000
 20
0.000000
 30
0.000000
  70
     8
  0
VERTEX
  8
1
  5
9B36
 10
720.481
 20
2391.18
 30
0.000000
  70
    32
  0
VERTEX
  8
1
  5
9B37
 10
719.559
 20
2391.24
 30
0.000000
  70
    32
  0
VERTEX
  8
1
  5
9B38
 10
718.637
 20
2391.31
 30
0.000000
  70
    32
  0
VERTEX
  8
1
  5
9B39
 10
717.715
 20
2391.37
 30
0.000000
  70
    32
  0
VERTEX
  8
1
  5
9B3A
 10
716.793
 20
2391.44
 30
0.000000
  70
    32
  0
VERTEX
  8
1
  5
9B3B
 10
715.871
 20
2391.50
 30
0.000000
  70
    32
  0
VERTEX
  8
1
  5
9B3C
 10
714.950
 20
2391.57
 30
0.000000
  70
    32
  0
VERTEX
  8
1
  5
9B3D
 10
714.028
 20
2391.63
 30
0.000000
  70
    32
  0
VERTEX
  8
1
  5
9B3E
 10
713.106
 20
2391.70
 30
0.000000
  70
    32
  0
VERTEX
  8
1
  5
9B3F
 10
712.184
 20
2391.77
 30
0.000000
  70
    32
  0
VERTEX
  8
1
  5
9B40
 10
711.263
 20
2391.83
 30
0.000000
  70
    32
  0
VERTEX
  8
1
  5
9B41
 10
710.341
 20
2391.90
 30
0.000000
  70
    32
  0
VERTEX
  8
1
  5
9B42
 10
709.420
 20
2391.97
 30
0.000000
  70
    32
  0
VERTEX
  8
1
  5
9B43
 10
708.498
 20
2392.04
 30
0.000000
  70
    32
  0
VERTEX
  8
1
  5
9B44
 10
707.577
 20
2392.12
 30
0.000000
  70
    32
  0
VERTEX
  8
1
  5
9B45
 10
706.656
 20
2392.19
 30
0.000000
  70
    32
  0
VERTEX
  8
1
  5
9B46
 10
705.735
 20
2392.26
 30
0.000000
  70
    32
  0
VERTEX
  8
1
  5
9B47
 10
704.815
 20
2392.34
 30
0.000000
  70
    32
  0
VERTEX
  8
1
  5
9B48
 10
703.894
 20
2392.42
 30
0.000000
  70
    32
  0
VERTEX
  8
1
  5
9B49
 10
702.974
 20
2392.50
 30
0.000000
  70
    32
  0
VERTEX
  8
1
  5
9B4A
 10
702.053
 20
2392.58
 30
0.000000
  70
    32
  0
VERTEX
  8
1
  5
9B4B
 10
701.133
 20
2392.66
 30
0.000000
  70
    32
  0
VERTEX
  8
1
  5
9B4C
 10
700.214
 20
2392.75
 30
0.000000
  70
    32
  0
VERTEX
  8
1
  5
9B4D
 10
699.294
 20
2392.83
 30
0.000000
  70
    32
  0
VERTEX
  8
1
  5
9B4E
 10
698.375
 20
2392.92
 30
0.000000
  70
    32
  0
VERTEX
  8
1
  5
9B4F
 10
697.455
 20
2393.01
 30
0.000000
  70
    32
  0
VERTEX
  8
1
  5
9B50
 10
696.537
 20
2393.10
 30
0.000000
  70
    32
  0
VERTEX
  8
1
  5
9B51
 10
695.618
 20
2393.20
 30
0.000000
  70
    32
  0
VERTEX
  8
1
  5
9B52
 10
694.699
 20
2393.30
 30
0.000000
  70
    32
  0
VERTEX
  8
1
  5
9B53
 10
693.781
 20
2393.40
 30
0.000000
  70
    32
  0
VERTEX
  8
1
  5
9B54
 10
692.863
 20
2393.50
 30
0.000000
  70
    32
  0
VERTEX
  8
1
  5
9B55
 10
691.946
 20
2393.61
 30
0.000000
  70
    32
  0
VERTEX
  8
1
  5
9B56
 10
691.029
 20
2393.71
 30
0.000000
  70
    32
  0
VERTEX
  8
1
  5
9B57
 10
690.112
 20
2393.83
 30
0.000000
  70
    32
  0
VERTEX
  8
1
  5
9B58
 10
689.195
 20
2393.94
 30
0.000000
  70
    32
  0
VERTEX
  8
1
  5
9B59
 10
688.279
 20
2394.06
 30
0.000000
  70
    32
  0
VERTEX
  8
1
  5
9B5A
 10
687.363
 20
2394.18
 30
0.000000
  70
    32
  0
VERTEX
  8
1
  5
9B5B
 10
686.447
 20
2394.30
 30
0.000000
  70
    32
  0
VERTEX
  8
1
  5
9B5C
 10
685.532
 20
2394.43
 30
0.000000
  70
    32
  0
VERTEX
  8
1
  5
9B5D
 10
684.617
 20
2394.56
 30
0.000000
  70
    32
  0
VERTEX
  8
1
  5
9B5E
 10
683.702
 20
2394.69
 30
0.000000
  70
    32
  0
VERTEX
  8
1
  5
9B5F
 10
682.788
 20
2394.83
 30
0.000000
  70
    32
  0
VERTEX
  8
1
  5
9B60
 10
681.874
 20
2394.97
 30
0.000000
  70
    32
  0
VERTEX
  8
1
  5
9B61
 10
680.961
 20
2395.11
 30
0.000000
  70
    32
  0
VERTEX
  8
1
  5
9B62
 10
680.048
 20
2395.26
 30
0.000000
  70
    32
  0
VERTEX
  8
1
  5
9B63
 10
679.135
 20
2395.41
 30
0.000000
  70
    32
  0
VERTEX
  8
1
  5
9B64
 10
678.223
 20
2395.57
 30
0.000000
  70
    32
  0
VERTEX
  8
1
  5
9B65
 10
677.312
 20
2395.73
 30
0.000000
  70
    32
  0
VERTEX
  8
1
  5
9B66
 10
676.401
 20
2395.89
 30
0.000000
  70
    32
  0
VERTEX
  8
1
  5
9B67
 10
675.491
 20
2396.06
 30
0.000000
  70
    32
  0
VERTEX
  8
1
  5
9B68
 10
674.581
 20
2396.24
 30
0.000000
  70
    32
  0
VERTEX
  8
1
  5
9B69
 10
673.672
 20
2396.41
 30
0.000000
  70
    32
  0
VERTEX
  8
1
  5
9B6A
 10
672.764
 20
2396.59
 30
0.000000
  70
    32
  0
VERTEX
  8
1
  5
9B6B
 10
671.857
 20
2396.78
 30
0.000000
  70
    32
  0
VERTEX
  8
1
  5
9B6C
 10
670.950
 20
2396.97
 30
0.000000
  70
    32
  0
VERTEX
  8
1
  5
9B6D
 10
670.045
 20
2397.17
 30
0.000000
  70
    32
  0
VERTEX
  8
1
  5
9B6E
 10
669.140
 20
2397.37
 30
0.000000
  70
    32
  0
VERTEX
  8
1
  5
9B6F
 10
668.237
 20
2397.57
 30
0.000000
  70
    32
  0
VERTEX
  8
1
  5
9B70
 10
667.334
 20
2397.78
 30
0.000000
  70
    32
  0
VERTEX
  8
1
  5
9B71
 10
666.433
 20
2397.99
 30
0.000000
  70
    32
  0
VERTEX
  8
1
  5
9B72
 10
665.533
 20
2398.21
 30
0.000000
  70
    32
  0
VERTEX
  8
1
  5
9B73
 10
664.634
 20
2398.44
 30
0.000000
  70
    32
  0
VERTEX
  8
1
  5
9B74
 10
663.736
 20
2398.67
 30
0.000000
  70
    32
  0
VERTEX
  8
1
  5
9B75
 10
662.840
 20
2398.90
 30
0.000000
  70
    32
  0
VERTEX
  8
1
  5
9B76
 10
661.945
 20
2399.14
 30
0.000000
  70
    32
  0
VERTEX
  8
1
  5
9B77
 10
661.052
 20
2399.38
 30
0.000000
  70
    32
  0
VERTEX
  8
1
  5
9B78
 10
660.160
 20
2399.63
 30
0.000000
  70
    32
  0
VERTEX
  8
1
  5
9B79
 10
659.269
 20
2399.89
 30
0.000000
  70
    32
  0
VERTEX
  8
1
  5
9B7A
 10
658.380
 20
2400.15
 30
0.000000
  70
    32
  0
VERTEX
  8
1
  5
9B7B
 10
657.493
 20
2400.42
 30
0.000000
  70
    32
  0
VERTEX
  8
1
  5
9B7C
 10
656.607
 20
2400.69
 30
0.000000
  70
    32
  0
VERTEX
  8
1
  5
9B7D
 10
655.723
 20
2400.97
 30
0.000000
  70
    32
  0
VERTEX
  8
1
  5
9B7E
 10
654.841
 20
2401.25
 30
0.000000
  70
    32
  0
VERTEX
  8
1
  5
9B7F
 10
653.961
 20
2401.54
 30
0.000000
  70
    32
  0
VERTEX
  8
1
  5
9B80
 10
653.082
 20
2401.83
 30
0.000000
  70
    32
  0
VERTEX
  8
1
  5
9B81
 10
652.206
 20
2402.13
 30
0.000000
  70
    32
  0
VERTEX
  8
1
  5
9B82
 10
651.331
 20
2402.44
 30
0.000000
  70
    32
  0
VERTEX
  8
1
  5
9B83
 10
650.458
 20
2402.75
 30
0.000000
  70
    32
  0
VERTEX
  8
1
  5
9B84
 10
649.588
 20
2403.07
 30
0.000000
  70
    32
  0
VERTEX
  8
1
  5
9B85
 10
648.719
 20
2403.40
 30
0.000000
  70
    32
  0
VERTEX
  8
1
  5
9B86
 10
647.853
 20
2403.73
 30
0.000000
  70
    32
  0
VERTEX
  8
1
  5
9B87
 10
646.989
 20
2404.07
 30
0.000000
  70
    32
  0
VERTEX
  8
1
  5
9B88
 10
646.127
 20
2404.41
 30
0.000000
  70
    32
  0
VERTEX
  8
1
  5
9B89
 10
645.267
 20
2404.76
 30
0.000000
  70
    32
  0
VERTEX
  8
1
  5
9B8A
 10
644.410
 20
2405.12
 30
0.000000
  70
    32
  0
VERTEX
  8
1
  5
9B8B
 10
643.556
 20
2405.49
 30
0.000000
  70
    32
  0
VERTEX
  8
1
  5
9B8C
 10
642.703
 20
2405.86
 30
0.000000
  70
    32
  0
VERTEX
  8
1
  5
9B8D
 10
641.853
 20
2406.23
 30
0.000000
  70
    32
  0
VERTEX
  8
1
  5
9B8E
 10
641.006
 20
2406.62
 30
0.000000
  70
    32
  0
VERTEX
  8
1
  5
9B8F
 10
640.161
 20
2407.01
 30
0.000000
  70
    32
  0
VERTEX
  8
1
  5
9B90
 10
639.319
 20
2407.41
 30
0.000000
  70
    32
  0
VERTEX
  8
1
  5
9B91
 10
638.480
 20
2407.81
 30
0.000000
  70
    32
  0
VERTEX
  8
1
  5
9B92
 10
637.644
 20
2408.23
 30
0.000000
  70
    32
  0
VERTEX
  8
1
  5
9B93
 10
636.810
 20
2408.65
 30
0.000000
  70
    32
  0
VERTEX
  8
1
  5
9B94
 10
635.979
 20
2409.07
 30
0.000000
  70
    32
  0
VERTEX
  8
1
  5
9B95
 10
635.151
 20
2409.51
 30
0.000000
  70
    32
  0
VERTEX
  8
1
  5
9B96
 10
634.326
 20
2409.95
 30
0.000000
  70
    32
  0
VERTEX
  8
1
  5
9B97
 10
633.504
 20
2410.40
 30
0.000000
  70
    32
  0
VERTEX
  8
1
  5
9B98
 10
632.685
 20
2410.85
 30
0.000000
  70
    32
  0
VERTEX
  8
1
  5
9B99
 10
631.870
 20
2411.31
 30
0.000000
  70
    32
  0
VERTEX
  8
1
  5
9B9A
 10
631.057
 20
2411.78
 30
0.000000
  70
    32
  0
VERTEX
  8
1
  5
9B9B
 10
630.248
 20
2412.26
 30
0.000000
  70
    32
  0
VERTEX
  8
1
  5
9B9C
 10
629.443
 20
2412.74
 30
0.000000
  70
    32
  0
VERTEX
  8
1
  5
9B9D
 10
628.641
 20
2413.23
 30
0.000000
  70
    32
  0
VERTEX
  8
1
  5
9B9E
 10
627.843
 20
2413.73
 30
0.000000
  70
    32
  0
VERTEX
  8
1
  5
9B9F
 10
627.048
 20
2414.23
 30
0.000000
  70
    32
  0
VERTEX
  8
1
  5
9BA0
 10
626.257
 20
2414.74
 30
0.000000
  70
    32
  0
VERTEX
  8
1
  5
9BA1
 10
625.470
 20
2415.26
 30
0.000000
  70
    32
  0
VERTEX
  8
1
  5
9BA2
 10
624.688
 20
2415.78
 30
0.000000
  70
    32
  0
VERTEX
  8
1
  5
9BA3
 10
623.909
 20
2416.31
 30
0.000000
  70
    32
  0
VERTEX
  8
1
  5
9BA4
 10
623.134
 20
2416.85
 30
0.000000
  70
    32
  0
VERTEX
  8
1
  5
9BA5
 10
622.363
 20
2417.39
 30
0.000000
  70
    32
  0
VERTEX
  8
1
  5
9BA6
 10
621.597
 20
2417.94
 30
0.000000
  70
    32
  0
VERTEX
  8
1
  5
9BA7
 10
620.835
 20
2418.50
 30
0.000000
  70
    32
  0
VERTEX
  8
1
  5
9BA8
 10
620.077
 20
2419.06
 30
0.000000
  70
    32
  0
VERTEX
  8
1
  5
9BA9
 10
619.324
 20
2419.63
 30
0.000000
  70
    32
  0
VERTEX
  8
1
  5
9BAA
 10
618.575
 20
2420.20
 30
0.000000
  70
    32
  0
VERTEX
  8
1
  5
9BAB
 10
617.831
 20
2420.78
 30
0.000000
  70
    32
  0
VERTEX
  8
1
  5
9BAC
 10
617.092
 20
2421.37
 30
0.000000
  70
    32
  0
VERTEX
  8
1
  5
9BAD
 10
616.358
 20
2421.96
 30
0.000000
  70
    32
  0
VERTEX
  8
1
  5
9BAE
 10
615.628
 20
2422.56
 30
0.000000
  70
    32
  0
VERTEX
  8
1
  5
9BAF
 10
614.904
 20
2423.17
 30
0.000000
  70
    32
  0
VERTEX
  8
1
  5
9BB0
 10
614.185
 20
2423.78
 30
0.000000
  70
    32
  0
VERTEX
  8
1
  5
9BB1
 10
613.470
 20
2424.39
 30
0.000000
  70
    32
  0
VERTEX
  8
1
  5
9BB2
 10
612.761
 20
2425.02
 30
0.000000
  70
    32
  0
VERTEX
  8
1
  5
9BB3
 10
612.057
 20
2425.64
 30
0.000000
  70
    32
  0
VERTEX
  8
1
  5
9BB4
 10
611.359
 20
2426.28
 30
0.000000
  70
    32
  0
VERTEX
  8
1
  5
9BB5
 10
610.666
 20
2426.92
 30
0.000000
  70
    32
  0
VERTEX
  8
1
  5
9BB6
 10
609.979
 20
2427.56
 30
0.000000
  70
    32
  0
VERTEX
  8
1
  5
9BB7
 10
609.297
 20
2428.21
 30
0.000000
  70
    32
  0
VERTEX
  8
1
  5
9BB8
 10
608.621
 20
2428.87
 30
0.000000
  70
    32
  0
VERTEX
  8
1
  5
9BB9
 10
607.951
 20
2429.53
 30
0.000000
  70
    32
  0
VERTEX
  8
1
  5
9BBA
 10
607.286
 20
2430.19
 30
0.000000
  70
    32
  0
VERTEX
  8
1
  5
9BBB
 10
606.628
 20
2430.86
 30
0.000000
  70
    32
  0
VERTEX
  8
1
  5
9BBC
 10
605.975
 20
2431.54
 30
0.000000
  70
    32
  0
VERTEX
  8
1
  5
9BBD
 10
605.329
 20
2432.22
 30
0.000000
  70
    32
  0
VERTEX
  8
1
  5
9BBE
 10
604.689
 20
2432.91
 30
0.000000
  70
    32
  0
VERTEX
  8
1
  5
9BBF
 10
604.055
 20
2433.60
 30
0.000000
  70
    32
  0
VERTEX
  8
1
  5
9BC0
 10
603.427
 20
2434.30
 30
0.000000
  70
    32
  0
VERTEX
  8
1
  5
9BC1
 10
602.806
 20
2435.00
 30
0.000000
  70
    32
  0
VERTEX
  8
1
  5
9BC2
 10
602.191
 20
2435.71
 30
0.000000
  70
    32
  0
VERTEX
  8
1
  5
9BC3
 10
601.583
 20
2436.42
 30
0.000000
  70
    32
  0
VERTEX
  8
1
  5
9BC4
 10
600.982
 20
2437.14
 30
0.000000
  70
    32
  0
VERTEX
  8
1
  5
9BC5
 10
600.387
 20
2437.86
 30
0.000000
  70
    32
  0
VERTEX
  8
1
  5
9BC6
 10
599.799
 20
2438.59
 30
0.000000
  70
    32
  0
VERTEX
  8
1
  5
9BC7
 10
599.218
 20
2439.32
 30
0.000000
  70
    32
  0
VERTEX
  8
1
  5
9BC8
 10
598.644
 20
2440.05
 30
0.000000
  70
    32
  0
VERTEX
  8
1
  5
9BC9
 10
598.077
 20
2440.79
 30
0.000000
  70
    32
  0
VERTEX
  8
1
  5
9BCA
 10
597.517
 20
2441.54
 30
0.000000
  70
    32
  0
VERTEX
  8
1
  5
9BCB
 10
596.964
 20
2442.29
 30
0.000000
  70
    32
  0
VERTEX
  8
1
  5
9BCC
 10
596.419
 20
2443.04
 30
0.000000
  70
    32
  0
VERTEX
  8
1
  5
9BCD
 10
595.881
 20
2443.80
 30
0.000000
  70
    32
  0
VERTEX
  8
1
  5
9BCE
 10
595.350
 20
2444.56
 30
0.000000
  70
    32
  0
VERTEX
  8
1
  5
9BCF
 10
594.827
 20
2445.33
 30
0.000000
  70
    32
  0
VERTEX
  8
1
  5
9BD0
 10
594.312
 20
2446.10
 30
0.000000
  70
    32
  0
VERTEX
  8
1
  5
9BD1
 10
593.804
 20
2446.88
 30
0.000000
  70
    32
  0
VERTEX
  8
1
  5
9BD2
 10
593.304
 20
2447.65
 30
0.000000
  70
    32
  0
VERTEX
  8
1
  5
9BD3
 10
592.812
 20
2448.44
 30
0.000000
  70
    32
  0
VERTEX
  8
1
  5
9BD4
 10
592.328
 20
2449.23
 30
0.000000
  70
    32
  0
VERTEX
  8
1
  5
9BD5
 10
591.852
 20
2450.02
 30
0.000000
  70
    32
  0
VERTEX
  8
1
  5
9BD6
 10
591.384
 20
2450.81
 30
0.000000
  70
    32
  0
VERTEX
  8
1
  5
9BD7
 10
590.924
 20
2451.61
 30
0.000000
  70
    32
  0
VERTEX
  8
1
  5
9BD8
 10
590.472
 20
2452.41
 30
0.000000
  70
    32
  0
VERTEX
  8
1
  5
9BD9
 10
590.029
 20
2453.22
 30
0.000000
  70
    32
  0
VERTEX
  8
1
  5
9BDA
 10
589.594
 20
2454.03
 30
0.000000
  70
    32
  0
VERTEX
  8
1
  5
9BDB
 10
589.167
 20
2454.85
 30
0.000000
  70
    32
  0
VERTEX
  8
1
  5
9BDC
 10
588.748
 20
2455.66
 30
0.000000
  70
    32
  0
VERTEX
  8
1
  5
9BDD
 10
588.337
 20
2456.48
 30
0.000000
  70
    32
  0
VERTEX
  8
1
  5
9BDE
 10
587.934
 20
2457.31
 30
0.000000
  70
    32
  0
VERTEX
  8
1
  5
9BDF
 10
587.539
 20
2458.14
 30
0.000000
  70
    32
  0
VERTEX
  8
1
  5
9BE0
 10
587.151
 20
2458.97
 30
0.000000
  70
    32
  0
VERTEX
  8
1
  5
9BE1
 10
586.770
 20
2459.80
 30
0.000000
  70
    32
  0
VERTEX
  8
1
  5
9BE2
 10
586.397
 20
2460.64
 30
0.000000
  70
    32
  0
VERTEX
  8
1
  5
9BE3
 10
586.031
 20
2461.48
 30
0.000000
  70
    32
  0
VERTEX
  8
1
  5
9BE4
 10
585.672
 20
2462.33
 30
0.000000
  70
    32
  0
VERTEX
  8
1
  5
9BE5
 10
585.319
 20
2463.17
 30
0.000000
  70
    32
  0
VERTEX
  8
1
  5
9BE6
 10
584.973
 20
2464.02
 30
0.000000
  70
    32
  0
VERTEX
  8
1
  5
9BE7
 10
584.634
 20
2464.88
 30
0.000000
  70
    32
  0
VERTEX
  8
1
  5
9BE8
 10
584.301
 20
2465.73
 30
0.000000
  70
    32
  0
VERTEX
  8
1
  5
9BE9
 10
583.974
 20
2466.59
 30
0.000000
  70
    32
  0
VERTEX
  8
1
  5
9BEA
 10
583.654
 20
2467.45
 30
0.000000
  70
    32
  0
VERTEX
  8
1
  5
9BEB
 10
583.339
 20
2468.31
 30
0.000000
  70
    32
  0
VERTEX
  8
1
  5
9BEC
 10
583.030
 20
2469.18
 30
0.000000
  70
    32
  0
VERTEX
  8
1
  5
9BED
 10
582.727
 20
2470.05
 30
0.000000
  70
    32
  0
VERTEX
  8
1
  5
9BEE
 10
582.430
 20
2470.92
 30
0.000000
  70
    32
  0
VERTEX
  8
1
  5
9BEF
 10
582.138
 20
2471.80
 30
0.000000
  70
    32
  0
VERTEX
  8
1
  5
9BF0
 10
581.851
 20
2472.67
 30
0.000000
  70
    32
  0
VERTEX
  8
1
  5
9BF1
 10
581.569
 20
2473.55
 30
0.000000
  70
    32
  0
VERTEX
  8
1
  5
9BF2
 10
581.293
 20
2474.43
 30
0.000000
  70
    32
  0
VERTEX
  8
1
  5
9BF3
 10
581.021
 20
2475.31
 30
0.000000
  70
    32
  0
VERTEX
  8
1
  5
9BF4
 10
580.754
 20
2476.20
 30
0.000000
  70
    32
  0
VERTEX
  8
1
  5
9BF5
 10
580.491
 20
2477.09
 30
0.000000
  70
    32
  0
VERTEX
  8
1
  5
9BF6
 10
580.233
 20
2477.98
 30
0.000000
  70
    32
  0
VERTEX
  8
1
  5
9BF7
 10
579.980
 20
2478.87
 30
0.000000
  70
    32
  0
VERTEX
  8
1
  5
9BF8
 10
579.730
 20
2479.76
 30
0.000000
  70
    32
  0
VERTEX
  8
1
  5
9BF9
 10
579.485
 20
2480.65
 30
0.000000
  70
    32
  0
VERTEX
  8
1
  5
9BFA
 10
579.243
 20
2481.55
 30
0.000000
  70
    32
  0
VERTEX
  8
1
  5
9BFB
 10
579.005
 20
2482.45
 30
0.000000
  70
    32
  0
VERTEX
  8
1
  5
9BFC
 10
578.771
 20
2483.35
 30
0.000000
  70
    32
  0
VERTEX
  8
1
  5
9BFD
 10
578.540
 20
2484.25
 30
0.000000
  70
    32
  0
VERTEX
  8
1
  5
9BFE
 10
578.313
 20
2485.15
 30
0.000000
  70
    32
  0
VERTEX
  8
1
  5
9BFF
 10
578.088
 20
2486.06
 30
0.000000
  70
    32
  0
VERTEX
  8
1
  5
9C00
 10
577.867
 20
2486.96
 30
0.000000
  70
    32
  0
VERTEX
  8
1
  5
9C01
 10
577.649
 20
2487.87
 30
0.000000
  70
    32
  0
VERTEX
  8
1
  5
9C02
 10
577.433
 20
2488.78
 30
0.000000
  70
    32
  0
VERTEX
  8
1
  5
9C03
 10
577.220
 20
2489.68
 30
0.000000
  70
    32
  0
VERTEX
  8
1
  5
9C04
 10
577.010
 20
2490.60
 30
0.000000
  70
    32
  0
VERTEX
  8
1
  5
9C05
 10
576.802
 20
2491.51
 30
0.000000
  70
    32
  0
VERTEX
  8
1
  5
9C06
 10
576.596
 20
2492.42
 30
0.000000
  70
    32
  0
VERTEX
  8
1
  5
9C07
 10
576.392
 20
2493.33
 30
0.000000
  70
    32
  0
VERTEX
  8
1
  5
9C08
 10
576.191
 20
2494.25
 30
0.000000
  70
    32
  0
VERTEX
  8
1
  5
9C09
 10
575.991
 20
2495.16
 30
0.000000
  70
    32
  0
VERTEX
  8
1
  5
9C0A
 10
575.792
 20
2496.08
 30
0.000000
  70
    32
  0
VERTEX
  8
1
  5
9C0B
 10
575.596
 20
2496.99
 30
0.000000
  70
    32
  0
VERTEX
  8
1
  5
9C0C
 10
575.400
 20
2497.91
 30
0.000000
  70
    32
  0
VERTEX
  8
1
  5
9C0D
 10
575.206
 20
2498.83
 30
0.000000
  70
    32
  0
VERTEX
  8
1
  5
9C0E
 10
575.013
 20
2499.74
 30
0.000000
  70
    32
  0
VERTEX
  8
1
  5
9C0F
 10
574.821
 20
2500.66
 30
0.000000
  70
    32
  0
VERTEX
  8
1
  5
9C10
 10
574.630
 20
2501.58
 30
0.000000
  70
    32
  0
VERTEX
  8
1
  5
9C11
 10
574.439
 20
2502.50
 30
0.000000
  70
    32
  0
VERTEX
  8
1
  5
9C12
 10
574.249
 20
2503.42
 30
0.000000
  70
    32
  0
VERTEX
  8
1
  5
9C13
 10
574.060
 20
2504.34
 30
0.000000
  70
    32
  0
VERTEX
  8
1
  5
9C14
 10
573.871
 20
2505.26
 30
0.000000
  70
    32
  0
VERTEX
  8
1
  5
9C15
 10
573.681
 20
2506.18
 30
0.000000
  70
    32
  0
SEQEND
  8
1
  5
9C16
  0
DIMENSION
  5
95AD
  8
3
  2
*D2
 10
1240.4814183882499
 20
2645.8620486684258
 30
0.0
 11
905.48141838824984
 21
2683.3620486684258
 31
0.0
 12
-66.102043514954858
 22
0.0
 32
0.0
 70
     0
 13
570.48141838824995
 23
2546.1791838482332
 33
0.0
 14
1240.4814183882499
 24
2546.1791838482332
 34
0.0
1001
ACAD
1000
DSTYLE
1002
{
1070
   172
1070
     1
1070
    40
1040
15.0
1070
   271
1070
     0
1070
   143
1040
0.039
1002
}
  0
DIMENSION
  5
95C1
  8
3
  2
*D3
 10
450.82542246445342
 20
1796.1791838482341
 30
0.0
 11
413.32542246445342
 21
2151.1791838482341
 31
0.0
 12
-66.102043514954858
 22
0.0
 32
0.0
 70
     0
 13
570.48141838824995
 23
2506.1791838482341
 33
0.0
 14
570.48141838824995
 24
1796.1791838482341
 34
0.0
 50
90.0
1001
ACAD
1000
DSTYLE
1002
{
1070
   172
1070
     1
1070
    40
1040
15.0
1070
     3
1000
φ<>
1070
   271
1070
     0
1070
   143
1040
0.039
1002
}
  0
DIMENSION
  5
95CE
  8
3
  2
*D4
 10
1754.399778943128
 20
1701.1791838482341
 30
0.0
 11
1716.899778943128
 21
1926.1791838482341
 31
0.0
 70
     0
 13
1840.6015207665071
 23
2151.1791838482341
 33
0.0
 14
1968.744943182571
 24
1701.1791838482341
 34
0.0
 50
90.0
1001
ACAD
1000
DSTYLE
1002
{
1070
   172
1070
     1
1070
    40
1040
15.0
1070
   271
1070
     0
1070
   143
1040
0.039
1002
}
  0
LINE
  5
95DD
  8
1
 10
1853.744943182242
 20
1663.1791838482329
 30
0.0
 11
2713.744943182242
 21
1663.1791838482329
 31
0.0
  0
LINE
  5
95DE
  8
1
 10
1853.744943182242
 20
1613.1791838482341
 30
0.0
 11
2713.744943182242
 21
1613.1791838482341
 31
0.0
  0
LINE
  5
95DF
  8
1
 10
1853.744943182242
 20
1663.1791838482341
 30
0.0
 11
1853.744943182242
 21
1613.1791838482341
 31
0.0
  0
LINE
  5
95E0
  8
1
 10
2713.7449431822429
 20
1663.1791838482341
 30
0.0
 11
2713.744943182242
 21
1613.1791838482341
 31
0.0
  0
LINE
  5
95E1
  8
1
 10
1853.744943182242
 20
1619.1791838482341
 30
0.0
 11
2713.744943182242
 21
1619.1791838482341
 31
0.0
  0
LINE
  5
95E2
  8
2
 10
2688.7449431822429
 20
1935.3407033291539
 30
0.0
 11
2688.7449431822429
 21
1598.1791838482341
 31
0.0
  0
LINE
  5
95E3
  8
2
 10
1878.744943182242
 20
1935.3407033291539
 30
0.0
 11
1878.744943182242
 21
1598.1791838482341
 31
0.0
  0
LINE
  5
95E6
  8
1
 10
570.48141838825006
 20
1663.1791838482341
 30
0.0
 11
1240.4814183882499
 21
1663.1791838482341
 31
0.0
  0
LINE
  5
95E9
  8
1
 10
570.48141838825006
 20
1613.1791838482341
 30
0.0
 11
1240.4814183882499
 21
1613.1791838482341
 31
0.0
  0
LINE
  5
95FB
  8
FUTO
 10
1240.4814183882499
 20
1613.1791838482341
 30
0.0
 11
1290.4814183882499
 21
1613.1791838482341
 31
0.0
  0
LINE
  5
95FC
  8
FUTO
 10
1240.4814183882499
 20
1613.1791838482341
 30
0.0
 11
1240.4814183882499
 21
1663.1791838482329
 31
0.0
  0
LINE
  5
95FD
  8
FUTO
 10
1290.4814183882499
 20
1613.1791838482341
 30
0.0
 11
1290.4814183882499
 21
1614.6791838482341
 31
0.0
  0
LINE
  5
95FE
  8
FUTO
 10
1240.4814183882499
 20
1663.1791838482329
 30
0.0
 11
1241.9814183882499
 21
1663.1791838482329
 31
0.0
  0
LINE
  5
95FF
  8
FUTO
 10
1252.9814183882499
 20
1619.1791838482341
 30
0.0
 11
1285.9814183882499
 21
1619.1791838482341
 31
0.0
  0
LINE
  5
9600
  8
FUTO
 10
1246.481418388249
 20
1625.6791838482341
 30
0.0
 11
1246.481418388249
 21
1658.6791838482341
 31
0.0
  0
ARC
  5
9601
  8
FUTO
 10
1285.9814183882499
 20
1614.6791838482341
 30
0.0
 40
4.5
 50
0.0
 51
90.0
  0
ARC
  5
9602
  8
FUTO
 10
1241.9814183882499
 20
1658.6791838482341
 30
0.0
 40
4.5
 50
0.0
 51
90.0
  0
ARC
  5
9603
  8
FUTO
 10
1252.9814183882499
 20
1625.6791838482341
 30
0.0
 40
6.5
 50
180.0
 51
270.0
  0
LINE
  5
9604
  8
FUTO
 10
570.48141838824995
 20
1613.1791838482341
 30
0.0
 11
520.48141838824995
 21
1613.1791838482341
 31
0.0
  0
LINE
  5
9605
  8
FUTO
 10
570.48141838824995
 20
1613.1791838482341
 30
0.0
 11
570.48141838824995
 21
1663.1791838482329
 31
0.0
  0
LINE
  5
9606
  8
FUTO
 10
520.48141838824995
 20
1613.1791838482341
 30
0.0
 11
520.48141838824995
 21
1614.6791838482341
 31
0.0
  0
LINE
  5
9607
  8
FUTO
 10
570.48141838824995
 20
1663.1791838482329
 30
0.0
 11
568.98141838824995
 21
1663.1791838482329
 31
0.0
  0
LINE
  5
9608
  8
FUTO
 10
557.98141838824995
 20
1619.1791838482341
 30
0.0
 11
524.98141838824995
 21
1619.1791838482341
 31
0.0
  0
LINE
  5
9609
  8
FUTO
 10
564.48141838824995
 20
1625.6791838482341
 30
0.0
 11
564.48141838824995
 21
1658.6791838482341
 31
0.0
  0
ARC
  5
960A
  8
FUTO
 10
524.98141838824995
 20
1614.6791838482341
 30
0.0
 40
4.5
 50
90.0
 51
180.0
  0
ARC
  5
960B
  8
FUTO
 10
568.98141838824995
 20
1658.6791838482341
 30
0.0
 40
4.5
 50
90.0
 51
180.0
  0
ARC
  5
960C
  8
FUTO
 10
557.98141838824995
 20
1625.6791838482341
 30
0.0
 40
6.5
 50
270.0
 51
0.0
  0
LINE
  5
960D
  8
2
 10
1270.4814183882499
 20
1935.3407033291539
 30
0.0
 11
1270.4814183882499
 21
1598.1791838482341
 31
0.0
  0
LINE
  5
960E
  8
2
 10
540.48141838824995
 20
1935.3407033291539
 30
0.0
 11
540.48141838824995
 21
1598.1791838482341
 31
0.0
  0
LINE
  5
9615
  8
1
 10
570.48141838825006
 20
1619.1791838482341
 30
0.0
 11
1240.4814183882499
 21
1619.1791838482341
 31
0.0
  0
DIMENSION
  5
9622
  8
3
  2
*D5
 10
2713.744943182242
 20
1486.97916584157
 30
0.0
 11
2283.744943182242
 21
1524.47916584157
 31
0.0
 70
     0
 13
1853.744943182242
 23
1613.1791838482341
 33
0.0
 14
2713.744943182242
 24
1613.1791838482341
 34
0.0
1001
ACAD
1000
DSTYLE
1002
{
1070
   172
1070
     1
1070
    40
1040
15.0
1070
   271
1070
     0
1070
   143
1040
0.039
1002
}
  0
DIMENSION
  5
962F
  8
3
  2
*D6
 10
1290.4814183882499
 20
1486.979134933302
 30
0.0
 11
905.48141838824984
 21
1524.479134933302
 31
0.0
 70
     0
 13
520.48141838824995
 23
1613.1791838482341
 33
0.0
 14
1290.4814183882499
 24
1613.1791838482341
 34
0.0
1001
ACAD
1000
DSTYLE
1002
{
1070
   172
1070
     1
1070
    40
1040
15.0
1070
   271
1070
     0
1070
   143
1040
0.039
1002
}
  0
DIMENSION
  5
963E
  8
3
  2
*D7
 10
1753.35874465645
 20
1613.1791838482341
 30
0.0
 11
1715.85874465645
 21
1501.750612419663
 31
0.0
 70
     0
 13
1853.744943182242
 23
1663.1791838482341
 33
0.0
 14
1853.744943182242
 24
1613.1791838482341
 34
0.0
 50
90.0
1001
ACAD
1000
DSTYLE
1002
{
1070
   287
1070
     0
1070
   287
1070
     0
1070
    40
1040
15.0
1070
   143
1040
0.039
1070
   172
1070
     1
1070
   271
1070
     0
1070
   279
1070
     0
1070
   289
1070
     0
1070
     6
1000
DOT
1002
}
  0
DIMENSION
  5
9687
  8
3
  2
*D8
 10
1754.2211637208759
 20
1701.1791838482341
 30
0.0
 11
1682.4354494351619
 21
1682.1791838482341
 31
0.0
 70
     0
  1
  <>
 13
1853.744943182242
 23
1663.1791838482341
 33
0.0
 14
1968.744943182571
 24
1701.1791838482341
 34
0.0
 50
90.0
1001
ACAD
1000
DSTYLE
1002
{
1070
   172
1070
     1
1070
    76
1070
     1
1070
    75
1070
     1
1070
    40
1040
15.0
1070
     3
1000
(<>)
1070
   271
1070
     0
1070
     7
1000
_NONE
1070
     6
1000
_NONE
1070
   143
1040
0.039
1002
}
  0
DIMENSION
  5
96B2
  8
3
  2
*D9
 10
1608.6186419172529
 20
2546.1791838482341
 30
0.0
 11
1559.332927631539
 21
2079.6791838482341
 31
0.0
 70
     0
 13
1853.744943182242
 23
1613.1791838482341
 33
0.0
 14
2283.744943182242
 24
2546.1791838482341
 34
0.0
 50
90.0
1001
ACAD
1000
DSTYLE
1002
{
1070
   172
1070
     1
1070
    40
1040
15.0
1070
     3
1000
(<>)
1070
   271
1070
     0
1070
   143
1040
0.039
1002
}
  0
LINE
  5
96D1
  8
1
 10
1023.99309310733
 20
2395.6791838482341
 30
0.0
 11
1023.99309310733
 21
1906.6791838482341
 31
0.0
  0
LINE
  5
96D2
  8
1
 10
1020.99309310733
 20
2395.6791838482341
 30
0.0
 11
1020.99309310733
 21
1906.6791838482341
 31
0.0
  0
LINE
  5
96D3
  8
1
 10
1020.99309310733
 20
2395.6791838482341
 30
0.0
 11
1008.015794178596
 21
2395.6791838482341
 31
0.0
  0
LINE
  5
96D4
  8
1
 10
1020.99309310733
 20
1906.6791838482341
 30
0.0
 11
1008.015794178596
 21
1906.6791838482341
 31
0.0
  0
LINE
  5
96D5
  8
1
 10
790.5355697959767
 20
2216.1791838482341
 30
0.0
 11
790.5355697959767
 21
2086.1791838482341
 31
0.0
  0
LINE
  5
96D6
  8
1
 10
790.5355697959767
 20
2216.1791838482341
 30
0.0
 11
1008.015794178596
 21
2395.6791838482341
 31
0.0
  0
LINE
  5
96D7
  8
1
 10
790.5355697959767
 20
2086.1791838482341
 30
0.0
 11
1008.015794178596
 21
1906.6791838482341
 31
0.0
  0
LINE
  5
96D8
  8
1
 10
843.96826660328395
 20
2260.2805227361209
 30
0.0
 11
791.11718789026872
 21
2405.4876680939501
 31
0.0
  0
LINE
  5
96D9
  8
1
 10
791.11718789026872
 20
2405.4876680939501
 30
0.0
 11
903.6467787027758
 21
2446.4450896238591
 31
0.0
  0
LINE
  5
96DA
  8
1
 10
903.6467787027758
 20
2446.4450896238591
 30
0.0
 11
957.14906399369465
 21
2353.695697330736
 31
0.0
  0
LINE
  5
96DB
  8
1
 10
843.96826660328395
 20
2042.077844960347
 30
0.0
 11
791.11718789026872
 21
1896.8706996025171
 31
0.0
  0
LINE
  5
96DC
  8
1
 10
791.11718789026872
 20
1896.8706996025171
 30
0.0
 11
903.6467787027758
 21
1855.913278072609
 31
0.0
  0
LINE
  5
96DD
  8
1
 10
903.6467787027758
 20
1855.913278072609
 30
0.0
 11
957.14906399369465
 21
1948.6626703657309
 31
0.0
  0
TEXT
  5
97EF
  8
4
 10
2169.8138763276311
 20
927.30711624822652
 30
0.0
 40
120.0
  1
50Hz用
  0
LINE
  5
97F0
  8
4
 10
2126.9555864981971
 20
1115.0436783524119
 30
0.0
 11
2776.955586498198
 21
1115.0436783524119
 31
0.0
  0
LINE
  5
97F1
  8
4
 10
2776.955586498198
 20
1115.0436783524119
 30
0.0
 11
2776.955586498198
 21
865.04367835241283
 31
0.0
  0
LINE
  5
97F2
  8
4
 10
2776.955586498198
 20
865.04367835241283
 30
0.0
 11
2126.9555864981971
 21
865.04367835241283
 31
0.0
  0
LINE
  5
97F3
  8
4
 10
2126.9555864981971
 20
865.04367835241283
 30
0.0
 11
2126.9555864981971
 21
1115.0436783524119
 31
0.0
  0
ENDSEC
  0
EOF
