  0
SECTION
  2
HEADER
  9
$ACADVER
  1
AC1009
  9
$INSBASE
 10
0.0
 20
0.0
 30
0.0
  9
$EXTMIN
 10
0.0
 20
0.0
 30
0.0
  9
$EXTMAX
 10
3150.0
 20
4425.0
 30
0.0
  9
$LIMMIN
 10
0.0
 20
0.0
  9
$LIMMAX
 10
297.0
 20
210.0
  9
$ORTHOMODE
 70
     0
  9
$REGENMODE
 70
     1
  9
$FILLMODE
 70
     0
  9
$QTEXTMODE
 70
     0
  9
$MIRRTEXT
 70
     1
  9
$DRAGMODE
 70
     2
  9
$LTSCALE
 40
100.0
  9
$OSMODE
 70
    37
  9
$ATTMODE
 70
     1
  9
$TEXTSIZE
 40
180.0
  9
$TRACEWID
 40
0.05
  9
$TEXTSTYLE
  7
STANDARD
  9
$CLAYER
  8
3
  9
$CELTYPE
  6
BYLAYER
  9
$CECOLOR
 62
   256
  9
$DIMSCALE
 40
15.0
  9
$DIMASZ
 40
2.0
  9
$DIMEXO
 40
0.5
  9
$DIMDLI
 40
10.0
  9
$DIMRND
 40
0.0
  9
$DIMDLE
 40
0.0
  9
$DIMEXE
 40
1.0
  9
$DIMTP
 40
1.0
  9
$DIMTM
 40
1.0
  9
$DIMTXT
 40
3.0
  9
$DIMCEN
 40
0.0
  9
$DIMTSZ
 40
0.0
  9
$DIMTOL
 70
     0
  9
$DIMLIM
 70
     0
  9
$DIMTIH
 70
     0
  9
$DIMTOH
 70
     0
  9
$DIMSE1
 70
     0
  9
$DIMSE2
 70
     0
  9
$DIMTAD
 70
     1
  9
$DIMZIN
 70
     8
  9
$DIMBLK
  1

  9
$DIMASO
 70
     1
  9
$DIMSHO
 70
     1
  9
$DIMPOST
  1

  9
$DIMAPOST
  1

  9
$DIMALT
 70
     0
  9
$DIMALTD
 70
     2
  9
$DIMALTF
 40
0.039
  9
$DIMLFAC
 40
1.0
  9
$DIMTOFL
 70
     1
  9
$DIMTVP
 40
0.0
  9
$DIMTIX
 70
     0
  9
$DIMSOXD
 70
     0
  9
$DIMSAH
 70
     1
  9
$DIMBLK1
  1
OPEN
  9
$DIMBLK2
  1
OPEN
  9
$DIMSTYLE
  2
IGA
  9
$DIMCLRD
 70
     0
  9
$DIMCLRE
 70
     0
  9
$DIMCLRT
 70
     0
  9
$DIMTFAC
 40
10.0
  9
$DIMGAP
 40
1.0
  9
$LUNITS
 70
     2
  9
$LUPREC
 70
     3
  9
$SKETCHINC
 40
0.1
  9
$FILLETRAD
 40
50.0
  9
$AUNITS
 70
     0
  9
$AUPREC
 70
     0
  9
$MENU
  1
acad
  9
$ELEVATION
 40
0.0
  9
$PELEVATION
 40
0.0
  9
$THICKNESS
 40
0.0
  9
$LIMCHECK
 70
     0
  9
$BLIPMODE
 70
     0
  9
$CHAMFERA
 40
0.5
  9
$CHAMFERB
 40
0.5
  9
$SKPOLY
 70
     0
  9
$TDCREATE
 40
2453060.621764814
  9
$TDUPDATE
 40
2454953.8679025001
  9
$TDINDWG
 40
0.1664318866
  9
$TDUSRTIMER
 40
0.1664318866
  9
$USRTIMER
 70
     1
  9
$ANGBASE
 50
0.0
  9
$ANGDIR
 70
     0
  9
$PDMODE
 70
     0
  9
$PDSIZE
 40
0.0
  9
$PLINEWID
 40
0.0
  9
$COORDS
 70
     1
  9
$SPLFRAME
 70
     0
  9
$SPLINETYPE
 70
     6
  9
$SPLINESEGS
 70
     8
  9
$ATTDIA
 70
     0
  9
$ATTREQ
 70
     1
  9
$HANDLING
 70
 10241
  9
$HANDSEED
  5
9284
  9
$SURFTAB1
 70
     6
  9
$SURFTAB2
 70
     6
  9
$SURFTYPE
 70
     6
  9
$SURFU
 70
     6
  9
$SURFV
 70
     6
  9
$UCSNAME
  2

  9
$UCSORG
 10
0.0
 20
0.0
 30
0.0
  9
$UCSXDIR
 10
1.0
 20
0.0
 30
0.0
  9
$UCSYDIR
 10
0.0
 20
1.0
 30
0.0
  9
$PUCSNAME
  2

  9
$PUCSORG
 10
0.0
 20
0.0
 30
0.0
  9
$PUCSXDIR
 10
1.0
 20
0.0
 30
0.0
  9
$PUCSYDIR
 10
0.0
 20
1.0
 30
0.0
  9
$USERI1
 70
     0
  9
$USERI2
 70
     0
  9
$USERI3
 70
     0
  9
$USERI4
 70
     0
  9
$USERI5
 70
     0
  9
$USERR1
 40
0.0
  9
$USERR2
 40
0.0
  9
$USERR3
 40
0.0
  9
$USERR4
 40
0.0
  9
$USERR5
 40
0.0
  9
$WORLDVIEW
 70
     1
  9
$SHADEDGE
 70
     3
  9
$SHADEDIF
 70
    70
  9
$TILEMODE
 70
     1
  9
$MAXACTVP
 70
    16
  9
$PLIMCHECK
 70
     0
  9
$PEXTMIN
 10
1.0000000000000000E+020
 20
1.0000000000000000E+020
 30
1.0000000000000000E+020
  9
$PEXTMAX
 10
-1.0000000000000000E+020
 20
-1.0000000000000000E+020
 30
-1.0000000000000000E+020
  9
$PLIMMIN
 10
0.0
 20
0.0
  9
$PLIMMAX
 10
12.0
 20
9.0
  9
$UNITMODE
 70
     0
  9
$VISRETAIN
 70
     0
  9
$PLINEGEN
 70
     0
  9
$PSLTSCALE
 70
     1
  0
ENDSEC
  0
SECTION
  2
TABLES
  0
TABLE
  2
VPORT
 70
     2
  0
VPORT
  2
*ACTIVE
 70
     0
 10
0.0
 20
0.0
 11
1.0
 21
1.0
 12
1915.279228358198
 22
506.00182778841418
 13
0.0
 23
0.0
 14
10.0
 24
10.0
 15
10.0
 25
10.0
 16
0.0
 26
0.0
 36
1.0
 17
0.0
 27
0.0
 37
0.0
 40
1327.840146179064
 41
1.5051150895140659
 42
50.0
 43
0.0
 44
0.0
 50
0.0
 51
0.0
 71
     0
 72
   100
 73
     1
 74
     0
 75
     0
 76
     0
 77
     0
 78
     0
  0
ENDTAB
  0
TABLE
  2
LTYPE
 70
     2
  0
LTYPE
  2
CONTINUOUS
 70
     0
  3
Solid line
 72
    65
 73
     0
 40
0.0
  0
LTYPE
  2
CENTER
 70
     0
  3
____ _ ____ _ ____ _ ____ _ ____ _ ____ _ ____ 
 72
    65
 73
     4
 40
2.0
 49
1.25
 49
-0.25
 49
0.25
 49
-0.25
  0
ENDTAB
  0
TABLE
  2
LAYER
 70
     6
  0
LAYER
  2
0
 70
     0
 62
     7
  6
CONTINUOUS
  0
LAYER
  2
3
 70
     0
 62
     2
  6
CONTINUOUS
  0
LAYER
  2
2
 70
     0
 62
     3
  6
CENTER
  0
LAYER
  2
1
 70
     0
 62
     4
  6
CONTINUOUS
  0
LAYER
  2
4
 70
     0
 62
     7
  6
CONTINUOUS
  0
LAYER
  2
DEFPOINTS
 70
     0
 62
     7
  6
CONTINUOUS
  0
ENDTAB
  0
TABLE
  2
STYLE
 70
     1
  0
STYLE
  2
STANDARD
 70
     0
 40
0.0
 41
1.0
 50
0.0
 71
     0
 42
180.0
  3
simplex.shx
  4
extfont.shx
  0
ENDTAB
  0
TABLE
  2
VIEW
 70
     0
  0
ENDTAB
  0
TABLE
  2
UCS
 70
     0
  0
ENDTAB
  0
TABLE
  2
APPID
 70
     1
  0
APPID
  2
ACAD
 70
     0
  0
ENDTAB
  0
TABLE
  2
DIMSTYLE
 70
     1
  0
DIMSTYLE
  2
IGA
 70
     0
  3

  4

  5

  6
OPEN
  7
OPEN
 40
2.0
 41
2.0
 42
0.5
 43
10.0
 44
1.0
 45
0.0
 46
0.0
 47
1.0
 48
1.0
140
3.0
141
0.0
142
0.0
143
0.03937
144
1.0
145
0.0
146
10.0
147
1.0
 71
     0
 72
     0
 73
     0
 74
     0
 75
     0
 76
     0
 77
     1
 78
     8
170
     0
171
     2
172
     0
173
     1
174
     0
175
     0
176
     0
177
     0
178
     0
  0
ENDTAB
  0
ENDSEC
  0
SECTION
  2
BLOCKS
  0
BLOCK
  8
0
  2
$MODEL_SPACE
 70
     0
 10
0.0
 20
0.0
 30
0.0
  3
$MODEL_SPACE
  1

  0
ENDBLK
  5
1B
  8
0
  0
BLOCK
 67
     1
  8
0
  2
$PAPER_SPACE
 70
     0
 10
0.0
 20
0.0
 30
0.0
  3
$PAPER_SPACE
  1

  0
ENDBLK
  5
18
 67
     1
  8
0
  0
BLOCK
  8
0
  2
_OPEN
 70
     0
 10
0.0
 20
0.0
 30
0.0
  3
_OPEN
  1

  0
LINE
  5
7AC4
  8
0
  6
BYBLOCK
 62
     0
 10
-1.0
 20
0.1666666666666666
 30
0.0
 11
0.0
 21
0.0
 31
0.0
  0
LINE
  5
7AC5
  8
0
  6
BYBLOCK
 62
     0
 10
0.0
 20
0.0
 30
0.0
 11
-1.0
 21
-0.1666666666666666
 31
0.0
  0
LINE
  5
7AC6
  8
0
  6
BYBLOCK
 62
     0
 10
0.0
 20
0.0
 30
0.0
 11
-1.0
 21
0.0
 31
0.0
  0
ENDBLK
  5
7AC8
  8
0
  0
BLOCK
  8
0
  2
*D1
 70
     1
 10
0.0
 20
0.0
 30
0.0
  3
*D1
  1

  0
LINE
  5
9266
  8
3
 62
     0
 10
586.77880592691645
 20
2509.2560548346032
 30
0.0
 11
480.9986222716056
 21
2509.2560548346032
 31
0.0
  0
LINE
  5
9267
  8
3
 62
     0
 10
586.77880592691645
 20
1879.256054834603
 30
0.0
 11
480.99862227160543
 21
1879.2560548346039
 31
0.0
  0
LINE
  5
9268
  8
3
 62
     0
 10
495.9986222716056
 20
2479.2560548346032
 30
0.0
 11
495.99862227160548
 21
1909.256054834603
 31
0.0
  0
INSERT
  5
9269
  8
3
 62
     0
  2
_OPEN
 10
495.9986222716056
 20
2509.2560548346032
 30
0.0
 41
30.0
 42
30.0
 43
30.0
 50
90.0
  0
INSERT
  5
926A
  8
3
 62
     0
  2
_OPEN
 10
495.99862227160548
 20
1879.2560548346039
 30
0.0
 41
30.0
 42
30.0
 43
30.0
 50
270.0
  0
TEXT
  8
3
  40
45
  5
9281
  62
0
  72
0
  71
0
 10
368.499
 20
2114.57
 30
0.000000
  1
φ630
  0
POINT
  5
926C
  8
DEFPOINTS
 62
     0
 10
594.27880592691645
 20
2509.2560548346032
 30
0.0
  0
POINT
  5
926D
  8
DEFPOINTS
 62
     0
 10
594.27880592691645
 20
1879.256054834603
 30
0.0
  0
POINT
  5
926E
  8
DEFPOINTS
 62
     0
 10
495.99862227160548
 20
1879.2560548346039
 30
0.0
  0
ENDBLK
  5
8FB5
  8
0
  0
BLOCK
  8
0
  2
*D2
 70
     1
 10
0.0
 20
0.0
 30
0.0
  3
*D2
  1

  0
LINE
  5
926F
  8
3
 62
     0
 10
594.27880592691599
 20
2546.7560548346032
 30
0.0
 11
594.27880592691599
 21
2642.6248388720551
 31
0.0
  0
LINE
  5
9270
  8
3
 62
     0
 10
1194.278805926916
 20
2546.7560548346032
 30
0.0
 11
1194.278805926916
 21
2642.6248388720551
 31
0.0
  0
LINE
  5
9271
  8
3
 62
     0
 10
624.27880592691599
 20
2627.624838872056
 30
0.0
 11
1164.278805926916
 21
2627.624838872056
 31
0.0
  0
INSERT
  5
9272
  8
3
 62
     0
  2
_OPEN
 10
594.27880592691599
 20
2627.624838872056
 30
0.0
 41
30.0
 42
30.0
 43
30.0
 50
180.0
  0
INSERT
  5
9273
  8
3
 62
     0
  2
_OPEN
 10
1194.278805926916
 20
2627.624838872056
 30
0.0
 41
30.0
 42
30.0
 43
30.0
  0
TEXT
  8
3
  40
45
  5
9282
  62
0
  72
0
  71
0
 10
782.982
 20
2585.47
 30
0.000000
  1
600
  0
POINT
  5
9275
  8
DEFPOINTS
 62
     0
 10
594.27880592691599
 20
2539.2560548346032
 30
0.0
  0
POINT
  5
9276
  8
DEFPOINTS
 62
     0
 10
1194.278805926916
 20
2539.2560548346032
 30
0.0
  0
POINT
  5
9277
  8
DEFPOINTS
 62
     0
 10
1194.278805926916
 20
2627.624838872056
 30
0.0
  0
ENDBLK
  5
8FCD
  8
0
  0
BLOCK
  8
0
  2
*D3
 70
     1
 10
0.0
 20
0.0
 30
0.0
  3
*D3
  1

  0
LINE
  5
9278
  8
3
 62
     0
 10
1867.26807454973
 20
2194.2560548346032
 30
0.0
 11
1733.4784401120719
 21
2194.2560548346032
 31
0.0
  0
LINE
  5
9279
  8
3
 62
     0
 10
1962.26807454973
 20
1794.256054834603
 30
0.0
 11
1733.4784401120719
 21
1794.256054834603
 31
0.0
  0
LINE
  5
927A
  8
3
 62
     0
 10
1748.4784401120719
 20
2164.2560548346032
 30
0.0
 11
1748.4784401120719
 21
1824.256054834603
 31
0.0
  0
INSERT
  5
927B
  8
3
 62
     0
  2
_OPEN
 10
1748.4784401120719
 20
2194.2560548346032
 30
0.0
 41
30.0
 42
30.0
 43
30.0
 50
90.0
  0
INSERT
  5
927C
  8
3
 62
     0
  2
_OPEN
 10
1748.4784401120719
 20
1794.256054834603
 30
0.0
 41
30.0
 42
30.0
 43
30.0
 50
270.0
  0
TEXT
  8
3
  40
45
  5
9283
  62
0
  72
0
  71
0
 10
1620.98
 20
1897.87
 30
0.000000
  1
400
  0
POINT
  5
927E
  8
DEFPOINTS
 62
     0
 10
1874.76807454973
 20
2194.2560548346032
 30
0.0
  0
POINT
  5
927F
  8
DEFPOINTS
 62
     0
 10
1969.76807454973
 20
1794.256054834603
 30
0.0
  0
POINT
  5
9280
  8
DEFPOINTS
 62
     0
 10
1748.4784401120719
 20
1794.256054834603
 30
0.0
  0
ENDBLK
  5
8FF3
  8
0
  0
BLOCK
  8
0
  2
*D4
 70
     1
 10
0.0
 20
0.0
 30
0.0
  3
*D4
  1

  0
LINE
  5
9189
  8
0
  6
BYBLOCK
 62
     0
 10
1969.76807454973
 20
1786.756054834603
 30
0.0
 11
1969.76807454973
 21
1665.778642277724
 31
0.0
  0
LINE
  5
918A
  8
0
  6
BYBLOCK
 62
     0
 10
2529.76807454973
 20
1786.756054834603
 30
0.0
 11
2529.76807454973
 21
1665.778642277724
 31
0.0
  0
LINE
  5
918B
  8
0
  6
BYBLOCK
 62
     0
 10
1999.76807454973
 20
1680.778642277724
 30
0.0
 11
2499.76807454973
 21
1680.778642277724
 31
0.0
  0
INSERT
  5
918C
  8
0
  6
BYBLOCK
 62
     0
  2
_OPEN
 10
1969.76807454973
 20
1680.778642277724
 30
0.0
 41
30.0
 42
30.0
 43
30.0
 50
180.0
  0
INSERT
  5
918D
  8
0
  6
BYBLOCK
 62
     0
  2
_OPEN
 10
2529.76807454973
 20
1680.778642277724
 30
0.0
 41
30.0
 42
30.0
 43
30.0
  0
TEXT
  5
918E
  8
3
 62
     0
 10
2191.9109316925869
 20
1695.778642277724
 30
0.0
 40
45.0
  1
560
  0
POINT
  5
918F
  8
DEFPOINTS
  6
BYBLOCK
 62
     0
 10
1969.76807454973
 20
1794.256054834603
 30
0.0
  0
POINT
  5
9190
  8
DEFPOINTS
  6
BYBLOCK
 62
     0
 10
2529.76807454973
 20
1794.256054834603
 30
0.0
  0
POINT
  5
9191
  8
DEFPOINTS
  6
BYBLOCK
 62
     0
 10
2529.76807454973
 20
1680.778642277724
 30
0.0
  0
ENDBLK
  5
9192
  8
0
  0
BLOCK
  8
0
  2
*D5
 70
     1
 10
0.0
 20
0.0
 30
0.0
  3
*D5
  1

  0
LINE
  5
9196
  8
0
  6
BYBLOCK
 62
     0
 10
1962.26807454973
 20
1794.256054834603
 30
0.0
 11
1623.1723349359979
 21
1794.256054834603
 31
0.0
  0
LINE
  5
9197
  8
0
  6
BYBLOCK
 62
     0
 10
2242.26807454973
 20
2539.2560548346032
 30
0.0
 11
1623.1723349359979
 21
2539.2560548346032
 31
0.0
  0
LINE
  5
9198
  8
0
  6
BYBLOCK
 62
     0
 10
1638.1723349359979
 20
1824.256054834603
 30
0.0
 11
1638.1723349359979
 21
2509.2560548346032
 31
0.0
  0
INSERT
  5
9199
  8
0
  6
BYBLOCK
 62
     0
  2
_OPEN
 10
1638.1723349359979
 20
1794.256054834603
 30
0.0
 41
30.0
 42
30.0
 43
30.0
 50
270.0
  0
INSERT
  5
919A
  8
0
  6
BYBLOCK
 62
     0
  2
_OPEN
 10
1638.1723349359979
 20
2539.2560548346032
 30
0.0
 41
30.0
 42
30.0
 43
30.0
 50
90.0
  0
TEXT
  5
919B
  8
3
 62
     0
 10
1623.1723349359979
 20
2108.898911977461
 30
0.0
 40
45.0
  1
745
 50
90.0
  0
POINT
  5
919C
  8
DEFPOINTS
  6
BYBLOCK
 62
     0
 10
1969.76807454973
 20
1794.256054834603
 30
0.0
  0
POINT
  5
919D
  8
DEFPOINTS
  6
BYBLOCK
 62
     0
 10
2249.76807454973
 20
2539.2560548346032
 30
0.0
  0
POINT
  5
919E
  8
DEFPOINTS
  6
BYBLOCK
 62
     0
 10
1638.1723349359979
 20
2539.2560548346032
 30
0.0
  0
ENDBLK
  5
919F
  8
0
  0
ENDSEC
  0
SECTION
  2
ENTITIES
  0
LINE
  5
8297
  8
2
 10
544.27880592691645
 20
2194.2560548346032
 30
0.0
 11
1244.278805926916
 21
2194.2560548346032
 31
0.0
  0
LINE
  5
8298
  8
1
 10
594.27880592691599
 20
2539.2560548346032
 30
0.0
 11
594.27880592691599
 21
1849.256054834603
 31
0.0
  0
LINE
  5
8299
  8
1
 10
1194.278805926916
 20
2539.2560548346032
 30
0.0
 11
1194.278805926916
 21
1849.256054834603
 31
0.0
  0
LINE
  5
829A
  8
1
 10
594.27880592691599
 20
2539.2560548346032
 30
0.0
 11
597.47880592691581
 21
2539.2560548346032
 31
0.0
  0
LINE
  5
829B
  8
1
 10
594.27880592691599
 20
1849.256054834603
 30
0.0
 11
597.47880592691581
 21
1849.256054834603
 31
0.0
  0
LINE
  5
829C
  8
1
 10
1191.0788059269159
 20
2539.2560548346032
 30
0.0
 11
1191.0788059269159
 21
1794.256054834603
 31
0.0
  0
LINE
  5
829D
  8
1
 10
597.47880592691581
 20
2539.2560548346032
 30
0.0
 11
597.47880592691581
 21
1794.256054834603
 31
0.0
  0
LINE
  5
829E
  8
1
 10
974.27880592691588
 20
2539.2560548346032
 30
0.0
 11
974.27880592691588
 21
1849.256054834603
 31
0.0
  0
LINE
  5
829F
  8
1
 10
977.4788059269157
 20
2539.2560548346032
 30
0.0
 11
977.4788059269157
 21
1849.256054834603
 31
0.0
  0
LINE
  5
82A0
  8
1
 10
971.07880592691606
 20
2539.2560548346032
 30
0.0
 11
971.07880592691606
 21
1849.256054834603
 31
0.0
  0
LINE
  5
82A3
  8
1
 10
977.4788059269157
 20
2512.456054834603
 30
0.0
 11
1191.0788059269159
 21
2512.456054834603
 31
0.0
  0
LINE
  5
82A4
  8
1
 10
977.4788059269157
 20
1876.0560548346029
 30
0.0
 11
1191.0788059269159
 21
1876.0560548346029
 31
0.0
  0
POLYLINE
  5
82A5
  8
1
 66
     1
 10
0.0
 20
0.0
 30
0.0
 70
     4
 75
     6
  0
VERTEX
  5
82A6
  8
1
 10
971.07880592691606
 20
2512.456054834603
 30
0.0
 70
    16
  0
VERTEX
  5
82A7
  8
1
 10
971.07880592691606
 20
2512.456054834603
 30
0.0
 70
     8
  0
VERTEX
  5
82A8
  8
1
 10
962.0040559335057
 20
2506.2408302402828
 30
0.0
 70
     8
  0
VERTEX
  5
82A9
  8
1
 10
953.79345940039366
 20
2500.7426979039351
 30
0.0
 70
     8
  0
VERTEX
  5
82AA
  8
1
 10
946.3277420750992
 20
2495.8752123803888
 30
0.0
 70
     8
  0
VERTEX
  5
82AB
  8
1
 10
939.48762970514053
 20
2491.5519282244691
 30
0.0
 70
     8
  0
VERTEX
  5
82AC
  8
1
 10
933.15384803803624
 20
2487.686399991002
 30
0.0
 70
     8
  0
VERTEX
  5
82AD
  8
1
 10
927.20712282130569
 20
2484.1921822348158
 30
0.0
 70
     8
  0
VERTEX
  5
82AE
  8
1
 10
921.52817980246743
 20
2480.9828295107368
 30
0.0
 70
     8
  0
VERTEX
  5
82AF
  8
1
 10
915.99774472904028
 20
2477.9718963735909
 30
0.0
 70
     8
  0
VERTEX
  5
82B0
  8
1
 10
910.51337721214304
 20
2475.085012157781
 30
0.0
 70
     8
  0
VERTEX
  5
82B1
  8
1
 10
905.03997231729784
 20
2472.296105316012
 30
0.0
 70
     8
  0
VERTEX
  5
82B2
  8
1
 10
899.55925897362522
 20
2469.5911790805631
 30
0.0
 70
     8
  0
VERTEX
  5
82B3
  8
1
 10
894.05296611024824
 20
2466.956236683714
 30
0.0
 70
     8
  0
VERTEX
  5
82B4
  8
1
 10
888.502822656288
 20
2464.3772813577448
 30
0.0
 70
     8
  0
VERTEX
  5
82B5
  8
1
 10
882.89055754086667
 20
2461.8403163349371
 30
0.0
 70
     8
  0
VERTEX
  5
82B6
  8
1
 10
877.19789969310568
 20
2459.3313448475678
 30
0.0
 70
     8
  0
VERTEX
  5
82B7
  8
1
 10
871.40657804212731
 20
2456.83637012792
 30
0.0
 70
     8
  0
VERTEX
  5
82B8
  8
1
 10
865.50238175573668
 20
2454.3457567202031
 30
0.0
 70
     8
  0
VERTEX
  5
82B9
  8
1
 10
859.48734095647535
 20
2451.8673144163581
 30
0.0
 70
     8
  0
VERTEX
  5
82BA
  8
1
 10
853.36754600556833
 20
2449.4132143202551
 30
0.0
 70
     8
  0
VERTEX
  5
82BB
  8
1
 10
847.14908726424119
 20
2446.995627535764
 30
0.0
 70
     8
  0
VERTEX
  5
82BC
  8
1
 10
840.83805509371814
 20
2444.6267251667591
 30
0.0
 70
     8
  0
VERTEX
  5
82BD
  8
1
 10
834.44053985522487
 20
2442.3186783171091
 30
0.0
 70
     8
  0
VERTEX
  5
82BE
  8
1
 10
827.96263190998661
 20
2440.0836580906862
 30
0.0
 70
     8
  0
VERTEX
  5
82BF
  8
1
 10
821.41042161922803
 20
2437.9338355913601
 30
0.0
 70
     8
  0
VERTEX
  5
82C0
  8
1
 10
814.78878126990321
 20
2435.879049128383
 30
0.0
 70
     8
  0
VERTEX
  5
82C1
  8
1
 10
808.09771085188083
 20
2433.9198058325269
 30
0.0
 70
     8
  0
VERTEX
  5
82C2
  8
1
 10
801.33599228075946
 20
2432.0542800399412
 30
0.0
 70
     8
  0
VERTEX
  5
82C3
  8
1
 10
794.50240747213593
 20
2430.2806460867778
 30
0.0
 70
     8
  0
VERTEX
  5
82C4
  8
1
 10
787.5957383416079
 20
2428.5970783091871
 30
0.0
 70
     8
  0
VERTEX
  5
82C5
  8
1
 10
780.61476680477415
 20
2427.0017510433208
 30
0.0
 70
     8
  0
VERTEX
  5
82C6
  8
1
 10
773.55827477723142
 20
2425.4928386253291
 30
0.0
 70
     8
  0
VERTEX
  5
82C7
  8
1
 10
766.42504417457747
 20
2424.0685153913641
 30
0.0
 70
     8
  0
VERTEX
  5
82C8
  8
1
 10
759.22914668859346
 20
2422.7245259790461
 30
0.0
 70
     8
  0
VERTEX
  5
82C9
  8
1
 10
752.04581311579375
 20
2421.446896231866
 30
0.0
 70
     8
  0
VERTEX
  5
82CA
  8
1
 10
744.96556402887506
 20
2420.2192222947901
 30
0.0
 70
     8
  0
VERTEX
  5
82CB
  8
1
 10
738.07892000053596
 20
2419.025100312776
 30
0.0
 70
     8
  0
VERTEX
  5
82CC
  8
1
 10
731.47640160347282
 20
2417.8481264307879
 30
0.0
 70
     8
  0
VERTEX
  5
82CD
  8
1
 10
725.24852941038353
 20
2416.6718967937891
 30
0.0
 70
     8
  0
VERTEX
  5
82CE
  8
1
 10
719.48582399396525
 20
2415.4800075467401
 30
0.0
 70
     8
  0
VERTEX
  5
82CF
  8
1
 10
714.27880592691588
 20
2414.2560548346032
 30
0.0
 70
     8
  0
VERTEX
  5
82D0
  8
1
 10
945.62124643966263
 20
2494.8491591767402
 30
0.0
 70
    16
  0
VERTEX
  5
82D1
  8
1
 10
915.68591867112298
 20
2476.7775055281481
 30
0.0
 70
    16
  0
VERTEX
  5
82D2
  8
1
 10
872.65388336581645
 20
2456.83637012792
 30
0.0
 70
    16
  0
VERTEX
  5
82D3
  8
1
 10
822.13801611837471
 20
2436.8952347276932
 30
0.0
 70
    16
  0
VERTEX
  5
82D4
  8
1
 10
767.25658187605256
 20
2423.1857045094721
 30
0.0
 70
    16
  0
VERTEX
  5
82D5
  8
1
 10
727.34280824193684
 20
2417.5772612248952
 30
0.0
 70
    16
  0
VERTEX
  5
82D6
  8
1
 10
714.27880592691588
 20
2414.2560548346032
 30
0.0
 70
    16
  0
SEQEND
  5
82D7
  8
1
  0
POLYLINE
  5
82D8
  8
1
 66
     1
 10
0.0
 20
0.0
 30
0.0
 70
     4
 75
     6
  0
VERTEX
  5
82D9
  8
1
 10
971.07880592691606
 20
1876.0560548346029
 30
0.0
 70
    16
  0
VERTEX
  5
82DA
  8
1
 10
971.07880592691606
 20
1876.0560548346029
 30
0.0
 70
     8
  0
VERTEX
  5
82DB
  8
1
 10
962.0040559335057
 20
1882.2712794289239
 30
0.0
 70
     8
  0
VERTEX
  5
82DC
  8
1
 10
953.79345940039366
 20
1887.7694117652709
 30
0.0
 70
     8
  0
VERTEX
  5
82DD
  8
1
 10
946.3277420750992
 20
1892.6368972888181
 30
0.0
 70
     8
  0
VERTEX
  5
82DE
  8
1
 10
939.48762970514053
 20
1896.9601814447381
 30
0.0
 70
     8
  0
VERTEX
  5
82DF
  8
1
 10
933.15384803803624
 20
1900.825709678204
 30
0.0
 70
     8
  0
VERTEX
  5
82E0
  8
1
 10
927.20712282130569
 20
1904.3199274343899
 30
0.0
 70
     8
  0
VERTEX
  5
82E1
  8
1
 10
921.52817980246743
 20
1907.5292801584701
 30
0.0
 70
     8
  0
VERTEX
  5
82E2
  8
1
 10
915.99774472904028
 20
1910.5402132956151
 30
0.0
 70
     8
  0
VERTEX
  5
82E3
  8
1
 10
910.51337721214304
 20
1913.427097511425
 30
0.0
 70
     8
  0
VERTEX
  5
82E4
  8
1
 10
905.03997231729784
 20
1916.216004353194
 30
0.0
 70
     8
  0
VERTEX
  5
82E5
  8
1
 10
899.55925897362522
 20
1918.9209305886429
 30
0.0
 70
     8
  0
VERTEX
  5
82E6
  8
1
 10
894.05296611024824
 20
1921.555872985492
 30
0.0
 70
     8
  0
VERTEX
  5
82E7
  8
1
 10
888.502822656288
 20
1924.134828311461
 30
0.0
 70
     8
  0
VERTEX
  5
82E8
  8
1
 10
882.89055754086667
 20
1926.6717933342691
 30
0.0
 70
     8
  0
VERTEX
  5
82E9
  8
1
 10
877.19789969310568
 20
1929.1807648216379
 30
0.0
 70
     8
  0
VERTEX
  5
82EA
  8
1
 10
871.40657804212731
 20
1931.675739541286
 30
0.0
 70
     8
  0
VERTEX
  5
82EB
  8
1
 10
865.50238175573668
 20
1934.1663529490031
 30
0.0
 70
     8
  0
VERTEX
  5
82EC
  8
1
 10
859.48734095647535
 20
1936.6447952528481
 30
0.0
 70
     8
  0
VERTEX
  5
82ED
  8
1
 10
853.36754600556833
 20
1939.0988953489521
 30
0.0
 70
     8
  0
VERTEX
  5
82EE
  8
1
 10
847.14908726424119
 20
1941.516482133442
 30
0.0
 70
     8
  0
VERTEX
  5
82EF
  8
1
 10
840.83805509371814
 20
1943.8853845024471
 30
0.0
 70
     8
  0
VERTEX
  5
82F0
  8
1
 10
834.44053985522487
 20
1946.1934313520969
 30
0.0
 70
     8
  0
VERTEX
  5
82F1
  8
1
 10
827.96263190998661
 20
1948.4284515785209
 30
0.0
 70
     8
  0
VERTEX
  5
82F2
  8
1
 10
821.41042161922803
 20
1950.5782740778459
 30
0.0
 70
     8
  0
VERTEX
  5
82F3
  8
1
 10
814.78878126990321
 20
1952.633060540823
 30
0.0
 70
     8
  0
VERTEX
  5
82F4
  8
1
 10
808.09771085188083
 20
1954.59230383668
 30
0.0
 70
     8
  0
VERTEX
  5
82F5
  8
1
 10
801.33599228075946
 20
1956.4578296292659
 30
0.0
 70
     8
  0
VERTEX
  5
82F6
  8
1
 10
794.50240747213593
 20
1958.2314635824289
 30
0.0
 70
     8
  0
VERTEX
  5
82F7
  8
1
 10
787.5957383416079
 20
1959.9150313600201
 30
0.0
 70
     8
  0
VERTEX
  5
82F8
  8
1
 10
780.61476680477415
 20
1961.5103586258861
 30
0.0
 70
     8
  0
VERTEX
  5
82F9
  8
1
 10
773.55827477723142
 20
1963.0192710438771
 30
0.0
 70
     8
  0
VERTEX
  5
82FA
  8
1
 10
766.42504417457747
 20
1964.4435942778421
 30
0.0
 70
     8
  0
VERTEX
  5
82FB
  8
1
 10
759.22914668859346
 20
1965.7875836901601
 30
0.0
 70
     8
  0
VERTEX
  5
82FC
  8
1
 10
752.04581311579375
 20
1967.065213437339
 30
0.0
 70
     8
  0
VERTEX
  5
82FD
  8
1
 10
744.96556402887506
 20
1968.292887374417
 30
0.0
 70
     8
  0
VERTEX
  5
82FE
  8
1
 10
738.07892000053596
 20
1969.48700935643
 30
0.0
 70
     8
  0
VERTEX
  5
82FF
  8
1
 10
731.47640160347282
 20
1970.663983238418
 30
0.0
 70
     8
  0
VERTEX
  5
8300
  8
1
 10
725.24852941038353
 20
1971.8402128754169
 30
0.0
 70
     8
  0
VERTEX
  5
8301
  8
1
 10
719.48582399396525
 20
1973.0321021224661
 30
0.0
 70
     8
  0
VERTEX
  5
8302
  8
1
 10
714.27880592691588
 20
1974.256054834603
 30
0.0
 70
     8
  0
VERTEX
  5
8303
  8
1
 10
945.62124643966263
 20
1893.6629504924661
 30
0.0
 70
    16
  0
VERTEX
  5
8304
  8
1
 10
915.68591867112298
 20
1911.734604141059
 30
0.0
 70
    16
  0
VERTEX
  5
8305
  8
1
 10
872.65388336581645
 20
1931.675739541286
 30
0.0
 70
    16
  0
VERTEX
  5
8306
  8
1
 10
822.13801611837471
 20
1951.616874941514
 30
0.0
 70
    16
  0
VERTEX
  5
8307
  8
1
 10
767.25658187605256
 20
1965.3264051597339
 30
0.0
 70
    16
  0
VERTEX
  5
8308
  8
1
 10
727.34280824193684
 20
1970.934848444311
 30
0.0
 70
    16
  0
VERTEX
  5
8309
  8
1
 10
714.27880592691588
 20
1974.256054834603
 30
0.0
 70
    16
  0
SEQEND
  5
830A
  8
1
  0
POLYLINE
  5
830B
  8
1
 66
     1
 10
0.0
 20
0.0
 30
0.0
 70
     4
 75
     6
  0
VERTEX
  5
830C
  8
1
 10
714.27880592691588
 20
1974.256054834603
 30
0.0
 70
    16
  0
VERTEX
  5
830D
  8
1
 10
714.27880592691588
 20
1974.256054834603
 30
0.0
 70
     8
  0
VERTEX
  5
830E
  8
1
 10
703.92729430739337
 20
1972.8419288061521
 30
0.0
 70
     8
  0
VERTEX
  5
830F
  8
1
 10
695.20519983246504
 20
1971.5456724513849
 30
0.0
 70
     8
  0
VERTEX
  5
8310
  8
1
 10
687.89714964909115
 20
1970.3490562591121
 30
0.0
 70
     8
  0
VERTEX
  5
8311
  8
1
 10
681.78777090423216
 20
1969.233850718143
 30
0.0
 70
     8
  0
VERTEX
  5
8312
  8
1
 10
676.66169074484696
 20
1968.1818263172861
 30
0.0
 70
     8
  0
VERTEX
  5
8313
  8
1
 10
672.30353631789603
 20
1967.174753545353
 30
0.0
 70
     8
  0
VERTEX
  5
8314
  8
1
 10
668.49793477033916
 20
1966.194402891153
 30
0.0
 70
     8
  0
VERTEX
  5
8315
  8
1
 10
665.0295132491359
 20
1965.2225448434961
 30
0.0
 70
     8
  0
VERTEX
  5
8316
  8
1
 10
661.71706877504585
 20
1964.2417567748471
 30
0.0
 70
     8
  0
VERTEX
  5
8317
  8
1
 10
658.51607786402599
 20
1963.2378435922949
 30
0.0
 70
     8
  0
VERTEX
  5
8318
  8
1
 10
655.41618690583255
 20
1962.1974170865849
 30
0.0
 70
     8
  0
VERTEX
  5
8319
  8
1
 10
652.40704229022231
 20
1961.1070890484621
 30
0.0
 70
     8
  0
VERTEX
  5
831A
  8
1
 10
649.47829040695115
 20
1959.9534712686691
 30
0.0
 70
     8
  0
VERTEX
  5
831B
  8
1
 10
646.61957764577619
 20
1958.7231755379521
 30
0.0
 70
     8
  0
VERTEX
  5
831C
  8
1
 10
643.82055039645365
 20
1957.4028136470549
 30
0.0
 70
     8
  0
VERTEX
  5
831D
  8
1
 10
641.07085504873965
 20
1955.9789973867221
 30
0.0
 70
     8
  0
VERTEX
  5
831E
  8
1
 10
638.36429973837494
 20
1954.441381322705
 30
0.0
 70
     8
  0
VERTEX
  5
831F
  8
1
 10
635.7113395850364
 20
1952.7917911207751
 30
0.0
 70
     8
  0
VERTEX
  5
8320
  8
1
 10
633.12659145438408
 20
1951.035095221712
 30
0.0
 70
     8
  0
VERTEX
  5
8321
  8
1
 10
630.62467221207862
 20
1949.1761620662951
 30
0.0
 70
     8
  0
VERTEX
  5
8322
  8
1
 10
628.22019872378075
 20
1947.219860095302
 30
0.0
 70
     8
  0
VERTEX
  5
8323
  8
1
 10
625.92778785515065
 20
1945.1710577495121
 30
0.0
 70
     8
  0
VERTEX
  5
8324
  8
1
 10
623.76205647184952
 20
1943.034623469704
 30
0.0
 70
     8
  0
VERTEX
  5
8325
  8
1
 10
621.73762143953718
 20
1940.815425696657
 30
0.0
 70
     8
  0
VERTEX
  5
8326
  8
1
 10
619.86260323931401
 20
1938.508494563501
 30
0.0
 70
     8
  0
VERTEX
  5
8327
  8
1
 10
618.11913681403928
 20
1936.0695069727781
 30
0.0
 70
     8
  0
VERTEX
  5
8328
  8
1
 10
616.48286072201245
 20
1933.4443015193799
 30
0.0
 70
     8
  0
VERTEX
  5
8329
  8
1
 10
614.92941352153127
 20
1930.578716798201
 30
0.0
 70
     8
  0
VERTEX
  5
832A
  8
1
 10
613.43443377089534
 20
1927.418591404132
 30
0.0
 70
     8
  0
VERTEX
  5
832B
  8
1
 10
611.97356002840343
 20
1923.9097639320671
 30
0.0
 70
     8
  0
VERTEX
  5
832C
  8
1
 10
610.52243085235432
 20
1919.9980729768999
 30
0.0
 70
     8
  0
VERTEX
  5
832D
  8
1
 10
609.05668480104669
 20
1915.629357133522
 30
0.0
 70
     8
  0
VERTEX
  5
832E
  8
1
 10
607.55898713209535
 20
1910.7852532176021
 30
0.0
 70
     8
  0
VERTEX
  5
832F
  8
1
 10
606.04010990037932
 20
1905.590590927904
 30
0.0
 70
     8
  0
VERTEX
  5
8330
  8
1
 10
604.51785186009283
 20
1900.2059981839679
 30
0.0
 70
     8
  0
VERTEX
  5
8331
  8
1
 10
603.01001176543048
 20
1894.7921029053341
 30
0.0
 70
     8
  0
VERTEX
  5
8332
  8
1
 10
601.53438837058729
 20
1889.50953301154
 30
0.0
 70
     8
  0
VERTEX
  5
8333
  8
1
 10
600.10878042975708
 20
1884.5189164221281
 30
0.0
 70
     8
  0
VERTEX
  5
8334
  8
1
 10
598.75098669713543
 20
1879.9808810566351
 30
0.0
 70
     8
  0
VERTEX
  5
8335
  8
1
 10
597.47880592691581
 20
1876.0560548346029
 30
0.0
 70
     8
  0
VERTEX
  5
8336
  8
1
 10
684.31077621269276
 20
1970.3116885172089
 30
0.0
 70
    16
  0
VERTEX
  5
8337
  8
1
 10
663.73023673379055
 20
1965.3264051597339
 30
0.0
 70
    16
  0
VERTEX
  5
8338
  8
1
 10
640.65508660750993
 20
1957.2253182260911
 30
0.0
 70
    16
  0
VERTEX
  5
8339
  8
1
 10
620.07454712860772
 20
1941.6463062562359
 30
0.0
 70
    16
  0
VERTEX
  5
833A
  8
1
 10
609.47245351528125
 20
1921.0820109289059
 30
0.0
 70
    16
  0
VERTEX
  5
833B
  8
1
 10
600.74131624945755
 20
1885.5618655291521
 30
0.0
 70
    16
  0
VERTEX
  5
833C
  8
1
 10
597.47880592691581
 20
1876.0560548346029
 30
0.0
 70
    16
  0
SEQEND
  5
833D
  8
1
  0
LINE
  5
833E
  8
1
 10
971.07880592691606
 20
2539.2560548346032
 30
0.0
 11
977.4788059269157
 21
2539.2560548346032
 31
0.0
  0
LINE
  5
833F
  8
1
 10
971.07880592691606
 20
1849.256054834603
 30
0.0
 11
977.4788059269157
 21
1849.256054834603
 31
0.0
  0
LINE
  5
8340
  8
2
 10
951.07880592691606
 20
2526.7560548346032
 30
0.0
 11
997.47880592691581
 21
2526.7560548346032
 31
0.0
  0
LINE
  5
8341
  8
2
 10
951.07880592691606
 20
1861.756054834603
 30
0.0
 11
997.47880592691581
 21
1861.756054834603
 31
0.0
  0
LINE
  5
8342
  8
1
 10
597.47880592691581
 20
1794.256054834603
 30
0.0
 11
657.47880592691581
 21
1794.256054834603
 31
0.0
  0
LINE
  5
8343
  8
1
 10
601.97880592691581
 20
1798.756054834603
 30
0.0
 11
657.47880592691581
 21
1798.756054834603
 31
0.0
  0
LINE
  5
8344
  8
1
 10
657.47880592691581
 20
1798.756054834603
 30
0.0
 11
657.47880592691581
 21
1794.256054834603
 31
0.0
  0
LINE
  5
8345
  8
1
 10
601.97880592691581
 20
1994.256054834603
 30
0.0
 11
601.97880592691581
 21
1798.756054834603
 31
0.0
  0
LINE
  5
8346
  8
1
 10
1186.5788059269159
 20
1994.256054834603
 30
0.0
 11
1186.5788059269159
 21
1798.756054834603
 31
0.0
  0
LINE
  5
8347
  8
1
 10
1131.078805926915
 20
1798.756054834603
 30
0.0
 11
1131.0788059269159
 21
1794.256054834603
 31
0.0
  0
LINE
  5
8348
  8
1
 10
1131.0788059269159
 20
1798.756054834603
 30
0.0
 11
1186.5788059269159
 21
1798.756054834603
 31
0.0
  0
LINE
  5
8349
  8
1
 10
1131.0788059269159
 20
1794.256054834603
 30
0.0
 11
1191.0788059269159
 21
1794.256054834603
 31
0.0
  0
LINE
  5
834A
  8
1
 10
1186.5788059269159
 20
1994.256054834603
 30
0.0
 11
1191.0788059269159
 21
1994.256054834603
 31
0.0
  0
LINE
  5
834B
  8
1
 10
597.47880592691581
 20
1994.256054834603
 30
0.0
 11
601.97880592691581
 21
1994.256054834603
 31
0.0
  0
LINE
  5
834C
  8
2
 10
1874.76807454973
 20
2194.2560548346032
 30
0.0
 11
2624.76807454973
 21
2194.2560548346032
 31
0.0
  0
CIRCLE
  5
834D
  8
1
 10
2249.76807454973
 20
2194.2560548346032
 30
0.0
 40
315.0
  0
CIRCLE
  5
834E
  8
1
 10
2249.76807454973
 20
2194.2560548346032
 30
0.0
 40
318.19999999999987
  0
LINE
  5
834F
  8
1
 10
1969.76807454973
 20
1794.256054834603
 30
0.0
 11
2529.76807454973
 21
1794.256054834603
 31
0.0
  0
LINE
  5
8350
  8
1
 10
1969.7680745497289
 20
1992.699611127143
 30
0.0
 11
1969.76807454973
 21
1794.256054834603
 31
0.0
  0
LINE
  5
8351
  8
1
 10
2529.76807454973
 20
1992.699611127136
 30
0.0
 11
2529.76807454973
 21
1794.256054834603
 31
0.0
  0
LINE
  5
841F
  8
1
 10
1194.278805926916
 20
1849.256054834603
 30
0.0
 11
1191.0788059269159
 21
1849.256054834603
 31
0.0
  0
LINE
  5
8420
  8
2
 10
1166.8341836004861
 20
1862.3406176810479
 30
0.0
 11
1213.2341836004859
 21
1862.3406176810479
 31
0.0
  0
LINE
  5
8422
  8
2
 10
1166.8341836004861
 20
2526.1714919881579
 30
0.0
 11
1213.2341836004859
 21
2526.1714919881579
 31
0.0
  0
LINE
  5
8423
  8
1
 10
1194.278805926916
 20
2539.2560548346032
 30
0.0
 11
1191.0788059269159
 21
2539.2560548346032
 31
0.0
  0
LINE
  5
8427
  8
1
 10
1194.278805926916
 20
2509.2560548346032
 30
0.0
 11
1194.278805926916
 21
2539.2560548346032
 31
0.0
  0
CIRCLE
  5
842C
  8
1
 10
2249.7680745497319
 20
2194.2560548346032
 30
0.0
 40
345.0
  0
LINE
  5
8442
  8
2
 10
621.7234282533459
 20
2526.1714919881579
 30
0.0
 11
575.32342825334615
 21
2526.1714919881579
 31
0.0
  0
LINE
  5
844A
  8
2
 10
621.7234282533459
 20
1862.3406176810479
 30
0.0
 11
575.32342825334615
 21
1862.3406176810479
 31
0.0
  0
LINE
  5
844B
  8
2
 10
2249.76807454973
 20
2566.3512278574249
 30
0.0
 11
2249.76807454973
 21
1794.256054834603
 31
0.0
  0
DIMENSION
  5
8FAA
  8
3
  2
*D1
 10
495.99862227160548
 20
1879.2560548346039
 30
0.0
 11
495.9986222716052
 21
2194.2237372963968
 31
0.0
 70
   128
 13
594.27880592691645
 23
2509.2560548346032
 33
0.0
 14
594.27880592691645
 24
1879.256054834603
 34
0.0
 50
90.0
1001
ACAD
1000
DSTYLE
1002
{
1070
   287
1070
     3
1070
   287
1070
     3
1070
     3
1000
φ<>
1070
    40
1040
15.0
1070
   143
1040
0.039
1070
   172
1070
     1
1070
   271
1070
     0
1070
   279
1070
     0
1070
   288
1070
     1
1002
}
  0
DIMENSION
  5
8FC2
  8
3
  2
*D2
 10
1194.278805926916
 20
2627.624838872056
 30
0.0
 11
872.98242954307887
 21
2627.624838872056
 31
0.0
 70
   128
 13
594.27880592691599
 23
2539.2560548346032
 33
0.0
 14
1194.278805926916
 24
2539.2560548346032
 34
0.0
1001
ACAD
1000
DSTYLE
1002
{
1070
   287
1070
     3
1070
   287
1070
     3
1070
    40
1040
15.0
1070
   143
1040
0.039
1070
   172
1070
     1
1070
   271
1070
     0
1070
   279
1070
     0
1070
   288
1070
     1
1002
}
  0
DIMENSION
  5
8FF4
  8
3
  2
*D3
 10
1748.4784401120719
 20
1794.256054834603
 30
0.0
 11
1748.4784401120719
 21
1977.523186508568
 31
0.0
 70
   128
 13
1874.76807454973
 23
2194.2560548346032
 33
0.0
 14
1969.76807454973
 24
1794.256054834603
 34
0.0
 50
90.0
1001
ACAD
1000
DSTYLE
1002
{
1070
   287
1070
     3
1070
   287
1070
     3
1070
    40
1040
15.0
1070
   143
1040
0.039
1070
   172
1070
     1
1070
   271
1070
     0
1070
   279
1070
     0
1070
   288
1070
     1
1002
}
  0
LINE
  5
906F
  8
4
 10
2775.0
 20
750.0
 30
0.0
 11
2775.0
 21
450.0
 31
0.0
  0
LINE
  5
9070
  8
4
 10
1725.0
 20
750.0
 30
0.0
 11
1725.0
 21
450.0
 31
0.0
  0
LINE
  5
9071
  8
4
 10
975.0
 20
750.0
 30
0.0
 11
975.0
 21
450.0
 31
0.0
  0
LINE
  5
9074
  8
4
 10
975.0
 20
450.0
 30
0.0
 11
2775.0
 21
450.0
 31
0.0
  0
LINE
  5
9075
  8
4
 10
975.0
 20
600.0
 30
0.0
 11
2775.0
 21
600.0
 31
0.0
  0
TEXT
  5
9076
  8
4
 10
1032.753121270352
 20
647.31453879991932
 30
0.0
 40
75.0
  1
機器名称
  0
TEXT
  5
9077
  8
4
 10
1029.3871590371959
 20
482.46773509801642
 30
0.0
 40
75.0
  1
機器型番
  0
TEXT
  5
9078
  8
4
 10
1766.5181182314971
 20
633.85765343635285
 30
0.0
 40
75.0
  1
ミツヤダクトファン
  0
TEXT
  5
9079
  8
4
 10
1779.9817433782209
 20
475.739376419915
 30
0.0
 40
75.0
  1
SA#630-1
  0
TEXT
  5
907B
  8
4
 10
1172.484072127379
 20
3575.1432619987731
 30
0.0
 40
80.999999999999986
  1
床置ベット
  0
TEXT
  5
907C
  8
4
 10
474.25138999416959
 20
3800.8214642989469
 30
0.0
 40
108.0
  1
電動機直動式横形斜流ファン
  0
LINE
  5
907D
  8
4
 10
375.0
 20
3704.1131313972069
 30
0.0
 11
2775.0
 21
3704.1131313972069
 31
0.0
  0
LINE
  5
907E
  8
4
 10
375.0
 20
4004.1131313972069
 30
0.0
 11
2775.0
 21
4004.1131313972069
 31
0.0
  0
LINE
  5
907F
  8
4
 10
975.0
 20
750.0
 30
0.0
 11
2775.0
 21
750.0
 31
0.0
  0
LINE
  5
9080
  8
4
 10
375.0
 20
4004.1131313972069
 30
0.0
 11
375.0
 21
3704.1131313972069
 31
0.0
  0
TEXT
  5
9081
  8
4
 10
417.1137994328891
 20
3573.4792163195152
 30
0.0
 40
80.999999999999986
  1
右回転後方吐出
  0
TEXT
  5
9082
  8
4
 10
2203.4543388739339
 20
4059.0916222429628
 30
0.0
 40
84.000000000000014
  1
No.
  0
TEXT
  5
9083
  8
4
 10
1966.944093900019
 20
3575.1432619987731
 30
0.0
 40
80.999999999999986
  1
縮尺：1/15
  0
LINE
  5
9084
  8
4
 10
2775.0
 20
4004.1131313972069
 30
0.0
 11
2775.0
 21
3704.1131313972069
 31
0.0
  0
LINE
  5
9085
  8
4
 10
3150.0
 20
4425.0
 30
0.0
 11
3150.0
 21
4425.0
 31
0.0
  0
LINE
  5
9086
  8
4
 10
2160.9261335397969
 20
4021.895374688102
 30
0.0
 11
2160.9261335397969
 21
4179.9783923246277
 31
0.0
  0
LINE
  5
9087
  8
4
 10
2160.9261335397969
 20
4179.9783923246277
 30
0.0
 11
2775.0
 21
4179.9783923246277
 31
0.0
  0
LINE
  5
9088
  8
4
 10
2775.0
 20
4179.9783923246277
 30
0.0
 11
2775.0
 21
4021.895374688102
 31
0.0
  0
LINE
  5
9089
  8
4
 10
2775.0
 20
4021.895374688102
 30
0.0
 11
2160.9261335397969
 21
4021.895374688102
 31
0.0
  0
LINE
  5
908A
  8
4
 10
0.0
 20
0.0
 30
0.0
 11
0.0
 21
4425.0
 31
0.0
  0
LINE
  5
908B
  8
4
 10
0.0
 20
4425.0
 30
0.0
 11
3150.0
 21
4425.0
 31
0.0
  0
LINE
  5
908C
  8
4
 10
3150.0
 20
4425.0
 30
0.0
 11
3150.0
 21
0.0
 31
0.0
  0
LINE
  5
908D
  8
4
 10
3150.0
 20
0.0
 30
0.0
 11
0.0
 21
0.0
 31
0.0
  0
POLYLINE
  5
90D8
  8
1
 66
     1
 10
0.0
 20
0.0
 30
0.0
 70
     4
 75
     6
  0
VERTEX
  5
90D9
  8
1
 10
714.27880592691588
 20
2414.2560548346032
 30
0.0
 70
    16
  0
VERTEX
  5
90DA
  8
1
 10
714.27880592691588
 20
2414.2560548346032
 30
0.0
 70
     8
  0
VERTEX
  5
90DB
  8
1
 10
703.92729430739337
 20
2415.6701808630551
 30
0.0
 70
     8
  0
VERTEX
  5
90DC
  8
1
 10
695.20519983246504
 20
2416.9664372178208
 30
0.0
 70
     8
  0
VERTEX
  5
90DD
  8
1
 10
687.89714964909115
 20
2418.163053410095
 30
0.0
 70
     8
  0
VERTEX
  5
90DE
  8
1
 10
681.78777090423216
 20
2419.2782589510639
 30
0.0
 70
     8
  0
VERTEX
  5
90DF
  8
1
 10
676.66169074484696
 20
2420.330283351921
 30
0.0
 70
     8
  0
VERTEX
  5
90E0
  8
1
 10
672.30353631789603
 20
2421.3373561238541
 30
0.0
 70
     8
  0
VERTEX
  5
90E1
  8
1
 10
668.49793477033916
 20
2422.3177067780539
 30
0.0
 70
     8
  0
VERTEX
  5
90E2
  8
1
 10
665.0295132491359
 20
2423.2895648257108
 30
0.0
 70
     8
  0
VERTEX
  5
90E3
  8
1
 10
661.71706877504585
 20
2424.2703528943598
 30
0.0
 70
     8
  0
VERTEX
  5
90E4
  8
1
 10
658.51607786402599
 20
2425.2742660769109
 30
0.0
 70
     8
  0
VERTEX
  5
90E5
  8
1
 10
655.41618690583255
 20
2426.3146925826218
 30
0.0
 70
     8
  0
VERTEX
  5
90E6
  8
1
 10
652.40704229022231
 20
2427.4050206207448
 30
0.0
 70
     8
  0
VERTEX
  5
90E7
  8
1
 10
649.47829040695115
 20
2428.5586384005378
 30
0.0
 70
     8
  0
VERTEX
  5
90E8
  8
1
 10
646.61957764577619
 20
2429.7889341312548
 30
0.0
 70
     8
  0
VERTEX
  5
90E9
  8
1
 10
643.82055039645365
 20
2431.1092960221522
 30
0.0
 70
     8
  0
VERTEX
  5
90EA
  8
1
 10
641.07085504873965
 20
2432.5331122824841
 30
0.0
 70
     8
  0
VERTEX
  5
90EB
  8
1
 10
638.36429973837494
 20
2434.0707283465022
 30
0.0
 70
     8
  0
VERTEX
  5
90EC
  8
1
 10
635.7113395850364
 20
2435.7203185484318
 30
0.0
 70
     8
  0
VERTEX
  5
90ED
  8
1
 10
633.12659145438408
 20
2437.4770144474951
 30
0.0
 70
     8
  0
VERTEX
  5
90EE
  8
1
 10
630.62467221207862
 20
2439.3359476029118
 30
0.0
 70
     8
  0
VERTEX
  5
90EF
  8
1
 10
628.22019872378075
 20
2441.2922495739049
 30
0.0
 70
     8
  0
VERTEX
  5
90F0
  8
1
 10
625.92778785515065
 20
2443.341051919695
 30
0.0
 70
     8
  0
VERTEX
  5
90F1
  8
1
 10
623.76205647184952
 20
2445.4774861995029
 30
0.0
 70
     8
  0
VERTEX
  5
90F2
  8
1
 10
621.73762143953718
 20
2447.6966839725501
 30
0.0
 70
     8
  0
VERTEX
  5
90F3
  8
1
 10
619.86260323931401
 20
2450.0036151057052
 30
0.0
 70
     8
  0
VERTEX
  5
90F4
  8
1
 10
618.11913681403928
 20
2452.4426026964288
 30
0.0
 70
     8
  0
VERTEX
  5
90F5
  8
1
 10
616.48286072201245
 20
2455.0678081498272
 30
0.0
 70
     8
  0
VERTEX
  5
90F6
  8
1
 10
614.92941352153127
 20
2457.9333928710062
 30
0.0
 70
     8
  0
VERTEX
  5
90F7
  8
1
 10
613.43443377089534
 20
2461.0935182650742
 30
0.0
 70
     8
  0
VERTEX
  5
90F8
  8
1
 10
611.97356002840343
 20
2464.6023457371389
 30
0.0
 70
     8
  0
VERTEX
  5
90F9
  8
1
 10
610.52243085235432
 20
2468.514036692306
 30
0.0
 70
     8
  0
VERTEX
  5
90FA
  8
1
 10
609.05668480104669
 20
2472.8827525356851
 30
0.0
 70
     8
  0
VERTEX
  5
90FB
  8
1
 10
607.55898713209535
 20
2477.7268564516048
 30
0.0
 70
     8
  0
VERTEX
  5
90FC
  8
1
 10
606.04010990037932
 20
2482.9215187413029
 30
0.0
 70
     8
  0
VERTEX
  5
90FD
  8
1
 10
604.51785186009283
 20
2488.306111485238
 30
0.0
 70
     8
  0
VERTEX
  5
90FE
  8
1
 10
603.01001176543048
 20
2493.7200067638728
 30
0.0
 70
     8
  0
VERTEX
  5
90FF
  8
1
 10
601.53438837058729
 20
2499.0025766576659
 30
0.0
 70
     8
  0
VERTEX
  5
9100
  8
1
 10
600.10878042975708
 20
2503.993193247079
 30
0.0
 70
     8
  0
VERTEX
  5
9101
  8
1
 10
598.75098669713543
 20
2508.5312286125718
 30
0.0
 70
     8
  0
VERTEX
  5
9102
  8
1
 10
597.47880592691581
 20
2512.4560548346039
 30
0.0
 70
     8
  0
VERTEX
  5
9103
  8
1
 10
684.31077621269276
 20
2418.2004211519979
 30
0.0
 70
    16
  0
VERTEX
  5
9104
  8
1
 10
663.73023673379055
 20
2423.185704509473
 30
0.0
 70
    16
  0
VERTEX
  5
9105
  8
1
 10
640.65508660750993
 20
2431.2867914431158
 30
0.0
 70
    16
  0
VERTEX
  5
9106
  8
1
 10
620.07454712860772
 20
2446.8658034129712
 30
0.0
 70
    16
  0
VERTEX
  5
9107
  8
1
 10
609.47245351528125
 20
2467.4300987403012
 30
0.0
 70
    16
  0
VERTEX
  5
9108
  8
1
 10
600.74131624945755
 20
2502.9502441400541
 30
0.0
 70
    16
  0
VERTEX
  5
9109
  8
1
 10
597.47880592691581
 20
2512.4560548346039
 30
0.0
 70
    16
  0
SEQEND
  5
910A
  8
1
  0
DIMENSION
  5
9193
  8
3
  2
*D4
 10
2529.76807454973
 20
1680.778642277724
 30
0.0
 11
2249.76807454973
 21
1718.278642277724
 31
0.0
 70
     0
 13
1969.76807454973
 23
1794.256054834603
 33
0.0
 14
2529.76807454973
 24
1794.256054834603
 34
0.0
1001
ACAD
1000
DSTYLE
1002
{
1070
   172
1070
     1
1070
    40
1040
15.0
1070
   271
1070
     0
1070
   143
1040
0.039
1002
}
  0
DIMENSION
  5
91A0
  8
3
  2
*D5
 10
1638.1723349359979
 20
2539.2560548346032
 30
0.0
 11
1600.6723349359979
 21
2166.7560548346032
 31
0.0
 70
     0
 13
1969.76807454973
 23
1794.256054834603
 33
0.0
 14
2249.76807454973
 24
2539.2560548346032
 34
0.0
 50
90.0
1001
ACAD
1000
DSTYLE
1002
{
1070
   172
1070
     1
1070
    40
1040
15.0
1070
   271
1070
     0
1070
   143
1040
0.039
1002
}
  0
LINE
  5
91A5
  8
2
 10
2504.76807454973
 20
1809.256054834603
 30
0.0
 11
2504.76807454973
 21
1779.256054834603
 31
0.0
  0
LINE
  5
91A6
  8
2
 10
1994.76807454973
 20
1809.256054834603
 30
0.0
 11
1994.76807454973
 21
1779.256054834603
 31
0.0
  0
LINE
  5
91A9
  8
2
 10
1159.278805926916
 20
1813.756054834603
 30
0.0
 11
1159.278805926916
 21
1779.256054834603
 31
0.0
  0
LINE
  5
91AD
  8
2
 10
629.27880592691599
 20
1813.756054834603
 30
0.0
 11
629.27880592691599
 21
1779.256054834603
 31
0.0
  0
LINE
  5
91F5
  8
1
 10
981.87047182626236
 20
2408.7560548346032
 30
0.0
 11
993.52414309957464
 21
2408.7560548346032
 31
0.0
  0
LINE
  5
91F6
  8
1
 10
981.87047182626236
 20
1979.756054834603
 30
0.0
 11
993.52414309957464
 21
1979.756054834603
 31
0.0
  0
LINE
  5
91F8
  8
1
 10
993.52414309957464
 20
2408.7560548346032
 30
0.0
 11
993.52414309957464
 21
1979.756054834603
 31
0.0
  0
LINE
  5
91F9
  8
1
 10
804.37219436843316
 20
2259.2560548346032
 30
0.0
 11
804.37219436843316
 21
2129.2560548346032
 31
0.0
  0
LINE
  5
91FA
  8
1
 10
981.87047182626236
 20
2408.7560548346032
 30
0.0
 11
804.37219436843316
 21
2259.2560548346032
 31
0.0
  0
LINE
  5
91FB
  8
1
 10
981.87047182626236
 20
1979.756054834603
 30
0.0
 11
804.37219436843316
 21
2129.2560548346032
 31
0.0
  0
LINE
  5
91FC
  8
1
 10
828.64522706393188
 20
2279.7003004912358
 30
0.0
 11
778.41304128945058
 21
2417.7120966364728
 31
0.0
  0
LINE
  5
91FD
  8
1
 10
778.41304128945058
 20
2417.7120966364728
 30
0.0
 11
890.3669870449794
 21
2458.4600005001389
 31
0.0
  0
LINE
  5
91FE
  8
1
 10
890.3669870449794
 20
2458.4600005001389
 30
0.0
 11
938.45596320315599
 21
2372.1896772217478
 31
0.0
  0
LINE
  5
91FF
  8
1
 10
828.64522706393188
 20
2108.8118091779702
 30
0.0
 11
778.41304128945058
 21
1970.800013032733
 31
0.0
  0
LINE
  5
9200
  8
1
 10
778.41304128945058
 20
1970.800013032733
 30
0.0
 11
890.3669870449794
 21
1930.052109169068
 31
0.0
  0
LINE
  5
9201
  8
1
 10
890.3669870449794
 20
1930.052109169068
 30
0.0
 11
938.45596320315599
 21
2016.3224324474591
 31
0.0
  0
ENDSEC
  0
EOF
