  0
SECTION
  2
HEADER
  9
$ACADVER
  1
AC1009
  9
$INSBASE
 10
0.0
 20
0.0
 30
0.0
  9
$EXTMIN
 10
0.0
 20
0.0
 30
-0.00000001
  9
$EXTMAX
 10
3150.0
 20
4425.0
 30
0.00000001
  9
$LIMMIN
 10
0.0
 20
0.0
  9
$LIMMAX
 10
297.0
 20
210.0
  9
$ORTHOMODE
 70
     0
  9
$REGENMODE
 70
     1
  9
$FILLMODE
 70
     0
  9
$QTEXTMODE
 70
     0
  9
$MIRRTEXT
 70
     1
  9
$DRAGMODE
 70
     2
  9
$LTSCALE
 40
100.0
  9
$OSMODE
 70
    37
  9
$ATTMODE
 70
     1
  9
$TEXTSIZE
 40
180.0
  9
$TRACEWID
 40
0.05
  9
$TEXTSTYLE
  7
STANDARD
  9
$CLAYER
  8
3
  9
$CELTYPE
  6
BYLAYER
  9
$CECOLOR
 62
   256
  9
$DIMSCALE
 40
15.0
  9
$DIMASZ
 40
2.0
  9
$DIMEXO
 40
0.5
  9
$DIMDLI
 40
10.0
  9
$DIMRND
 40
0.0
  9
$DIMDLE
 40
0.0
  9
$DIMEXE
 40
1.0
  9
$DIMTP
 40
1.0
  9
$DIMTM
 40
1.0
  9
$DIMTXT
 40
3.0
  9
$DIMCEN
 40
0.0
  9
$DIMTSZ
 40
0.0
  9
$DIMTOL
 70
     0
  9
$DIMLIM
 70
     0
  9
$DIMTIH
 70
     0
  9
$DIMTOH
 70
     0
  9
$DIMSE1
 70
     0
  9
$DIMSE2
 70
     0
  9
$DIMTAD
 70
     1
  9
$DIMZIN
 70
     8
  9
$DIMBLK
  1

  9
$DIMASO
 70
     1
  9
$DIMSHO
 70
     1
  9
$DIMPOST
  1

  9
$DIMAPOST
  1

  9
$DIMALT
 70
     0
  9
$DIMALTD
 70
     2
  9
$DIMALTF
 40
0.039
  9
$DIMLFAC
 40
1.0
  9
$DIMTOFL
 70
     1
  9
$DIMTVP
 40
0.0
  9
$DIMTIX
 70
     0
  9
$DIMSOXD
 70
     0
  9
$DIMSAH
 70
     1
  9
$DIMBLK1
  1
OPEN
  9
$DIMBLK2
  1
OPEN
  9
$DIMSTYLE
  2
IGA
  9
$DIMCLRD
 70
     0
  9
$DIMCLRE
 70
     0
  9
$DIMCLRT
 70
     0
  9
$DIMTFAC
 40
10.0
  9
$DIMGAP
 40
1.0
  9
$LUNITS
 70
     2
  9
$LUPREC
 70
     3
  9
$SKETCHINC
 40
0.1
  9
$FILLETRAD
 40
50.0
  9
$AUNITS
 70
     0
  9
$AUPREC
 70
     0
  9
$MENU
  1
acad
  9
$ELEVATION
 40
0.0
  9
$PELEVATION
 40
0.0
  9
$THICKNESS
 40
0.0
  9
$LIMCHECK
 70
     0
  9
$BLIPMODE
 70
     0
  9
$CHAMFERA
 40
0.5
  9
$CHAMFERB
 40
0.5
  9
$SKPOLY
 70
     0
  9
$TDCREATE
 40
2453060.5886072922
  9
$TDUPDATE
 40
2454953.8676697798
  9
$TDINDWG
 40
0.0297161921
  9
$TDUSRTIMER
 40
0.0297161921
  9
$USRTIMER
 70
     1
  9
$ANGBASE
 50
0.0
  9
$ANGDIR
 70
     0
  9
$PDMODE
 70
     0
  9
$PDSIZE
 40
0.0
  9
$PLINEWID
 40
0.0
  9
$COORDS
 70
     1
  9
$SPLFRAME
 70
     0
  9
$SPLINETYPE
 70
     6
  9
$SPLINESEGS
 70
     8
  9
$ATTDIA
 70
     0
  9
$ATTREQ
 70
     1
  9
$HANDLING
 70
 10241
  9
$HANDSEED
  5
8390
  9
$SURFTAB1
 70
     6
  9
$SURFTAB2
 70
     6
  9
$SURFTYPE
 70
     6
  9
$SURFU
 70
     6
  9
$SURFV
 70
     6
  9
$UCSNAME
  2

  9
$UCSORG
 10
0.0
 20
0.0
 30
0.0
  9
$UCSXDIR
 10
1.0
 20
0.0
 30
0.0
  9
$UCSYDIR
 10
0.0
 20
1.0
 30
0.0
  9
$PUCSNAME
  2

  9
$PUCSORG
 10
0.0
 20
0.0
 30
0.0
  9
$PUCSXDIR
 10
1.0
 20
0.0
 30
0.0
  9
$PUCSYDIR
 10
0.0
 20
1.0
 30
0.0
  9
$USERI1
 70
     0
  9
$USERI2
 70
     0
  9
$USERI3
 70
     0
  9
$USERI4
 70
     0
  9
$USERI5
 70
     0
  9
$USERR1
 40
0.0
  9
$USERR2
 40
0.0
  9
$USERR3
 40
0.0
  9
$USERR4
 40
0.0
  9
$USERR5
 40
0.0
  9
$WORLDVIEW
 70
     1
  9
$SHADEDGE
 70
     3
  9
$SHADEDIF
 70
    70
  9
$TILEMODE
 70
     1
  9
$MAXACTVP
 70
    16
  9
$PLIMCHECK
 70
     0
  9
$PEXTMIN
 10
1.0000000000000000E+020
 20
1.0000000000000000E+020
 30
1.0000000000000000E+020
  9
$PEXTMAX
 10
-1.0000000000000000E+020
 20
-1.0000000000000000E+020
 30
-1.0000000000000000E+020
  9
$PLIMMIN
 10
0.0
 20
0.0
  9
$PLIMMAX
 10
12.0
 20
9.0
  9
$UNITMODE
 70
     0
  9
$VISRETAIN
 70
     0
  9
$PLINEGEN
 70
     0
  9
$PSLTSCALE
 70
     1
  0
ENDSEC
  0
SECTION
  2
TABLES
  0
TABLE
  2
VPORT
 70
     2
  0
VPORT
  2
*ACTIVE
 70
     0
 10
0.0
 20
0.0
 11
1.0
 21
1.0
 12
1989.4866206330771
 22
603.60316084644671
 13
0.0
 23
0.0
 14
10.0
 24
10.0
 15
10.0
 25
10.0
 16
0.0
 26
0.0
 36
1.0
 17
0.0
 27
0.0
 37
0.0
 40
1604.6514908112031
 41
1.5051150895140659
 42
50.0
 43
0.0
 44
0.0
 50
0.0
 51
0.0
 71
     0
 72
   100
 73
     1
 74
     0
 75
     0
 76
     0
 77
     0
 78
     0
  0
ENDTAB
  0
TABLE
  2
LTYPE
 70
     2
  0
LTYPE
  2
CONTINUOUS
 70
     0
  3
Solid line
 72
    65
 73
     0
 40
0.0
  0
LTYPE
  2
CENTER
 70
     0
  3
____ _ ____ _ ____ _ ____ _ ____ _ ____ _ ____ 
 72
    65
 73
     4
 40
2.0
 49
1.25
 49
-0.25
 49
0.25
 49
-0.25
  0
ENDTAB
  0
TABLE
  2
LAYER
 70
     6
  0
LAYER
  2
0
 70
     0
 62
     7
  6
CONTINUOUS
  0
LAYER
  2
3
 70
     0
 62
     2
  6
CONTINUOUS
  0
LAYER
  2
2
 70
     0
 62
     3
  6
CENTER
  0
LAYER
  2
1
 70
     0
 62
     4
  6
CONTINUOUS
  0
LAYER
  2
4
 70
     0
 62
     7
  6
CONTINUOUS
  0
LAYER
  2
DEFPOINTS
 70
     0
 62
     7
  6
CONTINUOUS
  0
ENDTAB
  0
TABLE
  2
STYLE
 70
     1
  0
STYLE
  2
STANDARD
 70
     0
 40
0.0
 41
1.0
 50
0.0
 71
     0
 42
180.0
  3
simplex.shx
  4
extfont.shx
  0
ENDTAB
  0
TABLE
  2
VIEW
 70
     0
  0
ENDTAB
  0
TABLE
  2
UCS
 70
     0
  0
ENDTAB
  0
TABLE
  2
APPID
 70
     1
  0
APPID
  2
ACAD
 70
     0
  0
ENDTAB
  0
TABLE
  2
DIMSTYLE
 70
     1
  0
DIMSTYLE
  2
IGA
 70
     0
  3

  4

  5

  6
OPEN
  7
OPEN
 40
2.0
 41
2.0
 42
0.5
 43
10.0
 44
1.0
 45
0.0
 46
0.0
 47
1.0
 48
1.0
140
3.0
141
0.0
142
0.0
143
0.03937
144
1.0
145
0.0
146
10.0
147
1.0
 71
     0
 72
     0
 73
     0
 74
     0
 75
     0
 76
     0
 77
     1
 78
     8
170
     0
171
     2
172
     0
173
     1
174
     0
175
     0
176
     0
177
     0
178
     0
  0
ENDTAB
  0
ENDSEC
  0
SECTION
  2
BLOCKS
  0
BLOCK
  8
0
  2
$MODEL_SPACE
 70
     0
 10
0.0
 20
0.0
 30
0.0
  3
$MODEL_SPACE
  1

  0
ENDBLK
  5
1B
  8
0
  0
BLOCK
 67
     1
  8
0
  2
$PAPER_SPACE
 70
     0
 10
0.0
 20
0.0
 30
0.0
  3
$PAPER_SPACE
  1

  0
ENDBLK
  5
18
 67
     1
  8
0
  0
BLOCK
  8
0
  2
_OPEN
 70
     0
 10
0.0
 20
0.0
 30
0.0
  3
_OPEN
  1

  0
LINE
  5
7D4E
  8
0
  6
BYBLOCK
 62
     0
 10
-1.0
 20
0.1666666666666666
 30
0.0
 11
0.0
 21
0.0
 31
0.0
  0
LINE
  5
7D4F
  8
0
  6
BYBLOCK
 62
     0
 10
0.0
 20
0.0
 30
0.0
 11
-1.0
 21
-0.1666666666666666
 31
0.0
  0
LINE
  5
7D50
  8
0
  6
BYBLOCK
 62
     0
 10
0.0
 20
0.0
 30
0.0
 11
-1.0
 21
0.0
 31
0.0
  0
ENDBLK
  5
7D51
  8
0
  0
BLOCK
  8
0
  2
*D1
 70
     1
 10
0.0
 20
0.0
 30
0.0
  3
*D1
  1

  0
LINE
  5
7FD1
  8
3
 62
     0
 10
480.55925771840901
 20
1934.180121590166
 30
0.0
 11
480.55925771840901
 21
1783.4023947777689
 31
0.0
  0
LINE
  5
7FD2
  8
3
 62
     0
 10
1120.5592577184079
 20
1934.180121590166
 30
0.0
 11
1120.5592577184079
 21
1783.4023947777689
 31
0.0
  0
LINE
  5
7FD3
  8
3
 62
     0
 10
510.55925771840901
 20
1798.4023947777689
 30
0.0
 11
1090.5592577184079
 21
1798.4023947777689
 31
0.0
  0
INSERT
  5
7FD4
  8
3
 62
     0
  2
_OPEN
 10
480.55925771840901
 20
1798.4023947777689
 30
0.0
 41
30.0
 42
30.0
 43
30.0
 50
180.0
  0
INSERT
  5
7FD5
  8
3
 62
     0
  2
_OPEN
 10
1120.5592577184079
 20
1798.4023947777689
 30
0.0
 41
30.0
 42
30.0
 43
30.0
  0
TEXT
  8
3
  40
45
  5
8003
  62
0
  72
0
  71
0
 10
695.799
 20
1756.25
 30
0.000000
  1
640
  0
POINT
  5
7FD7
  8
DEFPOINTS
 62
     0
 10
480.55925771840901
 20
1941.680121590166
 30
0.0
  0
POINT
  5
7FD8
  8
DEFPOINTS
 62
     0
 10
1120.5592577184079
 20
1941.680121590166
 30
0.0
  0
POINT
  5
7FD9
  8
DEFPOINTS
 62
     0
 10
1120.5592577184079
 20
1798.4023947777689
 30
0.0
  0
ENDBLK
  5
7D78
  8
0
  0
BLOCK
  8
0
  2
*D2
 70
     1
 10
0.0
 20
0.0
 30
0.0
  3
*D2
  1

  0
LINE
  5
7FDA
  8
3
 62
     0
 10
520.55925771840884
 20
2695.180121590166
 30
0.0
 11
520.55925771840884
 21
2805.3086142815282
 31
0.0
  0
LINE
  5
7FDB
  8
3
 62
     0
 10
1080.5592577184079
 20
2695.180121590166
 30
0.0
 11
1080.5592577184079
 21
2805.3086142815282
 31
0.0
  0
LINE
  5
7FDC
  8
3
 62
     0
 10
550.55925771840884
 20
2790.3086142815282
 30
0.0
 11
1050.5592577184079
 21
2790.3086142815282
 31
0.0
  0
INSERT
  5
7FDD
  8
3
 62
     0
  2
_OPEN
 10
520.55925771840884
 20
2790.3086142815282
 30
0.0
 41
30.0
 42
30.0
 43
30.0
 50
180.0
  0
INSERT
  5
7FDE
  8
3
 62
     0
  2
_OPEN
 10
1080.5592577184079
 20
2790.3086142815282
 30
0.0
 41
30.0
 42
30.0
 43
30.0
  0
TEXT
  8
3
  40
45
  5
8004
  62
0
  72
0
  71
0
 10
716.576
 20
2748.16
 30
0.000000
  1
560
  0
POINT
  5
7FE0
  8
DEFPOINTS
 62
     0
 10
520.55925771840884
 20
2687.680121590166
 30
0.0
  0
POINT
  5
7FE1
  8
DEFPOINTS
 62
     0
 10
1080.5592577184079
 20
2687.6801215901669
 30
0.0
  0
POINT
  5
7FE2
  8
DEFPOINTS
 62
     0
 10
1080.5592577184079
 20
2790.3086142815282
 30
0.0
  0
ENDBLK
  5
7D93
  8
0
  0
BLOCK
  8
0
  2
*D3
 70
     1
 10
0.0
 20
0.0
 30
0.0
  3
*D3
  1

  0
LINE
  5
7FE3
  8
3
 62
     0
 10
513.05925771840884
 20
2657.680121590166
 30
0.0
 11
395.25242473259311
 21
2657.680121590166
 31
0.0
  0
LINE
  5
7FE4
  8
3
 62
     0
 10
513.05925771840884
 20
2097.680121590166
 30
0.0
 11
395.252424732593
 21
2097.680121590166
 31
0.0
  0
LINE
  5
7FE5
  8
3
 62
     0
 10
410.25242473259323
 20
2627.680121590166
 30
0.0
 11
410.252424732593
 21
2127.680121590166
 31
0.0
  0
INSERT
  5
7FE6
  8
3
 62
     0
  2
_OPEN
 10
410.25242473259323
 20
2657.680121590166
 30
0.0
 41
30.0
 42
30.0
 43
30.0
 50
90.0
  0
INSERT
  5
7FE7
  8
3
 62
     0
  2
_OPEN
 10
410.252424732593
 20
2097.680121590166
 30
0.0
 41
30.0
 42
30.0
 43
30.0
 50
270.0
  0
TEXT
  8
3
  40
45
  5
8005
  62
0
  72
0
  71
0
 10
282.752
 20
2297.59
 30
0.000000
  1
φ560
  0
POINT
  5
7FE9
  8
DEFPOINTS
 62
     0
 10
520.55925771840884
 20
2657.680121590166
 30
0.0
  0
POINT
  5
7FEA
  8
DEFPOINTS
 62
     0
 10
520.55925771840884
 20
2097.680121590166
 30
0.0
  0
POINT
  5
7FEB
  8
DEFPOINTS
 62
     0
 10
410.252424732593
 20
2097.680121590166
 30
0.0
  0
ENDBLK
  5
7DAC
  8
0
  0
BLOCK
  8
0
  2
*D4
 70
     1
 10
0.0
 20
0.0
 30
0.0
  3
*D4
  1

  0
LINE
  5
7ED8
  8
0
  6
BYBLOCK
 62
     0
 10
1990.722111389879
 20
1979.680121590166
 30
0.0
 11
1872.086309033436
 21
1979.680121590166
 31
0.0
  0
LINE
  5
7ED9
  8
0
  6
BYBLOCK
 62
     0
 10
1887.0863090334369
 20
2047.680121590166
 30
0.0
 11
1887.0863090334369
 21
2077.680121590166
 31
0.0
  0
LINE
  5
7EDA
  8
0
  6
BYBLOCK
 62
     0
 10
1887.0863090334369
 20
1949.680121590166
 30
0.0
 11
1887.0863090334369
 21
1919.680121590166
 31
0.0
  0
TEXT
  5
7EDB
  8
3
 62
     0
 10
1830.300594747722
 20
1919.8229787330231
 30
0.0
 40
45.0
  1
 (38)
 50
90.0
  0
LINE
  5
7EDC
  8
0
  6
BYBLOCK
 62
     0
 10
1887.0863090334369
 20
2017.680121590166
 30
0.0
 11
1887.0863090334369
 21
1979.680121590166
 31
0.0
  0
INSERT
  5
7EDD
  8
0
  6
BYBLOCK
 62
     0
  2
_OPEN
 10
1887.0863090334369
 20
2017.680121590166
 30
0.0
 41
30.0
 42
30.0
 43
30.0
 50
270.0
  0
INSERT
  5
7EDE
  8
0
  6
BYBLOCK
 62
     0
  2
_DOT
 10
1887.0863090334369
 20
1979.680121590166
 30
0.0
 41
30.0
 42
30.0
 43
30.0
 50
90.0
  0
POINT
  5
7EDF
  8
DEFPOINTS
  6
BYBLOCK
 62
     0
 10
2093.222111389879
 20
2017.680121590166
 30
0.0
  0
POINT
  5
7EE0
  8
DEFPOINTS
  6
BYBLOCK
 62
     0
 10
1998.222111389879
 20
1979.680121590166
 30
0.0
  0
POINT
  5
7EE1
  8
DEFPOINTS
  6
BYBLOCK
 62
     0
 10
1887.0863090334369
 20
1979.680121590166
 30
0.0
  0
ENDBLK
  5
7EE2
  8
0
  0
BLOCK
  8
0
  2
*D5
 70
     1
 10
0.0
 20
0.0
 30
0.0
  3
*D5
  1

  0
LINE
  5
7FEC
  8
3
 62
     0
 10
1990.722111389879
 20
1979.680121590166
 30
0.0
 11
1872.086309033436
 21
1979.680121590166
 31
0.0
  0
LINE
  5
7FED
  8
3
 62
     0
 10
1990.722111389879
 20
1939.680121590166
 30
0.0
 11
1872.086309033436
 21
1939.680121590166
 31
0.0
  0
LINE
  5
7FEE
  8
3
 62
     0
 10
1887.0863090334369
 20
2009.680121590166
 30
0.0
 11
1887.0863090334369
 21
2039.680121590166
 31
0.0
  0
LINE
  5
7FEF
  8
3
 62
     0
 10
1887.0863090334369
 20
1909.680121590166
 30
0.0
 11
1887.0863090334369
 21
1776.8229787330231
 31
0.0
  0
LINE
  5
7FF0
  8
3
 62
     0
 10
1887.0863090334369
 20
1979.680121590166
 30
0.0
 11
1887.0863090334369
 21
1939.680121590166
 31
0.0
  0
INSERT
  5
7FF1
  8
3
 62
     0
  2
_DOT
 10
1887.0863090334369
 20
1979.680121590166
 30
0.0
 41
30.0
 42
30.0
 43
30.0
 50
270.0
  0
INSERT
  5
7FF2
  8
3
 62
     0
  2
_OPEN
 10
1887.0863090334369
 20
1939.680121590166
 30
0.0
 41
30.0
 42
30.0
 43
30.0
 50
90.0
  0
TEXT
  8
3
  40
45
  5
8006
  62
0
  72
0
  71
0
 10
1759.59
 20
1748.60
 30
0.000000
  1
40
  0
POINT
  5
7FF4
  8
DEFPOINTS
 62
     0
 10
1998.222111389879
 20
1979.680121590166
 30
0.0
  0
POINT
  5
7FF5
  8
DEFPOINTS
 62
     0
 10
1998.222111389879
 20
1939.680121590166
 30
0.0
  0
POINT
  5
7FF6
  8
DEFPOINTS
 62
     0
 10
1887.0863090334369
 20
1939.680121590166
 30
0.0
  0
ENDBLK
  5
7E99
  8
0
  0
BLOCK
  8
0
  2
_DOT
 70
     0
 10
0.0
 20
0.0
 30
0.0
  3
_DOT
  1

  0
LINE
  5
7E9A
  8
0
  6
BYBLOCK
 62
     0
 10
0.0
 20
0.0
 30
0.0
 11
-1.0
 21
-0.0000000000000284
 31
0.0
  0
POLYLINE
  5
7E9B
  8
0
  6
BYBLOCK
 62
     0
 66
     1
 10
0.0
 20
0.0
 30
0.0
 70
     1
 40
0.1666666666666666
 41
0.1666666666666666
  0
VERTEX
  5
7FF7
  8
0
  6
BYBLOCK
 62
     0
 10
-0.0833333333333286
 20
-0.0000000000000284
 30
0.0
 42
1.0
  0
VERTEX
  5
7FF8
  8
0
  6
BYBLOCK
 62
     0
 10
0.0833333333333286
 20
-0.0000000000000284
 30
0.0
 42
1.0
  0
SEQEND
  5
7FF9
  8
0
  6
BYBLOCK
 62
     0
  0
ENDBLK
  5
7E80
  8
0
  0
BLOCK
  8
0
  2
*D7
 70
     1
 10
0.0
 20
0.0
 30
0.0
  3
*D7
  1

  0
LINE
  5
7FFA
  8
3
 62
     0
 10
2335.722111389879
 20
2687.680121590166
 30
0.0
 11
1607.3273364535889
 21
2687.680121590166
 31
0.0
  0
LINE
  5
7FFB
  8
3
 62
     0
 10
1990.722111389879
 20
1939.680121590166
 30
0.0
 11
1607.3273364535889
 21
1939.680121590166
 31
0.0
  0
LINE
  5
7FFC
  8
3
 62
     0
 10
1622.3273364535889
 20
2657.680121590166
 30
0.0
 11
1622.3273364535889
 21
1969.680121590166
 31
0.0
  0
INSERT
  5
7FFD
  8
3
 62
     0
  2
_OPEN
 10
1622.3273364535889
 20
2687.680121590166
 30
0.0
 41
30.0
 42
30.0
 43
30.0
 50
90.0
  0
INSERT
  5
7FFE
  8
3
 62
     0
  2
_OPEN
 10
1622.3273364535889
 20
1939.680121590166
 30
0.0
 41
30.0
 42
30.0
 43
30.0
 50
270.0
  0
TEXT
  8
3
  40
45
  5
8007
  62
0
  72
0
  71
0
 10
1483.04
 20
2231.47
 30
0.000000
  1
(748)
  0
POINT
  5
8000
  8
DEFPOINTS
 62
     0
 10
2343.222111389879
 20
2687.680121590166
 30
0.0
  0
POINT
  5
8001
  8
DEFPOINTS
 62
     0
 10
1998.222111389879
 20
1939.680121590166
 30
0.0
  0
POINT
  5
8002
  8
DEFPOINTS
 62
     0
 10
1622.3273364535889
 20
1939.680121590166
 30
0.0
  0
ENDBLK
  5
7EB6
  8
0
  0
BLOCK
  8
0
  2
*D8
 70
     1
 10
0.0
 20
0.0
 30
0.0
  3
*D8
  1

  0
LINE
  5
7EE5
  8
0
  6
BYBLOCK
 62
     0
 10
2085.722111389879
 20
2017.680121590166
 30
0.0
 11
1871.8764576688841
 21
2017.680121590166
 31
0.0
  0
LINE
  5
7EE6
  8
0
  6
BYBLOCK
 62
     0
 10
2005.722111389879
 20
2377.680121590166
 30
0.0
 11
1871.8764576688841
 21
2377.680121590166
 31
0.0
  0
LINE
  5
7EE7
  8
0
  6
BYBLOCK
 62
     0
 10
1886.8764576688841
 20
2047.680121590166
 30
0.0
 11
1886.8764576688841
 21
2347.680121590166
 31
0.0
  0
INSERT
  5
7EE8
  8
0
  6
BYBLOCK
 62
     0
  2
_OPEN
 10
1886.8764576688841
 20
2017.680121590166
 30
0.0
 41
30.0
 42
30.0
 43
30.0
 50
270.0
  0
INSERT
  5
7EE9
  8
0
  6
BYBLOCK
 62
     0
  2
_OPEN
 10
1886.8764576688841
 20
2377.680121590166
 30
0.0
 41
30.0
 42
30.0
 43
30.0
 50
90.0
  0
TEXT
  5
7EEA
  8
3
 62
     0
 10
1871.8764576688841
 20
2139.8229787330229
 30
0.0
 40
45.0
  1
360
 50
90.0
  0
POINT
  5
7EEB
  8
DEFPOINTS
  6
BYBLOCK
 62
     0
 10
2093.222111389879
 20
2017.680121590166
 30
0.0
  0
POINT
  5
7EEC
  8
DEFPOINTS
  6
BYBLOCK
 62
     0
 10
2013.222111389879
 20
2377.680121590166
 30
0.0
  0
POINT
  5
7EED
  8
DEFPOINTS
  6
BYBLOCK
 62
     0
 10
1886.8764576688841
 20
2377.680121590166
 30
0.0
  0
ENDBLK
  5
7EEE
  8
0
  0
BLOCK
  8
0
  2
*D9
 70
     1
 10
0.0
 20
0.0
 30
0.0
  3
*D9
  1

  0
LINE
  5
7EF2
  8
0
  6
BYBLOCK
 62
     0
 10
1998.222111389879
 20
1932.180121590166
 30
0.0
 11
1998.222111389879
 21
1817.3614971071829
 31
0.0
  0
LINE
  5
7EF3
  8
0
  6
BYBLOCK
 62
     0
 10
2688.222111389879
 20
1932.180121590166
 30
0.0
 11
2688.222111389879
 21
1817.3614971071829
 31
0.0
  0
LINE
  5
7EF4
  8
0
  6
BYBLOCK
 62
     0
 10
2028.222111389879
 20
1832.3614971071829
 30
0.0
 11
2658.222111389879
 21
1832.3614971071829
 31
0.0
  0
INSERT
  5
7EF5
  8
0
  6
BYBLOCK
 62
     0
  2
_OPEN
 10
1998.222111389879
 20
1832.3614971071829
 30
0.0
 41
30.0
 42
30.0
 43
30.0
 50
180.0
  0
INSERT
  5
7EF6
  8
0
  6
BYBLOCK
 62
     0
  2
_OPEN
 10
2688.222111389879
 20
1832.3614971071829
 30
0.0
 41
30.0
 42
30.0
 43
30.0
  0
TEXT
  5
7EF7
  8
3
 62
     0
 10
2285.3649685327368
 20
1847.3614971071841
 30
0.0
 40
45.0
  1
690
  0
POINT
  5
7EF8
  8
DEFPOINTS
  6
BYBLOCK
 62
     0
 10
1998.222111389879
 20
1939.680121590166
 30
0.0
  0
POINT
  5
7EF9
  8
DEFPOINTS
  6
BYBLOCK
 62
     0
 10
2688.222111389879
 20
1939.680121590166
 30
0.0
  0
POINT
  5
7EFA
  8
DEFPOINTS
  6
BYBLOCK
 62
     0
 10
2688.222111389879
 20
1832.3614971071829
 30
0.0
  0
ENDBLK
  5
7EFB
  8
0
  0
ENDSEC
  0
SECTION
  2
ENTITIES
  0
LINE
  5
7BD3
  8
2
 10
2013.222111389879
 20
2377.680121590166
 30
0.0
 11
2673.222111389879
 21
2377.680121590166
 31
0.0
  0
CIRCLE
  5
7BD5
  8
1
 10
2343.222111389879
 20
2377.680121590166
 30
0.0
 40
280.0
  0
CIRCLE
  5
7BD6
  8
1
 10
2343.222111389879
 20
2377.680121590166
 30
0.0
 40
310.0
  0
CIRCLE
  5
7BD8
  8
1
 10
2343.222111389879
 20
2377.680121590166
 30
0.0
 40
283.19999999999987
  0
LINE
  5
7BF3
  8
1
 10
2093.222111389879
 20
2017.680121590166
 30
0.0
 11
2593.222111389879
 21
2017.680121590166
 31
0.0
  0
LINE
  5
7BF4
  8
1
 10
2093.222111389879
 20
2194.3770937919321
 30
0.0
 11
2093.222111389879
 21
2017.680121590166
 31
0.0
  0
LINE
  5
7BF5
  8
1
 10
2593.222111389879
 20
2194.3770937919321
 30
0.0
 11
2593.222111389879
 21
2017.680121590166
 31
0.0
  0
LINE
  5
7BF8
  8
2
 10
1130.5592577184079
 20
2377.680121590166
 30
0.0
 11
470.55925771840879
 21
2377.680121590166
 31
0.0
  0
LINE
  5
7BF9
  8
1
 10
1080.5592577184079
 20
2687.6801215901669
 30
0.0
 11
1080.5592577184079
 21
2067.680121590166
 31
0.0
  0
LINE
  5
7BFA
  8
1
 10
820.55925771840884
 20
2687.6801215901669
 30
0.0
 11
820.55925771840884
 21
2067.680121590166
 31
0.0
  0
LINE
  5
7BFB
  8
1
 10
520.55925771840884
 20
2687.6801215901669
 30
0.0
 11
520.55925771840884
 21
2067.680121590166
 31
0.0
  0
LINE
  5
7BFC
  8
1
 10
1077.359257718409
 20
2687.6801215901669
 30
0.0
 11
1077.359257718409
 21
2067.680121590166
 31
0.0
  0
LINE
  5
7BFD
  8
1
 10
823.75925771840855
 20
2687.6801215901669
 30
0.0
 11
823.75925771840855
 21
2067.680121590166
 31
0.0
  0
LINE
  5
7BFE
  8
1
 10
523.75925771840855
 20
2687.6801215901669
 30
0.0
 11
523.75925771840855
 21
2067.680121590166
 31
0.0
  0
LINE
  5
7BFF
  8
1
 10
817.35925771840903
 20
2687.6801215901669
 30
0.0
 11
817.35925771840903
 21
2067.680121590166
 31
0.0
  0
LINE
  5
7C02
  8
1
 10
1080.5592577184079
 20
2687.6801215901669
 30
0.0
 11
1077.359257718409
 21
2687.680121590166
 31
0.0
  0
LINE
  5
7C03
  8
1
 10
1080.5592577184079
 20
2067.680121590166
 30
0.0
 11
1077.359257718409
 21
2067.680121590166
 31
0.0
  0
LINE
  5
7C04
  8
1
 10
523.75925771840855
 20
2687.6801215901669
 30
0.0
 11
520.55925771840884
 21
2687.6801215901669
 31
0.0
  0
LINE
  5
7C05
  8
1
 10
823.75925771840855
 20
2687.680121590166
 30
0.0
 11
817.35925771840903
 21
2687.680121590166
 31
0.0
  0
LINE
  5
7C06
  8
1
 10
823.75925771840855
 20
2067.680121590166
 30
0.0
 11
817.35925771840903
 21
2067.680121590166
 31
0.0
  0
LINE
  5
7C07
  8
1
 10
523.75925771840855
 20
2067.680121590166
 30
0.0
 11
520.55925771840884
 21
2067.680121590166
 31
0.0
  0
POLYLINE
  8
1
  5
8008
  66
     1
 10
0.000000
 20
0.000000
 30
0.000000
  70
     8
  0
VERTEX
  8
1
  5
8009
 10
817.359
 20
2657.68
 30
0.000000
  70
    32
  0
VERTEX
  8
1
  5
800A
 10
816.528
 20
2657.17
 30
0.000000
  70
    32
  0
VERTEX
  8
1
  5
800B
 10
815.697
 20
2656.65
 30
0.000000
  70
    32
  0
VERTEX
  8
1
  5
800C
 10
814.867
 20
2656.14
 30
0.000000
  70
    32
  0
VERTEX
  8
1
  5
800D
 10
814.036
 20
2655.62
 30
0.000000
  70
    32
  0
VERTEX
  8
1
  5
800E
 10
813.205
 20
2655.11
 30
0.000000
  70
    32
  0
VERTEX
  8
1
  5
800F
 10
812.374
 20
2654.59
 30
0.000000
  70
    32
  0
VERTEX
  8
1
  5
8010
 10
811.543
 20
2654.08
 30
0.000000
  70
    32
  0
VERTEX
  8
1
  5
8011
 10
810.712
 20
2653.56
 30
0.000000
  70
    32
  0
VERTEX
  8
1
  5
8012
 10
809.880
 20
2653.05
 30
0.000000
  70
    32
  0
VERTEX
  8
1
  5
8013
 10
809.049
 20
2652.54
 30
0.000000
  70
    32
  0
VERTEX
  8
1
  5
8014
 10
808.218
 20
2652.02
 30
0.000000
  70
    32
  0
VERTEX
  8
1
  5
8015
 10
807.387
 20
2651.51
 30
0.000000
  70
    32
  0
VERTEX
  8
1
  5
8016
 10
806.555
 20
2650.99
 30
0.000000
  70
    32
  0
VERTEX
  8
1
  5
8017
 10
805.724
 20
2650.48
 30
0.000000
  70
    32
  0
VERTEX
  8
1
  5
8018
 10
804.892
 20
2649.97
 30
0.000000
  70
    32
  0
VERTEX
  8
1
  5
8019
 10
804.061
 20
2649.46
 30
0.000000
  70
    32
  0
VERTEX
  8
1
  5
801A
 10
803.229
 20
2648.94
 30
0.000000
  70
    32
  0
VERTEX
  8
1
  5
801B
 10
802.397
 20
2648.43
 30
0.000000
  70
    32
  0
VERTEX
  8
1
  5
801C
 10
801.565
 20
2647.92
 30
0.000000
  70
    32
  0
VERTEX
  8
1
  5
801D
 10
800.733
 20
2647.41
 30
0.000000
  70
    32
  0
VERTEX
  8
1
  5
801E
 10
799.900
 20
2646.90
 30
0.000000
  70
    32
  0
VERTEX
  8
1
  5
801F
 10
799.068
 20
2646.39
 30
0.000000
  70
    32
  0
VERTEX
  8
1
  5
8020
 10
798.235
 20
2645.88
 30
0.000000
  70
    32
  0
VERTEX
  8
1
  5
8021
 10
797.403
 20
2645.37
 30
0.000000
  70
    32
  0
VERTEX
  8
1
  5
8022
 10
796.570
 20
2644.86
 30
0.000000
  70
    32
  0
VERTEX
  8
1
  5
8023
 10
795.737
 20
2644.35
 30
0.000000
  70
    32
  0
VERTEX
  8
1
  5
8024
 10
794.903
 20
2643.84
 30
0.000000
  70
    32
  0
VERTEX
  8
1
  5
8025
 10
794.070
 20
2643.34
 30
0.000000
  70
    32
  0
VERTEX
  8
1
  5
8026
 10
793.236
 20
2642.83
 30
0.000000
  70
    32
  0
VERTEX
  8
1
  5
8027
 10
792.403
 20
2642.32
 30
0.000000
  70
    32
  0
VERTEX
  8
1
  5
8028
 10
791.569
 20
2641.82
 30
0.000000
  70
    32
  0
VERTEX
  8
1
  5
8029
 10
790.734
 20
2641.31
 30
0.000000
  70
    32
  0
VERTEX
  8
1
  5
802A
 10
789.900
 20
2640.81
 30
0.000000
  70
    32
  0
VERTEX
  8
1
  5
802B
 10
789.065
 20
2640.30
 30
0.000000
  70
    32
  0
VERTEX
  8
1
  5
802C
 10
788.230
 20
2639.80
 30
0.000000
  70
    32
  0
VERTEX
  8
1
  5
802D
 10
787.395
 20
2639.30
 30
0.000000
  70
    32
  0
VERTEX
  8
1
  5
802E
 10
786.560
 20
2638.80
 30
0.000000
  70
    32
  0
VERTEX
  8
1
  5
802F
 10
785.724
 20
2638.30
 30
0.000000
  70
    32
  0
VERTEX
  8
1
  5
8030
 10
784.889
 20
2637.80
 30
0.000000
  70
    32
  0
VERTEX
  8
1
  5
8031
 10
784.052
 20
2637.30
 30
0.000000
  70
    32
  0
VERTEX
  8
1
  5
8032
 10
783.216
 20
2636.80
 30
0.000000
  70
    32
  0
VERTEX
  8
1
  5
8033
 10
782.379
 20
2636.30
 30
0.000000
  70
    32
  0
VERTEX
  8
1
  5
8034
 10
781.542
 20
2635.80
 30
0.000000
  70
    32
  0
VERTEX
  8
1
  5
8035
 10
780.705
 20
2635.31
 30
0.000000
  70
    32
  0
VERTEX
  8
1
  5
8036
 10
779.868
 20
2634.81
 30
0.000000
  70
    32
  0
VERTEX
  8
1
  5
8037
 10
779.030
 20
2634.32
 30
0.000000
  70
    32
  0
VERTEX
  8
1
  5
8038
 10
778.192
 20
2633.82
 30
0.000000
  70
    32
  0
VERTEX
  8
1
  5
8039
 10
777.353
 20
2633.33
 30
0.000000
  70
    32
  0
VERTEX
  8
1
  5
803A
 10
776.515
 20
2632.84
 30
0.000000
  70
    32
  0
VERTEX
  8
1
  5
803B
 10
775.676
 20
2632.35
 30
0.000000
  70
    32
  0
VERTEX
  8
1
  5
803C
 10
774.836
 20
2631.86
 30
0.000000
  70
    32
  0
VERTEX
  8
1
  5
803D
 10
773.996
 20
2631.37
 30
0.000000
  70
    32
  0
VERTEX
  8
1
  5
803E
 10
773.156
 20
2630.88
 30
0.000000
  70
    32
  0
VERTEX
  8
1
  5
803F
 10
772.316
 20
2630.40
 30
0.000000
  70
    32
  0
VERTEX
  8
1
  5
8040
 10
771.475
 20
2629.91
 30
0.000000
  70
    32
  0
VERTEX
  8
1
  5
8041
 10
770.634
 20
2629.43
 30
0.000000
  70
    32
  0
VERTEX
  8
1
  5
8042
 10
769.792
 20
2628.94
 30
0.000000
  70
    32
  0
VERTEX
  8
1
  5
8043
 10
768.950
 20
2628.46
 30
0.000000
  70
    32
  0
VERTEX
  8
1
  5
8044
 10
768.108
 20
2627.98
 30
0.000000
  70
    32
  0
VERTEX
  8
1
  5
8045
 10
767.265
 20
2627.50
 30
0.000000
  70
    32
  0
VERTEX
  8
1
  5
8046
 10
766.422
 20
2627.02
 30
0.000000
  70
    32
  0
VERTEX
  8
1
  5
8047
 10
765.579
 20
2626.54
 30
0.000000
  70
    32
  0
VERTEX
  8
1
  5
8048
 10
764.735
 20
2626.07
 30
0.000000
  70
    32
  0
VERTEX
  8
1
  5
8049
 10
763.890
 20
2625.59
 30
0.000000
  70
    32
  0
VERTEX
  8
1
  5
804A
 10
763.045
 20
2625.12
 30
0.000000
  70
    32
  0
VERTEX
  8
1
  5
804B
 10
762.200
 20
2624.65
 30
0.000000
  70
    32
  0
VERTEX
  8
1
  5
804C
 10
761.354
 20
2624.17
 30
0.000000
  70
    32
  0
VERTEX
  8
1
  5
804D
 10
760.508
 20
2623.70
 30
0.000000
  70
    32
  0
VERTEX
  8
1
  5
804E
 10
759.662
 20
2623.24
 30
0.000000
  70
    32
  0
VERTEX
  8
1
  5
804F
 10
758.815
 20
2622.77
 30
0.000000
  70
    32
  0
VERTEX
  8
1
  5
8050
 10
757.967
 20
2622.30
 30
0.000000
  70
    32
  0
VERTEX
  8
1
  5
8051
 10
757.119
 20
2621.84
 30
0.000000
  70
    32
  0
VERTEX
  8
1
  5
8052
 10
756.271
 20
2621.38
 30
0.000000
  70
    32
  0
VERTEX
  8
1
  5
8053
 10
755.422
 20
2620.91
 30
0.000000
  70
    32
  0
VERTEX
  8
1
  5
8054
 10
754.572
 20
2620.45
 30
0.000000
  70
    32
  0
VERTEX
  8
1
  5
8055
 10
753.722
 20
2620.00
 30
0.000000
  70
    32
  0
VERTEX
  8
1
  5
8056
 10
752.872
 20
2619.54
 30
0.000000
  70
    32
  0
VERTEX
  8
1
  5
8057
 10
752.021
 20
2619.08
 30
0.000000
  70
    32
  0
VERTEX
  8
1
  5
8058
 10
751.169
 20
2618.63
 30
0.000000
  70
    32
  0
VERTEX
  8
1
  5
8059
 10
750.317
 20
2618.18
 30
0.000000
  70
    32
  0
VERTEX
  8
1
  5
805A
 10
749.465
 20
2617.72
 30
0.000000
  70
    32
  0
VERTEX
  8
1
  5
805B
 10
748.612
 20
2617.28
 30
0.000000
  70
    32
  0
VERTEX
  8
1
  5
805C
 10
747.758
 20
2616.83
 30
0.000000
  70
    32
  0
VERTEX
  8
1
  5
805D
 10
746.904
 20
2616.38
 30
0.000000
  70
    32
  0
VERTEX
  8
1
  5
805E
 10
746.049
 20
2615.94
 30
0.000000
  70
    32
  0
VERTEX
  8
1
  5
805F
 10
745.194
 20
2615.49
 30
0.000000
  70
    32
  0
VERTEX
  8
1
  5
8060
 10
744.338
 20
2615.05
 30
0.000000
  70
    32
  0
VERTEX
  8
1
  5
8061
 10
743.481
 20
2614.61
 30
0.000000
  70
    32
  0
VERTEX
  8
1
  5
8062
 10
742.624
 20
2614.18
 30
0.000000
  70
    32
  0
VERTEX
  8
1
  5
8063
 10
741.766
 20
2613.74
 30
0.000000
  70
    32
  0
VERTEX
  8
1
  5
8064
 10
740.908
 20
2613.31
 30
0.000000
  70
    32
  0
VERTEX
  8
1
  5
8065
 10
740.049
 20
2612.87
 30
0.000000
  70
    32
  0
VERTEX
  8
1
  5
8066
 10
739.190
 20
2612.44
 30
0.000000
  70
    32
  0
VERTEX
  8
1
  5
8067
 10
738.330
 20
2612.01
 30
0.000000
  70
    32
  0
VERTEX
  8
1
  5
8068
 10
737.469
 20
2611.59
 30
0.000000
  70
    32
  0
VERTEX
  8
1
  5
8069
 10
736.607
 20
2611.16
 30
0.000000
  70
    32
  0
VERTEX
  8
1
  5
806A
 10
735.745
 20
2610.74
 30
0.000000
  70
    32
  0
VERTEX
  8
1
  5
806B
 10
734.883
 20
2610.32
 30
0.000000
  70
    32
  0
VERTEX
  8
1
  5
806C
 10
734.019
 20
2609.90
 30
0.000000
  70
    32
  0
VERTEX
  8
1
  5
806D
 10
733.155
 20
2609.48
 30
0.000000
  70
    32
  0
VERTEX
  8
1
  5
806E
 10
732.291
 20
2609.07
 30
0.000000
  70
    32
  0
VERTEX
  8
1
  5
806F
 10
731.425
 20
2608.65
 30
0.000000
  70
    32
  0
VERTEX
  8
1
  5
8070
 10
730.559
 20
2608.24
 30
0.000000
  70
    32
  0
VERTEX
  8
1
  5
8071
 10
729.692
 20
2607.83
 30
0.000000
  70
    32
  0
VERTEX
  8
1
  5
8072
 10
728.825
 20
2607.43
 30
0.000000
  70
    32
  0
VERTEX
  8
1
  5
8073
 10
727.957
 20
2607.02
 30
0.000000
  70
    32
  0
VERTEX
  8
1
  5
8074
 10
727.088
 20
2606.62
 30
0.000000
  70
    32
  0
VERTEX
  8
1
  5
8075
 10
726.219
 20
2606.22
 30
0.000000
  70
    32
  0
VERTEX
  8
1
  5
8076
 10
725.348
 20
2605.82
 30
0.000000
  70
    32
  0
VERTEX
  8
1
  5
8077
 10
724.477
 20
2605.42
 30
0.000000
  70
    32
  0
VERTEX
  8
1
  5
8078
 10
723.605
 20
2605.03
 30
0.000000
  70
    32
  0
VERTEX
  8
1
  5
8079
 10
722.733
 20
2604.63
 30
0.000000
  70
    32
  0
VERTEX
  8
1
  5
807A
 10
721.860
 20
2604.24
 30
0.000000
  70
    32
  0
VERTEX
  8
1
  5
807B
 10
720.986
 20
2603.86
 30
0.000000
  70
    32
  0
VERTEX
  8
1
  5
807C
 10
720.111
 20
2603.47
 30
0.000000
  70
    32
  0
VERTEX
  8
1
  5
807D
 10
719.235
 20
2603.09
 30
0.000000
  70
    32
  0
VERTEX
  8
1
  5
807E
 10
718.359
 20
2602.71
 30
0.000000
  70
    32
  0
VERTEX
  8
1
  5
807F
 10
717.482
 20
2602.33
 30
0.000000
  70
    32
  0
VERTEX
  8
1
  5
8080
 10
716.604
 20
2601.95
 30
0.000000
  70
    32
  0
VERTEX
  8
1
  5
8081
 10
715.726
 20
2601.58
 30
0.000000
  70
    32
  0
VERTEX
  8
1
  5
8082
 10
714.846
 20
2601.21
 30
0.000000
  70
    32
  0
VERTEX
  8
1
  5
8083
 10
713.966
 20
2600.84
 30
0.000000
  70
    32
  0
VERTEX
  8
1
  5
8084
 10
713.085
 20
2600.47
 30
0.000000
  70
    32
  0
VERTEX
  8
1
  5
8085
 10
712.203
 20
2600.10
 30
0.000000
  70
    32
  0
VERTEX
  8
1
  5
8086
 10
711.320
 20
2599.74
 30
0.000000
  70
    32
  0
VERTEX
  8
1
  5
8087
 10
710.436
 20
2599.38
 30
0.000000
  70
    32
  0
VERTEX
  8
1
  5
8088
 10
709.552
 20
2599.03
 30
0.000000
  70
    32
  0
VERTEX
  8
1
  5
8089
 10
708.667
 20
2598.67
 30
0.000000
  70
    32
  0
VERTEX
  8
1
  5
808A
 10
707.781
 20
2598.32
 30
0.000000
  70
    32
  0
VERTEX
  8
1
  5
808B
 10
706.894
 20
2597.97
 30
0.000000
  70
    32
  0
VERTEX
  8
1
  5
808C
 10
706.006
 20
2597.62
 30
0.000000
  70
    32
  0
VERTEX
  8
1
  5
808D
 10
705.117
 20
2597.28
 30
0.000000
  70
    32
  0
VERTEX
  8
1
  5
808E
 10
704.227
 20
2596.94
 30
0.000000
  70
    32
  0
VERTEX
  8
1
  5
808F
 10
703.337
 20
2596.60
 30
0.000000
  70
    32
  0
VERTEX
  8
1
  5
8090
 10
702.445
 20
2596.26
 30
0.000000
  70
    32
  0
VERTEX
  8
1
  5
8091
 10
701.553
 20
2595.93
 30
0.000000
  70
    32
  0
VERTEX
  8
1
  5
8092
 10
700.660
 20
2595.60
 30
0.000000
  70
    32
  0
VERTEX
  8
1
  5
8093
 10
699.766
 20
2595.27
 30
0.000000
  70
    32
  0
VERTEX
  8
1
  5
8094
 10
698.871
 20
2594.94
 30
0.000000
  70
    32
  0
VERTEX
  8
1
  5
8095
 10
697.975
 20
2594.62
 30
0.000000
  70
    32
  0
VERTEX
  8
1
  5
8096
 10
697.078
 20
2594.30
 30
0.000000
  70
    32
  0
VERTEX
  8
1
  5
8097
 10
696.180
 20
2593.98
 30
0.000000
  70
    32
  0
VERTEX
  8
1
  5
8098
 10
695.281
 20
2593.67
 30
0.000000
  70
    32
  0
VERTEX
  8
1
  5
8099
 10
694.381
 20
2593.35
 30
0.000000
  70
    32
  0
VERTEX
  8
1
  5
809A
 10
693.480
 20
2593.05
 30
0.000000
  70
    32
  0
VERTEX
  8
1
  5
809B
 10
692.579
 20
2592.74
 30
0.000000
  70
    32
  0
VERTEX
  8
1
  5
809C
 10
691.676
 20
2592.44
 30
0.000000
  70
    32
  0
VERTEX
  8
1
  5
809D
 10
690.772
 20
2592.14
 30
0.000000
  70
    32
  0
VERTEX
  8
1
  5
809E
 10
689.868
 20
2591.84
 30
0.000000
  70
    32
  0
VERTEX
  8
1
  5
809F
 10
688.962
 20
2591.54
 30
0.000000
  70
    32
  0
VERTEX
  8
1
  5
80A0
 10
688.055
 20
2591.25
 30
0.000000
  70
    32
  0
VERTEX
  8
1
  5
80A1
 10
687.147
 20
2590.96
 30
0.000000
  70
    32
  0
VERTEX
  8
1
  5
80A2
 10
686.239
 20
2590.68
 30
0.000000
  70
    32
  0
VERTEX
  8
1
  5
80A3
 10
685.329
 20
2590.39
 30
0.000000
  70
    32
  0
VERTEX
  8
1
  5
80A4
 10
684.418
 20
2590.12
 30
0.000000
  70
    32
  0
VERTEX
  8
1
  5
80A5
 10
683.506
 20
2589.84
 30
0.000000
  70
    32
  0
VERTEX
  8
1
  5
80A6
 10
682.594
 20
2589.57
 30
0.000000
  70
    32
  0
VERTEX
  8
1
  5
80A7
 10
681.680
 20
2589.29
 30
0.000000
  70
    32
  0
VERTEX
  8
1
  5
80A8
 10
680.765
 20
2589.03
 30
0.000000
  70
    32
  0
VERTEX
  8
1
  5
80A9
 10
679.849
 20
2588.76
 30
0.000000
  70
    32
  0
VERTEX
  8
1
  5
80AA
 10
678.932
 20
2588.50
 30
0.000000
  70
    32
  0
VERTEX
  8
1
  5
80AB
 10
678.014
 20
2588.24
 30
0.000000
  70
    32
  0
VERTEX
  8
1
  5
80AC
 10
677.094
 20
2587.99
 30
0.000000
  70
    32
  0
VERTEX
  8
1
  5
80AD
 10
676.174
 20
2587.74
 30
0.000000
  70
    32
  0
VERTEX
  8
1
  5
80AE
 10
675.252
 20
2587.49
 30
0.000000
  70
    32
  0
VERTEX
  8
1
  5
80AF
 10
674.330
 20
2587.25
 30
0.000000
  70
    32
  0
VERTEX
  8
1
  5
80B0
 10
673.406
 20
2587.00
 30
0.000000
  70
    32
  0
VERTEX
  8
1
  5
80B1
 10
672.482
 20
2586.77
 30
0.000000
  70
    32
  0
VERTEX
  8
1
  5
80B2
 10
671.556
 20
2586.53
 30
0.000000
  70
    32
  0
VERTEX
  8
1
  5
80B3
 10
670.629
 20
2586.30
 30
0.000000
  70
    32
  0
VERTEX
  8
1
  5
80B4
 10
669.700
 20
2586.07
 30
0.000000
  70
    32
  0
VERTEX
  8
1
  5
80B5
 10
668.771
 20
2585.85
 30
0.000000
  70
    32
  0
VERTEX
  8
1
  5
80B6
 10
667.841
 20
2585.62
 30
0.000000
  70
    32
  0
VERTEX
  8
1
  5
80B7
 10
666.909
 20
2585.41
 30
0.000000
  70
    32
  0
VERTEX
  8
1
  5
80B8
 10
665.976
 20
2585.19
 30
0.000000
  70
    32
  0
VERTEX
  8
1
  5
80B9
 10
665.042
 20
2584.98
 30
0.000000
  70
    32
  0
VERTEX
  8
1
  5
80BA
 10
664.107
 20
2584.77
 30
0.000000
  70
    32
  0
VERTEX
  8
1
  5
80BB
 10
663.171
 20
2584.57
 30
0.000000
  70
    32
  0
VERTEX
  8
1
  5
80BC
 10
662.235
 20
2584.37
 30
0.000000
  70
    32
  0
VERTEX
  8
1
  5
80BD
 10
661.297
 20
2584.17
 30
0.000000
  70
    32
  0
VERTEX
  8
1
  5
80BE
 10
660.358
 20
2583.97
 30
0.000000
  70
    32
  0
VERTEX
  8
1
  5
80BF
 10
659.418
 20
2583.78
 30
0.000000
  70
    32
  0
VERTEX
  8
1
  5
80C0
 10
658.478
 20
2583.59
 30
0.000000
  70
    32
  0
VERTEX
  8
1
  5
80C1
 10
657.536
 20
2583.40
 30
0.000000
  70
    32
  0
VERTEX
  8
1
  5
80C2
 10
656.594
 20
2583.22
 30
0.000000
  70
    32
  0
VERTEX
  8
1
  5
80C3
 10
655.652
 20
2583.04
 30
0.000000
  70
    32
  0
VERTEX
  8
1
  5
80C4
 10
654.708
 20
2582.86
 30
0.000000
  70
    32
  0
VERTEX
  8
1
  5
80C5
 10
653.765
 20
2582.68
 30
0.000000
  70
    32
  0
VERTEX
  8
1
  5
80C6
 10
652.820
 20
2582.51
 30
0.000000
  70
    32
  0
VERTEX
  8
1
  5
80C7
 10
651.875
 20
2582.34
 30
0.000000
  70
    32
  0
VERTEX
  8
1
  5
80C8
 10
650.930
 20
2582.17
 30
0.000000
  70
    32
  0
VERTEX
  8
1
  5
80C9
 10
649.984
 20
2582.00
 30
0.000000
  70
    32
  0
VERTEX
  8
1
  5
80CA
 10
649.038
 20
2581.84
 30
0.000000
  70
    32
  0
VERTEX
  8
1
  5
80CB
 10
648.091
 20
2581.68
 30
0.000000
  70
    32
  0
VERTEX
  8
1
  5
80CC
 10
647.144
 20
2581.52
 30
0.000000
  70
    32
  0
VERTEX
  8
1
  5
80CD
 10
646.197
 20
2581.36
 30
0.000000
  70
    32
  0
VERTEX
  8
1
  5
80CE
 10
645.250
 20
2581.20
 30
0.000000
  70
    32
  0
VERTEX
  8
1
  5
80CF
 10
644.302
 20
2581.05
 30
0.000000
  70
    32
  0
VERTEX
  8
1
  5
80D0
 10
643.354
 20
2580.90
 30
0.000000
  70
    32
  0
VERTEX
  8
1
  5
80D1
 10
642.407
 20
2580.75
 30
0.000000
  70
    32
  0
VERTEX
  8
1
  5
80D2
 10
641.459
 20
2580.60
 30
0.000000
  70
    32
  0
VERTEX
  8
1
  5
80D3
 10
640.510
 20
2580.45
 30
0.000000
  70
    32
  0
VERTEX
  8
1
  5
80D4
 10
639.562
 20
2580.31
 30
0.000000
  70
    32
  0
VERTEX
  8
1
  5
80D5
 10
638.613
 20
2580.16
 30
0.000000
  70
    32
  0
VERTEX
  8
1
  5
80D6
 10
637.665
 20
2580.02
 30
0.000000
  70
    32
  0
VERTEX
  8
1
  5
80D7
 10
636.716
 20
2579.88
 30
0.000000
  70
    32
  0
VERTEX
  8
1
  5
80D8
 10
635.767
 20
2579.74
 30
0.000000
  70
    32
  0
VERTEX
  8
1
  5
80D9
 10
634.818
 20
2579.61
 30
0.000000
  70
    32
  0
VERTEX
  8
1
  5
80DA
 10
633.868
 20
2579.47
 30
0.000000
  70
    32
  0
VERTEX
  8
1
  5
80DB
 10
632.918
 20
2579.34
 30
0.000000
  70
    32
  0
VERTEX
  8
1
  5
80DC
 10
631.969
 20
2579.20
 30
0.000000
  70
    32
  0
VERTEX
  8
1
  5
80DD
 10
631.019
 20
2579.07
 30
0.000000
  70
    32
  0
VERTEX
  8
1
  5
80DE
 10
630.069
 20
2578.94
 30
0.000000
  70
    32
  0
VERTEX
  8
1
  5
80DF
 10
629.118
 20
2578.81
 30
0.000000
  70
    32
  0
VERTEX
  8
1
  5
80E0
 10
628.168
 20
2578.68
 30
0.000000
  70
    32
  0
VERTEX
  8
1
  5
80E1
 10
627.217
 20
2578.56
 30
0.000000
  70
    32
  0
VERTEX
  8
1
  5
80E2
 10
626.266
 20
2578.43
 30
0.000000
  70
    32
  0
VERTEX
  8
1
  5
80E3
 10
625.315
 20
2578.30
 30
0.000000
  70
    32
  0
VERTEX
  8
1
  5
80E4
 10
624.364
 20
2578.18
 30
0.000000
  70
    32
  0
VERTEX
  8
1
  5
80E5
 10
623.413
 20
2578.05
 30
0.000000
  70
    32
  0
VERTEX
  8
1
  5
80E6
 10
622.462
 20
2577.93
 30
0.000000
  70
    32
  0
VERTEX
  8
1
  5
80E7
 10
621.511
 20
2577.80
 30
0.000000
  70
    32
  0
VERTEX
  8
1
  5
80E8
 10
620.559
 20
2577.68
 30
0.000000
  70
    32
  0
SEQEND
  8
1
  5
80E9
  0
POLYLINE
  8
1
  5
80EA
  66
     1
 10
0.000000
 20
0.000000
 30
0.000000
  70
     8
  0
VERTEX
  8
1
  5
80EB
 10
620.559
 20
2177.68
 30
0.000000
  70
    32
  0
VERTEX
  8
1
  5
80EC
 10
619.937
 20
2177.69
 30
0.000000
  70
    32
  0
VERTEX
  8
1
  5
80ED
 10
619.315
 20
2177.71
 30
0.000000
  70
    32
  0
VERTEX
  8
1
  5
80EE
 10
618.693
 20
2177.72
 30
0.000000
  70
    32
  0
VERTEX
  8
1
  5
80EF
 10
618.071
 20
2177.73
 30
0.000000
  70
    32
  0
VERTEX
  8
1
  5
80F0
 10
617.449
 20
2177.75
 30
0.000000
  70
    32
  0
VERTEX
  8
1
  5
80F1
 10
616.827
 20
2177.76
 30
0.000000
  70
    32
  0
VERTEX
  8
1
  5
80F2
 10
616.206
 20
2177.77
 30
0.000000
  70
    32
  0
VERTEX
  8
1
  5
80F3
 10
615.584
 20
2177.78
 30
0.000000
  70
    32
  0
VERTEX
  8
1
  5
80F4
 10
614.963
 20
2177.79
 30
0.000000
  70
    32
  0
VERTEX
  8
1
  5
80F5
 10
614.342
 20
2177.80
 30
0.000000
  70
    32
  0
VERTEX
  8
1
  5
80F6
 10
613.721
 20
2177.81
 30
0.000000
  70
    32
  0
VERTEX
  8
1
  5
80F7
 10
613.100
 20
2177.81
 30
0.000000
  70
    32
  0
VERTEX
  8
1
  5
80F8
 10
612.479
 20
2177.82
 30
0.000000
  70
    32
  0
VERTEX
  8
1
  5
80F9
 10
611.859
 20
2177.82
 30
0.000000
  70
    32
  0
VERTEX
  8
1
  5
80FA
 10
611.239
 20
2177.82
 30
0.000000
  70
    32
  0
VERTEX
  8
1
  5
80FB
 10
610.619
 20
2177.82
 30
0.000000
  70
    32
  0
VERTEX
  8
1
  5
80FC
 10
610.000
 20
2177.81
 30
0.000000
  70
    32
  0
VERTEX
  8
1
  5
80FD
 10
609.380
 20
2177.81
 30
0.000000
  70
    32
  0
VERTEX
  8
1
  5
80FE
 10
608.762
 20
2177.80
 30
0.000000
  70
    32
  0
VERTEX
  8
1
  5
80FF
 10
608.143
 20
2177.79
 30
0.000000
  70
    32
  0
VERTEX
  8
1
  5
8100
 10
607.525
 20
2177.78
 30
0.000000
  70
    32
  0
VERTEX
  8
1
  5
8101
 10
606.908
 20
2177.76
 30
0.000000
  70
    32
  0
VERTEX
  8
1
  5
8102
 10
606.291
 20
2177.75
 30
0.000000
  70
    32
  0
VERTEX
  8
1
  5
8103
 10
605.674
 20
2177.73
 30
0.000000
  70
    32
  0
VERTEX
  8
1
  5
8104
 10
605.058
 20
2177.70
 30
0.000000
  70
    32
  0
VERTEX
  8
1
  5
8105
 10
604.442
 20
2177.68
 30
0.000000
  70
    32
  0
VERTEX
  8
1
  5
8106
 10
603.826
 20
2177.65
 30
0.000000
  70
    32
  0
VERTEX
  8
1
  5
8107
 10
603.212
 20
2177.61
 30
0.000000
  70
    32
  0
VERTEX
  8
1
  5
8108
 10
602.598
 20
2177.58
 30
0.000000
  70
    32
  0
VERTEX
  8
1
  5
8109
 10
601.984
 20
2177.54
 30
0.000000
  70
    32
  0
VERTEX
  8
1
  5
810A
 10
601.371
 20
2177.49
 30
0.000000
  70
    32
  0
VERTEX
  8
1
  5
810B
 10
600.758
 20
2177.44
 30
0.000000
  70
    32
  0
VERTEX
  8
1
  5
810C
 10
600.147
 20
2177.39
 30
0.000000
  70
    32
  0
VERTEX
  8
1
  5
810D
 10
599.535
 20
2177.33
 30
0.000000
  70
    32
  0
VERTEX
  8
1
  5
810E
 10
598.925
 20
2177.27
 30
0.000000
  70
    32
  0
VERTEX
  8
1
  5
810F
 10
598.315
 20
2177.21
 30
0.000000
  70
    32
  0
VERTEX
  8
1
  5
8110
 10
597.706
 20
2177.14
 30
0.000000
  70
    32
  0
VERTEX
  8
1
  5
8111
 10
597.097
 20
2177.07
 30
0.000000
  70
    32
  0
VERTEX
  8
1
  5
8112
 10
596.490
 20
2176.99
 30
0.000000
  70
    32
  0
VERTEX
  8
1
  5
8113
 10
595.883
 20
2176.90
 30
0.000000
  70
    32
  0
VERTEX
  8
1
  5
8114
 10
595.276
 20
2176.82
 30
0.000000
  70
    32
  0
VERTEX
  8
1
  5
8115
 10
594.671
 20
2176.72
 30
0.000000
  70
    32
  0
VERTEX
  8
1
  5
8116
 10
594.067
 20
2176.62
 30
0.000000
  70
    32
  0
VERTEX
  8
1
  5
8117
 10
593.463
 20
2176.52
 30
0.000000
  70
    32
  0
VERTEX
  8
1
  5
8118
 10
592.860
 20
2176.41
 30
0.000000
  70
    32
  0
VERTEX
  8
1
  5
8119
 10
592.258
 20
2176.29
 30
0.000000
  70
    32
  0
VERTEX
  8
1
  5
811A
 10
591.657
 20
2176.17
 30
0.000000
  70
    32
  0
VERTEX
  8
1
  5
811B
 10
591.057
 20
2176.05
 30
0.000000
  70
    32
  0
VERTEX
  8
1
  5
811C
 10
590.457
 20
2175.91
 30
0.000000
  70
    32
  0
VERTEX
  8
1
  5
811D
 10
589.859
 20
2175.77
 30
0.000000
  70
    32
  0
VERTEX
  8
1
  5
811E
 10
589.262
 20
2175.63
 30
0.000000
  70
    32
  0
VERTEX
  8
1
  5
811F
 10
588.666
 20
2175.48
 30
0.000000
  70
    32
  0
VERTEX
  8
1
  5
8120
 10
588.071
 20
2175.32
 30
0.000000
  70
    32
  0
VERTEX
  8
1
  5
8121
 10
587.477
 20
2175.16
 30
0.000000
  70
    32
  0
VERTEX
  8
1
  5
8122
 10
586.884
 20
2174.99
 30
0.000000
  70
    32
  0
VERTEX
  8
1
  5
8123
 10
586.293
 20
2174.82
 30
0.000000
  70
    32
  0
VERTEX
  8
1
  5
8124
 10
585.703
 20
2174.63
 30
0.000000
  70
    32
  0
VERTEX
  8
1
  5
8125
 10
585.114
 20
2174.45
 30
0.000000
  70
    32
  0
VERTEX
  8
1
  5
8126
 10
584.527
 20
2174.26
 30
0.000000
  70
    32
  0
VERTEX
  8
1
  5
8127
 10
583.941
 20
2174.06
 30
0.000000
  70
    32
  0
VERTEX
  8
1
  5
8128
 10
583.357
 20
2173.86
 30
0.000000
  70
    32
  0
VERTEX
  8
1
  5
8129
 10
582.774
 20
2173.65
 30
0.000000
  70
    32
  0
VERTEX
  8
1
  5
812A
 10
582.193
 20
2173.44
 30
0.000000
  70
    32
  0
VERTEX
  8
1
  5
812B
 10
581.614
 20
2173.22
 30
0.000000
  70
    32
  0
VERTEX
  8
1
  5
812C
 10
581.037
 20
2172.99
 30
0.000000
  70
    32
  0
VERTEX
  8
1
  5
812D
 10
580.461
 20
2172.76
 30
0.000000
  70
    32
  0
VERTEX
  8
1
  5
812E
 10
579.887
 20
2172.53
 30
0.000000
  70
    32
  0
VERTEX
  8
1
  5
812F
 10
579.315
 20
2172.29
 30
0.000000
  70
    32
  0
VERTEX
  8
1
  5
8130
 10
578.745
 20
2172.04
 30
0.000000
  70
    32
  0
VERTEX
  8
1
  5
8131
 10
578.177
 20
2171.79
 30
0.000000
  70
    32
  0
VERTEX
  8
1
  5
8132
 10
577.612
 20
2171.53
 30
0.000000
  70
    32
  0
VERTEX
  8
1
  5
8133
 10
577.048
 20
2171.27
 30
0.000000
  70
    32
  0
VERTEX
  8
1
  5
8134
 10
576.486
 20
2171.01
 30
0.000000
  70
    32
  0
VERTEX
  8
1
  5
8135
 10
575.927
 20
2170.73
 30
0.000000
  70
    32
  0
VERTEX
  8
1
  5
8136
 10
575.370
 20
2170.46
 30
0.000000
  70
    32
  0
VERTEX
  8
1
  5
8137
 10
574.815
 20
2170.18
 30
0.000000
  70
    32
  0
VERTEX
  8
1
  5
8138
 10
574.263
 20
2169.89
 30
0.000000
  70
    32
  0
VERTEX
  8
1
  5
8139
 10
573.713
 20
2169.60
 30
0.000000
  70
    32
  0
VERTEX
  8
1
  5
813A
 10
573.166
 20
2169.30
 30
0.000000
  70
    32
  0
VERTEX
  8
1
  5
813B
 10
572.621
 20
2169.00
 30
0.000000
  70
    32
  0
VERTEX
  8
1
  5
813C
 10
572.079
 20
2168.70
 30
0.000000
  70
    32
  0
VERTEX
  8
1
  5
813D
 10
571.540
 20
2168.39
 30
0.000000
  70
    32
  0
VERTEX
  8
1
  5
813E
 10
571.003
 20
2168.07
 30
0.000000
  70
    32
  0
VERTEX
  8
1
  5
813F
 10
570.469
 20
2167.75
 30
0.000000
  70
    32
  0
VERTEX
  8
1
  5
8140
 10
569.937
 20
2167.43
 30
0.000000
  70
    32
  0
VERTEX
  8
1
  5
8141
 10
569.409
 20
2167.10
 30
0.000000
  70
    32
  0
VERTEX
  8
1
  5
8142
 10
568.883
 20
2166.77
 30
0.000000
  70
    32
  0
VERTEX
  8
1
  5
8143
 10
568.361
 20
2166.43
 30
0.000000
  70
    32
  0
VERTEX
  8
1
  5
8144
 10
567.841
 20
2166.09
 30
0.000000
  70
    32
  0
VERTEX
  8
1
  5
8145
 10
567.325
 20
2165.74
 30
0.000000
  70
    32
  0
VERTEX
  8
1
  5
8146
 10
566.812
 20
2165.39
 30
0.000000
  70
    32
  0
VERTEX
  8
1
  5
8147
 10
566.302
 20
2165.03
 30
0.000000
  70
    32
  0
VERTEX
  8
1
  5
8148
 10
565.795
 20
2164.67
 30
0.000000
  70
    32
  0
VERTEX
  8
1
  5
8149
 10
565.291
 20
2164.31
 30
0.000000
  70
    32
  0
VERTEX
  8
1
  5
814A
 10
564.791
 20
2163.94
 30
0.000000
  70
    32
  0
VERTEX
  8
1
  5
814B
 10
564.294
 20
2163.57
 30
0.000000
  70
    32
  0
VERTEX
  8
1
  5
814C
 10
563.801
 20
2163.20
 30
0.000000
  70
    32
  0
VERTEX
  8
1
  5
814D
 10
563.310
 20
2162.82
 30
0.000000
  70
    32
  0
VERTEX
  8
1
  5
814E
 10
562.824
 20
2162.43
 30
0.000000
  70
    32
  0
VERTEX
  8
1
  5
814F
 10
562.340
 20
2162.04
 30
0.000000
  70
    32
  0
VERTEX
  8
1
  5
8150
 10
561.860
 20
2161.65
 30
0.000000
  70
    32
  0
VERTEX
  8
1
  5
8151
 10
561.384
 20
2161.26
 30
0.000000
  70
    32
  0
VERTEX
  8
1
  5
8152
 10
560.910
 20
2160.86
 30
0.000000
  70
    32
  0
VERTEX
  8
1
  5
8153
 10
560.440
 20
2160.45
 30
0.000000
  70
    32
  0
VERTEX
  8
1
  5
8154
 10
559.973
 20
2160.05
 30
0.000000
  70
    32
  0
VERTEX
  8
1
  5
8155
 10
559.510
 20
2159.64
 30
0.000000
  70
    32
  0
VERTEX
  8
1
  5
8156
 10
559.050
 20
2159.22
 30
0.000000
  70
    32
  0
VERTEX
  8
1
  5
8157
 10
558.593
 20
2158.80
 30
0.000000
  70
    32
  0
VERTEX
  8
1
  5
8158
 10
558.139
 20
2158.38
 30
0.000000
  70
    32
  0
VERTEX
  8
1
  5
8159
 10
557.689
 20
2157.96
 30
0.000000
  70
    32
  0
VERTEX
  8
1
  5
815A
 10
557.242
 20
2157.53
 30
0.000000
  70
    32
  0
VERTEX
  8
1
  5
815B
 10
556.798
 20
2157.10
 30
0.000000
  70
    32
  0
VERTEX
  8
1
  5
815C
 10
556.357
 20
2156.66
 30
0.000000
  70
    32
  0
VERTEX
  8
1
  5
815D
 10
555.920
 20
2156.23
 30
0.000000
  70
    32
  0
VERTEX
  8
1
  5
815E
 10
555.486
 20
2155.78
 30
0.000000
  70
    32
  0
VERTEX
  8
1
  5
815F
 10
555.055
 20
2155.34
 30
0.000000
  70
    32
  0
VERTEX
  8
1
  5
8160
 10
554.627
 20
2154.89
 30
0.000000
  70
    32
  0
VERTEX
  8
1
  5
8161
 10
554.202
 20
2154.44
 30
0.000000
  70
    32
  0
VERTEX
  8
1
  5
8162
 10
553.781
 20
2153.99
 30
0.000000
  70
    32
  0
VERTEX
  8
1
  5
8163
 10
553.362
 20
2153.53
 30
0.000000
  70
    32
  0
VERTEX
  8
1
  5
8164
 10
552.947
 20
2153.07
 30
0.000000
  70
    32
  0
VERTEX
  8
1
  5
8165
 10
552.535
 20
2152.61
 30
0.000000
  70
    32
  0
VERTEX
  8
1
  5
8166
 10
552.126
 20
2152.14
 30
0.000000
  70
    32
  0
VERTEX
  8
1
  5
8167
 10
551.720
 20
2151.67
 30
0.000000
  70
    32
  0
VERTEX
  8
1
  5
8168
 10
551.317
 20
2151.20
 30
0.000000
  70
    32
  0
VERTEX
  8
1
  5
8169
 10
550.917
 20
2150.73
 30
0.000000
  70
    32
  0
VERTEX
  8
1
  5
816A
 10
550.521
 20
2150.25
 30
0.000000
  70
    32
  0
VERTEX
  8
1
  5
816B
 10
550.127
 20
2149.77
 30
0.000000
  70
    32
  0
VERTEX
  8
1
  5
816C
 10
549.736
 20
2149.29
 30
0.000000
  70
    32
  0
VERTEX
  8
1
  5
816D
 10
549.349
 20
2148.80
 30
0.000000
  70
    32
  0
VERTEX
  8
1
  5
816E
 10
548.964
 20
2148.32
 30
0.000000
  70
    32
  0
VERTEX
  8
1
  5
816F
 10
548.583
 20
2147.83
 30
0.000000
  70
    32
  0
VERTEX
  8
1
  5
8170
 10
548.204
 20
2147.34
 30
0.000000
  70
    32
  0
VERTEX
  8
1
  5
8171
 10
547.829
 20
2146.84
 30
0.000000
  70
    32
  0
VERTEX
  8
1
  5
8172
 10
547.457
 20
2146.34
 30
0.000000
  70
    32
  0
VERTEX
  8
1
  5
8173
 10
547.087
 20
2145.84
 30
0.000000
  70
    32
  0
VERTEX
  8
1
  5
8174
 10
546.721
 20
2145.34
 30
0.000000
  70
    32
  0
VERTEX
  8
1
  5
8175
 10
546.357
 20
2144.84
 30
0.000000
  70
    32
  0
VERTEX
  8
1
  5
8176
 10
545.996
 20
2144.33
 30
0.000000
  70
    32
  0
VERTEX
  8
1
  5
8177
 10
545.639
 20
2143.83
 30
0.000000
  70
    32
  0
VERTEX
  8
1
  5
8178
 10
545.284
 20
2143.32
 30
0.000000
  70
    32
  0
VERTEX
  8
1
  5
8179
 10
544.932
 20
2142.80
 30
0.000000
  70
    32
  0
VERTEX
  8
1
  5
817A
 10
544.583
 20
2142.29
 30
0.000000
  70
    32
  0
VERTEX
  8
1
  5
817B
 10
544.237
 20
2141.77
 30
0.000000
  70
    32
  0
VERTEX
  8
1
  5
817C
 10
543.894
 20
2141.26
 30
0.000000
  70
    32
  0
VERTEX
  8
1
  5
817D
 10
543.554
 20
2140.74
 30
0.000000
  70
    32
  0
VERTEX
  8
1
  5
817E
 10
543.216
 20
2140.22
 30
0.000000
  70
    32
  0
VERTEX
  8
1
  5
817F
 10
542.882
 20
2139.69
 30
0.000000
  70
    32
  0
VERTEX
  8
1
  5
8180
 10
542.550
 20
2139.17
 30
0.000000
  70
    32
  0
VERTEX
  8
1
  5
8181
 10
542.221
 20
2138.64
 30
0.000000
  70
    32
  0
VERTEX
  8
1
  5
8182
 10
541.895
 20
2138.11
 30
0.000000
  70
    32
  0
VERTEX
  8
1
  5
8183
 10
541.572
 20
2137.58
 30
0.000000
  70
    32
  0
VERTEX
  8
1
  5
8184
 10
541.251
 20
2137.05
 30
0.000000
  70
    32
  0
VERTEX
  8
1
  5
8185
 10
540.934
 20
2136.52
 30
0.000000
  70
    32
  0
VERTEX
  8
1
  5
8186
 10
540.619
 20
2135.99
 30
0.000000
  70
    32
  0
VERTEX
  8
1
  5
8187
 10
540.306
 20
2135.45
 30
0.000000
  70
    32
  0
VERTEX
  8
1
  5
8188
 10
539.997
 20
2134.92
 30
0.000000
  70
    32
  0
VERTEX
  8
1
  5
8189
 10
539.690
 20
2134.38
 30
0.000000
  70
    32
  0
VERTEX
  8
1
  5
818A
 10
539.386
 20
2133.84
 30
0.000000
  70
    32
  0
VERTEX
  8
1
  5
818B
 10
539.085
 20
2133.30
 30
0.000000
  70
    32
  0
VERTEX
  8
1
  5
818C
 10
538.787
 20
2132.76
 30
0.000000
  70
    32
  0
VERTEX
  8
1
  5
818D
 10
538.491
 20
2132.21
 30
0.000000
  70
    32
  0
VERTEX
  8
1
  5
818E
 10
538.198
 20
2131.67
 30
0.000000
  70
    32
  0
VERTEX
  8
1
  5
818F
 10
537.907
 20
2131.12
 30
0.000000
  70
    32
  0
VERTEX
  8
1
  5
8190
 10
537.619
 20
2130.58
 30
0.000000
  70
    32
  0
VERTEX
  8
1
  5
8191
 10
537.333
 20
2130.03
 30
0.000000
  70
    32
  0
VERTEX
  8
1
  5
8192
 10
537.050
 20
2129.48
 30
0.000000
  70
    32
  0
VERTEX
  8
1
  5
8193
 10
536.769
 20
2128.93
 30
0.000000
  70
    32
  0
VERTEX
  8
1
  5
8194
 10
536.491
 20
2128.38
 30
0.000000
  70
    32
  0
VERTEX
  8
1
  5
8195
 10
536.214
 20
2127.83
 30
0.000000
  70
    32
  0
VERTEX
  8
1
  5
8196
 10
535.941
 20
2127.28
 30
0.000000
  70
    32
  0
VERTEX
  8
1
  5
8197
 10
535.669
 20
2126.73
 30
0.000000
  70
    32
  0
VERTEX
  8
1
  5
8198
 10
535.399
 20
2126.17
 30
0.000000
  70
    32
  0
VERTEX
  8
1
  5
8199
 10
535.132
 20
2125.62
 30
0.000000
  70
    32
  0
VERTEX
  8
1
  5
819A
 10
534.867
 20
2125.06
 30
0.000000
  70
    32
  0
VERTEX
  8
1
  5
819B
 10
534.603
 20
2124.51
 30
0.000000
  70
    32
  0
VERTEX
  8
1
  5
819C
 10
534.342
 20
2123.95
 30
0.000000
  70
    32
  0
VERTEX
  8
1
  5
819D
 10
534.083
 20
2123.39
 30
0.000000
  70
    32
  0
VERTEX
  8
1
  5
819E
 10
533.826
 20
2122.83
 30
0.000000
  70
    32
  0
VERTEX
  8
1
  5
819F
 10
533.570
 20
2122.27
 30
0.000000
  70
    32
  0
VERTEX
  8
1
  5
81A0
 10
533.317
 20
2121.71
 30
0.000000
  70
    32
  0
VERTEX
  8
1
  5
81A1
 10
533.065
 20
2121.15
 30
0.000000
  70
    32
  0
VERTEX
  8
1
  5
81A2
 10
532.815
 20
2120.59
 30
0.000000
  70
    32
  0
VERTEX
  8
1
  5
81A3
 10
532.566
 20
2120.02
 30
0.000000
  70
    32
  0
VERTEX
  8
1
  5
81A4
 10
532.320
 20
2119.46
 30
0.000000
  70
    32
  0
VERTEX
  8
1
  5
81A5
 10
532.075
 20
2118.89
 30
0.000000
  70
    32
  0
VERTEX
  8
1
  5
81A6
 10
531.831
 20
2118.33
 30
0.000000
  70
    32
  0
VERTEX
  8
1
  5
81A7
 10
531.589
 20
2117.76
 30
0.000000
  70
    32
  0
VERTEX
  8
1
  5
81A8
 10
531.349
 20
2117.20
 30
0.000000
  70
    32
  0
VERTEX
  8
1
  5
81A9
 10
531.110
 20
2116.63
 30
0.000000
  70
    32
  0
VERTEX
  8
1
  5
81AA
 10
530.872
 20
2116.06
 30
0.000000
  70
    32
  0
VERTEX
  8
1
  5
81AB
 10
530.636
 20
2115.49
 30
0.000000
  70
    32
  0
VERTEX
  8
1
  5
81AC
 10
530.401
 20
2114.92
 30
0.000000
  70
    32
  0
VERTEX
  8
1
  5
81AD
 10
530.168
 20
2114.35
 30
0.000000
  70
    32
  0
VERTEX
  8
1
  5
81AE
 10
529.935
 20
2113.78
 30
0.000000
  70
    32
  0
VERTEX
  8
1
  5
81AF
 10
529.704
 20
2113.21
 30
0.000000
  70
    32
  0
VERTEX
  8
1
  5
81B0
 10
529.474
 20
2112.64
 30
0.000000
  70
    32
  0
VERTEX
  8
1
  5
81B1
 10
529.245
 20
2112.07
 30
0.000000
  70
    32
  0
VERTEX
  8
1
  5
81B2
 10
529.017
 20
2111.50
 30
0.000000
  70
    32
  0
VERTEX
  8
1
  5
81B3
 10
528.791
 20
2110.93
 30
0.000000
  70
    32
  0
VERTEX
  8
1
  5
81B4
 10
528.565
 20
2110.35
 30
0.000000
  70
    32
  0
VERTEX
  8
1
  5
81B5
 10
528.340
 20
2109.78
 30
0.000000
  70
    32
  0
VERTEX
  8
1
  5
81B6
 10
528.116
 20
2109.21
 30
0.000000
  70
    32
  0
VERTEX
  8
1
  5
81B7
 10
527.893
 20
2108.63
 30
0.000000
  70
    32
  0
VERTEX
  8
1
  5
81B8
 10
527.671
 20
2108.06
 30
0.000000
  70
    32
  0
VERTEX
  8
1
  5
81B9
 10
527.449
 20
2107.48
 30
0.000000
  70
    32
  0
VERTEX
  8
1
  5
81BA
 10
527.228
 20
2106.91
 30
0.000000
  70
    32
  0
VERTEX
  8
1
  5
81BB
 10
527.008
 20
2106.33
 30
0.000000
  70
    32
  0
VERTEX
  8
1
  5
81BC
 10
526.789
 20
2105.76
 30
0.000000
  70
    32
  0
VERTEX
  8
1
  5
81BD
 10
526.570
 20
2105.18
 30
0.000000
  70
    32
  0
VERTEX
  8
1
  5
81BE
 10
526.351
 20
2104.61
 30
0.000000
  70
    32
  0
VERTEX
  8
1
  5
81BF
 10
526.134
 20
2104.03
 30
0.000000
  70
    32
  0
VERTEX
  8
1
  5
81C0
 10
525.916
 20
2103.45
 30
0.000000
  70
    32
  0
VERTEX
  8
1
  5
81C1
 10
525.699
 20
2102.88
 30
0.000000
  70
    32
  0
VERTEX
  8
1
  5
81C2
 10
525.483
 20
2102.30
 30
0.000000
  70
    32
  0
VERTEX
  8
1
  5
81C3
 10
525.267
 20
2101.72
 30
0.000000
  70
    32
  0
VERTEX
  8
1
  5
81C4
 10
525.051
 20
2101.14
 30
0.000000
  70
    32
  0
VERTEX
  8
1
  5
81C5
 10
524.835
 20
2100.57
 30
0.000000
  70
    32
  0
VERTEX
  8
1
  5
81C6
 10
524.620
 20
2099.99
 30
0.000000
  70
    32
  0
VERTEX
  8
1
  5
81C7
 10
524.404
 20
2099.41
 30
0.000000
  70
    32
  0
VERTEX
  8
1
  5
81C8
 10
524.189
 20
2098.84
 30
0.000000
  70
    32
  0
VERTEX
  8
1
  5
81C9
 10
523.974
 20
2098.26
 30
0.000000
  70
    32
  0
VERTEX
  8
1
  5
81CA
 10
523.759
 20
2097.68
 30
0.000000
  70
    32
  0
SEQEND
  8
1
  5
81CB
  0
POLYLINE
  8
1
  5
81CC
  66
     1
 10
0.000000
 20
0.000000
 30
0.000000
  70
     8
  0
VERTEX
  8
1
  5
81CD
 10
817.359
 20
2097.68
 30
0.000000
  70
    32
  0
VERTEX
  8
1
  5
81CE
 10
816.528
 20
2098.19
 30
0.000000
  70
    32
  0
VERTEX
  8
1
  5
81CF
 10
815.697
 20
2098.71
 30
0.000000
  70
    32
  0
VERTEX
  8
1
  5
81D0
 10
814.867
 20
2099.22
 30
0.000000
  70
    32
  0
VERTEX
  8
1
  5
81D1
 10
814.036
 20
2099.74
 30
0.000000
  70
    32
  0
VERTEX
  8
1
  5
81D2
 10
813.205
 20
2100.25
 30
0.000000
  70
    32
  0
VERTEX
  8
1
  5
81D3
 10
812.374
 20
2100.77
 30
0.000000
  70
    32
  0
VERTEX
  8
1
  5
81D4
 10
811.543
 20
2101.28
 30
0.000000
  70
    32
  0
VERTEX
  8
1
  5
81D5
 10
810.712
 20
2101.80
 30
0.000000
  70
    32
  0
VERTEX
  8
1
  5
81D6
 10
809.880
 20
2102.31
 30
0.000000
  70
    32
  0
VERTEX
  8
1
  5
81D7
 10
809.049
 20
2102.83
 30
0.000000
  70
    32
  0
VERTEX
  8
1
  5
81D8
 10
808.218
 20
2103.34
 30
0.000000
  70
    32
  0
VERTEX
  8
1
  5
81D9
 10
807.387
 20
2103.85
 30
0.000000
  70
    32
  0
VERTEX
  8
1
  5
81DA
 10
806.555
 20
2104.37
 30
0.000000
  70
    32
  0
VERTEX
  8
1
  5
81DB
 10
805.724
 20
2104.88
 30
0.000000
  70
    32
  0
VERTEX
  8
1
  5
81DC
 10
804.892
 20
2105.39
 30
0.000000
  70
    32
  0
VERTEX
  8
1
  5
81DD
 10
804.061
 20
2105.90
 30
0.000000
  70
    32
  0
VERTEX
  8
1
  5
81DE
 10
803.229
 20
2106.42
 30
0.000000
  70
    32
  0
VERTEX
  8
1
  5
81DF
 10
802.397
 20
2106.93
 30
0.000000
  70
    32
  0
VERTEX
  8
1
  5
81E0
 10
801.565
 20
2107.44
 30
0.000000
  70
    32
  0
VERTEX
  8
1
  5
81E1
 10
800.733
 20
2107.95
 30
0.000000
  70
    32
  0
VERTEX
  8
1
  5
81E2
 10
799.900
 20
2108.46
 30
0.000000
  70
    32
  0
VERTEX
  8
1
  5
81E3
 10
799.068
 20
2108.97
 30
0.000000
  70
    32
  0
VERTEX
  8
1
  5
81E4
 10
798.235
 20
2109.48
 30
0.000000
  70
    32
  0
VERTEX
  8
1
  5
81E5
 10
797.403
 20
2109.99
 30
0.000000
  70
    32
  0
VERTEX
  8
1
  5
81E6
 10
796.570
 20
2110.50
 30
0.000000
  70
    32
  0
VERTEX
  8
1
  5
81E7
 10
795.737
 20
2111.01
 30
0.000000
  70
    32
  0
VERTEX
  8
1
  5
81E8
 10
794.903
 20
2111.52
 30
0.000000
  70
    32
  0
VERTEX
  8
1
  5
81E9
 10
794.070
 20
2112.02
 30
0.000000
  70
    32
  0
VERTEX
  8
1
  5
81EA
 10
793.236
 20
2112.53
 30
0.000000
  70
    32
  0
VERTEX
  8
1
  5
81EB
 10
792.403
 20
2113.04
 30
0.000000
  70
    32
  0
VERTEX
  8
1
  5
81EC
 10
791.569
 20
2113.54
 30
0.000000
  70
    32
  0
VERTEX
  8
1
  5
81ED
 10
790.734
 20
2114.05
 30
0.000000
  70
    32
  0
VERTEX
  8
1
  5
81EE
 10
789.900
 20
2114.55
 30
0.000000
  70
    32
  0
VERTEX
  8
1
  5
81EF
 10
789.065
 20
2115.06
 30
0.000000
  70
    32
  0
VERTEX
  8
1
  5
81F0
 10
788.230
 20
2115.56
 30
0.000000
  70
    32
  0
VERTEX
  8
1
  5
81F1
 10
787.395
 20
2116.06
 30
0.000000
  70
    32
  0
VERTEX
  8
1
  5
81F2
 10
786.560
 20
2116.56
 30
0.000000
  70
    32
  0
VERTEX
  8
1
  5
81F3
 10
785.724
 20
2117.06
 30
0.000000
  70
    32
  0
VERTEX
  8
1
  5
81F4
 10
784.889
 20
2117.56
 30
0.000000
  70
    32
  0
VERTEX
  8
1
  5
81F5
 10
784.052
 20
2118.06
 30
0.000000
  70
    32
  0
VERTEX
  8
1
  5
81F6
 10
783.216
 20
2118.56
 30
0.000000
  70
    32
  0
VERTEX
  8
1
  5
81F7
 10
782.379
 20
2119.06
 30
0.000000
  70
    32
  0
VERTEX
  8
1
  5
81F8
 10
781.542
 20
2119.56
 30
0.000000
  70
    32
  0
VERTEX
  8
1
  5
81F9
 10
780.705
 20
2120.05
 30
0.000000
  70
    32
  0
VERTEX
  8
1
  5
81FA
 10
779.868
 20
2120.55
 30
0.000000
  70
    32
  0
VERTEX
  8
1
  5
81FB
 10
779.030
 20
2121.04
 30
0.000000
  70
    32
  0
VERTEX
  8
1
  5
81FC
 10
778.192
 20
2121.54
 30
0.000000
  70
    32
  0
VERTEX
  8
1
  5
81FD
 10
777.353
 20
2122.03
 30
0.000000
  70
    32
  0
VERTEX
  8
1
  5
81FE
 10
776.515
 20
2122.52
 30
0.000000
  70
    32
  0
VERTEX
  8
1
  5
81FF
 10
775.676
 20
2123.01
 30
0.000000
  70
    32
  0
VERTEX
  8
1
  5
8200
 10
774.836
 20
2123.50
 30
0.000000
  70
    32
  0
VERTEX
  8
1
  5
8201
 10
773.996
 20
2123.99
 30
0.000000
  70
    32
  0
VERTEX
  8
1
  5
8202
 10
773.156
 20
2124.48
 30
0.000000
  70
    32
  0
VERTEX
  8
1
  5
8203
 10
772.316
 20
2124.96
 30
0.000000
  70
    32
  0
VERTEX
  8
1
  5
8204
 10
771.475
 20
2125.45
 30
0.000000
  70
    32
  0
VERTEX
  8
1
  5
8205
 10
770.634
 20
2125.93
 30
0.000000
  70
    32
  0
VERTEX
  8
1
  5
8206
 10
769.792
 20
2126.42
 30
0.000000
  70
    32
  0
VERTEX
  8
1
  5
8207
 10
768.950
 20
2126.90
 30
0.000000
  70
    32
  0
VERTEX
  8
1
  5
8208
 10
768.108
 20
2127.38
 30
0.000000
  70
    32
  0
VERTEX
  8
1
  5
8209
 10
767.265
 20
2127.86
 30
0.000000
  70
    32
  0
VERTEX
  8
1
  5
820A
 10
766.422
 20
2128.34
 30
0.000000
  70
    32
  0
VERTEX
  8
1
  5
820B
 10
765.579
 20
2128.82
 30
0.000000
  70
    32
  0
VERTEX
  8
1
  5
820C
 10
764.735
 20
2129.29
 30
0.000000
  70
    32
  0
VERTEX
  8
1
  5
820D
 10
763.890
 20
2129.77
 30
0.000000
  70
    32
  0
VERTEX
  8
1
  5
820E
 10
763.045
 20
2130.24
 30
0.000000
  70
    32
  0
VERTEX
  8
1
  5
820F
 10
762.200
 20
2130.71
 30
0.000000
  70
    32
  0
VERTEX
  8
1
  5
8210
 10
761.354
 20
2131.19
 30
0.000000
  70
    32
  0
VERTEX
  8
1
  5
8211
 10
760.508
 20
2131.66
 30
0.000000
  70
    32
  0
VERTEX
  8
1
  5
8212
 10
759.662
 20
2132.12
 30
0.000000
  70
    32
  0
VERTEX
  8
1
  5
8213
 10
758.815
 20
2132.59
 30
0.000000
  70
    32
  0
VERTEX
  8
1
  5
8214
 10
757.967
 20
2133.06
 30
0.000000
  70
    32
  0
VERTEX
  8
1
  5
8215
 10
757.119
 20
2133.52
 30
0.000000
  70
    32
  0
VERTEX
  8
1
  5
8216
 10
756.271
 20
2133.98
 30
0.000000
  70
    32
  0
VERTEX
  8
1
  5
8217
 10
755.422
 20
2134.45
 30
0.000000
  70
    32
  0
VERTEX
  8
1
  5
8218
 10
754.572
 20
2134.91
 30
0.000000
  70
    32
  0
VERTEX
  8
1
  5
8219
 10
753.722
 20
2135.37
 30
0.000000
  70
    32
  0
VERTEX
  8
1
  5
821A
 10
752.872
 20
2135.82
 30
0.000000
  70
    32
  0
VERTEX
  8
1
  5
821B
 10
752.021
 20
2136.28
 30
0.000000
  70
    32
  0
VERTEX
  8
1
  5
821C
 10
751.169
 20
2136.73
 30
0.000000
  70
    32
  0
VERTEX
  8
1
  5
821D
 10
750.317
 20
2137.18
 30
0.000000
  70
    32
  0
VERTEX
  8
1
  5
821E
 10
749.465
 20
2137.64
 30
0.000000
  70
    32
  0
VERTEX
  8
1
  5
821F
 10
748.612
 20
2138.08
 30
0.000000
  70
    32
  0
VERTEX
  8
1
  5
8220
 10
747.758
 20
2138.53
 30
0.000000
  70
    32
  0
VERTEX
  8
1
  5
8221
 10
746.904
 20
2138.98
 30
0.000000
  70
    32
  0
VERTEX
  8
1
  5
8222
 10
746.049
 20
2139.42
 30
0.000000
  70
    32
  0
VERTEX
  8
1
  5
8223
 10
745.194
 20
2139.87
 30
0.000000
  70
    32
  0
VERTEX
  8
1
  5
8224
 10
744.338
 20
2140.31
 30
0.000000
  70
    32
  0
VERTEX
  8
1
  5
8225
 10
743.481
 20
2140.75
 30
0.000000
  70
    32
  0
VERTEX
  8
1
  5
8226
 10
742.624
 20
2141.18
 30
0.000000
  70
    32
  0
VERTEX
  8
1
  5
8227
 10
741.766
 20
2141.62
 30
0.000000
  70
    32
  0
VERTEX
  8
1
  5
8228
 10
740.908
 20
2142.05
 30
0.000000
  70
    32
  0
VERTEX
  8
1
  5
8229
 10
740.049
 20
2142.49
 30
0.000000
  70
    32
  0
VERTEX
  8
1
  5
822A
 10
739.190
 20
2142.92
 30
0.000000
  70
    32
  0
VERTEX
  8
1
  5
822B
 10
738.330
 20
2143.35
 30
0.000000
  70
    32
  0
VERTEX
  8
1
  5
822C
 10
737.469
 20
2143.77
 30
0.000000
  70
    32
  0
VERTEX
  8
1
  5
822D
 10
736.607
 20
2144.20
 30
0.000000
  70
    32
  0
VERTEX
  8
1
  5
822E
 10
735.745
 20
2144.62
 30
0.000000
  70
    32
  0
VERTEX
  8
1
  5
822F
 10
734.883
 20
2145.04
 30
0.000000
  70
    32
  0
VERTEX
  8
1
  5
8230
 10
734.019
 20
2145.46
 30
0.000000
  70
    32
  0
VERTEX
  8
1
  5
8231
 10
733.155
 20
2145.88
 30
0.000000
  70
    32
  0
VERTEX
  8
1
  5
8232
 10
732.291
 20
2146.29
 30
0.000000
  70
    32
  0
VERTEX
  8
1
  5
8233
 10
731.425
 20
2146.71
 30
0.000000
  70
    32
  0
VERTEX
  8
1
  5
8234
 10
730.559
 20
2147.12
 30
0.000000
  70
    32
  0
VERTEX
  8
1
  5
8235
 10
729.692
 20
2147.53
 30
0.000000
  70
    32
  0
VERTEX
  8
1
  5
8236
 10
728.825
 20
2147.93
 30
0.000000
  70
    32
  0
VERTEX
  8
1
  5
8237
 10
727.957
 20
2148.34
 30
0.000000
  70
    32
  0
VERTEX
  8
1
  5
8238
 10
727.088
 20
2148.74
 30
0.000000
  70
    32
  0
VERTEX
  8
1
  5
8239
 10
726.219
 20
2149.14
 30
0.000000
  70
    32
  0
VERTEX
  8
1
  5
823A
 10
725.348
 20
2149.54
 30
0.000000
  70
    32
  0
VERTEX
  8
1
  5
823B
 10
724.477
 20
2149.94
 30
0.000000
  70
    32
  0
VERTEX
  8
1
  5
823C
 10
723.605
 20
2150.33
 30
0.000000
  70
    32
  0
VERTEX
  8
1
  5
823D
 10
722.733
 20
2150.73
 30
0.000000
  70
    32
  0
VERTEX
  8
1
  5
823E
 10
721.860
 20
2151.12
 30
0.000000
  70
    32
  0
VERTEX
  8
1
  5
823F
 10
720.986
 20
2151.50
 30
0.000000
  70
    32
  0
VERTEX
  8
1
  5
8240
 10
720.111
 20
2151.89
 30
0.000000
  70
    32
  0
VERTEX
  8
1
  5
8241
 10
719.235
 20
2152.27
 30
0.000000
  70
    32
  0
VERTEX
  8
1
  5
8242
 10
718.359
 20
2152.65
 30
0.000000
  70
    32
  0
VERTEX
  8
1
  5
8243
 10
717.482
 20
2153.03
 30
0.000000
  70
    32
  0
VERTEX
  8
1
  5
8244
 10
716.604
 20
2153.41
 30
0.000000
  70
    32
  0
VERTEX
  8
1
  5
8245
 10
715.726
 20
2153.78
 30
0.000000
  70
    32
  0
VERTEX
  8
1
  5
8246
 10
714.846
 20
2154.15
 30
0.000000
  70
    32
  0
VERTEX
  8
1
  5
8247
 10
713.966
 20
2154.52
 30
0.000000
  70
    32
  0
VERTEX
  8
1
  5
8248
 10
713.085
 20
2154.89
 30
0.000000
  70
    32
  0
VERTEX
  8
1
  5
8249
 10
712.203
 20
2155.26
 30
0.000000
  70
    32
  0
VERTEX
  8
1
  5
824A
 10
711.320
 20
2155.62
 30
0.000000
  70
    32
  0
VERTEX
  8
1
  5
824B
 10
710.436
 20
2155.98
 30
0.000000
  70
    32
  0
VERTEX
  8
1
  5
824C
 10
709.552
 20
2156.33
 30
0.000000
  70
    32
  0
VERTEX
  8
1
  5
824D
 10
708.667
 20
2156.69
 30
0.000000
  70
    32
  0
VERTEX
  8
1
  5
824E
 10
707.781
 20
2157.04
 30
0.000000
  70
    32
  0
VERTEX
  8
1
  5
824F
 10
706.894
 20
2157.39
 30
0.000000
  70
    32
  0
VERTEX
  8
1
  5
8250
 10
706.006
 20
2157.74
 30
0.000000
  70
    32
  0
VERTEX
  8
1
  5
8251
 10
705.117
 20
2158.08
 30
0.000000
  70
    32
  0
VERTEX
  8
1
  5
8252
 10
704.227
 20
2158.42
 30
0.000000
  70
    32
  0
VERTEX
  8
1
  5
8253
 10
703.337
 20
2158.76
 30
0.000000
  70
    32
  0
VERTEX
  8
1
  5
8254
 10
702.445
 20
2159.10
 30
0.000000
  70
    32
  0
VERTEX
  8
1
  5
8255
 10
701.553
 20
2159.43
 30
0.000000
  70
    32
  0
VERTEX
  8
1
  5
8256
 10
700.660
 20
2159.76
 30
0.000000
  70
    32
  0
VERTEX
  8
1
  5
8257
 10
699.766
 20
2160.09
 30
0.000000
  70
    32
  0
VERTEX
  8
1
  5
8258
 10
698.871
 20
2160.42
 30
0.000000
  70
    32
  0
VERTEX
  8
1
  5
8259
 10
697.975
 20
2160.74
 30
0.000000
  70
    32
  0
VERTEX
  8
1
  5
825A
 10
697.078
 20
2161.06
 30
0.000000
  70
    32
  0
VERTEX
  8
1
  5
825B
 10
696.180
 20
2161.38
 30
0.000000
  70
    32
  0
VERTEX
  8
1
  5
825C
 10
695.281
 20
2161.69
 30
0.000000
  70
    32
  0
VERTEX
  8
1
  5
825D
 10
694.381
 20
2162.01
 30
0.000000
  70
    32
  0
VERTEX
  8
1
  5
825E
 10
693.480
 20
2162.32
 30
0.000000
  70
    32
  0
VERTEX
  8
1
  5
825F
 10
692.579
 20
2162.62
 30
0.000000
  70
    32
  0
VERTEX
  8
1
  5
8260
 10
691.676
 20
2162.92
 30
0.000000
  70
    32
  0
VERTEX
  8
1
  5
8261
 10
690.772
 20
2163.23
 30
0.000000
  70
    32
  0
VERTEX
  8
1
  5
8262
 10
689.868
 20
2163.52
 30
0.000000
  70
    32
  0
VERTEX
  8
1
  5
8263
 10
688.962
 20
2163.82
 30
0.000000
  70
    32
  0
VERTEX
  8
1
  5
8264
 10
688.055
 20
2164.11
 30
0.000000
  70
    32
  0
VERTEX
  8
1
  5
8265
 10
687.147
 20
2164.40
 30
0.000000
  70
    32
  0
VERTEX
  8
1
  5
8266
 10
686.239
 20
2164.68
 30
0.000000
  70
    32
  0
VERTEX
  8
1
  5
8267
 10
685.329
 20
2164.97
 30
0.000000
  70
    32
  0
VERTEX
  8
1
  5
8268
 10
684.418
 20
2165.25
 30
0.000000
  70
    32
  0
VERTEX
  8
1
  5
8269
 10
683.506
 20
2165.52
 30
0.000000
  70
    32
  0
VERTEX
  8
1
  5
826A
 10
682.594
 20
2165.80
 30
0.000000
  70
    32
  0
VERTEX
  8
1
  5
826B
 10
681.680
 20
2166.07
 30
0.000000
  70
    32
  0
VERTEX
  8
1
  5
826C
 10
680.765
 20
2166.33
 30
0.000000
  70
    32
  0
VERTEX
  8
1
  5
826D
 10
679.849
 20
2166.60
 30
0.000000
  70
    32
  0
VERTEX
  8
1
  5
826E
 10
678.932
 20
2166.86
 30
0.000000
  70
    32
  0
VERTEX
  8
1
  5
826F
 10
678.014
 20
2167.12
 30
0.000000
  70
    32
  0
VERTEX
  8
1
  5
8270
 10
677.094
 20
2167.37
 30
0.000000
  70
    32
  0
VERTEX
  8
1
  5
8271
 10
676.174
 20
2167.62
 30
0.000000
  70
    32
  0
VERTEX
  8
1
  5
8272
 10
675.252
 20
2167.87
 30
0.000000
  70
    32
  0
VERTEX
  8
1
  5
8273
 10
674.330
 20
2168.11
 30
0.000000
  70
    32
  0
VERTEX
  8
1
  5
8274
 10
673.406
 20
2168.36
 30
0.000000
  70
    32
  0
VERTEX
  8
1
  5
8275
 10
672.482
 20
2168.59
 30
0.000000
  70
    32
  0
VERTEX
  8
1
  5
8276
 10
671.556
 20
2168.83
 30
0.000000
  70
    32
  0
VERTEX
  8
1
  5
8277
 10
670.629
 20
2169.06
 30
0.000000
  70
    32
  0
VERTEX
  8
1
  5
8278
 10
669.700
 20
2169.29
 30
0.000000
  70
    32
  0
VERTEX
  8
1
  5
8279
 10
668.771
 20
2169.51
 30
0.000000
  70
    32
  0
VERTEX
  8
1
  5
827A
 10
667.841
 20
2169.74
 30
0.000000
  70
    32
  0
VERTEX
  8
1
  5
827B
 10
666.909
 20
2169.95
 30
0.000000
  70
    32
  0
VERTEX
  8
1
  5
827C
 10
665.976
 20
2170.17
 30
0.000000
  70
    32
  0
VERTEX
  8
1
  5
827D
 10
665.042
 20
2170.38
 30
0.000000
  70
    32
  0
VERTEX
  8
1
  5
827E
 10
664.107
 20
2170.59
 30
0.000000
  70
    32
  0
VERTEX
  8
1
  5
827F
 10
663.171
 20
2170.79
 30
0.000000
  70
    32
  0
VERTEX
  8
1
  5
8280
 10
662.235
 20
2170.99
 30
0.000000
  70
    32
  0
VERTEX
  8
1
  5
8281
 10
661.297
 20
2171.19
 30
0.000000
  70
    32
  0
VERTEX
  8
1
  5
8282
 10
660.358
 20
2171.39
 30
0.000000
  70
    32
  0
VERTEX
  8
1
  5
8283
 10
659.418
 20
2171.58
 30
0.000000
  70
    32
  0
VERTEX
  8
1
  5
8284
 10
658.478
 20
2171.77
 30
0.000000
  70
    32
  0
VERTEX
  8
1
  5
8285
 10
657.536
 20
2171.96
 30
0.000000
  70
    32
  0
VERTEX
  8
1
  5
8286
 10
656.594
 20
2172.14
 30
0.000000
  70
    32
  0
VERTEX
  8
1
  5
8287
 10
655.652
 20
2172.32
 30
0.000000
  70
    32
  0
VERTEX
  8
1
  5
8288
 10
654.708
 20
2172.50
 30
0.000000
  70
    32
  0
VERTEX
  8
1
  5
8289
 10
653.765
 20
2172.68
 30
0.000000
  70
    32
  0
VERTEX
  8
1
  5
828A
 10
652.820
 20
2172.85
 30
0.000000
  70
    32
  0
VERTEX
  8
1
  5
828B
 10
651.875
 20
2173.02
 30
0.000000
  70
    32
  0
VERTEX
  8
1
  5
828C
 10
650.930
 20
2173.19
 30
0.000000
  70
    32
  0
VERTEX
  8
1
  5
828D
 10
649.984
 20
2173.36
 30
0.000000
  70
    32
  0
VERTEX
  8
1
  5
828E
 10
649.038
 20
2173.52
 30
0.000000
  70
    32
  0
VERTEX
  8
1
  5
828F
 10
648.091
 20
2173.68
 30
0.000000
  70
    32
  0
VERTEX
  8
1
  5
8290
 10
647.144
 20
2173.84
 30
0.000000
  70
    32
  0
VERTEX
  8
1
  5
8291
 10
646.197
 20
2174.00
 30
0.000000
  70
    32
  0
VERTEX
  8
1
  5
8292
 10
645.250
 20
2174.16
 30
0.000000
  70
    32
  0
VERTEX
  8
1
  5
8293
 10
644.302
 20
2174.31
 30
0.000000
  70
    32
  0
VERTEX
  8
1
  5
8294
 10
643.354
 20
2174.46
 30
0.000000
  70
    32
  0
VERTEX
  8
1
  5
8295
 10
642.407
 20
2174.61
 30
0.000000
  70
    32
  0
VERTEX
  8
1
  5
8296
 10
641.459
 20
2174.76
 30
0.000000
  70
    32
  0
VERTEX
  8
1
  5
8297
 10
640.510
 20
2174.91
 30
0.000000
  70
    32
  0
VERTEX
  8
1
  5
8298
 10
639.562
 20
2175.05
 30
0.000000
  70
    32
  0
VERTEX
  8
1
  5
8299
 10
638.613
 20
2175.20
 30
0.000000
  70
    32
  0
VERTEX
  8
1
  5
829A
 10
637.665
 20
2175.34
 30
0.000000
  70
    32
  0
VERTEX
  8
1
  5
829B
 10
636.716
 20
2175.48
 30
0.000000
  70
    32
  0
VERTEX
  8
1
  5
829C
 10
635.767
 20
2175.62
 30
0.000000
  70
    32
  0
VERTEX
  8
1
  5
829D
 10
634.818
 20
2175.75
 30
0.000000
  70
    32
  0
VERTEX
  8
1
  5
829E
 10
633.868
 20
2175.89
 30
0.000000
  70
    32
  0
VERTEX
  8
1
  5
829F
 10
632.918
 20
2176.02
 30
0.000000
  70
    32
  0
VERTEX
  8
1
  5
82A0
 10
631.969
 20
2176.16
 30
0.000000
  70
    32
  0
VERTEX
  8
1
  5
82A1
 10
631.019
 20
2176.29
 30
0.000000
  70
    32
  0
VERTEX
  8
1
  5
82A2
 10
630.069
 20
2176.42
 30
0.000000
  70
    32
  0
VERTEX
  8
1
  5
82A3
 10
629.118
 20
2176.55
 30
0.000000
  70
    32
  0
VERTEX
  8
1
  5
82A4
 10
628.168
 20
2176.68
 30
0.000000
  70
    32
  0
VERTEX
  8
1
  5
82A5
 10
627.217
 20
2176.80
 30
0.000000
  70
    32
  0
VERTEX
  8
1
  5
82A6
 10
626.266
 20
2176.93
 30
0.000000
  70
    32
  0
VERTEX
  8
1
  5
82A7
 10
625.315
 20
2177.06
 30
0.000000
  70
    32
  0
VERTEX
  8
1
  5
82A8
 10
624.364
 20
2177.18
 30
0.000000
  70
    32
  0
VERTEX
  8
1
  5
82A9
 10
623.413
 20
2177.31
 30
0.000000
  70
    32
  0
VERTEX
  8
1
  5
82AA
 10
622.462
 20
2177.43
 30
0.000000
  70
    32
  0
VERTEX
  8
1
  5
82AB
 10
621.511
 20
2177.56
 30
0.000000
  70
    32
  0
VERTEX
  8
1
  5
82AC
 10
620.559
 20
2177.68
 30
0.000000
  70
    32
  0
SEQEND
  8
1
  5
82AD
  0
LINE
  5
7C0C
  8
1
 10
1077.359257718409
 20
2017.680121590166
 30
0.0
 11
1017.359257718408
 21
2017.680121590166
 31
0.0
  0
LINE
  5
7C0D
  8
1
 10
1077.359257718409
 20
2067.680121590166
 30
0.0
 11
1077.359257718409
 21
2017.680121590166
 31
0.0
  0
LINE
  5
7C0E
  8
1
 10
523.75925771840855
 20
2067.680121590166
 30
0.0
 11
523.75925771840855
 21
2017.680121590166
 31
0.0
  0
LINE
  5
7C0F
  8
1
 10
583.75925771840866
 20
2022.180121590166
 30
0.0
 11
583.75925771840866
 21
2017.680121590166
 31
0.0
  0
LINE
  5
7C10
  8
1
 10
1017.359257718408
 20
2022.180121590166
 30
0.0
 11
1017.359257718408
 21
2017.680121590166
 31
0.0
  0
LINE
  5
7C11
  8
1
 10
1072.859257718409
 20
2022.180121590166
 30
0.0
 11
1017.359257718408
 21
2022.180121590166
 31
0.0
  0
LINE
  5
7C12
  8
1
 10
528.25925771840855
 20
2244.6303564644809
 30
0.0
 11
528.25925771840855
 21
2022.180121590166
 31
0.0
  0
LINE
  5
7C13
  8
1
 10
1072.859257718409
 20
2244.6303564644809
 30
0.0
 11
1072.859257718409
 21
2022.180121590166
 31
0.0
  0
LINE
  5
7C14
  8
1
 10
1077.359257718409
 20
2244.6303564644809
 30
0.0
 11
1072.859257718409
 21
2244.6303564644809
 31
0.0
  0
LINE
  5
7C15
  8
1
 10
528.25925771840855
 20
2244.6303564644809
 30
0.0
 11
523.75925771840855
 21
2244.6303564644809
 31
0.0
  0
LINE
  5
7C16
  8
1
 10
583.75925771840866
 20
2022.180121590166
 30
0.0
 11
528.25925771840855
 21
2022.180121590166
 31
0.0
  0
LINE
  5
7C17
  8
1
 10
583.75925771840866
 20
2017.680121590166
 30
0.0
 11
523.75925771840855
 21
2017.680121590166
 31
0.0
  0
LINE
  5
7C30
  8
2
 10
1090.5592577184079
 20
2675.180121590166
 30
0.0
 11
1067.359257718409
 21
2675.180121590166
 31
0.0
  0
LINE
  5
7C31
  8
2
 10
1090.5592577184079
 20
2080.180121590166
 30
0.0
 11
1067.359257718409
 21
2080.180121590166
 31
0.0
  0
LINE
  5
7C32
  8
2
 10
833.75925771840855
 20
2675.180121590166
 30
0.0
 11
807.35925771840903
 21
2675.180121590166
 31
0.0
  0
LINE
  5
7C33
  8
2
 10
533.75925771840866
 20
2675.180121590166
 30
0.0
 11
510.55925771840879
 21
2675.180121590166
 31
0.0
  0
LINE
  5
7C34
  8
2
 10
533.75925771840866
 20
2080.180121590166
 30
0.0
 11
510.55925771840879
 21
2080.180121590166
 31
0.0
  0
LINE
  5
7C35
  8
2
 10
833.75925771840855
 20
2080.180121590166
 30
0.0
 11
807.35925771840903
 21
2080.180121590166
 31
0.0
  0
LINE
  5
7C36
  8
1
 10
1080.5592577184079
 20
2094.4801215901662
 30
0.0
 11
823.75925771840855
 21
2094.4801215901662
 31
0.0
  0
LINE
  5
7C37
  8
1
 10
1080.5592577184079
 20
2660.8801215901658
 30
0.0
 11
823.75925771840855
 21
2660.8801215901658
 31
0.0
  0
LINE
  5
7C58
  8
1
 10
510.55925771840879
 20
2675.180121590166
 30
0.0
 11
533.75925771840866
 21
2675.180121590166
 31
0.0
  0
LINE
  5
7C61
  8
1
 10
510.55925771840879
 20
2080.180121590166
 30
0.0
 11
533.75925771840866
 21
2080.180121590166
 31
0.0
  0
LINE
  5
7C67
  8
2
 10
2343.222111389879
 20
2799.1120014160838
 30
0.0
 11
2343.222111389879
 21
1918.6877903874381
 31
0.0
  0
LINE
  5
7CED
  8
1
 10
1998.222111389879
 20
1979.680121590166
 30
0.0
 11
2688.222111389879
 21
1979.680121590166
 31
0.0
  0
LINE
  5
7CEE
  8
1
 10
2688.222111389879
 20
1979.680121590166
 30
0.0
 11
2688.222111389879
 21
1939.680121590166
 31
0.0
  0
LINE
  5
7CEF
  8
1
 10
1998.222111389879
 20
1979.680121590166
 30
0.0
 11
1998.222111389879
 21
1939.680121590166
 31
0.0
  0
LINE
  5
7CF0
  8
1
 10
1998.222111389879
 20
1939.680121590166
 30
0.0
 11
2688.222111389879
 21
1939.680121590166
 31
0.0
  0
LINE
  5
7CF1
  8
1
 10
1998.222111389879
 20
1944.680121590166
 30
0.0
 11
2688.222111389879
 21
1944.680121590166
 31
0.0
  0
LINE
  5
7D1A
  8
1
 10
1080.5592577184079
 20
1979.680121590166
 30
0.0
 11
520.55925771840896
 21
1979.680121590166
 31
0.0
  0
LINE
  5
7D1B
  8
1
 10
1120.5592577184079
 20
1939.680121590166
 30
0.0
 11
480.55925771840862
 21
1939.680121590166
 31
0.0
  0
LINE
  5
7D1C
  8
1
 10
520.55925771840896
 20
1939.680121590166
 30
0.0
 11
480.55925771840901
 21
1939.680121590166
 31
0.0
  0
LINE
  5
7D1D
  8
1
 10
511.05925771840913
 20
1944.680121590166
 30
0.0
 11
483.55925771840901
 21
1944.680121590166
 31
0.0
  0
LINE
  5
7D1E
  8
1
 10
480.55925771840901
 20
1939.680121590166
 30
0.0
 11
480.55925771840901
 21
1941.680121590166
 31
0.0
  0
ARC
  5
7D1F
  8
1
 10
483.55925771840901
 20
1941.680121590166
 30
0.0
 40
3.0
 50
90.0
 51
180.0
  0
LINE
  5
7D20
  8
1
 10
520.55925771840896
 20
1939.680121590166
 30
0.0
 11
520.55925771840896
 21
1979.680121590166
 31
0.0
  0
LINE
  5
7D21
  8
1
 10
515.55925771840907
 20
1949.180121590166
 30
0.0
 11
515.55925771840907
 21
1976.680121590166
 31
0.0
  0
LINE
  5
7D22
  8
1
 10
520.55925771840896
 20
1979.680121590166
 30
0.0
 11
518.55925771840896
 21
1979.680121590166
 31
0.0
  0
ARC
  5
7D23
  8
1
 10
518.55925771840896
 20
1976.680121590166
 30
0.0
 40
3.0
 50
90.0
 51
180.0
  0
ARC
  5
7D24
  8
1
 10
511.05925771840913
 20
1949.180121590166
 30
0.0
 40
4.5
 50
270.0
 51
0.0
  0
LINE
  5
7D25
  8
1
 10
1090.0592577184079
 20
1944.680121590166
 30
0.0
 11
1117.5592577184091
 21
1944.680121590166
 31
0.0
  0
LINE
  5
7D26
  8
1
 10
1080.5592577184079
 20
1939.680121590166
 30
0.0
 11
1120.5592577184079
 21
1939.680121590166
 31
0.0
  0
LINE
  5
7D27
  8
1
 10
1085.5592577184091
 20
1949.180121590166
 30
0.0
 11
1085.5592577184091
 21
1976.680121590166
 31
0.0
  0
LINE
  5
7D28
  8
1
 10
1080.5592577184079
 20
1939.680121590166
 30
0.0
 11
1080.5592577184079
 21
1979.680121590166
 31
0.0
  0
ARC
  5
7D29
  8
1
 10
1082.5592577184079
 20
1976.680121590166
 30
0.0
 40
3.0
 50
0.0
 51
90.0
  0
LINE
  5
7D2A
  8
1
 10
1080.5592577184079
 20
1979.680121590166
 30
0.0
 11
1082.5592577184079
 21
1979.680121590166
 31
0.0
  0
ARC
  5
7D2B
  8
1
 10
1090.0592577184079
 20
1949.180121590166
 30
0.0
 40
4.5
 50
180.0
 51
270.0
  0
ARC
  5
7D2C
  8
1
 10
1117.5592577184091
 20
1941.680121590166
 30
0.0
 40
3.0
 50
0.0
 51
90.0
  0
LINE
  5
7D2D
  8
1
 10
1120.5592577184079
 20
1939.680121590166
 30
0.0
 11
1120.5592577184079
 21
1941.680121590166
 31
0.0
  0
LINE
  5
7D2E
  8
2
 10
498.55925771840913
 20
1920.00592998517
 30
0.0
 11
498.55925771840913
 21
1960.00592998517
 31
0.0
  0
LINE
  5
7D2F
  8
2
 10
1102.5592577184079
 20
1920.00592998517
 30
0.0
 11
1102.5592577184079
 21
1960.00592998517
 31
0.0
  0
LINE
  5
7D48
  8
2
 10
2023.222111389879
 20
1920.00592998517
 30
0.0
 11
2023.222111389879
 21
1959.680121590166
 31
0.0
  0
LINE
  5
7D49
  8
2
 10
2663.222111389879
 20
1920.00592998517
 30
0.0
 11
2663.222111389879
 21
1959.680121590166
 31
0.0
  0
LINE
  5
7D4A
  8
1
 10
1080.5592577184079
 20
1974.680121590166
 30
0.0
 11
520.55925771840896
 21
1974.680121590166
 31
0.0
  0
DIMENSION
  5
7D79
  8
3
  2
*D1
 10
1120.5592577184079
 20
1798.4023947777689
 30
0.0
 11
785.79850224052279
 21
1798.4023947777689
 31
0.0
 70
   128
 13
480.55925771840901
 23
1941.680121590166
 33
0.0
 14
1120.5592577184079
 24
1941.680121590166
 34
0.0
1001
ACAD
1000
DSTYLE
1002
{
1070
   287
1070
     3
1070
   287
1070
     3
1070
    40
1040
15.0
1070
   143
1040
0.039
1070
   172
1070
     1
1070
   271
1070
     0
1070
   279
1070
     0
1070
   288
1070
     1
1002
}
  0
DIMENSION
  5
7D94
  8
3
  2
*D2
 10
1080.5592577184079
 20
2790.3086142815282
 30
0.0
 11
806.5764729922339
 21
2790.3086142815282
 31
0.0
 70
   128
 13
520.55925771840884
 23
2687.680121590166
 33
0.0
 14
1080.5592577184079
 24
2687.6801215901669
 34
0.0
1001
ACAD
1000
DSTYLE
1002
{
1070
   287
1070
     3
1070
   287
1070
     3
1070
    40
1040
15.0
1070
   143
1040
0.039
1070
   172
1070
     1
1070
   271
1070
     0
1070
   279
1070
     0
1070
   288
1070
     1
1002
}
  0
DIMENSION
  5
7DA1
  8
3
  2
*D3
 10
410.252424732593
 20
2097.680121590166
 30
0.0
 11
410.25242473259271
 21
2377.2438861043129
 31
0.0
 70
   128
 13
520.55925771840884
 23
2657.680121590166
 33
0.0
 14
520.55925771840884
 24
2097.680121590166
 34
0.0
 50
90.0
1001
ACAD
1000
DSTYLE
1002
{
1070
   287
1070
     3
1070
   287
1070
     3
1070
     3
1000
φ<>
1070
    40
1040
15.0
1070
   143
1040
0.039
1070
   172
1070
     1
1070
   271
1070
     0
1070
   279
1070
     0
1070
   288
1070
     1
1002
}
  0
LINE
  5
7DD5
  8
4
 10
2775.0
 20
750.0
 30
0.0
 11
2775.0
 21
450.0
 31
0.0
  0
LINE
  5
7DD6
  8
4
 10
1725.0
 20
750.0
 30
0.0
 11
1725.0
 21
450.0
 31
0.0
  0
LINE
  5
7DD7
  8
4
 10
975.0
 20
750.0
 30
0.0
 11
975.0
 21
450.0
 31
0.0
  0
LINE
  5
7DDA
  8
4
 10
975.0
 20
450.0
 30
0.0
 11
2775.0
 21
450.0
 31
0.0
  0
LINE
  5
7DDB
  8
4
 10
975.0
 20
600.0
 30
0.0
 11
2775.0
 21
600.0
 31
0.0
  0
TEXT
  5
7DDC
  8
4
 10
1032.753121270352
 20
647.31453879991932
 30
0.0
 40
75.0
  1
機器名称
  0
TEXT
  5
7DDD
  8
4
 10
1029.3871590371959
 20
482.46773509801642
 30
0.0
 40
75.0
  1
機器型番
  0
TEXT
  5
7DDE
  8
4
 10
1766.5181182314971
 20
633.85765343635285
 30
0.0
 40
75.0
  1
ミツヤダクトファン
  0
TEXT
  5
7DDF
  8
4
 10
1779.9817433782209
 20
475.739376419915
 30
0.0
 40
75.0
  1
SA#560-1
  0
TEXT
  5
7DE1
  8
4
 10
1191.2132795814321
 20
3575.1432619987731
 30
0.0
 40
80.999999999999986
  1
床置防振ベット
  0
TEXT
  5
7DE2
  8
4
 10
474.25138999416959
 20
3800.8214642989469
 30
0.0
 40
108.0
  1
電動機直動式横形斜流ファン
  0
LINE
  5
7DE3
  8
4
 10
375.0
 20
3704.1131313972069
 30
0.0
 11
2775.0
 21
3704.1131313972069
 31
0.0
  0
LINE
  5
7DE4
  8
4
 10
375.0
 20
4004.1131313972069
 30
0.0
 11
2775.0
 21
4004.1131313972069
 31
0.0
  0
LINE
  5
7DE5
  8
4
 10
975.0
 20
750.0
 30
0.0
 11
2775.0
 21
750.0
 31
0.0
  0
LINE
  5
7DE6
  8
4
 10
375.0
 20
4004.1131313972069
 30
0.0
 11
375.0
 21
3704.1131313972069
 31
0.0
  0
TEXT
  5
7DE7
  8
4
 10
450.07486051632083
 20
3573.4792163195152
 30
0.0
 40
80.999999999999986
  1
右回転後方吐出
  0
TEXT
  5
7DE8
  8
4
 10
2203.4543388739339
 20
4059.0916222429628
 30
0.0
 40
84.000000000000014
  1
No.
  0
TEXT
  5
7DE9
  8
4
 10
1966.944093900019
 20
3575.1432619987731
 30
0.0
 40
80.999999999999986
  1
縮尺：1/15
  0
LINE
  5
7DEA
  8
4
 10
2775.0
 20
4004.1131313972069
 30
0.0
 11
2775.0
 21
3704.1131313972069
 31
0.0
  0
LINE
  5
7DEB
  8
4
 10
3150.0
 20
4425.0
 30
0.0
 11
3150.0
 21
4425.0
 31
0.0
  0
LINE
  5
7DEC
  8
4
 10
2160.9261335397969
 20
4021.895374688102
 30
0.0
 11
2160.9261335397969
 21
4179.9783923246277
 31
0.0
  0
LINE
  5
7DED
  8
4
 10
2160.9261335397969
 20
4179.9783923246277
 30
0.0
 11
2775.0
 21
4179.9783923246277
 31
0.0
  0
LINE
  5
7DEE
  8
4
 10
2775.0
 20
4179.9783923246277
 30
0.0
 11
2775.0
 21
4021.895374688102
 31
0.0
  0
LINE
  5
7DEF
  8
4
 10
2775.0
 20
4021.895374688102
 30
0.0
 11
2160.9261335397969
 21
4021.895374688102
 31
0.0
  0
LINE
  5
7DF0
  8
4
 10
0.0
 20
0.0
 30
0.0
 11
0.0
 21
4425.0
 31
0.0
  0
LINE
  5
7DF1
  8
4
 10
0.0
 20
4425.0
 30
0.0
 11
3150.0
 21
4425.0
 31
0.0
  0
LINE
  5
7DF2
  8
4
 10
3150.0
 20
4425.0
 30
0.0
 11
3150.0
 21
0.0
 31
0.0
  0
LINE
  5
7DF3
  8
4
 10
3150.0
 20
0.0
 30
0.0
 11
0.0
 21
0.0
 31
0.0
  0
DIMENSION
  5
7E10
  8
3
  2
*D4
 10
1887.0863090334369
 20
1979.680121590166
 30
0.0
 11
1815.300594747722
 21
1998.680121590166
 31
0.0
 70
     0
  1
 (<>)
 13
2093.222111389879
 23
2017.680121590166
 33
0.0
 14
1998.222111389879
 24
1979.680121590166
 34
0.0
 50
90.0
1001
ACAD
1000
DSTYLE
1002
{
1070
   288
1070
     1
1070
   172
1070
     1
1070
    75
1070
     1
1070
    40
1040
15.0
1070
   271
1070
     0
1070
     7
1000
_DOT
1070
   143
1040
0.039
1002
}
  0
DIMENSION
  5
7E20
  8
3
  2
*D5
 10
1887.0863090334369
 20
1939.680121590166
 30
0.0
 11
1849.586309033436
 21
1828.2515501615951
 31
0.0
 70
     0
 13
1998.222111389879
 23
1979.680121590166
 33
0.0
 14
1998.222111389879
 24
1939.680121590166
 34
0.0
 50
90.0
1001
ACAD
1000
DSTYLE
1002
{
1070
   287
1070
     3
1070
   287
1070
     3
1070
    40
1040
15.0
1070
   143
1040
0.039
1070
   172
1070
     1
1070
   271
1070
     0
1070
   279
1070
     0
1070
   288
1070
     1
1070
     6
1000
DOT
1002
}
  0
DIMENSION
  5
7EAB
  8
3
  2
*D7
 10
1622.3273364535889
 20
1939.680121590166
 30
0.0
 11
1622.327336453588
 21
2311.122539318048
 31
0.0
 70
   128
  1
(<>)
 13
2343.222111389879
 23
2687.680121590166
 33
0.0
 14
1998.222111389879
 24
1939.680121590166
 34
0.0
 50
90.0
1001
ACAD
1000
DSTYLE
1002
{
1070
   287
1070
     3
1070
   287
1070
     3
1070
    40
1040
15.0
1070
   143
1040
0.039
1070
   172
1070
     1
1070
   271
1070
     0
1070
   279
1070
     0
1070
   288
1070
     1
1002
}
  0
POLYLINE
  8
1
  5
82AE
  66
     1
 10
0.000000
 20
0.000000
 30
0.000000
  70
     8
  0
VERTEX
  8
1
  5
82AF
 10
620.559
 20
2577.68
 30
0.000000
  70
    32
  0
VERTEX
  8
1
  5
82B0
 10
619.937
 20
2577.67
 30
0.000000
  70
    32
  0
VERTEX
  8
1
  5
82B1
 10
619.315
 20
2577.65
 30
0.000000
  70
    32
  0
VERTEX
  8
1
  5
82B2
 10
618.693
 20
2577.64
 30
0.000000
  70
    32
  0
VERTEX
  8
1
  5
82B3
 10
618.071
 20
2577.63
 30
0.000000
  70
    32
  0
VERTEX
  8
1
  5
82B4
 10
617.449
 20
2577.61
 30
0.000000
  70
    32
  0
VERTEX
  8
1
  5
82B5
 10
616.827
 20
2577.60
 30
0.000000
  70
    32
  0
VERTEX
  8
1
  5
82B6
 10
616.206
 20
2577.59
 30
0.000000
  70
    32
  0
VERTEX
  8
1
  5
82B7
 10
615.584
 20
2577.58
 30
0.000000
  70
    32
  0
VERTEX
  8
1
  5
82B8
 10
614.963
 20
2577.57
 30
0.000000
  70
    32
  0
VERTEX
  8
1
  5
82B9
 10
614.342
 20
2577.56
 30
0.000000
  70
    32
  0
VERTEX
  8
1
  5
82BA
 10
613.721
 20
2577.55
 30
0.000000
  70
    32
  0
VERTEX
  8
1
  5
82BB
 10
613.100
 20
2577.55
 30
0.000000
  70
    32
  0
VERTEX
  8
1
  5
82BC
 10
612.479
 20
2577.55
 30
0.000000
  70
    32
  0
VERTEX
  8
1
  5
82BD
 10
611.859
 20
2577.54
 30
0.000000
  70
    32
  0
VERTEX
  8
1
  5
82BE
 10
611.239
 20
2577.54
 30
0.000000
  70
    32
  0
VERTEX
  8
1
  5
82BF
 10
610.619
 20
2577.54
 30
0.000000
  70
    32
  0
VERTEX
  8
1
  5
82C0
 10
610.000
 20
2577.55
 30
0.000000
  70
    32
  0
VERTEX
  8
1
  5
82C1
 10
609.380
 20
2577.55
 30
0.000000
  70
    32
  0
VERTEX
  8
1
  5
82C2
 10
608.762
 20
2577.56
 30
0.000000
  70
    32
  0
VERTEX
  8
1
  5
82C3
 10
608.143
 20
2577.57
 30
0.000000
  70
    32
  0
VERTEX
  8
1
  5
82C4
 10
607.525
 20
2577.58
 30
0.000000
  70
    32
  0
VERTEX
  8
1
  5
82C5
 10
606.908
 20
2577.60
 30
0.000000
  70
    32
  0
VERTEX
  8
1
  5
82C6
 10
606.291
 20
2577.61
 30
0.000000
  70
    32
  0
VERTEX
  8
1
  5
82C7
 10
605.674
 20
2577.63
 30
0.000000
  70
    32
  0
VERTEX
  8
1
  5
82C8
 10
605.058
 20
2577.66
 30
0.000000
  70
    32
  0
VERTEX
  8
1
  5
82C9
 10
604.442
 20
2577.68
 30
0.000000
  70
    32
  0
VERTEX
  8
1
  5
82CA
 10
603.826
 20
2577.71
 30
0.000000
  70
    32
  0
VERTEX
  8
1
  5
82CB
 10
603.212
 20
2577.75
 30
0.000000
  70
    32
  0
VERTEX
  8
1
  5
82CC
 10
602.598
 20
2577.78
 30
0.000000
  70
    32
  0
VERTEX
  8
1
  5
82CD
 10
601.984
 20
2577.83
 30
0.000000
  70
    32
  0
VERTEX
  8
1
  5
82CE
 10
601.371
 20
2577.87
 30
0.000000
  70
    32
  0
VERTEX
  8
1
  5
82CF
 10
600.758
 20
2577.92
 30
0.000000
  70
    32
  0
VERTEX
  8
1
  5
82D0
 10
600.147
 20
2577.97
 30
0.000000
  70
    32
  0
VERTEX
  8
1
  5
82D1
 10
599.535
 20
2578.03
 30
0.000000
  70
    32
  0
VERTEX
  8
1
  5
82D2
 10
598.925
 20
2578.09
 30
0.000000
  70
    32
  0
VERTEX
  8
1
  5
82D3
 10
598.315
 20
2578.15
 30
0.000000
  70
    32
  0
VERTEX
  8
1
  5
82D4
 10
597.706
 20
2578.22
 30
0.000000
  70
    32
  0
VERTEX
  8
1
  5
82D5
 10
597.097
 20
2578.29
 30
0.000000
  70
    32
  0
VERTEX
  8
1
  5
82D6
 10
596.490
 20
2578.37
 30
0.000000
  70
    32
  0
VERTEX
  8
1
  5
82D7
 10
595.883
 20
2578.46
 30
0.000000
  70
    32
  0
VERTEX
  8
1
  5
82D8
 10
595.276
 20
2578.54
 30
0.000000
  70
    32
  0
VERTEX
  8
1
  5
82D9
 10
594.671
 20
2578.64
 30
0.000000
  70
    32
  0
VERTEX
  8
1
  5
82DA
 10
594.067
 20
2578.74
 30
0.000000
  70
    32
  0
VERTEX
  8
1
  5
82DB
 10
593.463
 20
2578.84
 30
0.000000
  70
    32
  0
VERTEX
  8
1
  5
82DC
 10
592.860
 20
2578.95
 30
0.000000
  70
    32
  0
VERTEX
  8
1
  5
82DD
 10
592.258
 20
2579.07
 30
0.000000
  70
    32
  0
VERTEX
  8
1
  5
82DE
 10
591.657
 20
2579.19
 30
0.000000
  70
    32
  0
VERTEX
  8
1
  5
82DF
 10
591.057
 20
2579.31
 30
0.000000
  70
    32
  0
VERTEX
  8
1
  5
82E0
 10
590.457
 20
2579.45
 30
0.000000
  70
    32
  0
VERTEX
  8
1
  5
82E1
 10
589.859
 20
2579.59
 30
0.000000
  70
    32
  0
VERTEX
  8
1
  5
82E2
 10
589.262
 20
2579.73
 30
0.000000
  70
    32
  0
VERTEX
  8
1
  5
82E3
 10
588.666
 20
2579.88
 30
0.000000
  70
    32
  0
VERTEX
  8
1
  5
82E4
 10
588.071
 20
2580.04
 30
0.000000
  70
    32
  0
VERTEX
  8
1
  5
82E5
 10
587.477
 20
2580.20
 30
0.000000
  70
    32
  0
VERTEX
  8
1
  5
82E6
 10
586.884
 20
2580.37
 30
0.000000
  70
    32
  0
VERTEX
  8
1
  5
82E7
 10
586.293
 20
2580.55
 30
0.000000
  70
    32
  0
VERTEX
  8
1
  5
82E8
 10
585.703
 20
2580.73
 30
0.000000
  70
    32
  0
VERTEX
  8
1
  5
82E9
 10
585.114
 20
2580.91
 30
0.000000
  70
    32
  0
VERTEX
  8
1
  5
82EA
 10
584.527
 20
2581.10
 30
0.000000
  70
    32
  0
VERTEX
  8
1
  5
82EB
 10
583.941
 20
2581.30
 30
0.000000
  70
    32
  0
VERTEX
  8
1
  5
82EC
 10
583.357
 20
2581.50
 30
0.000000
  70
    32
  0
VERTEX
  8
1
  5
82ED
 10
582.774
 20
2581.71
 30
0.000000
  70
    32
  0
VERTEX
  8
1
  5
82EE
 10
582.193
 20
2581.92
 30
0.000000
  70
    32
  0
VERTEX
  8
1
  5
82EF
 10
581.614
 20
2582.14
 30
0.000000
  70
    32
  0
VERTEX
  8
1
  5
82F0
 10
581.037
 20
2582.37
 30
0.000000
  70
    32
  0
VERTEX
  8
1
  5
82F1
 10
580.461
 20
2582.60
 30
0.000000
  70
    32
  0
VERTEX
  8
1
  5
82F2
 10
579.887
 20
2582.83
 30
0.000000
  70
    32
  0
VERTEX
  8
1
  5
82F3
 10
579.315
 20
2583.07
 30
0.000000
  70
    32
  0
VERTEX
  8
1
  5
82F4
 10
578.745
 20
2583.32
 30
0.000000
  70
    32
  0
VERTEX
  8
1
  5
82F5
 10
578.177
 20
2583.57
 30
0.000000
  70
    32
  0
VERTEX
  8
1
  5
82F6
 10
577.612
 20
2583.83
 30
0.000000
  70
    32
  0
VERTEX
  8
1
  5
82F7
 10
577.048
 20
2584.09
 30
0.000000
  70
    32
  0
VERTEX
  8
1
  5
82F8
 10
576.486
 20
2584.36
 30
0.000000
  70
    32
  0
VERTEX
  8
1
  5
82F9
 10
575.927
 20
2584.63
 30
0.000000
  70
    32
  0
VERTEX
  8
1
  5
82FA
 10
575.370
 20
2584.90
 30
0.000000
  70
    32
  0
VERTEX
  8
1
  5
82FB
 10
574.815
 20
2585.18
 30
0.000000
  70
    32
  0
VERTEX
  8
1
  5
82FC
 10
574.263
 20
2585.47
 30
0.000000
  70
    32
  0
VERTEX
  8
1
  5
82FD
 10
573.713
 20
2585.76
 30
0.000000
  70
    32
  0
VERTEX
  8
1
  5
82FE
 10
573.166
 20
2586.06
 30
0.000000
  70
    32
  0
VERTEX
  8
1
  5
82FF
 10
572.621
 20
2586.36
 30
0.000000
  70
    32
  0
VERTEX
  8
1
  5
8300
 10
572.079
 20
2586.66
 30
0.000000
  70
    32
  0
VERTEX
  8
1
  5
8301
 10
571.540
 20
2586.97
 30
0.000000
  70
    32
  0
VERTEX
  8
1
  5
8302
 10
571.003
 20
2587.29
 30
0.000000
  70
    32
  0
VERTEX
  8
1
  5
8303
 10
570.469
 20
2587.61
 30
0.000000
  70
    32
  0
VERTEX
  8
1
  5
8304
 10
569.937
 20
2587.93
 30
0.000000
  70
    32
  0
VERTEX
  8
1
  5
8305
 10
569.409
 20
2588.26
 30
0.000000
  70
    32
  0
VERTEX
  8
1
  5
8306
 10
568.883
 20
2588.60
 30
0.000000
  70
    32
  0
VERTEX
  8
1
  5
8307
 10
568.361
 20
2588.93
 30
0.000000
  70
    32
  0
VERTEX
  8
1
  5
8308
 10
567.841
 20
2589.27
 30
0.000000
  70
    32
  0
VERTEX
  8
1
  5
8309
 10
567.325
 20
2589.62
 30
0.000000
  70
    32
  0
VERTEX
  8
1
  5
830A
 10
566.812
 20
2589.97
 30
0.000000
  70
    32
  0
VERTEX
  8
1
  5
830B
 10
566.302
 20
2590.33
 30
0.000000
  70
    32
  0
VERTEX
  8
1
  5
830C
 10
565.795
 20
2590.69
 30
0.000000
  70
    32
  0
VERTEX
  8
1
  5
830D
 10
565.291
 20
2591.05
 30
0.000000
  70
    32
  0
VERTEX
  8
1
  5
830E
 10
564.791
 20
2591.42
 30
0.000000
  70
    32
  0
VERTEX
  8
1
  5
830F
 10
564.294
 20
2591.79
 30
0.000000
  70
    32
  0
VERTEX
  8
1
  5
8310
 10
563.801
 20
2592.17
 30
0.000000
  70
    32
  0
VERTEX
  8
1
  5
8311
 10
563.310
 20
2592.55
 30
0.000000
  70
    32
  0
VERTEX
  8
1
  5
8312
 10
562.824
 20
2592.93
 30
0.000000
  70
    32
  0
VERTEX
  8
1
  5
8313
 10
562.340
 20
2593.32
 30
0.000000
  70
    32
  0
VERTEX
  8
1
  5
8314
 10
561.860
 20
2593.71
 30
0.000000
  70
    32
  0
VERTEX
  8
1
  5
8315
 10
561.384
 20
2594.10
 30
0.000000
  70
    32
  0
VERTEX
  8
1
  5
8316
 10
560.910
 20
2594.50
 30
0.000000
  70
    32
  0
VERTEX
  8
1
  5
8317
 10
560.440
 20
2594.91
 30
0.000000
  70
    32
  0
VERTEX
  8
1
  5
8318
 10
559.973
 20
2595.31
 30
0.000000
  70
    32
  0
VERTEX
  8
1
  5
8319
 10
559.510
 20
2595.72
 30
0.000000
  70
    32
  0
VERTEX
  8
1
  5
831A
 10
559.050
 20
2596.14
 30
0.000000
  70
    32
  0
VERTEX
  8
1
  5
831B
 10
558.593
 20
2596.56
 30
0.000000
  70
    32
  0
VERTEX
  8
1
  5
831C
 10
558.139
 20
2596.98
 30
0.000000
  70
    32
  0
VERTEX
  8
1
  5
831D
 10
557.689
 20
2597.40
 30
0.000000
  70
    32
  0
VERTEX
  8
1
  5
831E
 10
557.242
 20
2597.83
 30
0.000000
  70
    32
  0
VERTEX
  8
1
  5
831F
 10
556.798
 20
2598.26
 30
0.000000
  70
    32
  0
VERTEX
  8
1
  5
8320
 10
556.357
 20
2598.70
 30
0.000000
  70
    32
  0
VERTEX
  8
1
  5
8321
 10
555.920
 20
2599.13
 30
0.000000
  70
    32
  0
VERTEX
  8
1
  5
8322
 10
555.486
 20
2599.58
 30
0.000000
  70
    32
  0
VERTEX
  8
1
  5
8323
 10
555.055
 20
2600.02
 30
0.000000
  70
    32
  0
VERTEX
  8
1
  5
8324
 10
554.627
 20
2600.47
 30
0.000000
  70
    32
  0
VERTEX
  8
1
  5
8325
 10
554.202
 20
2600.92
 30
0.000000
  70
    32
  0
VERTEX
  8
1
  5
8326
 10
553.781
 20
2601.37
 30
0.000000
  70
    32
  0
VERTEX
  8
1
  5
8327
 10
553.362
 20
2601.83
 30
0.000000
  70
    32
  0
VERTEX
  8
1
  5
8328
 10
552.947
 20
2602.29
 30
0.000000
  70
    32
  0
VERTEX
  8
1
  5
8329
 10
552.535
 20
2602.75
 30
0.000000
  70
    32
  0
VERTEX
  8
1
  5
832A
 10
552.126
 20
2603.22
 30
0.000000
  70
    32
  0
VERTEX
  8
1
  5
832B
 10
551.720
 20
2603.69
 30
0.000000
  70
    32
  0
VERTEX
  8
1
  5
832C
 10
551.317
 20
2604.16
 30
0.000000
  70
    32
  0
VERTEX
  8
1
  5
832D
 10
550.917
 20
2604.63
 30
0.000000
  70
    32
  0
VERTEX
  8
1
  5
832E
 10
550.521
 20
2605.11
 30
0.000000
  70
    32
  0
VERTEX
  8
1
  5
832F
 10
550.127
 20
2605.59
 30
0.000000
  70
    32
  0
VERTEX
  8
1
  5
8330
 10
549.736
 20
2606.07
 30
0.000000
  70
    32
  0
VERTEX
  8
1
  5
8331
 10
549.349
 20
2606.56
 30
0.000000
  70
    32
  0
VERTEX
  8
1
  5
8332
 10
548.964
 20
2607.04
 30
0.000000
  70
    32
  0
VERTEX
  8
1
  5
8333
 10
548.583
 20
2607.53
 30
0.000000
  70
    32
  0
VERTEX
  8
1
  5
8334
 10
548.204
 20
2608.02
 30
0.000000
  70
    32
  0
VERTEX
  8
1
  5
8335
 10
547.829
 20
2608.52
 30
0.000000
  70
    32
  0
VERTEX
  8
1
  5
8336
 10
547.457
 20
2609.02
 30
0.000000
  70
    32
  0
VERTEX
  8
1
  5
8337
 10
547.087
 20
2609.52
 30
0.000000
  70
    32
  0
VERTEX
  8
1
  5
8338
 10
546.721
 20
2610.02
 30
0.000000
  70
    32
  0
VERTEX
  8
1
  5
8339
 10
546.357
 20
2610.52
 30
0.000000
  70
    32
  0
VERTEX
  8
1
  5
833A
 10
545.996
 20
2611.03
 30
0.000000
  70
    32
  0
VERTEX
  8
1
  5
833B
 10
545.639
 20
2611.53
 30
0.000000
  70
    32
  0
VERTEX
  8
1
  5
833C
 10
545.284
 20
2612.04
 30
0.000000
  70
    32
  0
VERTEX
  8
1
  5
833D
 10
544.932
 20
2612.56
 30
0.000000
  70
    32
  0
VERTEX
  8
1
  5
833E
 10
544.583
 20
2613.07
 30
0.000000
  70
    32
  0
VERTEX
  8
1
  5
833F
 10
544.237
 20
2613.59
 30
0.000000
  70
    32
  0
VERTEX
  8
1
  5
8340
 10
543.894
 20
2614.10
 30
0.000000
  70
    32
  0
VERTEX
  8
1
  5
8341
 10
543.554
 20
2614.62
 30
0.000000
  70
    32
  0
VERTEX
  8
1
  5
8342
 10
543.216
 20
2615.14
 30
0.000000
  70
    32
  0
VERTEX
  8
1
  5
8343
 10
542.882
 20
2615.67
 30
0.000000
  70
    32
  0
VERTEX
  8
1
  5
8344
 10
542.550
 20
2616.19
 30
0.000000
  70
    32
  0
VERTEX
  8
1
  5
8345
 10
542.221
 20
2616.72
 30
0.000000
  70
    32
  0
VERTEX
  8
1
  5
8346
 10
541.895
 20
2617.25
 30
0.000000
  70
    32
  0
VERTEX
  8
1
  5
8347
 10
541.572
 20
2617.78
 30
0.000000
  70
    32
  0
VERTEX
  8
1
  5
8348
 10
541.251
 20
2618.31
 30
0.000000
  70
    32
  0
VERTEX
  8
1
  5
8349
 10
540.934
 20
2618.84
 30
0.000000
  70
    32
  0
VERTEX
  8
1
  5
834A
 10
540.619
 20
2619.37
 30
0.000000
  70
    32
  0
VERTEX
  8
1
  5
834B
 10
540.306
 20
2619.91
 30
0.000000
  70
    32
  0
VERTEX
  8
1
  5
834C
 10
539.997
 20
2620.45
 30
0.000000
  70
    32
  0
VERTEX
  8
1
  5
834D
 10
539.690
 20
2620.98
 30
0.000000
  70
    32
  0
VERTEX
  8
1
  5
834E
 10
539.386
 20
2621.52
 30
0.000000
  70
    32
  0
VERTEX
  8
1
  5
834F
 10
539.085
 20
2622.06
 30
0.000000
  70
    32
  0
VERTEX
  8
1
  5
8350
 10
538.787
 20
2622.60
 30
0.000000
  70
    32
  0
VERTEX
  8
1
  5
8351
 10
538.491
 20
2623.15
 30
0.000000
  70
    32
  0
VERTEX
  8
1
  5
8352
 10
538.198
 20
2623.69
 30
0.000000
  70
    32
  0
VERTEX
  8
1
  5
8353
 10
537.907
 20
2624.24
 30
0.000000
  70
    32
  0
VERTEX
  8
1
  5
8354
 10
537.619
 20
2624.78
 30
0.000000
  70
    32
  0
VERTEX
  8
1
  5
8355
 10
537.333
 20
2625.33
 30
0.000000
  70
    32
  0
VERTEX
  8
1
  5
8356
 10
537.050
 20
2625.88
 30
0.000000
  70
    32
  0
VERTEX
  8
1
  5
8357
 10
536.769
 20
2626.43
 30
0.000000
  70
    32
  0
VERTEX
  8
1
  5
8358
 10
536.491
 20
2626.98
 30
0.000000
  70
    32
  0
VERTEX
  8
1
  5
8359
 10
536.214
 20
2627.53
 30
0.000000
  70
    32
  0
VERTEX
  8
1
  5
835A
 10
535.941
 20
2628.08
 30
0.000000
  70
    32
  0
VERTEX
  8
1
  5
835B
 10
535.669
 20
2628.63
 30
0.000000
  70
    32
  0
VERTEX
  8
1
  5
835C
 10
535.399
 20
2629.19
 30
0.000000
  70
    32
  0
VERTEX
  8
1
  5
835D
 10
535.132
 20
2629.74
 30
0.000000
  70
    32
  0
VERTEX
  8
1
  5
835E
 10
534.867
 20
2630.30
 30
0.000000
  70
    32
  0
VERTEX
  8
1
  5
835F
 10
534.603
 20
2630.85
 30
0.000000
  70
    32
  0
VERTEX
  8
1
  5
8360
 10
534.342
 20
2631.41
 30
0.000000
  70
    32
  0
VERTEX
  8
1
  5
8361
 10
534.083
 20
2631.97
 30
0.000000
  70
    32
  0
VERTEX
  8
1
  5
8362
 10
533.826
 20
2632.53
 30
0.000000
  70
    32
  0
VERTEX
  8
1
  5
8363
 10
533.570
 20
2633.09
 30
0.000000
  70
    32
  0
VERTEX
  8
1
  5
8364
 10
533.317
 20
2633.65
 30
0.000000
  70
    32
  0
VERTEX
  8
1
  5
8365
 10
533.065
 20
2634.21
 30
0.000000
  70
    32
  0
VERTEX
  8
1
  5
8366
 10
532.815
 20
2634.77
 30
0.000000
  70
    32
  0
VERTEX
  8
1
  5
8367
 10
532.566
 20
2635.34
 30
0.000000
  70
    32
  0
VERTEX
  8
1
  5
8368
 10
532.320
 20
2635.90
 30
0.000000
  70
    32
  0
VERTEX
  8
1
  5
8369
 10
532.075
 20
2636.47
 30
0.000000
  70
    32
  0
VERTEX
  8
1
  5
836A
 10
531.831
 20
2637.03
 30
0.000000
  70
    32
  0
VERTEX
  8
1
  5
836B
 10
531.589
 20
2637.60
 30
0.000000
  70
    32
  0
VERTEX
  8
1
  5
836C
 10
531.349
 20
2638.16
 30
0.000000
  70
    32
  0
VERTEX
  8
1
  5
836D
 10
531.110
 20
2638.73
 30
0.000000
  70
    32
  0
VERTEX
  8
1
  5
836E
 10
530.872
 20
2639.30
 30
0.000000
  70
    32
  0
VERTEX
  8
1
  5
836F
 10
530.636
 20
2639.87
 30
0.000000
  70
    32
  0
VERTEX
  8
1
  5
8370
 10
530.401
 20
2640.44
 30
0.000000
  70
    32
  0
VERTEX
  8
1
  5
8371
 10
530.168
 20
2641.01
 30
0.000000
  70
    32
  0
VERTEX
  8
1
  5
8372
 10
529.935
 20
2641.58
 30
0.000000
  70
    32
  0
VERTEX
  8
1
  5
8373
 10
529.704
 20
2642.15
 30
0.000000
  70
    32
  0
VERTEX
  8
1
  5
8374
 10
529.474
 20
2642.72
 30
0.000000
  70
    32
  0
VERTEX
  8
1
  5
8375
 10
529.245
 20
2643.29
 30
0.000000
  70
    32
  0
VERTEX
  8
1
  5
8376
 10
529.017
 20
2643.86
 30
0.000000
  70
    32
  0
VERTEX
  8
1
  5
8377
 10
528.791
 20
2644.43
 30
0.000000
  70
    32
  0
VERTEX
  8
1
  5
8378
 10
528.565
 20
2645.01
 30
0.000000
  70
    32
  0
VERTEX
  8
1
  5
8379
 10
528.340
 20
2645.58
 30
0.000000
  70
    32
  0
VERTEX
  8
1
  5
837A
 10
528.116
 20
2646.15
 30
0.000000
  70
    32
  0
VERTEX
  8
1
  5
837B
 10
527.893
 20
2646.73
 30
0.000000
  70
    32
  0
VERTEX
  8
1
  5
837C
 10
527.671
 20
2647.30
 30
0.000000
  70
    32
  0
VERTEX
  8
1
  5
837D
 10
527.449
 20
2647.88
 30
0.000000
  70
    32
  0
VERTEX
  8
1
  5
837E
 10
527.228
 20
2648.45
 30
0.000000
  70
    32
  0
VERTEX
  8
1
  5
837F
 10
527.008
 20
2649.03
 30
0.000000
  70
    32
  0
VERTEX
  8
1
  5
8380
 10
526.789
 20
2649.60
 30
0.000000
  70
    32
  0
VERTEX
  8
1
  5
8381
 10
526.570
 20
2650.18
 30
0.000000
  70
    32
  0
VERTEX
  8
1
  5
8382
 10
526.351
 20
2650.75
 30
0.000000
  70
    32
  0
VERTEX
  8
1
  5
8383
 10
526.134
 20
2651.33
 30
0.000000
  70
    32
  0
VERTEX
  8
1
  5
8384
 10
525.916
 20
2651.91
 30
0.000000
  70
    32
  0
VERTEX
  8
1
  5
8385
 10
525.699
 20
2652.48
 30
0.000000
  70
    32
  0
VERTEX
  8
1
  5
8386
 10
525.483
 20
2653.06
 30
0.000000
  70
    32
  0
VERTEX
  8
1
  5
8387
 10
525.267
 20
2653.64
 30
0.000000
  70
    32
  0
VERTEX
  8
1
  5
8388
 10
525.051
 20
2654.22
 30
0.000000
  70
    32
  0
VERTEX
  8
1
  5
8389
 10
524.835
 20
2654.79
 30
0.000000
  70
    32
  0
VERTEX
  8
1
  5
838A
 10
524.620
 20
2655.37
 30
0.000000
  70
    32
  0
VERTEX
  8
1
  5
838B
 10
524.404
 20
2655.95
 30
0.000000
  70
    32
  0
VERTEX
  8
1
  5
838C
 10
524.189
 20
2656.53
 30
0.000000
  70
    32
  0
VERTEX
  8
1
  5
838D
 10
523.974
 20
2657.10
 30
0.000000
  70
    32
  0
VERTEX
  8
1
  5
838E
 10
523.759
 20
2657.68
 30
0.000000
  70
    32
  0
SEQEND
  8
1
  5
838F
  0
DIMENSION
  5
7EEF
  8
3
  2
*D8
 10
1886.8764576688841
 20
2377.680121590166
 30
0.0
 11
1849.3764576688841
 21
2197.680121590166
 31
0.0
 70
     0
 13
2093.222111389879
 23
2017.680121590166
 33
0.0
 14
2013.222111389879
 24
2377.680121590166
 34
0.0
 50
90.0
1001
ACAD
1000
DSTYLE
1002
{
1070
   172
1070
     1
1070
    40
1040
15.0
1070
   271
1070
     0
1070
   143
1040
0.039
1002
}
  0
DIMENSION
  5
7EFC
  8
3
  2
*D9
 10
2688.222111389879
 20
1832.3614971071829
 30
0.0
 11
2343.222111389879
 21
1869.8614971071829
 31
0.0
 70
     0
 13
1998.222111389879
 23
1939.680121590166
 33
0.0
 14
2688.222111389879
 24
1939.680121590166
 34
0.0
1001
ACAD
1000
DSTYLE
1002
{
1070
   172
1070
     1
1070
    40
1040
15.0
1070
   271
1070
     0
1070
   143
1040
0.039
1002
}
  0
LINE
  5
7F4A
  8
1
 10
684.51631958389135
 20
2313.0290627002269
 30
0.0
 11
684.51631958389135
 21
2442.331180480106
 31
0.0
  0
LINE
  5
7F4B
  8
1
 10
707.24458979052292
 20
2461.7505583319689
 30
0.0
 11
666.03802542847495
 21
2573.3945981166421
 31
0.0
  0
LINE
  5
7F4C
  8
1
 10
799.35478894433459
 20
2540.450905745839
 30
0.0
 11
759.88443256729352
 21
2615.9110602242808
 31
0.0
  0
LINE
  5
7F4D
  8
1
 10
666.03802542847495
 20
2573.3945981166421
 30
0.0
 11
759.88443256729317
 21
2615.9110602242808
 31
0.0
  0
LINE
  5
7F4E
  8
1
 10
840.80688225989729
 20
2567.180121590166
 30
0.0
 11
840.80688225989695
 21
2188.180121590166
 31
0.0
  0
LINE
  5
7F4F
  8
1
 10
684.51631958389135
 20
2313.0290627002269
 30
0.0
 11
830.63842968481015
 21
2188.180121590166
 31
0.0
  0
LINE
  5
7F50
  8
1
 10
799.35478894433459
 20
2214.909337434492
 30
0.0
 11
759.88443256729352
 21
2139.4491829560511
 31
0.0
  0
LINE
  5
7F51
  8
1
 10
666.03802542847495
 20
2181.9656450636899
 30
0.0
 11
759.88443256729317
 21
2139.4491829560511
 31
0.0
  0
LINE
  5
7F52
  8
1
 10
707.24458979052292
 20
2293.6096848483639
 30
0.0
 11
666.03802542847495
 21
2181.9656450636899
 31
0.0
  0
LINE
  5
7F53
  8
1
 10
840.80688225989729
 20
2188.180121590166
 30
0.0
 11
830.63842968481015
 21
2188.180121590166
 31
0.0
  0
LINE
  5
7F54
  8
1
 10
684.51631958389135
 20
2442.331180480106
 30
0.0
 11
830.63842968481015
 21
2567.180121590166
 31
0.0
  0
LINE
  5
7F55
  8
1
 10
840.80688225989729
 20
2567.180121590166
 30
0.0
 11
830.63842968481015
 21
2567.180121590166
 31
0.0
  0
ENDSEC
  0
EOF
