  0
SECTION
  2
HEADER
  9
$ACADVER
  1
AC1027
  9
$ACADMAINTVER
 70
    81
  9
$DWGCODEPAGE
  3
ANSI_932
  9
$LASTSAVEDBY
  1
reiko.miyawaki
  9
$REQUIREDVERSIONS
160
                 0
  9
$INSBASE
 10
0.0
 20
0.0
 30
0.0
  9
$EXTMIN
 10
375.0
 20
450.0
 30
0.0
  9
$EXTMAX
 10
2775.0
 20
4179.978392
 30
0.0
  9
$LIMMIN
 10
0.0
 20
0.0
  9
$LIMMAX
 10
297.0
 20
210.0
  9
$ORTHOMODE
 70
     0
  9
$REGENMODE
 70
     1
  9
$FILLMODE
 70
     0
  9
$QTEXTMODE
 70
     0
  9
$MIRRTEXT
 70
     1
  9
$LTSCALE
 40
100.0
  9
$ATTMODE
 70
     1
  9
$TEXTSIZE
 40
180.0
  9
$TRACEWID
 40
0.05
  9
$TEXTSTYLE
  7
STANDARD
  9
$CLAYER
  8
3
  9
$CELTYPE
  6
BYLAYER
  9
$CECOLOR
 62
   256
  9
$CELTSCALE
 40
1.0
  9
$DISPSILH
 70
     0
  9
$DIMSCALE
 40
15.0
  9
$DIMASZ
 40
2.0
  9
$DIMEXO
 40
0.5
  9
$DIMDLI
 40
10.0
  9
$DIMRND
 40
0.0
  9
$DIMDLE
 40
0.0
  9
$DIMEXE
 40
1.0
  9
$DIMTP
 40
1.0
  9
$DIMTM
 40
1.0
  9
$DIMTXT
 40
3.0
  9
$DIMCEN
 40
0.0
  9
$DIMTSZ
 40
0.0
  9
$DIMTOL
 70
     0
  9
$DIMLIM
 70
     0
  9
$DIMTIH
 70
     0
  9
$DIMTOH
 70
     0
  9
$DIMSE1
 70
     0
  9
$DIMSE2
 70
     0
  9
$DIMTAD
 70
     1
  9
$DIMZIN
 70
     8
  9
$DIMBLK
  1

  9
$DIMASO
 70
     1
  9
$DIMSHO
 70
     1
  9
$DIMPOST
  1
(<>)
  9
$DIMAPOST
  1

  9
$DIMALT
 70
     0
  9
$DIMALTD
 70
     2
  9
$DIMALTF
 40
0.039
  9
$DIMLFAC
 40
1.0
  9
$DIMTOFL
 70
     1
  9
$DIMTVP
 40
0.0
  9
$DIMTIX
 70
     0
  9
$DIMSOXD
 70
     0
  9
$DIMSAH
 70
     1
  9
$DIMBLK1
  1
DOT
  9
$DIMBLK2
  1
OPEN
  9
$DIMSTYLE
  2
IGA
  9
$DIMCLRD
 70
     0
  9
$DIMCLRE
 70
     0
  9
$DIMCLRT
 70
     0
  9
$DIMTFAC
 40
10.0
  9
$DIMGAP
 40
1.0
  9
$DIMJUST
 70
     0
  9
$DIMSD1
 70
     0
  9
$DIMSD2
 70
     0
  9
$DIMTOLJ
 70
     1
  9
$DIMTZIN
 70
     8
  9
$DIMALTZ
 70
     0
  9
$DIMALTTZ
 70
     0
  9
$DIMUPT
 70
     0
  9
$DIMDEC
 70
     0
  9
$DIMTDEC
 70
     0
  9
$DIMALTU
 70
     2
  9
$DIMALTTD
 70
     2
  9
$DIMTXSTY
  7
STANDARD
  9
$DIMAUNIT
 70
     0
  9
$DIMADEC
 70
     0
  9
$DIMALTRND
 40
0.0
  9
$DIMAZIN
 70
     0
  9
$DIMDSEP
 70
    46
  9
$DIMATFIT
 70
     3
  9
$DIMFRAC
 70
     0
  9
$DIMLDRBLK
  1
DOT
  9
$DIMLUNIT
 70
     2
  9
$DIMLWD
 70
    -2
  9
$DIMLWE
 70
    -2
  9
$DIMTMOVE
 70
     2
  9
$DIMFXL
 40
1.0
  9
$DIMFXLON
 70
     0
  9
$DIMJOGANG
 40
0.7853981633974483
  9
$DIMTFILL
 70
     0
  9
$DIMTFILLCLR
 70
     0
  9
$DIMARCSYM
 70
     0
  9
$DIMLTYPE
  6

  9
$DIMLTEX1
  6

  9
$DIMLTEX2
  6

  9
$DIMTXTDIRECTION
 70
     0
  9
$LUNITS
 70
     2
  9
$LUPREC
 70
     3
  9
$SKETCHINC
 40
0.1
  9
$FILLETRAD
 40
50.0
  9
$AUNITS
 70
     0
  9
$AUPREC
 70
     0
  9
$MENU
  1
acad
  9
$ELEVATION
 40
0.0
  9
$PELEVATION
 40
0.0
  9
$THICKNESS
 40
0.0
  9
$LIMCHECK
 70
     0
  9
$CHAMFERA
 40
0.5
  9
$CHAMFERB
 40
0.5
  9
$CHAMFERC
 40
20.0
  9
$CHAMFERD
 40
0.0
  9
$SKPOLY
 70
     0
  9
$TDCREATE
 40
2450745.693178125
  9
$TDUCREATE
 40
2450745.318178125
  9
$TDUPDATE
 40
2459024.554035682
  9
$TDUUPDATE
 40
2459024.179035683
  9
$TDINDWG
 40
0.0095921759
  9
$TDUSRTIMER
 40
0.0095921759
  9
$USRTIMER
 70
     1
  9
$ANGBASE
 50
0.0
  9
$ANGDIR
 70
     0
  9
$PDMODE
 70
     0
  9
$PDSIZE
 40
0.0
  9
$PLINEWID
 40
0.0
  9
$SPLFRAME
 70
     0
  9
$SPLINETYPE
 70
     6
  9
$SPLINESEGS
 70
     8
  9
$HANDSEED
  5
7F4D
  9
$SURFTAB1
 70
     6
  9
$SURFTAB2
 70
     6
  9
$SURFTYPE
 70
     6
  9
$SURFU
 70
     6
  9
$SURFV
 70
     6
  9
$UCSBASE
  2

  9
$UCSNAME
  2

  9
$UCSORG
 10
0.0
 20
0.0
 30
0.0
  9
$UCSXDIR
 10
1.0
 20
0.0
 30
0.0
  9
$UCSYDIR
 10
0.0
 20
1.0
 30
0.0
  9
$UCSORTHOREF
  2

  9
$UCSORTHOVIEW
 70
     0
  9
$UCSORGTOP
 10
0.0
 20
0.0
 30
0.0
  9
$UCSORGBOTTOM
 10
0.0
 20
0.0
 30
0.0
  9
$UCSORGLEFT
 10
0.0
 20
0.0
 30
0.0
  9
$UCSORGRIGHT
 10
0.0
 20
0.0
 30
0.0
  9
$UCSORGFRONT
 10
0.0
 20
0.0
 30
0.0
  9
$UCSORGBACK
 10
0.0
 20
0.0
 30
0.0
  9
$PUCSBASE
  2

  9
$PUCSNAME
  2

  9
$PUCSORG
 10
0.0
 20
0.0
 30
0.0
  9
$PUCSXDIR
 10
1.0
 20
0.0
 30
0.0
  9
$PUCSYDIR
 10
0.0
 20
1.0
 30
0.0
  9
$PUCSORTHOREF
  2

  9
$PUCSORTHOVIEW
 70
     0
  9
$PUCSORGTOP
 10
0.0
 20
0.0
 30
0.0
  9
$PUCSORGBOTTOM
 10
0.0
 20
0.0
 30
0.0
  9
$PUCSORGLEFT
 10
0.0
 20
0.0
 30
0.0
  9
$PUCSORGRIGHT
 10
0.0
 20
0.0
 30
0.0
  9
$PUCSORGFRONT
 10
0.0
 20
0.0
 30
0.0
  9
$PUCSORGBACK
 10
0.0
 20
0.0
 30
0.0
  9
$USERI1
 70
     0
  9
$USERI2
 70
     0
  9
$USERI3
 70
     0
  9
$USERI4
 70
     0
  9
$USERI5
 70
     0
  9
$USERR1
 40
0.0
  9
$USERR2
 40
0.0
  9
$USERR3
 40
0.0
  9
$USERR4
 40
0.0
  9
$USERR5
 40
0.0
  9
$WORLDVIEW
 70
     1
  9
$SHADEDGE
 70
     3
  9
$SHADEDIF
 70
    70
  9
$TILEMODE
 70
     1
  9
$MAXACTVP
 70
    16
  9
$PINSBASE
 10
0.0
 20
0.0
 30
0.0
  9
$PLIMCHECK
 70
     0
  9
$PEXTMIN
 10
1.000000000000000E+20
 20
1.000000000000000E+20
 30
1.000000000000000E+20
  9
$PEXTMAX
 10
-1.000000000000000E+20
 20
-1.000000000000000E+20
 30
-1.000000000000000E+20
  9
$PLIMMIN
 10
0.0
 20
0.0
  9
$PLIMMAX
 10
12.0
 20
9.0
  9
$UNITMODE
 70
     0
  9
$VISRETAIN
 70
     0
  9
$PLINEGEN
 70
     0
  9
$PSLTSCALE
 70
     1
  9
$TREEDEPTH
 70
  3020
  9
$CMLSTYLE
  2
STANDARD
  9
$CMLJUST
 70
     0
  9
$CMLSCALE
 40
20.0
  9
$PROXYGRAPHICS
 70
     1
  9
$MEASUREMENT
 70
     0
  9
$CELWEIGHT
370
    -1
  9
$ENDCAPS
280
     0
  9
$JOINSTYLE
280
     0
  9
$LWDISPLAY
290
     0
  9
$INSUNITS
 70
     0
  9
$HYPERLINKBASE
  1

  9
$STYLESHEET
  1

  9
$XEDIT
290
     1
  9
$CEPSNTYPE
380
     0
  9
$PSTYLEMODE
290
     1
  9
$FINGERPRINTGUID
  2
{07170446-0730-497A-BDBB-26012CC23232}
  9
$VERSIONGUID
  2
{9025CB29-304F-42AC-A0A3-49075BE0996A}
  9
$EXTNAMES
290
     1
  9
$PSVPSCALE
 40
0.0
  9
$OLESTARTUP
290
     0
  9
$SORTENTS
280
   127
  9
$INDEXCTL
280
     0
  9
$HIDETEXT
280
     0
  9
$XCLIPFRAME
280
     2
  9
$HALOGAP
280
     0
  9
$OBSCOLOR
 70
   257
  9
$OBSLTYPE
280
     0
  9
$INTERSECTIONDISPLAY
280
     0
  9
$INTERSECTIONCOLOR
 70
   257
  9
$DIMASSOC
280
     1
  9
$PROJECTNAME
  1

  9
$CAMERADISPLAY
290
     0
  9
$LENSLENGTH
 40
50.0
  9
$CAMERAHEIGHT
 40
0.0
  9
$STEPSPERSEC
 40
2.0
  9
$STEPSIZE
 40
6.0
  9
$3DDWFPREC
 40
2.0
  9
$PSOLWIDTH
 40
0.25
  9
$PSOLHEIGHT
 40
4.0
  9
$LOFTANG1
 40
1.570796326794896
  9
$LOFTANG2
 40
1.570796326794896
  9
$LOFTMAG1
 40
0.0
  9
$LOFTMAG2
 40
0.0
  9
$LOFTPARAM
 70
     7
  9
$LOFTNORMALS
280
     1
  9
$LATITUDE
 40
37.795
  9
$LONGITUDE
 40
-122.394
  9
$NORTHDIRECTION
 40
0.0
  9
$TIMEZONE
 70
 -8000
  9
$LIGHTGLYPHDISPLAY
280
     1
  9
$TILEMODELIGHTSYNCH
280
     1
  9
$CMATERIAL
347
7E48
  9
$SOLIDHIST
280
     0
  9
$SHOWHIST
280
     1
  9
$DWFFRAME
280
     2
  9
$DGNFRAME
280
     0
  9
$REALWORLDSCALE
290
     1
  9
$INTERFERECOLOR
 62
     1
  9
$INTERFEREOBJVS
345
7E6A
  9
$INTERFEREVPVS
346
7E67
  9
$CSHADOW
280
     0
  9
$SHADOWPLANELOCATION
 40
0.0
  0
ENDSEC
  0
SECTION
  2
CLASSES
  0
CLASS
  1
ACDBDICTIONARYWDFLT
  2
AcDbDictionaryWithDefault
  3
ObjectDBX Classes
 90
        0
 91
        1
280
     0
281
     0
  0
CLASS
  1
DICTIONARYVAR
  2
AcDbDictionaryVar
  3
ObjectDBX Classes
 90
        0
 91
       10
280
     0
281
     0
  0
CLASS
  1
MATERIAL
  2
AcDbMaterial
  3
ObjectDBX Classes
 90
     1153
 91
        3
280
     0
281
     0
  0
CLASS
  1
VISUALSTYLE
  2
AcDbVisualStyle
  3
ObjectDBX Classes
 90
     4095
 91
       24
280
     0
281
     0
  0
CLASS
  1
TABLESTYLE
  2
AcDbTableStyle
  3
ObjectDBX Classes
 90
     4095
 91
        1
280
     0
281
     0
  0
CLASS
  1
SCALE
  2
AcDbScale
  3
ObjectDBX Classes
 90
     1153
 91
       17
280
     0
281
     0
  0
CLASS
  1
MLEADERSTYLE
  2
AcDbMLeaderStyle
  3
ACDB_MLEADERSTYLE_CLASS
 90
     4095
 91
        1
280
     0
281
     0
  0
CLASS
  1
ACDBSECTIONVIEWSTYLE
  2
AcDbSectionViewStyle
  3
ObjectDBX Classes
 90
     1025
 91
        1
280
     0
281
     0
  0
CLASS
  1
ACDBDETAILVIEWSTYLE
  2
AcDbDetailViewStyle
  3
ObjectDBX Classes
 90
     1025
 91
        1
280
     0
281
     0
  0
CLASS
  1
CELLSTYLEMAP
  2
AcDbCellStyleMap
  3
ObjectDBX Classes
 90
     1152
 91
        1
280
     0
281
     0
  0
ENDSEC
  0
SECTION
  2
TABLES
  0
TABLE
  2
VPORT
  5
8
330
0
100
AcDbSymbolTable
 70
     1
  0
VPORT
  5
7E45
330
8
100
AcDbSymbolTableRecord
100
AcDbViewportTableRecord
  2
*Active
 70
     0
 10
0.0
 20
0.0
 11
1.0
 21
1.0
 12
1574.974257472756
 22
2404.276351447015
 13
0.0
 23
0.0
 14
10.0
 24
10.0
 15
10.0
 25
10.0
 16
0.0
 26
0.0
 36
1.0
 17
0.0
 27
0.0
 37
0.0
 40
3932.738508853232
 41
1.957107843137254
 42
50.0
 43
0.0
 44
0.0
 50
0.0
 51
0.0
 71
     0
 72
   100
 73
     1
 74
     0
 75
     0
 76
     0
 77
     0
 78
     0
281
     0
 65
     1
110
0.0
120
0.0
130
0.0
111
1.0
121
0.0
131
0.0
112
0.0
122
1.0
132
0.0
 79
     0
146
0.0
348
7E66
 60
     3
 61
     5
292
     1
282
     1
141
0.0
142
0.0
 63
   250
421
  3355443
1001
ACAD_NAV_VCDISPLAY
1070
     3
  0
ENDTAB
  0
TABLE
  2
LTYPE
  5
5
330
0
100
AcDbSymbolTable
 70
     2
  0
LTYPE
  5
13
330
5
100
AcDbSymbolTableRecord
100
AcDbLinetypeTableRecord
  2
BYBLOCK
 70
     0
  3

 72
    65
 73
     0
 40
0.0
  0
LTYPE
  5
14
330
5
100
AcDbSymbolTableRecord
100
AcDbLinetypeTableRecord
  2
BYLAYER
 70
     0
  3

 72
    65
 73
     0
 40
0.0
  0
LTYPE
  5
15
330
5
100
AcDbSymbolTableRecord
100
AcDbLinetypeTableRecord
  2
CONTINUOUS
 70
     0
  3
Solid line
 72
    65
 73
     0
 40
0.0
  0
LTYPE
  5
1F
330
5
100
AcDbSymbolTableRecord
100
AcDbLinetypeTableRecord
  2
CENTER
 70
     0
  3
____ _ ____ _ ____ _ ____ _ ____ _ ____ _ ____ 
 72
    65
 73
     4
 40
2.0
 49
1.25
 74
     0
 49
-0.25
 74
     0
 49
0.25
 74
     0
 49
-0.25
 74
     0
  0
ENDTAB
  0
TABLE
  2
LAYER
  5
2
102
{ACAD_XDICTIONARY
360
7E98
102
}
330
0
100
AcDbSymbolTable
 70
     6
  0
LAYER
  5
F
102
{ACAD_XDICTIONARY
360
7EDE
102
}
330
2
100
AcDbSymbolTableRecord
100
AcDbLayerTableRecord
  2
0
 70
     0
 62
     7
  6
CONTINUOUS
370
    -3
390
7D77
347
7E58
348
0
  0
LAYER
  5
31
102
{ACAD_XDICTIONARY
360
7EE0
102
}
330
2
100
AcDbSymbolTableRecord
100
AcDbLayerTableRecord
  2
3
 70
     0
 62
     2
  6
CONTINUOUS
370
    -3
390
7D77
347
7E58
348
0
  0
LAYER
  5
76D0
102
{ACAD_XDICTIONARY
360
7EE2
102
}
330
2
100
AcDbSymbolTableRecord
100
AcDbLayerTableRecord
  2
2
 70
     0
 62
     3
  6
CENTER
370
    -3
390
7D77
347
7E58
348
0
  0
LAYER
  5
76D1
102
{ACAD_XDICTIONARY
360
7EE4
102
}
330
2
100
AcDbSymbolTableRecord
100
AcDbLayerTableRecord
  2
1
 70
     0
 62
     4
  6
CONTINUOUS
370
    -3
390
7D77
347
7E58
348
0
  0
LAYER
  5
76D2
102
{ACAD_XDICTIONARY
360
7EE6
102
}
330
2
100
AcDbSymbolTableRecord
100
AcDbLayerTableRecord
  2
4
 70
     0
 62
     7
  6
CONTINUOUS
370
    -3
390
7D77
347
7E58
348
0
  0
LAYER
  5
7B4B
330
2
100
AcDbSymbolTableRecord
100
AcDbLayerTableRecord
  2
DEFPOINTS
 70
     0
 62
     7
  6
CONTINUOUS
290
     0
370
    -3
390
7D77
347
7E58
348
0
  0
ENDTAB
  0
TABLE
  2
STYLE
  5
3
330
0
100
AcDbSymbolTable
 70
     1
  0
STYLE
  5
10
330
3
100
AcDbSymbolTableRecord
100
AcDbTextStyleTableRecord
  2
STANDARD
 70
     0
 40
0.0
 41
1.0
 50
0.0
 71
     0
 42
180.0
  3
simplex.shx
  4
extfont.shx
  0
ENDTAB
  0
TABLE
  2
VIEW
  5
6
330
0
100
AcDbSymbolTable
 70
     0
  0
ENDTAB
  0
TABLE
  2
UCS
  5
7
330
0
100
AcDbSymbolTable
 70
     0
  0
ENDTAB
  0
TABLE
  2
APPID
  5
9
330
0
100
AcDbSymbolTable
 70
     4
  0
APPID
  5
11
330
9
100
AcDbSymbolTableRecord
100
AcDbRegAppTableRecord
  2
ACAD
 70
     0
  0
APPID
  5
7E97
330
9
100
AcDbSymbolTableRecord
100
AcDbRegAppTableRecord
  2
ACAD_NAV_VCDISPLAY
 70
     0
  0
APPID
  5
7F01
330
9
100
AcDbSymbolTableRecord
100
AcDbRegAppTableRecord
  2
AcadAnnoMonitorAlertIconDisabled
 70
     0
  0
APPID
  5
7F02
330
9
100
AcDbSymbolTableRecord
100
AcDbRegAppTableRecord
  2
ACAD_EXEMPT_FROM_CAD_STANDARDS
 70
     0
  0
ENDTAB
  0
TABLE
  2
DIMSTYLE
  5
A
330
0
100
AcDbSymbolTable
 70
     1
100
AcDbDimStyleTable
 71
     1
340
1D
  0
DIMSTYLE
105
1D
102
{ACAD_REACTORS
330
7B5C
330
7B69
330
7B76
330
7B82
330
7BC6
330
7BD2
330
7BDF
330
7BEC
330
7BFC
330
7C09
330
7C17
330
7C4B
330
7C8B
330
7D3C
330
7D49
330
7D60
330
7D6F
330
7F24
102
}
330
A
100
AcDbSymbolTableRecord
100
AcDbDimStyleTableRecord
  2
IGA
 70
     0
 40
2.0
 41
2.0
 42
0.5
 43
10.0
 44
1.0
 47
1.0
 48
1.0
 73
     0
 74
     0
 77
     1
 78
     8
140
3.0
141
0.0
143
0.03937
146
10.0
147
1.0
173
     1
271
     1
272
     0
279
     2
284
     8
340
10
341
7B3D
343
7B3D
344
7B3D
  0
ENDTAB
  0
TABLE
  2
BLOCK_RECORD
  5
1
330
0
100
AcDbSymbolTable
 70
    20
  0
BLOCK_RECORD
  5
19
102
{ACAD_XDICTIONARY
360
7DA5
102
}
330
1
100
AcDbSymbolTableRecord
100
AcDbBlockTableRecord
  2
*MODEL_SPACE
340
7D7A
 70
     0
280
     1
281
     0
  0
BLOCK_RECORD
  5
16
102
{ACAD_XDICTIONARY
360
7DA3
102
}
330
1
100
AcDbSymbolTableRecord
100
AcDbBlockTableRecord
  2
*PAPER_SPACE
340
7D7B
 70
     0
280
     1
281
     0
  0
BLOCK_RECORD
  5
7B3D
330
1
100
AcDbSymbolTableRecord
100
AcDbBlockTableRecord
  2
_OPEN
340
0
102
{BLKREFS
331
7EDA
331
7F10
331
7F11
331
7F2C
331
7F34
331
7F35
331
7DB6
331
7DB7
331
7DC7
331
7DC8
331
7DD0
331
7DD1
331
7DD8
331
7DD9
331
7DE1
331
7DE2
331
7DEA
331
7DEB
331
7DF3
331
7DF4
331
7E05
331
7E06
331
7E0D
331
7E0E
331
7E16
331
7E17
331
7EA6
331
7EA7
331
7EAF
331
7EB0
331
7EBB
331
7ECD
331
7ECE
102
}
 70
     0
280
     1
281
     0
  0
BLOCK_RECORD
  5
7B51
330
1
100
AcDbSymbolTableRecord
100
AcDbBlockTableRecord
  2
*D1
340
0
 70
     0
280
     1
281
     0
  0
BLOCK_RECORD
  5
7B5D
330
1
100
AcDbSymbolTableRecord
100
AcDbBlockTableRecord
  2
*D2
340
0
 70
     0
280
     1
281
     0
  0
BLOCK_RECORD
  5
7B6A
330
1
100
AcDbSymbolTableRecord
100
AcDbBlockTableRecord
  2
*D3
340
0
 70
     0
280
     1
281
     0
  0
BLOCK_RECORD
  5
7B77
330
1
100
AcDbSymbolTableRecord
100
AcDbBlockTableRecord
  2
*D4
340
0
 70
     0
280
     1
281
     0
  0
BLOCK_RECORD
  5
7BBA
330
1
100
AcDbSymbolTableRecord
100
AcDbBlockTableRecord
  2
*D5
340
0
 70
     0
280
     1
281
     0
  0
BLOCK_RECORD
  5
7BC7
330
1
100
AcDbSymbolTableRecord
100
AcDbBlockTableRecord
  2
*D6
340
0
 70
     0
280
     1
281
     0
  0
BLOCK_RECORD
  5
7BD3
330
1
100
AcDbSymbolTableRecord
100
AcDbBlockTableRecord
  2
*D7
340
0
 70
     0
280
     1
281
     0
  0
BLOCK_RECORD
  5
7BE0
330
1
100
AcDbSymbolTableRecord
100
AcDbBlockTableRecord
  2
*D8
340
0
 70
     0
280
     1
281
     0
  0
BLOCK_RECORD
  5
7BF0
330
1
100
AcDbSymbolTableRecord
100
AcDbBlockTableRecord
  2
*D9
340
0
 70
     0
280
     1
281
     0
  0
BLOCK_RECORD
  5
7BFD
330
1
100
AcDbSymbolTableRecord
100
AcDbBlockTableRecord
  2
*D10
340
0
 70
     0
280
     1
281
     0
  0
BLOCK_RECORD
  5
7C0A
330
1
100
AcDbSymbolTableRecord
100
AcDbBlockTableRecord
  2
*D11
340
0
 70
     0
280
     1
281
     0
  0
BLOCK_RECORD
  5
7C3F
330
1
100
AcDbSymbolTableRecord
100
AcDbBlockTableRecord
  2
*D12
340
0
 70
     0
280
     1
281
     0
  0
BLOCK_RECORD
  5
7C7F
330
1
100
AcDbSymbolTableRecord
100
AcDbBlockTableRecord
  2
*D13
340
0
 70
     0
280
     1
281
     0
  0
BLOCK_RECORD
  5
7D30
330
1
100
AcDbSymbolTableRecord
100
AcDbBlockTableRecord
  2
*D14
340
0
 70
     0
280
     1
281
     0
  0
BLOCK_RECORD
  5
7D3D
330
1
100
AcDbSymbolTableRecord
100
AcDbBlockTableRecord
  2
*D15
340
0
 70
     0
280
     1
281
     0
  0
BLOCK_RECORD
  5
7D4A
330
1
100
AcDbSymbolTableRecord
100
AcDbBlockTableRecord
  2
_DOT
340
0
102
{BLKREFS
331
7ED9
331
7F2B
331
7EBA
102
}
 70
     0
280
     1
281
     0
  0
BLOCK_RECORD
  5
7D52
330
1
100
AcDbSymbolTableRecord
100
AcDbBlockTableRecord
  2
*D17
340
0
 70
     0
280
     1
281
     0
  0
BLOCK_RECORD
  5
7D61
330
1
100
AcDbSymbolTableRecord
100
AcDbBlockTableRecord
  2
*D18
340
0
 70
     0
280
     1
281
     0
  0
BLOCK_RECORD
  5
7F25
330
1
100
AcDbSymbolTableRecord
100
AcDbBlockTableRecord
  2
*D19
340
0
 70
     0
280
     1
281
     0
  0
ENDTAB
  0
ENDSEC
  0
SECTION
  2
BLOCKS
  0
BLOCK
  5
1A
330
19
100
AcDbEntity
  8
0
100
AcDbBlockBegin
  2
*MODEL_SPACE
 70
     0
 10
0.0
 20
0.0
 30
0.0
  3
*MODEL_SPACE
  1

  0
ENDBLK
  5
1B
330
19
100
AcDbEntity
  8
0
100
AcDbBlockEnd
  0
BLOCK
  5
17
330
16
100
AcDbEntity
 67
     1
  8
0
100
AcDbBlockBegin
  2
*PAPER_SPACE
 70
     0
 10
0.0
 20
0.0
 30
0.0
  3
*PAPER_SPACE
  1

  0
ENDBLK
  5
18
330
16
100
AcDbEntity
 67
     1
  8
0
100
AcDbBlockEnd
  0
BLOCK
  5
7B3E
330
7B3D
100
AcDbEntity
  8
0
100
AcDbBlockBegin
  2
_OPEN
 70
     0
 10
0.0
 20
0.0
 30
0.0
  3
_OPEN
  1

  0
LINE
  5
7B3F
330
7B3D
100
AcDbEntity
  8
0
  6
ByBlock
 62
     0
100
AcDbLine
 10
-1.0
 20
0.166667
 30
0.0
 11
0.0
 21
0.0
 31
0.0
  0
LINE
  5
7B40
330
7B3D
100
AcDbEntity
  8
0
  6
ByBlock
 62
     0
100
AcDbLine
 10
0.0
 20
0.0
 30
0.0
 11
-1.0
 21
-0.166667
 31
0.0
  0
LINE
  5
7B41
330
7B3D
100
AcDbEntity
  8
0
  6
ByBlock
 62
     0
100
AcDbLine
 10
0.0
 20
0.0
 30
0.0
 11
-1.0
 21
0.0
 31
0.0
  0
ENDBLK
  5
7B42
330
7B3D
100
AcDbEntity
  8
0
100
AcDbBlockEnd
  0
BLOCK
  5
7B52
330
7B51
100
AcDbEntity
  8
0
100
AcDbBlockBegin
  2
*D1
 70
     1
 10
0.0
 20
0.0
 30
0.0
  3
*D1
  1

  0
LINE
  5
7ECB
330
7B51
100
AcDbEntity
  8
3
  6
Continuous
 62
     0
440
 16777216
370
    -2
100
AcDbLine
 10
1436.379417008196
 20
1185.293845009503
 30
0.0
 11
1436.379417008196
 21
1043.168231009503
 31
0.0
  0
LINE
  5
7ECC
330
7B51
100
AcDbEntity
  8
3
  6
Continuous
 62
     0
440
 16777216
370
    -2
100
AcDbLine
 10
1201.379417008196
 20
1058.168231009503
 30
0.0
 11
1406.379417008196
 21
1058.168231009503
 31
0.0
  0
INSERT
  5
7ECD
330
7B51
100
AcDbEntity
  8
3
  6
Continuous
 62
     0
440
 16777216
370
    -2
100
AcDbBlockReference
  2
_OPEN
 10
1171.379417008196
 20
1058.168231009503
 30
0.0
 41
30.0
 42
30.0
 43
30.0
 50
180.0
  0
INSERT
  5
7ECE
330
7B51
100
AcDbEntity
  8
3
  6
Continuous
 62
     0
440
 16777216
370
    -2
100
AcDbBlockReference
  2
_OPEN
 10
1436.379417008196
 20
1058.168231009503
 30
0.0
 41
30.0
 42
30.0
 43
30.0
  0
MTEXT
  5
7ECF
330
7B51
100
AcDbEntity
  8
3
  6
Continuous
 62
     0
440
 16777216
100
AcDbMText
 10
1303.879417008196
 20
1095.668231009503
 30
0.0
 40
45.0
 41
0.0
 46
0.0
 71
     5
 72
     1
  1
\A1;265
 73
     1
 44
1.0
  0
POINT
  5
7ED0
330
7B51
100
AcDbEntity
  8
DEFPOINTS
  6
Continuous
 62
     0
440
 16777216
100
AcDbPoint
 10
1171.379417008196
 20
1142.601454009503
 30
0.0
  0
POINT
  5
7ED1
330
7B51
100
AcDbEntity
  8
DEFPOINTS
  6
Continuous
 62
     0
440
 16777216
100
AcDbPoint
 10
1436.379417008196
 20
1192.793845009504
 30
0.0
  0
POINT
  5
7ED2
330
7B51
100
AcDbEntity
  8
DEFPOINTS
  6
Continuous
 62
     0
440
 16777216
100
AcDbPoint
 10
1436.379417008196
 20
1058.168231009503
 30
0.0
  0
ENDBLK
  5
7B5B
330
7B51
100
AcDbEntity
  8
0
100
AcDbBlockEnd
  0
BLOCK
  5
7B5E
330
7B5D
100
AcDbEntity
  8
0
100
AcDbBlockBegin
  2
*D2
 70
     1
 10
0.0
 20
0.0
 30
0.0
  3
*D2
  1

  0
LINE
  5
7DB3
330
7B5D
100
AcDbEntity
  8
3
  6
Continuous
 62
     0
440
 16777216
100
AcDbLine
 10
1428.879417008196
 20
1692.793845009503
 30
0.0
 11
1547.396115008197
 21
1692.793845009503
 31
0.0
  0
LINE
  5
7DB4
330
7B5D
100
AcDbEntity
  8
3
  6
Continuous
 62
     0
440
 16777216
100
AcDbLine
 10
1428.879417008196
 20
1377.793845009503
 30
0.0
 11
1547.396115008196
 21
1377.793845009503
 31
0.0
  0
LINE
  5
7DB5
330
7B5D
100
AcDbEntity
  8
3
  6
Continuous
 62
     0
440
 16777216
100
AcDbLine
 10
1532.396115008197
 20
1662.793845009503
 30
0.0
 11
1532.396115008197
 21
1407.793845009503
 31
0.0
  0
INSERT
  5
7DB6
330
7B5D
100
AcDbEntity
  8
3
  6
Continuous
 62
     0
440
 16777216
100
AcDbBlockReference
  2
_OPEN
 10
1532.396115008197
 20
1692.793845009503
 30
0.0
 41
30.0
 42
30.0
 43
30.0
 50
90.0
  0
INSERT
  5
7DB7
330
7B5D
100
AcDbEntity
  8
3
  6
Continuous
 62
     0
440
 16777216
100
AcDbBlockReference
  2
_OPEN
 10
1532.396115008197
 20
1377.793845009503
 30
0.0
 41
30.0
 42
30.0
 43
30.0
 50
270.0
  0
MTEXT
  5
7DB8
330
7B5D
100
AcDbEntity
  8
3
  6
Continuous
 62
     0
440
 16777216
100
AcDbMText
 10
1494.896115008196
 20
1539.086844009504
 30
0.0
 40
45.0
 41
0.0
 46
0.0
 71
     5
 72
     5
  1
\A1;315
 11
0.0000000000000001
 21
1.0
 31
0.0
 73
     1
 44
1.0
  0
POINT
  5
7DB9
330
7B5D
100
AcDbEntity
  8
DEFPOINTS
  6
Continuous
 62
     0
440
 16777216
100
AcDbPoint
 10
1421.379417008196
 20
1692.793845009503
 30
0.0
  0
POINT
  5
7DBA
330
7B5D
100
AcDbEntity
  8
DEFPOINTS
  6
Continuous
 62
     0
440
 16777216
100
AcDbPoint
 10
1421.379417008196
 20
1377.793845009503
 30
0.0
  0
POINT
  5
7DBB
330
7B5D
100
AcDbEntity
  8
DEFPOINTS
  6
Continuous
 62
     0
440
 16777216
100
AcDbPoint
 10
1532.396115008197
 20
1377.793845009503
 30
0.0
  0
ENDBLK
  5
7B68
330
7B5D
100
AcDbEntity
  8
0
100
AcDbBlockEnd
  0
BLOCK
  5
7CF6
330
7B6A
100
AcDbEntity
  8
0
100
AcDbBlockBegin
  2
*D3
 70
     1
 10
0.0
 20
0.0
 30
0.0
  3
*D3
  1

  0
LINE
  5
7F31
330
7B6A
100
AcDbEntity
  8
3
  6
Continuous
 62
     0
440
 16777216
370
    -2
100
AcDbLine
 10
1160.879417008196
 20
1925.793845009503
 30
0.0
 11
1730.820851844277
 21
1925.793845009503
 31
0.0
  0
LINE
  5
7F32
330
7B6A
100
AcDbEntity
  8
3
  6
Continuous
 62
     0
440
 16777216
370
    -2
100
AcDbLine
 10
1428.879417008196
 20
1692.793845009503
 30
0.0
 11
1730.820851844277
 21
1692.793845009503
 31
0.0
  0
LINE
  5
7F33
330
7B6A
100
AcDbEntity
  8
3
  6
Continuous
 62
     0
440
 16777216
370
    -2
100
AcDbLine
 10
1715.820851844277
 20
1895.793845009503
 30
0.0
 11
1715.820851844277
 21
1722.793845009503
 31
0.0
  0
INSERT
  5
7F34
330
7B6A
100
AcDbEntity
  8
3
  6
Continuous
 62
     0
440
 16777216
370
    -2
100
AcDbBlockReference
  2
_OPEN
 10
1715.820851844277
 20
1925.793845009503
 30
0.0
 41
30.0
 42
30.0
 43
30.0
 50
90.0
  0
INSERT
  5
7F35
330
7B6A
100
AcDbEntity
  8
3
  6
Continuous
 62
     0
440
 16777216
370
    -2
100
AcDbBlockReference
  2
_OPEN
 10
1715.820851844277
 20
1692.793845009503
 30
0.0
 41
30.0
 42
30.0
 43
30.0
 50
270.0
  0
MTEXT
  5
7F36
330
7B6A
100
AcDbEntity
  8
3
  6
Continuous
 62
     0
440
 16777216
100
AcDbMText
 10
1678.320851844277
 20
1795.650987866646
 30
0.0
 40
45.0
 41
0.0
 46
0.0
 71
     5
 72
     1
  1
\A1;233
 11
0.0000000000000001
 21
1.0
 31
0.0
 73
     1
 44
1.0
  0
POINT
  5
7F37
330
7B6A
100
AcDbEntity
  8
DEFPOINTS
  6
Continuous
 62
     0
440
 16777216
100
AcDbPoint
 10
1153.379417008196
 20
1925.793845009503
 30
0.0
  0
POINT
  5
7F38
330
7B6A
100
AcDbEntity
  8
DEFPOINTS
  6
Continuous
 62
     0
440
 16777216
100
AcDbPoint
 10
1421.379417008196
 20
1692.793845009503
 30
0.0
  0
POINT
  5
7F39
330
7B6A
100
AcDbEntity
  8
DEFPOINTS
  6
Continuous
 62
     0
440
 16777216
100
AcDbPoint
 10
1715.820851844277
 20
1692.793845009503
 30
0.0
  0
ENDBLK
  5
7D00
330
7B6A
100
AcDbEntity
  8
0
100
AcDbBlockEnd
  0
BLOCK
  5
7D01
330
7B77
100
AcDbEntity
  8
0
100
AcDbBlockBegin
  2
*D4
 70
     1
 10
0.0
 20
0.0
 30
0.0
  3
*D4
  1

  0
LINE
  5
7DC5
330
7B77
100
AcDbEntity
  8
3
  6
Continuous
 62
     0
440
 16777216
100
AcDbLine
 10
1413.879417008196
 20
1292.793845009503
 30
0.0
 11
1730.820851844277
 21
1292.793845009503
 31
0.0
  0
LINE
  5
7DC6
330
7B77
100
AcDbEntity
  8
3
  6
Continuous
 62
     0
440
 16777216
100
AcDbLine
 10
1715.820851844277
 20
1662.793845009503
 30
0.0
 11
1715.820851844277
 21
1322.793845009503
 31
0.0
  0
INSERT
  5
7DC7
330
7B77
100
AcDbEntity
  8
3
  6
Continuous
 62
     0
440
 16777216
100
AcDbBlockReference
  2
_OPEN
 10
1715.820851844277
 20
1692.793845009503
 30
0.0
 41
30.0
 42
30.0
 43
30.0
 50
90.0
  0
INSERT
  5
7DC8
330
7B77
100
AcDbEntity
  8
3
  6
Continuous
 62
     0
440
 16777216
100
AcDbBlockReference
  2
_OPEN
 10
1715.820851844277
 20
1292.793845009503
 30
0.0
 41
30.0
 42
30.0
 43
30.0
 50
270.0
  0
MTEXT
  5
7DC9
330
7B77
100
AcDbEntity
  8
3
  6
Continuous
 62
     0
440
 16777216
100
AcDbMText
 10
1678.320851844277
 20
1492.793845009504
 30
0.0
 40
45.0
 41
0.0
 46
0.0
 71
     5
 72
     5
  1
\A1;400
 11
0.0000000000000001
 21
1.0
 31
0.0
 73
     1
 44
1.0
  0
POINT
  5
7DCA
330
7B77
100
AcDbEntity
  8
DEFPOINTS
  6
Continuous
 62
     0
440
 16777216
100
AcDbPoint
 10
1421.379417008196
 20
1692.793845009503
 30
0.0
  0
POINT
  5
7DCB
330
7B77
100
AcDbEntity
  8
DEFPOINTS
  6
Continuous
 62
     0
440
 16777216
100
AcDbPoint
 10
1406.379417008196
 20
1292.793845009503
 30
0.0
  0
POINT
  5
7DCC
330
7B77
100
AcDbEntity
  8
DEFPOINTS
  6
Continuous
 62
     0
440
 16777216
100
AcDbPoint
 10
1715.820851844277
 20
1292.793845009503
 30
0.0
  0
ENDBLK
  5
7D0A
330
7B77
100
AcDbEntity
  8
0
100
AcDbBlockEnd
  0
BLOCK
  5
7D1D
330
7BBA
100
AcDbEntity
  8
0
100
AcDbBlockBegin
  2
*D5
 70
     1
 10
0.0
 20
0.0
 30
0.0
  3
*D5
  1

  0
LINE
  5
7DCD
330
7BBA
100
AcDbEntity
  8
3
  6
Continuous
 62
     0
440
 16777216
100
AcDbLine
 10
897.3794170081964
 20
1700.293845009503
 30
0.0
 11
897.3794170081964
 21
2023.137748009503
 31
0.0
  0
LINE
  5
7DCE
330
7BBA
100
AcDbEntity
  8
3
  6
Continuous
 62
     0
440
 16777216
100
AcDbLine
 10
1171.379417008196
 20
1932.539031009503
 30
0.0
 11
1171.379417008196
 21
2023.137748009503
 31
0.0
  0
LINE
  5
7DCF
330
7BBA
100
AcDbEntity
  8
3
  6
Continuous
 62
     0
440
 16777216
100
AcDbLine
 10
927.3794170081965
 20
2008.137748009504
 30
0.0
 11
1141.379417008196
 21
2008.137748009504
 31
0.0
  0
INSERT
  5
7DD0
330
7BBA
100
AcDbEntity
  8
3
  6
Continuous
 62
     0
440
 16777216
100
AcDbBlockReference
  2
_OPEN
 10
897.3794170081964
 20
2008.137748009504
 30
0.0
 41
30.0
 42
30.0
 43
30.0
 50
180.0
  0
INSERT
  5
7DD1
330
7BBA
100
AcDbEntity
  8
3
  6
Continuous
 62
     0
440
 16777216
100
AcDbBlockReference
  2
_OPEN
 10
1171.379417008196
 20
2008.137748009504
 30
0.0
 41
30.0
 42
30.0
 43
30.0
  0
MTEXT
  5
7DD2
330
7BBA
100
AcDbEntity
  8
3
  6
Continuous
 62
     0
440
 16777216
100
AcDbMText
 10
1031.418144008196
 20
2045.637748009504
 30
0.0
 40
45.0
 41
0.0
 46
0.0
 71
     5
 72
     5
  1
\A1;274
 73
     1
 44
1.0
  0
POINT
  5
7DD3
330
7BBA
100
AcDbEntity
  8
DEFPOINTS
  6
Continuous
 62
     0
440
 16777216
100
AcDbPoint
 10
897.3794170081964
 20
1692.793845009503
 30
0.0
  0
POINT
  5
7DD4
330
7BBA
100
AcDbEntity
  8
DEFPOINTS
  6
Continuous
 62
     0
440
 16777216
100
AcDbPoint
 10
1171.379417008196
 20
1925.039031009503
 30
0.0
  0
POINT
  5
7DD5
330
7BBA
100
AcDbEntity
  8
DEFPOINTS
  6
Continuous
 62
     0
440
 16777216
100
AcDbPoint
 10
1171.379417008196
 20
2008.137748009504
 30
0.0
  0
ENDBLK
  5
7D27
330
7BBA
100
AcDbEntity
  8
0
100
AcDbBlockEnd
  0
BLOCK
  5
7BC8
330
7BC7
100
AcDbEntity
  8
0
100
AcDbBlockBegin
  2
*D6
 70
     1
 10
0.0
 20
0.0
 30
0.0
  3
*D6
  1

  0
LINE
  5
7DD6
330
7BC7
100
AcDbEntity
  8
3
  6
Continuous
 62
     0
440
 16777216
100
AcDbLine
 10
1421.379417008196
 20
1721.793845009503
 30
0.0
 11
1421.379417008196
 21
2023.137748009503
 31
0.0
  0
LINE
  5
7DD7
330
7BC7
100
AcDbEntity
  8
3
  6
Continuous
 62
     0
440
 16777216
100
AcDbLine
 10
1201.379417008196
 20
2008.137748009504
 30
0.0
 11
1391.379417008196
 21
2008.137748009504
 31
0.0
  0
INSERT
  5
7DD8
330
7BC7
100
AcDbEntity
  8
3
  6
Continuous
 62
     0
440
 16777216
100
AcDbBlockReference
  2
_OPEN
 10
1171.379417008196
 20
2008.137748009504
 30
0.0
 41
30.0
 42
30.0
 43
30.0
 50
180.0
  0
INSERT
  5
7DD9
330
7BC7
100
AcDbEntity
  8
3
  6
Continuous
 62
     0
440
 16777216
100
AcDbBlockReference
  2
_OPEN
 10
1421.379417008196
 20
2008.137748009504
 30
0.0
 41
30.0
 42
30.0
 43
30.0
  0
MTEXT
  5
7DDA
330
7BC7
100
AcDbEntity
  8
3
  6
Continuous
 62
     0
440
 16777216
100
AcDbMText
 10
1296.379417008196
 20
2045.637748009504
 30
0.0
 40
45.0
 41
0.0
 46
0.0
 71
     5
 72
     5
  1
\A1;250
 73
     1
 44
1.0
  0
POINT
  5
7DDB
330
7BC7
100
AcDbEntity
  8
DEFPOINTS
  6
Continuous
 62
     0
440
 16777216
100
AcDbPoint
 10
1171.379417008196
 20
1925.039031009503
 30
0.0
  0
POINT
  5
7DDC
330
7BC7
100
AcDbEntity
  8
DEFPOINTS
  6
Continuous
 62
     0
440
 16777216
100
AcDbPoint
 10
1421.379417008196
 20
1714.293845009503
 30
0.0
  0
POINT
  5
7DDD
330
7BC7
100
AcDbEntity
  8
DEFPOINTS
  6
Continuous
 62
     0
440
 16777216
100
AcDbPoint
 10
1421.379417008196
 20
2008.137748009504
 30
0.0
  0
ENDBLK
  5
7BD1
330
7BC7
100
AcDbEntity
  8
0
100
AcDbBlockEnd
  0
BLOCK
  5
7BD4
330
7BD3
100
AcDbEntity
  8
0
100
AcDbBlockBegin
  2
*D7
 70
     1
 10
0.0
 20
0.0
 30
0.0
  3
*D7
  1

  0
LINE
  5
7DDE
330
7BD3
100
AcDbEntity
  8
3
  6
Continuous
 62
     0
440
 16777216
100
AcDbLine
 10
526.3794170081964
 20
2737.595812712879
 30
0.0
 11
526.3794170081964
 21
2525.254769712879
 31
0.0
  0
LINE
  5
7DDF
330
7BD3
100
AcDbEntity
  8
3
  6
Continuous
 62
     0
440
 16777216
100
AcDbLine
 10
1436.379417008196
 20
2737.595812712879
 30
0.0
 11
1436.379417008196
 21
2525.254769712879
 31
0.0
  0
LINE
  5
7DE0
330
7BD3
100
AcDbEntity
  8
3
  6
Continuous
 62
     0
440
 16777216
100
AcDbLine
 10
556.3794170081965
 20
2540.254769712879
 30
0.0
 11
1406.379417008196
 21
2540.254769712879
 31
0.0
  0
INSERT
  5
7DE1
330
7BD3
100
AcDbEntity
  8
3
  6
Continuous
 62
     0
440
 16777216
100
AcDbBlockReference
  2
_OPEN
 10
526.3794170081964
 20
2540.254769712879
 30
0.0
 41
30.0
 42
30.0
 43
30.0
 50
180.0
  0
INSERT
  5
7DE2
330
7BD3
100
AcDbEntity
  8
3
  6
Continuous
 62
     0
440
 16777216
100
AcDbBlockReference
  2
_OPEN
 10
1436.379417008196
 20
2540.254769712879
 30
0.0
 41
30.0
 42
30.0
 43
30.0
  0
MTEXT
  5
7DE3
330
7BD3
100
AcDbEntity
  8
3
  6
Continuous
 62
     0
440
 16777216
100
AcDbMText
 10
952.9497060081963
 20
2577.754769712879
 30
0.0
 40
45.0
 41
0.0
 46
0.0
 71
     5
 72
     5
  1
\A1;910
 73
     1
 44
1.0
  0
POINT
  5
7DE4
330
7BD3
100
AcDbEntity
  8
DEFPOINTS
  6
Continuous
 62
     0
440
 16777216
100
AcDbPoint
 10
526.3794170081964
 20
2745.095812712879
 30
0.0
  0
POINT
  5
7DE5
330
7BD3
100
AcDbEntity
  8
DEFPOINTS
  6
Continuous
 62
     0
440
 16777216
100
AcDbPoint
 10
1436.379417008196
 20
2745.095812712879
 30
0.0
  0
POINT
  5
7DE6
330
7BD3
100
AcDbEntity
  8
DEFPOINTS
  6
Continuous
 62
     0
440
 16777216
100
AcDbPoint
 10
1436.379417008196
 20
2540.254769712879
 30
0.0
  0
ENDBLK
  5
7BDE
330
7BD3
100
AcDbEntity
  8
0
100
AcDbBlockEnd
  0
BLOCK
  5
7BE1
330
7BE0
100
AcDbEntity
  8
0
100
AcDbBlockBegin
  2
*D8
 70
     1
 10
0.0
 20
0.0
 30
0.0
  3
*D8
  1

  0
LINE
  5
7DE7
330
7BE0
100
AcDbEntity
  8
3
  6
Continuous
 62
     0
440
 16777216
100
AcDbLine
 10
1443.879417008196
 20
3060.095812712879
 30
0.0
 11
1590.073729008197
 21
3060.095812712879
 31
0.0
  0
LINE
  5
7DE8
330
7BE0
100
AcDbEntity
  8
3
  6
Continuous
 62
     0
440
 16777216
100
AcDbLine
 10
1443.879417008196
 20
2745.095812712879
 30
0.0
 11
1590.073729008197
 21
2745.095812712879
 31
0.0
  0
LINE
  5
7DE9
330
7BE0
100
AcDbEntity
  8
3
  6
Continuous
 62
     0
440
 16777216
100
AcDbLine
 10
1575.073729008197
 20
3030.095812712879
 30
0.0
 11
1575.073729008197
 21
2775.095812712879
 31
0.0
  0
INSERT
  5
7DEA
330
7BE0
100
AcDbEntity
  8
3
  6
Continuous
 62
     0
440
 16777216
100
AcDbBlockReference
  2
_OPEN
 10
1575.073729008197
 20
3060.095812712879
 30
0.0
 41
30.0
 42
30.0
 43
30.0
 50
90.0
  0
INSERT
  5
7DEB
330
7BE0
100
AcDbEntity
  8
3
  6
Continuous
 62
     0
440
 16777216
100
AcDbBlockReference
  2
_OPEN
 10
1575.073729008197
 20
2745.095812712879
 30
0.0
 41
30.0
 42
30.0
 43
30.0
 50
270.0
  0
MTEXT
  5
7DEC
330
7BE0
100
AcDbEntity
  8
3
  6
Continuous
 62
     0
440
 16777216
100
AcDbMText
 10
1537.573729008196
 20
2902.508324712879
 30
0.0
 40
45.0
 41
0.0
 46
0.0
 71
     5
 72
     5
  1
\A1;315
 11
0.0000000000000001
 21
1.0
 31
0.0
 73
     1
 44
1.0
  0
POINT
  5
7DED
330
7BE0
100
AcDbEntity
  8
DEFPOINTS
  6
Continuous
 62
     0
440
 16777216
100
AcDbPoint
 10
1436.379417008196
 20
3060.095812712879
 30
0.0
  0
POINT
  5
7DEE
330
7BE0
100
AcDbEntity
  8
DEFPOINTS
  6
Continuous
 62
     0
440
 16777216
100
AcDbPoint
 10
1436.379417008196
 20
2745.095812712879
 30
0.0
  0
POINT
  5
7DEF
330
7BE0
100
AcDbEntity
  8
DEFPOINTS
  6
Continuous
 62
     0
440
 16777216
100
AcDbPoint
 10
1575.073729008197
 20
2745.095812712879
 30
0.0
  0
ENDBLK
  5
7BEB
330
7BE0
100
AcDbEntity
  8
0
100
AcDbBlockEnd
  0
BLOCK
  5
7BF1
330
7BF0
100
AcDbEntity
  8
0
100
AcDbBlockBegin
  2
*D9
 70
     1
 10
0.0
 20
0.0
 30
0.0
  3
*D9
  1

  0
LINE
  5
7DF0
330
7BF0
100
AcDbEntity
  8
3
  6
Continuous
 62
     0
440
 16777216
100
AcDbLine
 10
2384.647978008196
 20
1913.393845009503
 30
0.0
 11
2384.647978008196
 21
1998.473424009503
 31
0.0
  0
LINE
  5
7DF1
330
7BF0
100
AcDbEntity
  8
3
  6
Continuous
 62
     0
440
 16777216
100
AcDbLine
 10
2608.647978008197
 20
1913.393845009503
 30
0.0
 11
2608.647978008197
 21
1998.473424009503
 31
0.0
  0
LINE
  5
7DF2
330
7BF0
100
AcDbEntity
  8
3
  6
Continuous
 62
     0
440
 16777216
100
AcDbLine
 10
2414.647978008197
 20
1983.473424009503
 30
0.0
 11
2578.647978008197
 21
1983.473424009503
 31
0.0
  0
INSERT
  5
7DF3
330
7BF0
100
AcDbEntity
  8
3
  6
Continuous
 62
     0
440
 16777216
100
AcDbBlockReference
  2
_OPEN
 10
2384.647978008196
 20
1983.473424009503
 30
0.0
 41
30.0
 42
30.0
 43
30.0
 50
180.0
  0
INSERT
  5
7DF4
330
7BF0
100
AcDbEntity
  8
3
  6
Continuous
 62
     0
440
 16777216
100
AcDbBlockReference
  2
_OPEN
 10
2608.647978008197
 20
1983.473424009503
 30
0.0
 41
30.0
 42
30.0
 43
30.0
  0
MTEXT
  5
7DF5
330
7BF0
100
AcDbEntity
  8
3
  6
Continuous
 62
     0
440
 16777216
100
AcDbMText
 10
2488.576550008196
 20
2020.973424009504
 30
0.0
 40
45.0
 41
0.0
 46
0.0
 71
     5
 72
     5
  1
\A1;224
 73
     1
 44
1.0
  0
POINT
  5
7DF6
330
7BF0
100
AcDbEntity
  8
DEFPOINTS
  6
Continuous
 62
     0
440
 16777216
100
AcDbPoint
 10
2384.647978008196
 20
1905.893845009503
 30
0.0
  0
POINT
  5
7DF7
330
7BF0
100
AcDbEntity
  8
DEFPOINTS
  6
Continuous
 62
     0
440
 16777216
100
AcDbPoint
 10
2608.647978008197
 20
1905.893845009503
 30
0.0
  0
POINT
  5
7DF8
330
7BF0
100
AcDbEntity
  8
DEFPOINTS
  6
Continuous
 62
     0
440
 16777216
100
AcDbPoint
 10
2608.647978008197
 20
1983.473424009503
 30
0.0
  0
ENDBLK
  5
7BFB
330
7BF0
100
AcDbEntity
  8
0
100
AcDbBlockEnd
  0
BLOCK
  5
7CB0
330
7BFD
100
AcDbEntity
  8
0
100
AcDbBlockBegin
  2
*D10
 70
     1
 10
0.0
 20
0.0
 30
0.0
  3
*D10
  1

  0
LINE
  5
7F0D
330
7BFD
100
AcDbEntity
  8
3
  6
Continuous
 62
     0
440
 16777216
370
    -2
100
AcDbLine
 10
2076.647978008196
 20
1939.793845009504
 30
0.0
 11
2076.647978008196
 21
2085.913944009504
 31
0.0
  0
LINE
  5
7F0E
330
7BFD
100
AcDbEntity
  8
3
  6
Continuous
 62
     0
440
 16777216
370
    -2
100
AcDbLine
 10
2496.647978008196
 20
2061.630313009503
 30
0.0
 11
2496.647978008196
 21
2085.913944009504
 31
0.0
  0
LINE
  5
7F0F
330
7BFD
100
AcDbEntity
  8
3
  6
Continuous
 62
     0
440
 16777216
370
    -2
100
AcDbLine
 10
2106.647978008196
 20
2070.913944009504
 30
0.0
 11
2466.647978008197
 21
2070.913944009504
 31
0.0
  0
INSERT
  5
7F10
330
7BFD
100
AcDbEntity
  8
3
  6
Continuous
 62
     0
440
 16777216
370
    -2
100
AcDbBlockReference
  2
_OPEN
 10
2076.647978008196
 20
2070.913944009504
 30
0.0
 41
30.0
 42
30.0
 43
30.0
 50
180.0
  0
INSERT
  5
7F11
330
7BFD
100
AcDbEntity
  8
3
  6
Continuous
 62
     0
440
 16777216
370
    -2
100
AcDbBlockReference
  2
_OPEN
 10
2496.647978008196
 20
2070.913944009504
 30
0.0
 41
30.0
 42
30.0
 43
30.0
  0
MTEXT
  5
7F12
330
7BFD
100
AcDbEntity
  8
3
  6
Continuous
 62
     0
440
 16777216
100
AcDbMText
 10
2282.230881008196
 20
2120.199658295218
 30
0.0
 40
45.0
 41
0.0
 46
0.0
 71
     5
 72
     1
  1
\A1;(420)
 73
     1
 44
1.0
  0
POINT
  5
7F13
330
7BFD
100
AcDbEntity
  8
DEFPOINTS
  6
Continuous
 62
     0
440
 16777216
100
AcDbPoint
 10
2076.647978008196
 20
1932.293845009503
 30
0.0
  0
POINT
  5
7F14
330
7BFD
100
AcDbEntity
  8
DEFPOINTS
  6
Continuous
 62
     0
440
 16777216
100
AcDbPoint
 10
2496.647978008196
 20
2054.130313009503
 30
0.0
  0
POINT
  5
7F15
330
7BFD
100
AcDbEntity
  8
DEFPOINTS
  6
Continuous
 62
     0
440
 16777216
100
AcDbPoint
 10
2496.647978008196
 20
2070.913944009504
 30
0.0
  0
ENDBLK
  5
7CBA
330
7BFD
100
AcDbEntity
  8
0
100
AcDbBlockEnd
  0
BLOCK
  5
7C91
330
7C0A
100
AcDbEntity
  8
0
100
AcDbBlockBegin
  2
*D11
 70
     1
 10
0.0
 20
0.0
 30
0.0
  3
*D11
  1

  0
LINE
  5
7E02
330
7C0A
100
AcDbEntity
  8
3
  6
Continuous
 62
     0
440
 16777216
100
AcDbLine
 10
2617.647978008196
 20
1882.793845009503
 30
0.0
 11
2617.647978008196
 21
2085.913944009504
 31
0.0
  0
LINE
  5
7E03
330
7C0A
100
AcDbEntity
  8
3
  6
Continuous
 62
     0
440
 16777216
100
AcDbLine
 10
2526.647978008197
 20
2070.913944009504
 30
0.0
 11
2587.647978008197
 21
2070.913944009504
 31
0.0
  0
MTEXT
  5
7E04
330
7C0A
100
AcDbEntity
  8
3
  6
Continuous
 62
     0
440
 16777216
100
AcDbMText
 10
2551.088486008197
 20
2108.413944009503
 30
0.0
 40
45.0
 41
0.0
 46
0.0
 71
     5
 72
     5
  1
\A1;121
 73
     1
 44
1.0
  0
INSERT
  5
7E05
330
7C0A
100
AcDbEntity
  8
3
  6
Continuous
 62
     0
440
 16777216
100
AcDbBlockReference
  2
_OPEN
 10
2496.647978008196
 20
2070.913944009504
 30
0.0
 41
30.0
 42
30.0
 43
30.0
 50
180.0
  0
INSERT
  5
7E06
330
7C0A
100
AcDbEntity
  8
3
  6
Continuous
 62
     0
440
 16777216
100
AcDbBlockReference
  2
_OPEN
 10
2617.647978008196
 20
2070.913944009504
 30
0.0
 41
30.0
 42
30.0
 43
30.0
  0
POINT
  5
7E07
330
7C0A
100
AcDbEntity
  8
DEFPOINTS
  6
Continuous
 62
     0
440
 16777216
100
AcDbPoint
 10
2496.647978008196
 20
2054.130313009503
 30
0.0
  0
POINT
  5
7E08
330
7C0A
100
AcDbEntity
  8
DEFPOINTS
  6
Continuous
 62
     0
440
 16777216
100
AcDbPoint
 10
2617.647978008196
 20
1875.293845009503
 30
0.0
  0
POINT
  5
7E09
330
7C0A
100
AcDbEntity
  8
DEFPOINTS
  6
Continuous
 62
     0
440
 16777216
100
AcDbPoint
 10
2617.647978008196
 20
2070.913944009504
 30
0.0
  0
ENDBLK
  5
7C9A
330
7C0A
100
AcDbEntity
  8
0
100
AcDbBlockEnd
  0
BLOCK
  5
7CBB
330
7C3F
100
AcDbEntity
  8
0
100
AcDbBlockBegin
  2
*D12
 70
     1
 10
0.0
 20
0.0
 30
0.0
  3
*D12
  1

  0
LINE
  5
7E0A
330
7C3F
100
AcDbEntity
  8
3
  6
Continuous
 62
     0
440
 16777216
100
AcDbLine
 10
2625.147978008197
 20
1850.293845009503
 30
0.0
 11
2744.535404008197
 21
1850.293845009503
 31
0.0
  0
LINE
  5
7E0B
330
7C3F
100
AcDbEntity
  8
3
  6
Continuous
 62
     0
440
 16777216
100
AcDbLine
 10
2625.147978008197
 20
1535.293845009503
 30
0.0
 11
2744.535404008197
 21
1535.293845009503
 31
0.0
  0
LINE
  5
7E0C
330
7C3F
100
AcDbEntity
  8
3
  6
Continuous
 62
     0
440
 16777216
100
AcDbLine
 10
2729.535404008197
 20
1820.293845009503
 30
0.0
 11
2729.535404008197
 21
1565.293845009503
 31
0.0
  0
INSERT
  5
7E0D
330
7C3F
100
AcDbEntity
  8
3
  6
Continuous
 62
     0
440
 16777216
100
AcDbBlockReference
  2
_OPEN
 10
2729.535404008197
 20
1850.293845009503
 30
0.0
 41
30.0
 42
30.0
 43
30.0
 50
90.0
  0
INSERT
  5
7E0E
330
7C3F
100
AcDbEntity
  8
3
  6
Continuous
 62
     0
440
 16777216
100
AcDbBlockReference
  2
_OPEN
 10
2729.535404008197
 20
1535.293845009503
 30
0.0
 41
30.0
 42
30.0
 43
30.0
 50
270.0
  0
MTEXT
  5
7E0F
330
7C3F
100
AcDbEntity
  8
3
  6
Continuous
 62
     0
440
 16777216
100
AcDbMText
 10
2692.035404008197
 20
1688.457045009503
 30
0.0
 40
45.0
 41
0.0
 46
0.0
 71
     5
 72
     5
  1
\A1;φ315
 11
0.0000000000000001
 21
1.0
 31
0.0
 73
     1
 44
1.0
  0
POINT
  5
7E10
330
7C3F
100
AcDbEntity
  8
DEFPOINTS
  6
Continuous
 62
     0
440
 16777216
100
AcDbPoint
 10
2617.647978008196
 20
1850.293845009503
 30
0.0
  0
POINT
  5
7E11
330
7C3F
100
AcDbEntity
  8
DEFPOINTS
  6
Continuous
 62
     0
440
 16777216
100
AcDbPoint
 10
2617.647978008196
 20
1535.293845009503
 30
0.0
  0
POINT
  5
7E12
330
7C3F
100
AcDbEntity
  8
DEFPOINTS
  6
Continuous
 62
     0
440
 16777216
100
AcDbPoint
 10
2729.535404008197
 20
1535.293845009503
 30
0.0
  0
ENDBLK
  5
7CC5
330
7C3F
100
AcDbEntity
  8
0
100
AcDbBlockEnd
  0
BLOCK
  5
7C80
330
7C7F
100
AcDbEntity
  8
0
100
AcDbBlockBegin
  2
*D13
 70
     1
 10
0.0
 20
0.0
 30
0.0
  3
*D13
  1

  0
LINE
  5
7E13
330
7C7F
100
AcDbEntity
  8
3
  6
Continuous
 62
     0
440
 16777216
100
AcDbLine
 10
1428.879417008196
 20
1692.793845009503
 30
0.0
 11
1644.932511008197
 21
1692.793845009503
 31
0.0
  0
LINE
  5
7E14
330
7C7F
100
AcDbEntity
  8
3
  6
Continuous
 62
     0
440
 16777216
100
AcDbLine
 10
1408.879417008196
 20
1367.793845009504
 30
0.0
 11
1644.932511008197
 21
1367.793845009503
 31
0.0
  0
LINE
  5
7E15
330
7C7F
100
AcDbEntity
  8
3
  6
Continuous
 62
     0
440
 16777216
100
AcDbLine
 10
1629.932511008197
 20
1662.793845009503
 30
0.0
 11
1629.932511008197
 21
1397.793845009503
 31
0.0
  0
INSERT
  5
7E16
330
7C7F
100
AcDbEntity
  8
3
  6
Continuous
 62
     0
440
 16777216
100
AcDbBlockReference
  2
_OPEN
 10
1629.932511008197
 20
1692.793845009503
 30
0.0
 41
30.0
 42
30.0
 43
30.0
 50
90.0
  0
INSERT
  5
7E17
330
7C7F
100
AcDbEntity
  8
3
  6
Continuous
 62
     0
440
 16777216
100
AcDbBlockReference
  2
_OPEN
 10
1629.932511008197
 20
1367.793845009503
 30
0.0
 41
30.0
 42
30.0
 43
30.0
 50
270.0
  0
MTEXT
  5
7E18
330
7C7F
100
AcDbEntity
  8
3
  6
Continuous
 62
     0
440
 16777216
100
AcDbMText
 10
1592.432511008196
 20
1521.629881009504
 30
0.0
 40
45.0
 41
0.0
 46
0.0
 71
     5
 72
     5
  1
\A1;325
 11
0.0000000000000001
 21
1.0
 31
0.0
 73
     1
 44
1.0
  0
POINT
  5
7E19
330
7C7F
100
AcDbEntity
  8
DEFPOINTS
  6
Continuous
 62
     0
440
 16777216
100
AcDbPoint
 10
1421.379417008196
 20
1692.793845009503
 30
0.0
  0
POINT
  5
7E1A
330
7C7F
100
AcDbEntity
  8
DEFPOINTS
  6
Continuous
 62
     0
440
 16777216
100
AcDbPoint
 10
1401.379417008196
 20
1367.793845009504
 30
0.0
  0
POINT
  5
7E1B
330
7C7F
100
AcDbEntity
  8
DEFPOINTS
  6
Continuous
 62
     0
440
 16777216
100
AcDbPoint
 10
1629.932511008197
 20
1367.793845009503
 30
0.0
  0
ENDBLK
  5
7C8A
330
7C7F
100
AcDbEntity
  8
0
100
AcDbBlockEnd
  0
BLOCK
  5
7D31
330
7D30
100
AcDbEntity
  8
0
100
AcDbBlockBegin
  2
*D14
 70
     1
 10
0.0
 20
0.0
 30
0.0
  3
*D14
  1

  0
LINE
  5
7EA3
330
7D30
100
AcDbEntity
  8
3
 62
     0
440
 16777216
370
    -2
100
AcDbLine
 10
526.3794170081964
 20
1185.293845009503
 30
0.0
 11
526.3794170081964
 21
1041.185121294265
 31
0.0
  0
LINE
  5
7EA4
330
7D30
100
AcDbEntity
  8
3
 62
     0
440
 16777216
370
    -2
100
AcDbLine
 10
1171.379417008196
 20
1188.101454009503
 30
0.0
 11
1171.379417008196
 21
1041.185121294265
 31
0.0
  0
LINE
  5
7EA5
330
7D30
100
AcDbEntity
  8
3
 62
     0
440
 16777216
370
    -2
100
AcDbLine
 10
556.3794170081965
 20
1056.185121294265
 30
0.0
 11
1141.379417008196
 21
1056.185121294265
 31
0.0
  0
INSERT
  5
7EA6
330
7D30
100
AcDbEntity
  8
3
 62
     0
440
 16777216
370
    -2
100
AcDbBlockReference
  2
_OPEN
 10
526.3794170081964
 20
1056.185121294265
 30
0.0
 41
30.0
 42
30.0
 43
30.0
 50
180.0
  0
INSERT
  5
7EA7
330
7D30
100
AcDbEntity
  8
3
 62
     0
440
 16777216
370
    -2
100
AcDbBlockReference
  2
_OPEN
 10
1171.379417008196
 20
1056.185121294265
 30
0.0
 41
30.0
 42
30.0
 43
30.0
  0
MTEXT
  5
7EA8
330
7D30
100
AcDbEntity
  8
3
 62
     0
440
 16777216
100
AcDbMText
 10
848.8794170081964
 20
1093.685121294265
 30
0.0
 40
45.0
 41
0.0
 46
0.0
 71
     5
 72
     1
  1
\A1;645
 73
     1
 44
1.0
  0
POINT
  5
7EA9
330
7D30
100
AcDbEntity
  8
DEFPOINTS
 62
     0
440
 16777216
100
AcDbPoint
 10
526.3794170081964
 20
1192.793845009504
 30
0.0
  0
POINT
  5
7EAA
330
7D30
100
AcDbEntity
  8
DEFPOINTS
 62
     0
440
 16777216
100
AcDbPoint
 10
1171.379417008196
 20
1195.601454009503
 30
0.0
  0
POINT
  5
7EAB
330
7D30
100
AcDbEntity
  8
DEFPOINTS
 62
     0
440
 16777216
100
AcDbPoint
 10
1171.379417008196
 20
1056.185121294265
 30
0.0
  0
ENDBLK
  5
7D3B
330
7D30
100
AcDbEntity
  8
0
100
AcDbBlockEnd
  0
BLOCK
  5
7D3E
330
7D3D
100
AcDbEntity
  8
0
100
AcDbBlockBegin
  2
*D15
 70
     1
 10
0.0
 20
0.0
 30
0.0
  3
*D15
  1

  0
LINE
  5
7EAC
330
7D3D
100
AcDbEntity
  8
3
 62
     0
440
 16777216
370
    -2
100
AcDbLine
 10
2181.647978008196
 20
1185.293845009503
 30
0.0
 11
2181.647978008196
 21
1041.185121294265
 31
0.0
  0
LINE
  5
7EAD
330
7D3D
100
AcDbEntity
  8
3
 62
     0
440
 16777216
370
    -2
100
AcDbLine
 10
2496.647978008196
 20
1185.293845009503
 30
0.0
 11
2496.647978008196
 21
1041.185121294265
 31
0.0
  0
LINE
  5
7EAE
330
7D3D
100
AcDbEntity
  8
3
 62
     0
440
 16777216
370
    -2
100
AcDbLine
 10
2211.647978008196
 20
1056.185121294265
 30
0.0
 11
2466.647978008197
 21
1056.185121294265
 31
0.0
  0
INSERT
  5
7EAF
330
7D3D
100
AcDbEntity
  8
3
 62
     0
440
 16777216
370
    -2
100
AcDbBlockReference
  2
_OPEN
 10
2181.647978008196
 20
1056.185121294265
 30
0.0
 41
30.0
 42
30.0
 43
30.0
 50
180.0
  0
INSERT
  5
7EB0
330
7D3D
100
AcDbEntity
  8
3
 62
     0
440
 16777216
370
    -2
100
AcDbBlockReference
  2
_OPEN
 10
2496.647978008196
 20
1056.185121294265
 30
0.0
 41
30.0
 42
30.0
 43
30.0
  0
MTEXT
  5
7EB1
330
7D3D
100
AcDbEntity
  8
3
 62
     0
440
 16777216
100
AcDbMText
 10
2339.147978008196
 20
1093.685121294265
 30
0.0
 40
45.0
 41
0.0
 46
0.0
 71
     5
 72
     1
  1
\A1;315
 73
     1
 44
1.0
  0
POINT
  5
7EB2
330
7D3D
100
AcDbEntity
  8
DEFPOINTS
 62
     0
440
 16777216
100
AcDbPoint
 10
2181.647978008196
 20
1192.793845009504
 30
0.0
  0
POINT
  5
7EB3
330
7D3D
100
AcDbEntity
  8
DEFPOINTS
 62
     0
440
 16777216
100
AcDbPoint
 10
2496.647978008196
 20
1192.793845009504
 30
0.0
  0
POINT
  5
7EB4
330
7D3D
100
AcDbEntity
  8
DEFPOINTS
 62
     0
440
 16777216
100
AcDbPoint
 10
2496.647978008196
 20
1056.185121294265
 30
0.0
  0
ENDBLK
  5
7D48
330
7D3D
100
AcDbEntity
  8
0
100
AcDbBlockEnd
  0
BLOCK
  5
7D4B
330
7D4A
100
AcDbEntity
  8
0
100
AcDbBlockBegin
  2
_DOT
 70
     0
 10
0.0
 20
0.0
 30
0.0
  3
_DOT
  1

  0
LWPOLYLINE
  5
7D4C
330
7D4A
100
AcDbEntity
  8
0
  6
ByBlock
 62
     0
100
AcDbPolyline
 90
        2
 70
     1
 43
0.5
 10
-0.25
 20
0.0
 42
1.0
 10
0.25
 20
0.0
 42
1.0
  0
LINE
  5
7D50
330
7D4A
100
AcDbEntity
  8
0
  6
ByBlock
 62
     0
100
AcDbLine
 10
-0.5
 20
0.0
 30
0.0
 11
-1.0
 21
0.0
 31
0.0
  0
ENDBLK
  5
7D51
330
7D4A
100
AcDbEntity
  8
0
100
AcDbBlockEnd
  0
BLOCK
  5
7D53
330
7D52
100
AcDbEntity
  8
0
100
AcDbBlockBegin
  2
*D17
 70
     1
 10
0.0
 20
0.0
 30
0.0
  3
*D17
  1

  0
LINE
  5
7EB5
330
7D52
100
AcDbEntity
  8
3
 62
     0
440
 16777216
370
    -2
100
AcDbLine
 10
1443.879417008196
 20
1222.793845009503
 30
0.0
 11
1730.36862950728
 21
1222.793845009503
 31
0.0
  0
LINE
  5
7EB6
330
7D52
100
AcDbEntity
  8
3
 62
     0
440
 16777216
370
    -2
100
AcDbLine
 10
1443.879417008196
 20
1192.793845009504
 30
0.0
 11
1730.36862950728
 21
1192.793845009503
 31
0.0
  0
LINE
  5
7EB7
330
7D52
100
AcDbEntity
  8
3
 62
     0
440
 16777216
370
    -2
100
AcDbLine
 10
1715.36862950728
 20
1252.793845009503
 30
0.0
 11
1715.36862950728
 21
1282.793845009503
 31
0.0
  0
LINE
  5
7EB8
330
7D52
100
AcDbEntity
  8
3
 62
     0
440
 16777216
370
    -2
100
AcDbLine
 10
1715.36862950728
 20
1162.793845009503
 30
0.0
 11
1715.36862950728
 21
1029.93670215236
 31
0.0
  0
LINE
  5
7EB9
330
7D52
100
AcDbEntity
  8
3
 62
     0
440
 16777216
370
    -2
100
AcDbLine
 10
1715.36862950728
 20
1222.793845009503
 30
0.0
 11
1715.36862950728
 21
1192.793845009503
 31
0.0
  0
INSERT
  5
7EBA
330
7D52
100
AcDbEntity
  8
3
 62
     0
440
 16777216
370
    -2
100
AcDbBlockReference
  2
_DOT
 10
1715.36862950728
 20
1222.793845009503
 30
0.0
 41
30.0
 42
30.0
 43
30.0
 50
270.0
  0
INSERT
  5
7EBB
330
7D52
100
AcDbEntity
  8
3
 62
     0
440
 16777216
370
    -2
100
AcDbBlockReference
  2
_OPEN
 10
1715.36862950728
 20
1192.793845009503
 30
0.0
 41
30.0
 42
30.0
 43
30.0
 50
90.0
  0
MTEXT
  5
7EBC
330
7D52
100
AcDbEntity
  8
3
 62
     0
440
 16777216
100
AcDbMText
 10
1677.86862950728
 20
1081.365273580932
 30
0.0
 40
45.0
 41
0.0
 46
0.0
 71
     5
 72
     1
  1
\A1;30
 11
0.0000000000000001
 21
1.0
 31
0.0
 73
     1
 44
1.0
  0
POINT
  5
7EBD
330
7D52
100
AcDbEntity
  8
DEFPOINTS
 62
     0
440
 16777216
100
AcDbPoint
 10
1436.379417008196
 20
1222.793845009503
 30
0.0
  0
POINT
  5
7EBE
330
7D52
100
AcDbEntity
  8
DEFPOINTS
 62
     0
440
 16777216
100
AcDbPoint
 10
1436.379417008196
 20
1192.793845009504
 30
0.0
  0
POINT
  5
7EBF
330
7D52
100
AcDbEntity
  8
DEFPOINTS
 62
     0
440
 16777216
100
AcDbPoint
 10
1715.36862950728
 20
1192.793845009503
 30
0.0
  0
ENDBLK
  5
7D5F
330
7D52
100
AcDbEntity
  8
0
100
AcDbBlockEnd
  0
BLOCK
  5
7D62
330
7D61
100
AcDbEntity
  8
0
100
AcDbBlockBegin
  2
*D18
 70
     1
 10
0.0
 20
0.0
 30
0.0
  3
*D18
  1

  0
LINE
  5
7ED3
330
7D61
100
AcDbEntity
  8
3
 62
     0
440
 16777216
370
    -2
100
AcDbLine
 10
1443.879417008196
 20
1222.793845009503
 30
0.0
 11
1730.36862950728
 21
1222.793845009503
 31
0.0
  0
LINE
  5
7ED4
330
7D61
100
AcDbEntity
  8
3
 62
     0
440
 16777216
370
    -2
100
AcDbLine
 10
1413.879417008196
 20
1292.793845009503
 30
0.0
 11
1730.36862950728
 21
1292.793845009503
 31
0.0
  0
LINE
  5
7ED5
330
7D61
100
AcDbEntity
  8
3
 62
     0
440
 16777216
370
    -2
100
AcDbLine
 10
1715.36862950728
 20
1192.793845009503
 30
0.0
 11
1715.36862950728
 21
1162.793845009503
 31
0.0
  0
LINE
  5
7ED6
330
7D61
100
AcDbEntity
  8
3
 62
     0
440
 16777216
370
    -2
100
AcDbLine
 10
1715.36862950728
 20
1322.793845009503
 30
0.0
 11
1715.36862950728
 21
1352.793845009503
 31
0.0
  0
MTEXT
  5
7ED7
330
7D61
100
AcDbEntity
  8
3
 62
     0
440
 16777216
100
AcDbMText
 10
1787.55960459524
 20
1265.701956004233
 30
0.0
 40
45.0
 41
0.0
 46
0.0
 71
     5
 72
     1
  1
\A1;(70)
 11
0.0000000000000001
 21
1.0
 31
0.0
 73
     1
 44
1.0
  0
LINE
  5
7ED8
330
7D61
100
AcDbEntity
  8
3
 62
     0
440
 16777216
370
    -2
100
AcDbLine
 10
1715.36862950728
 20
1222.793845009503
 30
0.0
 11
1715.36862950728
 21
1292.793845009503
 31
0.0
  0
INSERT
  5
7ED9
330
7D61
100
AcDbEntity
  8
3
 62
     0
440
 16777216
370
    -2
100
AcDbBlockReference
  2
_DOT
 10
1715.36862950728
 20
1222.793845009503
 30
0.0
 41
30.0
 42
30.0
 43
30.0
 50
90.0
  0
INSERT
  5
7EDA
330
7D61
100
AcDbEntity
  8
3
 62
     0
440
 16777216
370
    -2
100
AcDbBlockReference
  2
_OPEN
 10
1715.36862950728
 20
1292.793845009503
 30
0.0
 41
30.0
 42
30.0
 43
30.0
 50
270.0
  0
POINT
  5
7EDB
330
7D61
100
AcDbEntity
  8
DEFPOINTS
 62
     0
440
 16777216
100
AcDbPoint
 10
1436.379417008196
 20
1222.793845009503
 30
0.0
  0
POINT
  5
7EDC
330
7D61
100
AcDbEntity
  8
DEFPOINTS
 62
     0
440
 16777216
100
AcDbPoint
 10
1406.379417008196
 20
1292.793845009503
 30
0.0
  0
POINT
  5
7EDD
330
7D61
100
AcDbEntity
  8
DEFPOINTS
 62
     0
440
 16777216
100
AcDbPoint
 10
1715.36862950728
 20
1292.793845009503
 30
0.0
  0
ENDBLK
  5
7D6E
330
7D61
100
AcDbEntity
  8
0
100
AcDbBlockEnd
  0
BLOCK
  5
7F26
330
7F25
100
AcDbEntity
  8
0
100
AcDbBlockBegin
  2
*D19
 70
     1
 10
0.0
 20
0.0
 30
0.0
  3
*D19
  1

  0
LINE
  5
7F28
330
7F25
100
AcDbEntity
  8
3
 62
     0
440
 16777216
370
    -2
100
AcDbLine
 10
1443.879417008196
 20
1192.793845009504
 30
0.0
 11
1851.42377611843
 21
1192.793845009503
 31
0.0
  0
LINE
  5
7F29
330
7F25
100
AcDbEntity
  8
3
 62
     0
440
 16777216
370
    -2
100
AcDbLine
 10
1160.879417008196
 20
1925.793845009503
 30
0.0
 11
1851.42377611843
 21
1925.793845009503
 31
0.0
  0
LINE
  5
7F2A
330
7F25
100
AcDbEntity
  8
3
 62
     0
440
 16777216
370
    -2
100
AcDbLine
 10
1836.42377611843
 20
1222.793845009503
 30
0.0
 11
1836.42377611843
 21
1895.793845009503
 31
0.0
  0
INSERT
  5
7F2B
330
7F25
100
AcDbEntity
  8
3
 62
     0
440
 16777216
370
    -2
100
AcDbBlockReference
  2
_DOT
 10
1836.42377611843
 20
1192.793845009503
 30
0.0
 41
30.0
 42
30.0
 43
30.0
 50
270.0
  0
INSERT
  5
7F2C
330
7F25
100
AcDbEntity
  8
3
 62
     0
440
 16777216
370
    -2
100
AcDbBlockReference
  2
_OPEN
 10
1836.42377611843
 20
1925.793845009503
 30
0.0
 41
30.0
 42
30.0
 43
30.0
 50
90.0
  0
MTEXT
  5
7F2D
330
7F25
100
AcDbEntity
  8
3
 62
     0
440
 16777216
100
AcDbMText
 10
1787.138061832716
 20
1559.293845009504
 30
0.0
 40
45.0
 41
0.0
 46
0.0
 71
     5
 72
     1
  1
\A1;(733)
 11
0.0000000000000001
 21
1.0
 31
0.0
 73
     1
 44
1.0
  0
POINT
  5
7F2E
330
7F25
100
AcDbEntity
  8
DEFPOINTS
 62
     0
440
 16777216
100
AcDbPoint
 10
1436.379417008196
 20
1192.793845009504
 30
0.0
  0
POINT
  5
7F2F
330
7F25
100
AcDbEntity
  8
DEFPOINTS
 62
     0
440
 16777216
100
AcDbPoint
 10
1153.379417008196
 20
1925.793845009503
 30
0.0
  0
POINT
  5
7F30
330
7F25
100
AcDbEntity
  8
DEFPOINTS
 62
     0
440
 16777216
100
AcDbPoint
 10
1836.42377611843
 20
1925.793845009503
 30
0.0
  0
ENDBLK
  5
7F27
330
7F25
100
AcDbEntity
  8
0
100
AcDbBlockEnd
  0
ENDSEC
  0
SECTION
  2
ENTITIES
  0
LINE
  5
7A8D
330
19
100
AcDbEntity
  8
1
  6
Continuous
100
AcDbLine
 10
2608.647978008197
 20
1376.893845009503
 30
0.0
 11
2384.647978008196
 21
1693.893845009503
 31
0.0
  0
LINE
  5
7A8E
330
19
100
AcDbEntity
  8
1
  6
Continuous
100
AcDbLine
 10
2384.647978008196
 20
1376.893845009503
 30
0.0
 11
2608.647978008197
 21
1693.893845009503
 31
0.0
  0
LINE
  5
7A8F
330
19
100
AcDbEntity
  8
1
  6
Continuous
100
AcDbLine
 10
2588.647978008197
 20
1925.893845009503
 30
0.0
 11
2404.647978008196
 21
1925.893845009503
 31
0.0
  0
LINE
  5
7A90
330
19
100
AcDbEntity
  8
1
  6
Continuous
100
AcDbLine
 10
2608.647978008197
 20
1693.893845009503
 30
0.0
 11
2384.647978008196
 21
1693.893845009503
 31
0.0
  0
LINE
  5
7A91
330
19
100
AcDbEntity
  8
1
  6
Continuous
100
AcDbLine
 10
2608.647978008197
 20
1376.893845009503
 30
0.0
 11
2384.647978008196
 21
1376.893845009503
 31
0.0
  0
CIRCLE
  5
7A92
330
19
100
AcDbEntity
  8
1
  6
Continuous
100
AcDbCircle
 10
1171.379417008196
 20
1692.793845009503
 30
0.0
 40
157.5
  0
LINE
  5
7A93
330
19
100
AcDbEntity
  8
1
  6
Continuous
100
AcDbLine
 10
526.3794170081964
 20
1222.793845009503
 30
0.0
 11
1436.379417008196
 21
1222.793845009503
 31
0.0
  0
LINE
  5
7A94
330
19
100
AcDbEntity
  8
1
  6
Continuous
100
AcDbLine
 10
526.3794170081964
 20
1192.793845009504
 30
0.0
 11
1436.379417008196
 21
1192.793845009504
 31
0.0
  0
LINE
  5
7A95
330
19
100
AcDbEntity
  8
2
  6
CENTER
100
AcDbLine
 10
661.1409490081964
 20
1692.793845009503
 30
0.0
 11
1488.811679008196
 21
1692.793845009503
 31
0.0
  0
LINE
  5
7A96
330
19
100
AcDbEntity
  8
1
  6
Continuous
100
AcDbLine
 10
1079.079417008196
 20
1872.793845009503
 30
0.0
 11
1263.679417008196
 21
1872.793845009503
 31
0.0
  0
LINE
  5
7A97
330
19
100
AcDbEntity
  8
1
  6
Continuous
100
AcDbLine
 10
966.3794170081965
 20
1656.293845009503
 30
0.0
 11
1376.379417008196
 21
1656.293845009503
 31
0.0
  0
LINE
  5
7A98
330
19
100
AcDbEntity
  8
1
  6
Continuous
100
AcDbLine
 10
556.3794170081965
 20
1362.793845009504
 30
0.0
 11
1406.379417008196
 21
1362.793845009504
 31
0.0
  0
LINE
  5
7A99
330
19
100
AcDbEntity
  8
1
  6
Continuous
100
AcDbLine
 10
556.3794170081965
 20
1292.793845009503
 30
0.0
 11
1406.379417008196
 21
1292.793845009503
 31
0.0
  0
CIRCLE
  5
7A9A
330
19
100
AcDbEntity
  8
1
  6
Continuous
100
AcDbCircle
 10
1171.379417008196
 20
1692.793845009503
 30
0.0
 40
63.5
  0
LINE
  5
7A9B
330
19
100
AcDbEntity
  8
1
  6
Continuous
100
AcDbLine
 10
1315.879417008196
 20
1802.293845009504
 30
0.0
 11
1115.879417008196
 21
1932.293845009503
 31
0.0
  0
CIRCLE
  5
7A9C
330
19
100
AcDbEntity
  8
1
  6
Continuous
100
AcDbCircle
 10
1171.379417008196
 20
1692.793845009503
 30
0.0
 40
182.5
  0
ARC
  5
7A9D
330
19
100
AcDbEntity
  8
1
  6
Continuous
100
AcDbCircle
 10
1153.379417008196
 20
1710.793845009503
 30
0.0
 40
215.0
100
AcDbArc
 50
8.599999999999999
 51
100.6
  0
ARC
  5
7A9E
330
19
100
AcDbEntity
  8
1
  6
Continuous
100
AcDbCircle
 10
1196.879417008196
 20
1667.293845009503
 30
0.0
 40
299.5
100
AcDbArc
 50
169.4
 51
270.0
  0
LINE
  5
7A9F
330
19
100
AcDbEntity
  8
1
  6
Continuous
100
AcDbLine
 10
721.8794170081964
 20
1424.293845009503
 30
0.0
 11
1197.079417008196
 21
1634.693845009503
 31
0.0
  0
LINE
  5
7AA0
330
19
100
AcDbEntity
  8
1
  6
Continuous
100
AcDbLine
 10
586.3794170081964
 20
1382.793845009503
 30
0.0
 11
901.3794170081965
 21
1382.793845009503
 31
0.0
  0
CIRCLE
  5
7AA1
330
19
100
AcDbEntity
  8
1
  6
Continuous
100
AcDbCircle
 10
700.3794170081964
 20
1472.793845009503
 30
0.0
 40
53.0
  0
ARC
  5
7AA2
330
19
100
AcDbEntity
  8
1
  6
Continuous
100
AcDbCircle
 10
700.3794170081964
 20
1472.793845009503
 30
0.0
 40
101.0
100
AcDbArc
 50
322.9
 51
217.1
  0
LINE
  5
7AA3
330
19
100
AcDbEntity
  8
2
  6
CENTER
100
AcDbLine
 10
647.3794170081965
 20
1472.793845009503
 30
0.0
 11
753.3794170081964
 21
1472.793845009503
 31
0.0
  0
LINE
  5
7AA4
330
19
100
AcDbEntity
  8
1
  6
Continuous
100
AcDbLine
 10
1115.879417008196
 20
1932.293845009503
 30
0.0
 11
585.8794170081965
 21
1582.293845009503
 31
0.0
  0
LINE
  5
7AA5
330
19
100
AcDbEntity
  8
1
  6
Continuous
100
AcDbLine
 10
676.9794170081963
 20
1520.393845009503
 30
0.0
 11
1143.379417008196
 21
1749.793845009503
 31
0.0
  0
LINE
  5
7AA6
330
19
100
AcDbEntity
  8
1
  6
Continuous
100
AcDbLine
 10
585.8794170081965
 20
1582.293845009503
 30
0.0
 11
585.8794170081965
 21
1372.293845009504
 31
0.0
  0
LINE
  5
7AA7
330
19
100
AcDbEntity
  8
1
  6
Continuous
100
AcDbLine
 10
526.3794170081964
 20
1192.793845009504
 30
0.0
 11
526.3794170081964
 21
1222.793845009503
 31
0.0
  0
LINE
  5
7AA8
330
19
100
AcDbEntity
  8
1
  6
Continuous
100
AcDbLine
 10
556.3794170081965
 20
1362.793845009504
 30
0.0
 11
556.3794170081965
 21
1292.793845009503
 31
0.0
  0
LINE
  5
7AA9
330
19
100
AcDbEntity
  8
1
  6
Continuous
100
AcDbLine
 10
586.3794170081964
 20
1362.793845009504
 30
0.0
 11
586.3794170081964
 21
1382.793845009503
 31
0.0
  0
LINE
  5
7AAA
330
19
100
AcDbEntity
  8
1
  6
Continuous
100
AcDbLine
 10
608.4794170081964
 20
1382.793845009503
 30
0.0
 11
619.8794170081964
 21
1411.793845009504
 31
0.0
  0
LINE
  5
7AAB
330
19
100
AcDbEntity
  8
2
  6
CENTER
100
AcDbLine
 10
700.3794170081964
 20
1419.793845009504
 30
0.0
 11
700.3794170081964
 21
1525.793845009503
 31
0.0
  0
LINE
  5
7AAC
330
19
100
AcDbEntity
  8
1
  6
Continuous
100
AcDbLine
 10
966.3794170081965
 20
1362.793845009504
 30
0.0
 11
966.3794170081965
 21
1778.193845009503
 31
0.0
  0
LINE
  5
7AAD
330
19
100
AcDbEntity
  8
1
  6
Continuous
100
AcDbLine
 10
792.2794170081961
 20
1382.793845009503
 30
0.0
 11
780.8794170081965
 21
1411.793845009504
 31
0.0
  0
LINE
  5
7AAE
330
19
100
AcDbEntity
  8
1
  6
Continuous
100
AcDbLine
 10
901.3794170081965
 20
1362.793845009504
 30
0.0
 11
901.3794170081965
 21
1382.793845009503
 31
0.0
  0
LINE
  5
7AAF
330
19
100
AcDbEntity
  8
1
  6
Continuous
100
AcDbLine
 10
1079.079417008196
 20
1872.793845009503
 30
0.0
 11
966.3794170081965
 21
1778.193845009503
 31
0.0
  0
ARC
  5
7AB0
330
19
100
AcDbEntity
  8
1
  6
Continuous
100
AcDbCircle
 10
1150.379417008196
 20
1671.793845009503
 30
0.0
 40
253.0
100
AcDbArc
 50
98.2
 51
168.4
  0
LINE
  5
7AB1
330
19
100
AcDbEntity
  8
2
  6
CENTER
100
AcDbLine
 10
1171.379417008196
 20
1195.601454009503
 30
0.0
 11
1171.379417008196
 21
1938.183734009503
 31
0.0
  0
LINE
  5
7AB4
330
19
100
AcDbEntity
  8
1
  6
Continuous
100
AcDbLine
 10
1421.379417008196
 20
1714.293845009503
 30
0.0
 11
1421.379417008196
 21
1356.293845009504
 31
0.0
  0
LINE
  5
7AB5
330
19
100
AcDbEntity
  8
1
  6
Continuous
100
AcDbLine
 10
1376.379417008196
 20
1362.793845009504
 30
0.0
 11
1376.379417008196
 21
1778.193845009503
 31
0.0
  0
LINE
  5
7AB6
330
19
100
AcDbEntity
  8
1
  6
Continuous
100
AcDbLine
 10
1315.879417008196
 20
1802.293845009504
 30
0.0
 11
1315.879417008196
 21
1362.793845009504
 31
0.0
  0
LINE
  5
7AB7
330
19
100
AcDbEntity
  8
1
  6
Continuous
100
AcDbLine
 10
1401.379417008196
 20
1662.793845009503
 30
0.0
 11
1401.379417008196
 21
1407.793845009503
 31
0.0
  0
LINE
  5
7AB8
330
19
100
AcDbEntity
  8
1
  6
Continuous
100
AcDbLine
 10
1421.379417008196
 20
1377.793845009503
 30
0.0
 11
1401.379417008196
 21
1377.793845009503
 31
0.0
  0
LINE
  5
7AB9
330
19
100
AcDbEntity
  8
1
  6
Continuous
100
AcDbLine
 10
1421.379417008196
 20
1387.793845009503
 30
0.0
 11
1401.379417008196
 21
1407.793845009503
 31
0.0
  0
LINE
  5
7ABA
330
19
100
AcDbEntity
  8
1
  6
Continuous
100
AcDbLine
 10
1401.379417008196
 20
1367.793845009504
 30
0.0
 11
1196.879417008196
 21
1367.793845009504
 31
0.0
  0
LINE
  5
7ABB
330
19
100
AcDbEntity
  8
1
  6
Continuous
100
AcDbLine
 10
1401.379417008196
 20
1377.793845009503
 30
0.0
 11
1401.379417008196
 21
1367.793845009504
 31
0.0
  0
LINE
  5
7ABC
330
19
100
AcDbEntity
  8
1
  6
Continuous
100
AcDbLine
 10
1436.379417008196
 20
1192.793845009504
 30
0.0
 11
1436.379417008196
 21
1222.793845009503
 31
0.0
  0
LINE
  5
7ABD
330
19
100
AcDbEntity
  8
1
  6
Continuous
100
AcDbLine
 10
1406.379417008196
 20
1362.793845009504
 30
0.0
 11
1406.379417008196
 21
1292.793845009503
 31
0.0
  0
LINE
  5
7ABF
330
19
100
AcDbEntity
  8
1
  6
Continuous
100
AcDbLine
 10
1401.379417008196
 20
1692.793845009503
 30
0.0
 11
1421.379417008196
 21
1692.793845009503
 31
0.0
  0
LINE
  5
7AC0
330
19
100
AcDbEntity
  8
1
  6
Continuous
100
AcDbLine
 10
1421.379417008196
 20
1682.793845009503
 30
0.0
 11
1401.379417008196
 21
1662.793845009503
 31
0.0
  0
LINE
  5
7AC1
330
19
100
AcDbEntity
  8
1
  6
Continuous
100
AcDbLine
 10
1263.679417008196
 20
1872.793845009503
 30
0.0
 11
1376.379417008196
 21
1778.193845009503
 31
0.0
  0
ARC
  5
7AC2
330
19
100
AcDbEntity
  8
1
  6
Continuous
100
AcDbCircle
 10
1439.379417008196
 20
1769.793845009503
 30
0.0
 40
78.0
100
AcDbArc
 50
198.8
 51
240.8
  0
LINE
  5
7AC3
330
19
100
AcDbEntity
  8
1
  6
Continuous
100
AcDbLine
 10
1401.379417008196
 20
1701.693845009503
 30
0.0
 11
1401.379417008196
 21
1692.793845009503
 31
0.0
  0
LINE
  5
7AC4
330
19
100
AcDbEntity
  8
1
  6
Continuous
100
AcDbLine
 10
2384.647978008196
 20
1376.893845009503
 30
0.0
 11
2384.647978008196
 21
1905.893845009503
 31
0.0
  0
LINE
  5
7AC5
330
19
100
AcDbEntity
  8
1
  6
Continuous
100
AcDbLine
 10
2374.847978008196
 20
1875.393845009503
 30
0.0
 11
2374.847978008196
 21
1362.793845009504
 31
0.0
  0
LINE
  5
7AC6
330
19
100
AcDbEntity
  8
1
  6
Continuous
100
AcDbLine
 10
2210.847978008196
 20
1653.793845009503
 30
0.0
 11
2210.847978008196
 21
1362.793845009504
 31
0.0
  0
LINE
  5
7AC7
330
19
100
AcDbEntity
  8
1
  6
Continuous
100
AcDbLine
 10
2076.647978008196
 20
1362.893845009504
 30
0.0
 11
2076.647978008196
 21
1932.293845009503
 31
0.0
  0
LINE
  5
7AC8
330
19
100
AcDbEntity
  8
1
  6
Continuous
100
AcDbLine
 10
2161.647978008196
 20
1362.893845009504
 30
0.0
 11
2161.647978008196
 21
1932.293845009503
 31
0.0
  0
LINE
  5
7AC9
330
19
100
AcDbEntity
  8
1
  6
Continuous
100
AcDbLine
 10
2181.647978008196
 20
1192.793845009504
 30
0.0
 11
2496.647978008196
 21
1192.793845009504
 31
0.0
  0
LINE
  5
7ACA
330
19
100
AcDbEntity
  8
1
  6
Continuous
100
AcDbLine
 10
2181.647978008196
 20
1222.793845009503
 30
0.0
 11
2496.647978008196
 21
1222.793845009503
 31
0.0
  0
LINE
  5
7ACB
330
19
100
AcDbEntity
  8
1
  6
Continuous
100
AcDbLine
 10
2496.647978008196
 20
1362.793845009504
 30
0.0
 11
2181.647978008196
 21
1362.793845009504
 31
0.0
  0
LINE
  5
7ACC
330
19
100
AcDbEntity
  8
1
  6
Continuous
100
AcDbLine
 10
2181.647978008196
 20
1292.793845009503
 30
0.0
 11
2496.647978008196
 21
1292.793845009503
 31
0.0
  0
LINE
  5
7ACD
330
19
100
AcDbEntity
  8
1
  6
Continuous
100
AcDbLine
 10
2181.647978008196
 20
1222.793845009503
 30
0.0
 11
2181.647978008196
 21
1192.793845009504
 31
0.0
  0
LINE
  5
7ACE
330
19
100
AcDbEntity
  8
1
  6
Continuous
100
AcDbLine
 10
2136.647978008197
 20
1460.893845009503
 30
0.0
 11
2210.847978008196
 21
1460.893845009503
 31
0.0
  0
LINE
  5
7ACF
330
19
100
AcDbEntity
  8
1
  6
Continuous
100
AcDbLine
 10
2136.647978008197
 20
1484.893845009503
 30
0.0
 11
2210.847978008196
 21
1484.893845009503
 31
0.0
  0
LINE
  5
7AD0
330
19
100
AcDbEntity
  8
1
  6
Continuous
100
AcDbLine
 10
2181.647978008196
 20
1362.793845009504
 30
0.0
 11
2181.647978008196
 21
1292.793845009503
 31
0.0
  0
LINE
  5
7AD1
330
19
100
AcDbEntity
  8
1
  6
Continuous
100
AcDbLine
 10
2076.647978008196
 20
1362.893845009504
 30
0.0
 11
2161.647978008196
 21
1362.893845009504
 31
0.0
  0
LINE
  5
7AD2
330
19
100
AcDbEntity
  8
1
  6
Continuous
100
AcDbLine
 10
2101.647978008196
 20
1409.393845009503
 30
0.0
 11
2136.647978008197
 21
1409.393845009503
 31
0.0
  0
LINE
  5
7AD3
330
19
100
AcDbEntity
  8
1
  6
Continuous
100
AcDbLine
 10
2136.647978008197
 20
1409.393845009503
 30
0.0
 11
2136.647978008197
 21
1536.393845009503
 31
0.0
  0
LINE
  5
7AD4
330
19
100
AcDbEntity
  8
1
  6
Continuous
100
AcDbLine
 10
2136.647978008197
 20
1536.393845009503
 30
0.0
 11
2101.647978008196
 21
1536.393845009503
 31
0.0
  0
LINE
  5
7AD5
330
19
100
AcDbEntity
  8
1
  6
Continuous
100
AcDbLine
 10
2101.647978008196
 20
1536.393845009503
 30
0.0
 11
2101.647978008196
 21
1409.393845009503
 31
0.0
  0
LINE
  5
7AD6
330
19
100
AcDbEntity
  8
1
  6
Continuous
100
AcDbLine
 10
2496.647978008196
 20
1192.793845009504
 30
0.0
 11
2496.647978008196
 21
1222.793845009503
 31
0.0
  0
LINE
  5
7AD7
330
19
100
AcDbEntity
  8
1
  6
Continuous
100
AcDbLine
 10
2374.847978008196
 20
1510.293845009504
 30
0.0
 11
2384.847978008196
 21
1510.293845009504
 31
0.0
  0
LINE
  5
7AD8
330
19
100
AcDbEntity
  8
1
  6
Continuous
100
AcDbLine
 10
2496.647978008196
 20
1292.793845009503
 30
0.0
 11
2496.647978008196
 21
1362.793845009504
 31
0.0
  0
LINE
  5
7AD9
330
19
100
AcDbEntity
  8
1
  6
Continuous
100
AcDbLine
 10
2374.847978008196
 20
1779.993845009503
 30
0.0
 11
2210.847978008196
 21
1653.793845009503
 31
0.0
  0
LINE
  5
7ADA
330
19
100
AcDbEntity
  8
1
  6
Continuous
100
AcDbLine
 10
2136.647978008197
 20
1705.393845009503
 30
0.0
 11
2277.847978008196
 21
1705.393845009503
 31
0.0
  0
LINE
  5
7ADB
330
19
100
AcDbEntity
  8
1
  6
Continuous
100
AcDbLine
 10
2136.647978008197
 20
1680.393845009503
 30
0.0
 11
2245.447978008197
 21
1680.393845009503
 31
0.0
  0
LINE
  5
7ADC
330
19
100
AcDbEntity
  8
1
  6
Continuous
100
AcDbLine
 10
2101.647978008196
 20
1756.393845009503
 30
0.0
 11
2101.647978008196
 21
1629.393845009503
 31
0.0
  0
LINE
  5
7ADD
330
19
100
AcDbEntity
  8
1
  6
Continuous
100
AcDbLine
 10
2136.647978008197
 20
1756.393845009503
 30
0.0
 11
2101.647978008196
 21
1756.393845009503
 31
0.0
  0
LINE
  5
7ADE
330
19
100
AcDbEntity
  8
1
  6
Continuous
100
AcDbLine
 10
2136.647978008197
 20
1629.393845009503
 30
0.0
 11
2136.647978008197
 21
1756.393845009503
 31
0.0
  0
LINE
  5
7ADF
330
19
100
AcDbEntity
  8
1
  6
Continuous
100
AcDbLine
 10
2101.647978008196
 20
1629.393845009503
 30
0.0
 11
2136.647978008197
 21
1629.393845009503
 31
0.0
  0
LINE
  5
7AE0
330
19
100
AcDbEntity
  8
1
  6
Continuous
100
AcDbLine
 10
2076.647978008196
 20
1932.293845009503
 30
0.0
 11
2161.647978008196
 21
1932.293845009503
 31
0.0
  0
LINE
  5
7AE1
330
19
100
AcDbEntity
  8
1
  6
Continuous
100
AcDbLine
 10
2384.847978008196
 20
1910.893845009503
 30
0.0
 11
2384.847978008196
 21
1876.893845009503
 31
0.0
  0
LINE
  5
7AE2
330
19
100
AcDbEntity
  8
1
  6
Continuous
100
AcDbLine
 10
2374.847978008196
 20
1875.293845009503
 30
0.0
 11
2384.847978008196
 21
1875.293845009503
 31
0.0
  0
LINE
  5
7AE3
330
19
100
AcDbEntity
  8
1
  6
Continuous
100
AcDbLine
 10
2374.847978008196
 20
1873.793845009504
 30
0.0
 11
2374.847978008196
 21
1711.793845009503
 31
0.0
  0
ARC
  5
7AE4
330
19
100
AcDbEntity
  8
1
  6
Continuous
100
AcDbCircle
 10
2404.647978008196
 20
1905.893845009503
 30
0.0
 40
20.0
100
AcDbArc
 50
90.0
 51
180.0
  0
LINE
  5
7AE5
330
19
100
AcDbEntity
  8
1
  6
Continuous
100
AcDbLine
 10
988.8794170081965
 20
3181.095812712879
 30
0.0
 11
1353.879417008196
 21
3181.095812712879
 31
0.0
  0
LINE
  5
7AE6
330
19
100
AcDbEntity
  8
1
  6
Continuous
100
AcDbLine
 10
966.3794170081963
 20
2938.295812712879
 30
0.0
 11
1376.379417008196
 21
2938.295812712879
 31
0.0
  0
LINE
  5
7AE7
330
19
100
AcDbEntity
  8
1
  6
Continuous
100
AcDbLine
 10
903.3794170081963
 20
3172.095812712879
 30
0.0
 11
1421.379417008196
 21
3172.095812712879
 31
0.0
  0
LINE
  5
7AE8
330
19
100
AcDbEntity
  8
1
  6
Continuous
100
AcDbLine
 10
1421.379417008196
 20
2948.095812712879
 30
0.0
 11
903.3794170081963
 21
2948.095812712879
 31
0.0
  0
LINE
  5
7AE9
330
19
100
AcDbEntity
  8
1
  6
Continuous
100
AcDbLine
 10
1234.879417008196
 20
2701.595812712879
 30
0.0
 11
1107.879417008196
 21
2701.595812712879
 31
0.0
  0
LINE
  5
7AEA
330
19
100
AcDbEntity
  8
1
  6
Continuous
100
AcDbLine
 10
1107.879417008196
 20
2666.595812712879
 30
0.0
 11
1234.879417008196
 21
2666.595812712879
 31
0.0
  0
LINE
  5
7AEB
330
19
100
AcDbEntity
  8
1
  6
Continuous
100
AcDbLine
 10
1183.379417008196
 20
2745.095812712879
 30
0.0
 11
1436.379417008196
 21
2745.095812712879
 31
0.0
  0
LINE
  5
7AEC
330
19
100
AcDbEntity
  8
1
  6
Continuous
100
AcDbLine
 10
585.8794170081965
 20
2640.095812712879
 30
0.0
 11
1315.879417008196
 21
2640.095812712879
 31
0.0
  0
LINE
  5
7AED
330
19
100
AcDbEntity
  8
1
  6
Continuous
100
AcDbLine
 10
585.8794170081965
 20
2725.095812712879
 30
0.0
 11
1315.879417008196
 21
2725.095812712879
 31
0.0
  0
LINE
  5
7AEE
330
19
100
AcDbEntity
  8
1
  6
Continuous
100
AcDbLine
 10
1183.379417008196
 20
2775.095812712879
 30
0.0
 11
1376.379417008196
 21
2775.095812712879
 31
0.0
  0
LINE
  5
7AEF
330
19
100
AcDbEntity
  8
1
  6
Continuous
100
AcDbLine
 10
883.3794170081963
 20
3060.095812712879
 30
0.0
 11
526.3794170081964
 21
3060.095812712879
 31
0.0
  0
LINE
  5
7AF0
330
19
100
AcDbEntity
  8
1
  6
Continuous
100
AcDbLine
 10
801.3794170081963
 20
2761.595812712879
 30
0.0
 11
610.3794170081965
 21
2761.595812712879
 31
0.0
  0
LINE
  5
7AF1
330
19
100
AcDbEntity
  8
1
  6
Continuous
100
AcDbLine
 10
801.3794170081963
 20
3033.595812712879
 30
0.0
 11
610.3794170081965
 21
3033.595812712879
 31
0.0
  0
LINE
  5
7AF2
330
19
100
AcDbEntity
  8
1
  6
Continuous
100
AcDbLine
 10
636.8794170081963
 20
2666.595812712879
 30
0.0
 11
763.8794170081963
 21
2666.595812712879
 31
0.0
  0
LINE
  5
7AF3
330
19
100
AcDbEntity
  8
1
  6
Continuous
100
AcDbLine
 10
763.8794170081963
 20
2701.595812712879
 30
0.0
 11
636.8794170081963
 21
2701.595812712879
 31
0.0
  0
LINE
  5
7AF4
330
19
100
AcDbEntity
  8
1
  6
Continuous
100
AcDbLine
 10
712.3794170081963
 20
2745.095812712879
 30
0.0
 11
1159.379417008196
 21
2745.095812712879
 31
0.0
  0
LINE
  5
7AF5
330
19
100
AcDbEntity
  8
1
  6
Continuous
100
AcDbLine
 10
526.3794170081964
 20
2745.095812712879
 30
0.0
 11
688.3794170081963
 21
2745.095812712879
 31
0.0
  0
LINE
  5
7AF6
330
19
100
AcDbEntity
  8
1
  6
Continuous
100
AcDbLine
 10
526.3794170081964
 20
2745.095812712879
 30
0.0
 11
526.3794170081964
 21
3060.095812712879
 31
0.0
  0
LINE
  5
7AF7
330
19
100
AcDbEntity
  8
1
  6
Continuous
100
AcDbLine
 10
610.3794170081965
 20
3033.595812712879
 30
0.0
 11
610.3794170081965
 21
2761.595812712879
 31
0.0
  0
LINE
  5
7AF8
330
19
100
AcDbEntity
  8
1
  6
Continuous
100
AcDbLine
 10
636.8794170081963
 20
2701.595812712879
 30
0.0
 11
636.8794170081963
 21
2666.595812712879
 31
0.0
  0
LINE
  5
7AF9
330
19
100
AcDbEntity
  8
1
  6
Continuous
100
AcDbLine
 10
585.8794170081965
 20
2725.095812712879
 30
0.0
 11
585.8794170081965
 21
2640.095812712879
 31
0.0
  0
LINE
  5
7AFA
330
19
100
AcDbEntity
  8
1
  6
Continuous
100
AcDbLine
 10
712.3794170081963
 20
2701.595812712879
 30
0.0
 11
712.3794170081963
 21
2761.595812712879
 31
0.0
  0
LINE
  5
7AFB
330
19
100
AcDbEntity
  8
1
  6
Continuous
100
AcDbLine
 10
688.3794170081963
 20
2701.595812712879
 30
0.0
 11
688.3794170081963
 21
2761.595812712879
 31
0.0
  0
LINE
  5
7AFC
330
19
100
AcDbEntity
  8
1
  6
Continuous
100
AcDbLine
 10
712.3794170081963
 20
2666.595812712879
 30
0.0
 11
688.3794170081963
 21
2666.595812712879
 31
0.0
  0
LINE
  5
7AFD
330
19
100
AcDbEntity
  8
1
  6
Continuous
100
AcDbLine
 10
883.3794170081963
 20
3152.095812712879
 30
0.0
 11
883.3794170081963
 21
2968.095812712879
 31
0.0
  0
LINE
  5
7AFE
330
19
100
AcDbEntity
  8
1
  6
Continuous
100
AcDbLine
 10
966.3794170081963
 20
2775.095812712879
 30
0.0
 11
1159.379417008196
 21
2775.095812712879
 31
0.0
  0
LINE
  5
7AFF
330
19
100
AcDbEntity
  8
1
  6
Continuous
100
AcDbLine
 10
801.3794170081963
 20
2761.595812712879
 30
0.0
 11
801.3794170081963
 21
3033.595812712879
 31
0.0
  0
LINE
  5
7B00
330
19
100
AcDbEntity
  8
1
  6
Continuous
100
AcDbLine
 10
763.8794170081963
 20
2666.595812712879
 30
0.0
 11
763.8794170081963
 21
2701.595812712879
 31
0.0
  0
ARC
  5
7B01
330
19
100
AcDbEntity
  8
1
  6
Continuous
100
AcDbCircle
 10
903.3794170081963
 20
2968.095812712879
 30
0.0
 40
20.0
100
AcDbArc
 50
180.0
 51
270.0
  0
LINE
  5
7B02
330
19
100
AcDbEntity
  8
1
  6
Continuous
100
AcDbLine
 10
966.3794170081963
 20
2775.095812712879
 30
0.0
 11
966.3794170081963
 21
2938.295812712879
 31
0.0
  0
LINE
  5
7B03
330
19
100
AcDbEntity
  8
1
  6
Continuous
100
AcDbLine
 10
1159.379417008196
 20
2938.295812712879
 30
0.0
 11
1159.379417008196
 21
2701.595812712879
 31
0.0
  0
LINE
  5
7B04
330
19
100
AcDbEntity
  8
1
  6
Continuous
100
AcDbLine
 10
1183.379417008196
 20
2938.295812712879
 30
0.0
 11
1183.379417008196
 21
2701.595812712879
 31
0.0
  0
LINE
  5
7B05
330
19
100
AcDbEntity
  8
1
  6
Continuous
100
AcDbLine
 10
1107.879417008196
 20
2701.595812712879
 30
0.0
 11
1107.879417008196
 21
2666.595812712879
 31
0.0
  0
LINE
  5
7B06
330
19
100
AcDbEntity
  8
1
  6
Continuous
100
AcDbLine
 10
990.3794170081964
 20
2938.295812712879
 30
0.0
 11
1152.379417008196
 21
2938.295812712879
 31
0.0
  0
LINE
  5
7B07
330
19
100
AcDbEntity
  8
1
  6
Continuous
100
AcDbLine
 10
988.8794170081965
 20
2938.295812712879
 30
0.0
 11
988.8794170081965
 21
2948.095812712879
 31
0.0
  0
ARC
  5
7B08
330
19
100
AcDbEntity
  8
1
  6
Continuous
100
AcDbCircle
 10
903.3794170081963
 20
3152.095812712879
 30
0.0
 40
20.0
100
AcDbArc
 50
90.0
 51
180.0
  0
LINE
  5
7B09
330
19
100
AcDbEntity
  8
1
  6
Continuous
100
AcDbLine
 10
988.8794170081965
 20
3181.095812712879
 30
0.0
 11
988.8794170081965
 21
3172.895812712879
 31
0.0
  0
LINE
  5
7B0A
330
19
100
AcDbEntity
  8
1
  6
Continuous
100
AcDbLine
 10
1421.379417008196
 20
3193.095812712879
 30
0.0
 11
1421.379417008196
 21
2927.095812712879
 31
0.0
  0
LINE
  5
7B0B
330
19
100
AcDbEntity
  8
1
  6
Continuous
100
AcDbLine
 10
1401.379417008196
 20
3143.095812712879
 30
0.0
 11
1401.379417008196
 21
2977.095812712879
 31
0.0
  0
LINE
  5
7B0C
330
19
100
AcDbEntity
  8
1
  6
Continuous
100
AcDbLine
 10
1421.379417008196
 20
2957.095812712879
 30
0.0
 11
1401.379417008196
 21
2977.095812712879
 31
0.0
  0
LINE
  5
7B0D
330
19
100
AcDbEntity
  8
1
  6
Continuous
100
AcDbLine
 10
1234.879417008196
 20
2666.595812712879
 30
0.0
 11
1234.879417008196
 21
2701.595812712879
 31
0.0
  0
LINE
  5
7B0E
330
19
100
AcDbEntity
  8
1
  6
Continuous
100
AcDbLine
 10
1315.879417008196
 20
2725.095812712879
 30
0.0
 11
1315.879417008196
 21
2640.095812712879
 31
0.0
  0
LINE
  5
7B0F
330
19
100
AcDbEntity
  8
1
  6
Continuous
100
AcDbLine
 10
1376.379417008196
 20
2775.095812712879
 30
0.0
 11
1376.379417008196
 21
2938.295812712879
 31
0.0
  0
LINE
  5
7B10
330
19
100
AcDbEntity
  8
1
  6
Continuous
100
AcDbLine
 10
1353.879417008196
 20
2938.295812712879
 30
0.0
 11
1353.879417008196
 21
2948.095812712879
 31
0.0
  0
LINE
  5
7B11
330
19
100
AcDbEntity
  8
1
  6
Continuous
100
AcDbLine
 10
1436.379417008196
 20
2745.095812712879
 30
0.0
 11
1436.379417008196
 21
3060.095812712879
 31
0.0
  0
LINE
  5
7B12
330
19
100
AcDbEntity
  8
1
  6
Continuous
100
AcDbLine
 10
1436.379417008196
 20
3060.095812712879
 30
0.0
 11
1421.379417008196
 21
3060.095812712879
 31
0.0
  0
LINE
  5
7B13
330
19
100
AcDbEntity
  8
1
  6
Continuous
100
AcDbLine
 10
1421.379417008196
 20
3163.095812712879
 30
0.0
 11
1401.379417008196
 21
3143.095812712879
 31
0.0
  0
LINE
  5
7B14
330
19
100
AcDbEntity
  8
1
  6
Continuous
100
AcDbLine
 10
1353.879417008196
 20
3181.095812712879
 30
0.0
 11
1353.879417008196
 21
3172.895812712879
 31
0.0
  0
LINE
  5
7B15
330
19
100
AcDbEntity
  8
1
  6
Continuous
100
AcDbLine
 10
2608.647978008197
 20
1905.893845009503
 30
0.0
 11
2608.647978008197
 21
1376.893845009503
 31
0.0
  0
LINE
  5
7B16
330
19
100
AcDbEntity
  8
1
  6
Continuous
100
AcDbLine
 10
2617.647978008196
 20
1875.293845009503
 30
0.0
 11
2617.647978008196
 21
1510.293845009504
 31
0.0
  0
LINE
  5
7B17
330
19
100
AcDbEntity
  8
1
  6
Continuous
100
AcDbLine
 10
2617.647978008196
 20
1510.293845009504
 30
0.0
 11
2608.447978008197
 21
1510.293845009504
 31
0.0
  0
LINE
  5
7B18
330
19
100
AcDbEntity
  8
1
  6
Continuous
100
AcDbLine
 10
2617.647978008196
 20
1875.293845009503
 30
0.0
 11
2608.647978008197
 21
1875.293845009503
 31
0.0
  0
ARC
  5
7B19
330
19
100
AcDbEntity
  8
1
  6
Continuous
100
AcDbCircle
 10
2588.647978008197
 20
1905.893845009503
 30
0.0
 40
20.0
100
AcDbArc
 50
0.0
 51
90.0
  0
LINE
  5
7B1E
330
19
100
AcDbEntity
  8
4
  6
Continuous
100
AcDbLine
 10
2775.0
 20
750.0
 30
0.0
 11
2775.0
 21
450.0
 31
0.0
  0
LINE
  5
7B1F
330
19
100
AcDbEntity
  8
4
  6
Continuous
100
AcDbLine
 10
1725.0
 20
750.0
 30
0.0
 11
1725.0
 21
450.0
 31
0.0
  0
LINE
  5
7B20
330
19
100
AcDbEntity
  8
4
  6
Continuous
100
AcDbLine
 10
975.0
 20
750.0
 30
0.0
 11
975.0
 21
450.0
 31
0.0
  0
LINE
  5
7B23
330
19
100
AcDbEntity
  8
4
  6
Continuous
100
AcDbLine
 10
975.0
 20
450.0
 30
0.0
 11
2775.0
 21
450.0
 31
0.0
  0
LINE
  5
7B24
330
19
100
AcDbEntity
  8
4
  6
Continuous
100
AcDbLine
 10
975.0
 20
600.0
 30
0.0
 11
2775.0
 21
600.0
 31
0.0
  0
TEXT
  5
7B25
330
19
100
AcDbEntity
  8
4
  6
Continuous
100
AcDbText
 10
1032.753121
 20
647.3145389999999
 30
0.0
 40
75.0
  1
機器名称
100
AcDbText
  0
TEXT
  5
7B26
330
19
100
AcDbEntity
  8
4
  6
Continuous
100
AcDbText
 10
1029.387159
 20
482.4677349999999
 30
0.0
 40
75.0
  1
機器型番
100
AcDbText
  0
TEXT
  5
7B27
330
19
100
AcDbEntity
  8
4
  6
Continuous
100
AcDbText
 10
1766.518118
 20
633.857653
 30
0.0
 40
65.0
  1
ミツヤニューマルチファン
100
AcDbText
  0
TEXT
  5
7B28
330
19
100
AcDbEntity
  8
4
  6
Continuous
100
AcDbText
 10
1779.981743
 20
475.739376
 30
0.0
 40
75.0
  1
NM#2-1
100
AcDbText
  0
TEXT
  5
7B2A
330
19
100
AcDbEntity
  8
4
  6
Continuous
100
AcDbText
 10
1131.744376
 20
3575.143262
 30
0.0
 40
81.0
  1
床置防振ベット
100
AcDbText
  0
TEXT
  5
7B2B
330
19
100
AcDbEntity
  8
4
  6
Continuous
100
AcDbText
 10
474.25139
 20
3800.821464
 30
0.0
 40
108.0
  1
ベルト駆動式片吸込片持多翼ファン
100
AcDbText
  0
LINE
  5
7B2C
330
19
100
AcDbEntity
  8
4
  6
Continuous
100
AcDbLine
 10
375.0
 20
3704.113131000001
 30
0.0
 11
2775.0
 21
3704.113131000001
 31
0.0
  0
LINE
  5
7B2D
330
19
100
AcDbEntity
  8
4
  6
Continuous
100
AcDbLine
 10
375.0
 20
4004.113131
 30
0.0
 11
2775.0
 21
4004.113131
 31
0.0
  0
LINE
  5
7B2E
330
19
100
AcDbEntity
  8
4
  6
Continuous
100
AcDbLine
 10
975.0
 20
750.0
 30
0.0
 11
2775.0
 21
750.0
 31
0.0
  0
LINE
  5
7B2F
330
19
100
AcDbEntity
  8
4
  6
Continuous
100
AcDbLine
 10
375.0
 20
4004.113131
 30
0.0
 11
375.0
 21
3704.113131000001
 31
0.0
  0
TEXT
  5
7B30
330
19
100
AcDbEntity
  8
4
  6
Continuous
100
AcDbText
 10
477.956128
 20
3573.479216
 30
0.0
 40
81.0
  1
左回転右横向
100
AcDbText
  0
TEXT
  5
7B31
330
19
100
AcDbEntity
  8
4
  6
Continuous
100
AcDbText
 10
2203.454339
 20
4059.091621999999
 30
0.0
 40
84.0
  1
No.
100
AcDbText
  0
TEXT
  5
7B32
330
19
100
AcDbEntity
  8
4
  6
Continuous
100
AcDbText
 10
1966.944094
 20
3575.143262
 30
0.0
 40
81.0
  1
縮尺：1/15
100
AcDbText
  0
LINE
  5
7B33
330
19
100
AcDbEntity
  8
4
  6
Continuous
100
AcDbLine
 10
2775.0
 20
4004.113131
 30
0.0
 11
2775.0
 21
3704.113131000001
 31
0.0
  0
LINE
  5
7B35
330
19
100
AcDbEntity
  8
4
  6
Continuous
100
AcDbLine
 10
2160.926134
 20
4021.895375
 30
0.0
 11
2160.926134
 21
4179.978392
 31
0.0
  0
LINE
  5
7B36
330
19
100
AcDbEntity
  8
4
  6
Continuous
100
AcDbLine
 10
2160.926134
 20
4179.978392
 30
0.0
 11
2775.0
 21
4179.978392
 31
0.0
  0
LINE
  5
7B37
330
19
100
AcDbEntity
  8
4
  6
Continuous
100
AcDbLine
 10
2775.0
 20
4179.978392
 30
0.0
 11
2775.0
 21
4021.895375
 31
0.0
  0
LINE
  5
7B38
330
19
100
AcDbEntity
  8
4
  6
Continuous
100
AcDbLine
 10
2775.0
 20
4021.895375
 30
0.0
 11
2160.926134
 21
4021.895375
 31
0.0
  0
DIMENSION
  5
7B5C
330
19
100
AcDbEntity
  8
3
  6
Continuous
100
AcDbDimension
280
     0
  2
*D1
 10
1436.379417008196
 20
1058.168231009503
 30
0.0
 11
1303.879417008196
 21
1095.668231009503
 31
0.0
 70
    32
 71
     5
 42
265.0
 73
     0
 74
     0
 75
     0
  3
IGA
100
AcDbAlignedDimension
 13
1171.379417008196
 23
1142.601454009503
 33
0.0
 14
1436.379417008196
 24
1192.793845009504
 34
0.0
100
AcDbRotatedDimension
1001
ACAD
1000
DSTYLE
1002
{
1070
   287
1070
     4
1070
    40
1040
15.0
1070
    75
1070
     1
1070
   143
1040
0.039
1070
   172
1070
     1
1070
   271
1070
     0
1070
   279
1070
     1
1070
   288
1070
     1
1002
}
  0
DIMENSION
  5
7B69
330
19
100
AcDbEntity
  8
3
  6
Continuous
100
AcDbDimension
280
     0
  2
*D2
 10
1532.396115008197
 20
1377.793845009503
 30
0.0
 11
1532.396115008196
 21
1539.086844009504
 31
0.0
 70
   160
 71
     5
 42
-1.0
 73
     0
 74
     0
 75
     0
  3
IGA
100
AcDbAlignedDimension
 13
1421.379417008196
 23
1692.793845009503
 33
0.0
 14
1421.379417008196
 24
1377.793845009503
 34
0.0
 50
90.0
100
AcDbRotatedDimension
1001
ACAD
1000
DSTYLE
1002
{
1070
   287
1070
     3
1070
    40
1040
15.0
1070
   143
1040
0.039
1070
   172
1070
     1
1070
   271
1070
     0
1070
   279
1070
     0
1070
   288
1070
     1
1002
}
  0
DIMENSION
  5
7B76
330
19
100
AcDbEntity
  8
3
  6
Continuous
100
AcDbDimension
280
     0
  2
*D3
 10
1715.820851844277
 20
1692.793845009503
 30
0.0
 11
1715.820851844277
 21
1795.650987866646
 31
0.0
 70
   160
 71
     5
 42
233.0
 73
     0
 74
     0
 75
     0
  3
IGA
100
AcDbAlignedDimension
 13
1153.379417008196
 23
1925.793845009503
 33
0.0
 14
1421.379417008196
 24
1692.793845009503
 34
0.0
 50
90.0
100
AcDbRotatedDimension
1001
ACAD
1000
DSTYLE
1002
{
1070
   287
1070
     3
1070
    40
1040
15.0
1070
   143
1040
0.039
1070
   172
1070
     1
1070
   271
1070
     0
1070
   279
1070
     0
1070
   288
1070
     1
1002
}
  0
DIMENSION
  5
7B82
330
19
100
AcDbEntity
  8
3
  6
Continuous
100
AcDbDimension
280
     0
  2
*D4
 10
1715.820851844277
 20
1292.793845009503
 30
0.0
 11
1678.320851844277
 21
1492.793845009504
 31
0.0
 70
    32
 71
     5
 42
-1.0
 73
     0
 74
     0
 75
     0
  3
IGA
100
AcDbAlignedDimension
 13
1421.379417008196
 23
1692.793845009503
 33
0.0
 14
1406.379417008196
 24
1292.793845009503
 34
0.0
 50
90.0
100
AcDbRotatedDimension
1001
ACAD
1000
DSTYLE
1002
{
1070
   287
1070
     4
1070
    40
1040
15.0
1070
    75
1070
     1
1070
   143
1040
0.039
1070
   172
1070
     1
1070
   271
1070
     0
1070
   279
1070
     1
1070
   288
1070
     1
1002
}
  0
DIMENSION
  5
7BC6
330
19
100
AcDbEntity
  8
3
  6
Continuous
100
AcDbDimension
280
     0
  2
*D5
 10
1171.379417008196
 20
2008.137748009504
 30
0.0
 11
1031.418144008196
 21
2008.137748009504
 31
0.0
 70
   160
 71
     5
 42
-1.0
 73
     0
 74
     0
 75
     0
  3
IGA
100
AcDbAlignedDimension
 13
897.3794170081964
 23
1692.793845009503
 33
0.0
 14
1171.379417008196
 24
1925.039031009503
 34
0.0
100
AcDbRotatedDimension
1001
ACAD
1000
DSTYLE
1002
{
1070
   287
1070
     3
1070
    40
1040
15.0
1070
   143
1040
0.039
1070
   172
1070
     1
1070
   271
1070
     0
1070
   279
1070
     0
1070
   288
1070
     1
1002
}
  0
DIMENSION
  5
7BD2
330
19
100
AcDbEntity
  8
3
  6
Continuous
100
AcDbDimension
280
     0
  2
*D6
 10
1421.379417008196
 20
2008.137748009504
 30
0.0
 11
1296.379417008196
 21
2045.637748009504
 31
0.0
 70
    32
 71
     5
 42
-1.0
 73
     0
 74
     0
 75
     0
  3
IGA
100
AcDbAlignedDimension
 13
1171.379417008196
 23
1925.039031009503
 33
0.0
 14
1421.379417008196
 24
1714.293845009503
 34
0.0
100
AcDbRotatedDimension
1001
ACAD
1000
DSTYLE
1002
{
1070
   287
1070
     4
1070
    40
1040
15.0
1070
    75
1070
     1
1070
   143
1040
0.039
1070
   172
1070
     1
1070
   271
1070
     0
1070
   279
1070
     1
1070
   288
1070
     1
1002
}
  0
DIMENSION
  5
7BDF
330
19
100
AcDbEntity
  8
3
  6
Continuous
100
AcDbDimension
280
     0
  2
*D7
 10
1436.379417008196
 20
2540.254769712879
 30
0.0
 11
952.9497060081963
 21
2540.254769712879
 31
0.0
 70
   160
 71
     5
 42
-1.0
 73
     0
 74
     0
 75
     0
  3
IGA
100
AcDbAlignedDimension
 13
526.3794170081964
 23
2745.095812712879
 33
0.0
 14
1436.379417008196
 24
2745.095812712879
 34
0.0
100
AcDbRotatedDimension
1001
ACAD
1000
DSTYLE
1002
{
1070
   287
1070
     3
1070
    40
1040
15.0
1070
   143
1040
0.039
1070
   172
1070
     1
1070
   271
1070
     0
1070
   279
1070
     0
1070
   288
1070
     1
1002
}
  0
DIMENSION
  5
7BEC
330
19
100
AcDbEntity
  8
3
  6
Continuous
100
AcDbDimension
280
     0
  2
*D8
 10
1575.073729008197
 20
2745.095812712879
 30
0.0
 11
1575.073729008196
 21
2902.508324712879
 31
0.0
 70
   160
 71
     5
 42
-1.0
 73
     0
 74
     0
 75
     0
  3
IGA
100
AcDbAlignedDimension
 13
1436.379417008196
 23
3060.095812712879
 33
0.0
 14
1436.379417008196
 24
2745.095812712879
 34
0.0
 50
90.0
100
AcDbRotatedDimension
1001
ACAD
1000
DSTYLE
1002
{
1070
   287
1070
     3
1070
    40
1040
15.0
1070
   143
1040
0.039
1070
   172
1070
     1
1070
   271
1070
     0
1070
   279
1070
     0
1070
   288
1070
     1
1002
}
  0
LINE
  5
7BED
330
19
100
AcDbEntity
  8
2
  6
CENTER
100
AcDbLine
 10
820.8543810081962
 20
3060.095812712879
 30
0.0
 11
1503.169944008196
 21
3060.095812712879
 31
0.0
  0
LINE
  5
7BEE
330
19
100
AcDbEntity
  8
2
  6
CENTER
100
AcDbLine
 10
1171.379417008196
 20
2605.213770712879
 30
0.0
 11
1171.379417008196
 21
3210.074513712879
 31
0.0
  0
LINE
  5
7BEF
330
19
100
AcDbEntity
  8
2
  6
CENTER
100
AcDbLine
 10
2496.647978008196
 20
1987.689381009504
 30
0.0
 11
2496.647978008196
 21
1192.793845009504
 31
0.0
  0
DIMENSION
  5
7BFC
330
19
100
AcDbEntity
  8
3
  6
Continuous
100
AcDbDimension
280
     0
  2
*D9
 10
2608.647978008197
 20
1983.473424009503
 30
0.0
 11
2488.576550008196
 21
1983.473424009503
 31
0.0
 70
   160
 71
     5
 42
-1.0
 73
     0
 74
     0
 75
     0
  3
IGA
100
AcDbAlignedDimension
 13
2384.647978008196
 23
1905.893845009503
 33
0.0
 14
2608.647978008197
 24
1905.893845009503
 34
0.0
100
AcDbRotatedDimension
1001
ACAD
1000
DSTYLE
1002
{
1070
   287
1070
     3
1070
    40
1040
15.0
1070
   143
1040
0.039
1070
   172
1070
     1
1070
   271
1070
     0
1070
   279
1070
     0
1070
   288
1070
     1
1002
}
  0
DIMENSION
  5
7C09
330
19
100
AcDbEntity
  8
3
  6
Continuous
100
AcDbDimension
280
     0
  2
*D10
 10
2496.647978008196
 20
2070.913944009504
 30
0.0
 11
2282.230881008196
 21
2070.913944009504
 31
0.0
 70
   160
  1
(420)
 71
     5
 42
420.0
 73
     0
 74
     0
 75
     0
  3
IGA
100
AcDbAlignedDimension
 13
2076.647978008196
 23
1932.293845009503
 33
0.0
 14
2496.647978008196
 24
2054.130313009503
 34
0.0
100
AcDbRotatedDimension
1001
ACAD
1000
DSTYLE
1002
{
1070
   287
1070
     3
1070
    40
1040
15.0
1070
   143
1040
0.039
1070
   172
1070
     1
1070
   271
1070
     0
1070
   279
1070
     0
1070
   288
1070
     1
1002
}
  0
DIMENSION
  5
7C17
330
19
100
AcDbEntity
  8
3
  6
Continuous
100
AcDbDimension
280
     0
  2
*D11
 10
2617.647978008196
 20
2070.913944009504
 30
0.0
 11
2551.088486008197
 21
2070.913944009504
 31
0.0
 70
   160
 71
     5
 42
-1.0
 73
     0
 74
     0
 75
     0
  3
IGA
100
AcDbAlignedDimension
 13
2496.647978008196
 23
2054.130313009503
 33
0.0
 14
2617.647978008196
 24
1875.293845009503
 34
0.0
100
AcDbRotatedDimension
1001
ACAD
1000
DSTYLE
1002
{
1070
   287
1070
     4
1070
    40
1040
15.0
1070
    75
1070
     1
1070
   143
1040
0.039
1070
   172
1070
     1
1070
   271
1070
     0
1070
   279
1070
     1
1070
   288
1070
     1
1002
}
  0
LINE
  5
7C3C
330
19
100
AcDbEntity
  8
3
  6
Continuous
100
AcDbLine
 10
2617.647978008196
 20
1535.293845009503
 30
0.0
 11
2629.662400008196
 21
1535.293845009503
 31
0.0
  0
LINE
  5
7C3E
330
19
100
AcDbEntity
  8
3
  6
Continuous
100
AcDbLine
 10
2617.647978008196
 20
1850.293845009503
 30
0.0
 11
2627.514590008197
 21
1850.293845009503
 31
0.0
  0
DIMENSION
  5
7C4B
330
19
100
AcDbEntity
  8
3
  6
Continuous
100
AcDbDimension
280
     0
  2
*D12
 10
2729.535404008197
 20
1535.293845009503
 30
0.0
 11
2729.535404008197
 21
1688.457045009503
 31
0.0
 70
   160
 71
     5
 42
-1.0
 73
     0
 74
     0
 75
     0
  3
IGA
100
AcDbAlignedDimension
 13
2617.647978008196
 23
1850.293845009503
 33
0.0
 14
2617.647978008196
 24
1535.293845009503
 34
0.0
 50
90.0
100
AcDbRotatedDimension
1001
ACAD
1000
DSTYLE
1002
{
1070
   287
1070
     3
1070
     3
1000
φ<>
1070
    40
1040
15.0
1070
   143
1040
0.039
1070
   172
1070
     1
1070
   271
1070
     0
1070
   279
1070
     0
1070
   288
1070
     1
1002
}
  0
LINE
  5
7C4C
330
19
100
AcDbEntity
  8
2
  6
CENTER
100
AcDbLine
 10
1973.495349008196
 20
1692.793845009503
 30
0.0
 11
2654.345186008197
 21
1692.793845009503
 31
0.0
  0
DIMENSION
  5
7C8B
330
19
100
AcDbEntity
  8
3
  6
Continuous
100
AcDbDimension
280
     0
  2
*D13
 10
1629.932511008197
 20
1367.793845009503
 30
0.0
 11
1629.932511008196
 21
1521.629881009504
 31
0.0
 70
   160
 71
     5
 42
-1.0
 73
     0
 74
     0
 75
     0
  3
IGA
100
AcDbAlignedDimension
 13
1421.379417008196
 23
1692.793845009503
 33
0.0
 14
1401.379417008196
 24
1367.793845009504
 34
0.0
 50
90.0
100
AcDbRotatedDimension
1001
ACAD
1000
DSTYLE
1002
{
1070
   287
1070
     3
1070
    40
1040
15.0
1070
   143
1040
0.039
1070
   172
1070
     1
1070
   271
1070
     0
1070
   279
1070
     0
1070
   288
1070
     1
1002
}
  0
DIMENSION
  5
7D3C
330
19
100
AcDbEntity
  8
3
100
AcDbDimension
280
     0
  2
*D14
 10
1171.379417008196
 20
1056.185121294265
 30
0.0
 11
848.8794170081964
 21
1093.685121294265
 31
0.0
 70
    32
 71
     5
 42
645.0
 73
     0
 74
     0
 75
     0
  3
IGA
100
AcDbAlignedDimension
 13
526.3794170081964
 23
1192.793845009504
 33
0.0
 14
1171.379417008196
 24
1195.601454009503
 34
0.0
100
AcDbRotatedDimension
1001
ACAD
1000
DSTYLE
1002
{
1070
   287
1070
     3
1070
    40
1040
15.0
1070
   143
1040
0.039
1070
   172
1070
     1
1070
   271
1070
     0
1070
   279
1070
     0
1002
}
  0
DIMENSION
  5
7D49
330
19
100
AcDbEntity
  8
3
100
AcDbDimension
280
     0
  2
*D15
 10
2496.647978008196
 20
1056.185121294265
 30
0.0
 11
2339.147978008196
 21
1093.685121294265
 31
0.0
 70
    32
 71
     5
 42
315.0
 73
     0
 74
     0
 75
     0
  3
IGA
100
AcDbAlignedDimension
 13
2181.647978008196
 23
1192.793845009504
 33
0.0
 14
2496.647978008196
 24
1192.793845009504
 34
0.0
100
AcDbRotatedDimension
1001
ACAD
1000
DSTYLE
1002
{
1070
   287
1070
     3
1070
    40
1040
15.0
1070
   143
1040
0.039
1070
   172
1070
     1
1070
   271
1070
     0
1070
   279
1070
     0
1002
}
  0
DIMENSION
  5
7D60
330
19
100
AcDbEntity
  8
3
100
AcDbDimension
280
     0
  2
*D17
 10
1715.36862950728
 20
1192.793845009503
 30
0.0
 11
1677.86862950728
 21
1081.365273580932
 31
0.0
 70
    32
 71
     5
 42
30.0
 73
     0
 74
     0
 75
     0
  3
IGA
100
AcDbAlignedDimension
 13
1436.379417008196
 23
1222.793845009503
 33
0.0
 14
1436.379417008196
 24
1192.793845009504
 34
0.0
 50
90.0
100
AcDbRotatedDimension
1001
ACAD
1000
DSTYLE
1002
{
1070
   287
1070
     3
1070
    40
1040
15.0
1070
   143
1040
0.039
1070
   172
1070
     1
1070
   271
1070
     0
1070
   279
1070
     0
1070
     6
1000
DOT
1002
}
  0
DIMENSION
  5
7D6F
330
19
100
AcDbEntity
  8
3
100
AcDbDimension
280
     0
  2
*D18
 10
1715.36862950728
 20
1292.793845009503
 30
0.0
 11
1787.55960459524
 21
1265.701956004233
 31
0.0
 70
   160
 71
     5
 42
70.0
 73
     0
 74
     0
 75
     0
  3
IGA
100
AcDbAlignedDimension
 13
1436.379417008196
 23
1222.793845009503
 33
0.0
 14
1406.379417008196
 24
1292.793845009503
 34
0.0
 50
90.0
100
AcDbRotatedDimension
1001
ACAD
1000
DSTYLE
1002
{
1070
     3
1000
(<>)
1070
    40
1040
15.0
1070
   143
1040
0.039
1070
   172
1070
     1
1070
   271
1070
     0
1070
   343
1005
7D4A
1002
}
  0
DIMENSION
  5
7F24
330
19
100
AcDbEntity
  8
3
100
AcDbDimension
280
     0
  2
*D19
 10
1836.42377611843
 20
1925.793845009503
 30
0.0
 11
1787.138061832716
 21
1559.293845009504
 31
0.0
 70
    32
 71
     5
 42
732.9999999999998
 73
     0
 74
     0
 75
     0
  3
IGA
100
AcDbAlignedDimension
 13
1436.379417008196
 23
1192.793845009504
 33
0.0
 14
1153.379417008196
 24
1925.793845009503
 34
0.0
 50
90.0
100
AcDbRotatedDimension
1001
ACAD
1000
DSTYLE
1002
{
1070
     3
1000
(<>)
1070
    40
1040
15.0
1070
   143
1040
0.039
1070
   172
1070
     1
1070
   271
1070
     0
1070
   341
1005
7D4A
1070
   343
1005
7D4A
1002
}
  0
ENDSEC
  0
SECTION
  2
OBJECTS
  0
DICTIONARY
  5
C
330
0
100
AcDbDictionary
281
     1
  3
ACAD_CIP_PREVIOUS_PRODUCT_INFO
350
7E96
  3
ACAD_COLOR
350
7E79
  3
ACAD_DETAILVIEWSTYLE
350
7E92
  3
ACAD_GROUP
350
D
  3
ACAD_LAYOUT
350
7D78
  3
ACAD_MATERIAL
350
7E47
  3
ACAD_MLEADERSTYLE
350
7E8E
  3
ACAD_MLINESTYLE
350
E
  3
ACAD_PLOTSETTINGS
350
7D79
  3
ACAD_PLOTSTYLENAME
350
7D76
  3
ACAD_SCALELIST
350
7E7C
  3
ACAD_SECTIONVIEWSTYLE
350
7E90
  3
ACAD_TABLESTYLE
350
7E7A
  3
ACAD_VISUALSTYLE
350
7E60
  3
ACDB_RECOMPOSE_DATA
350
7F4C
  3
AcDbVariableDictionary
350
7E3E
  0
DICTIONARY
  5
7E98
330
2
100
AcDbDictionary
280
     1
281
     1
  3
ACAD_LAYERSTATES
360
7E99
  0
DICTIONARY
  5
7EDE
330
F
100
AcDbDictionary
280
     1
281
     1
  3
ADSK_XREC_LAYER_RECONCILED
360
7EDF
  0
DICTIONARY
  5
7EE0
330
31
100
AcDbDictionary
280
     1
281
     1
  3
ADSK_XREC_LAYER_RECONCILED
360
7EE1
  0
DICTIONARY
  5
7EE2
330
76D0
100
AcDbDictionary
280
     1
281
     1
  3
ADSK_XREC_LAYER_RECONCILED
360
7EE3
  0
DICTIONARY
  5
7EE4
330
76D1
100
AcDbDictionary
280
     1
281
     1
  3
ADSK_XREC_LAYER_RECONCILED
360
7EE5
  0
DICTIONARY
  5
7EE6
330
76D2
100
AcDbDictionary
280
     1
281
     1
  3
ADSK_XREC_LAYER_RECONCILED
360
7EE7
  0
DICTIONARY
  5
7DA5
330
19
100
AcDbDictionary
280
     1
281
     1
  3
ACAD_LAYOUTSELFREF
360
7DA6
  0
DICTIONARY
  5
7DA3
330
16
100
AcDbDictionary
280
     1
281
     1
  3
ACAD_LAYOUTSELFREF
360
7DA4
  0
XRECORD
  5
7E96
102
{ACAD_REACTORS
330
C
102
}
330
C
100
AcDbXrecord
280
     1
300
ACDLT
300
2015
300
INVLTS_F_S
  0
DICTIONARY
  5
7E79
102
{ACAD_REACTORS
330
C
102
}
330
C
100
AcDbDictionary
281
     1
  0
DICTIONARY
  5
7E92
102
{ACAD_REACTORS
330
C
102
}
330
C
100
AcDbDictionary
281
     1
  3
Imperial24
350
7E93
  0
DICTIONARY
  5
D
102
{ACAD_REACTORS
330
C
102
}
330
0
100
AcDbDictionary
281
     1
  0
DICTIONARY
  5
7D78
102
{ACAD_REACTORS
330
C
102
}
330
C
100
AcDbDictionary
281
     1
  3
Model
350
7D7A
  3
ﾚｲｱｳﾄ1
350
7D7B
  0
DICTIONARY
  5
7E47
102
{ACAD_REACTORS
330
C
102
}
330
C
100
AcDbDictionary
281
     1
  3
ByBlock
350
7E50
  3
ByLayer
350
7E48
  3
Global
350
7E58
  0
DICTIONARY
  5
7E8E
102
{ACAD_REACTORS
330
C
102
}
330
C
100
AcDbDictionary
281
     1
  3
Standard
350
7E8F
  0
DICTIONARY
  5
E
102
{ACAD_REACTORS
330
C
102
}
330
0
100
AcDbDictionary
281
     1
  3
STANDARD
350
1C
  0
DICTIONARY
  5
7D79
102
{ACAD_REACTORS
330
C
102
}
330
C
100
AcDbDictionary
281
     1
  0
ACDBDICTIONARYWDFLT
  5
7D76
102
{ACAD_REACTORS
330
C
102
}
330
C
100
AcDbDictionary
281
     1
  3
Normal
350
7D77
100
AcDbDictionaryWithDefault
340
7D77
1001
ACAD
1000
TREAT_AS_HARD
1070
     0
  0
DICTIONARY
  5
7E7C
102
{ACAD_REACTORS
330
C
102
}
330
C
100
AcDbDictionary
281
     1
  3
A0
350
7E7D
  3
A1
350
7E7E
  3
A2
350
7E7F
  3
A3
350
7E80
  3
A4
350
7E81
  3
A5
350
7E82
  3
A6
350
7E83
  3
A7
350
7E84
  3
A8
350
7E85
  3
A9
350
7E86
  3
B0
350
7E87
  3
B1
350
7E88
  3
B2
350
7E89
  3
B3
350
7E8A
  3
B4
350
7E8B
  3
B5
350
7E8C
  3
B6
350
7E8D
  0
DICTIONARY
  5
7E90
102
{ACAD_REACTORS
330
C
102
}
330
C
100
AcDbDictionary
281
     1
  3
Imperial24
350
7E91
  0
DICTIONARY
  5
7E7A
102
{ACAD_REACTORS
330
C
102
}
330
C
100
AcDbDictionary
281
     1
  3
Standard
350
7E7B
  0
DICTIONARY
  5
7E60
102
{ACAD_REACTORS
330
C
102
}
330
C
100
AcDbDictionary
281
     1
  3
2dWireframe
350
7E66
  3
Basic
350
7E65
  3
Brighten
350
7E6C
  3
ColorChange
350
7E70
  3
Conceptual
350
7E69
  3
Dim
350
7E6B
  3
EdgeColorOff
350
7E78
  3
Facepattern
350
7E6F
  3
Flat
350
7E61
  3
FlatWithEdges
350
7E62
  3
Gouraud
350
7E63
  3
GouraudWithEdges
350
7E64
  3
Hidden
350
7E68
  3
JitterOff
350
7E76
  3
Linepattern
350
7E6E
  3
OverhangOff
350
7E77
  3
Realistic
350
7E6A
  3
Shaded
350
7E75
  3
Shaded with edges
350
7E74
  3
Shades of Gray
350
7E71
  3
Sketchy
350
7E72
  3
Thicken
350
7E6D
  3
Wireframe
350
7E67
  3
X-Ray
350
7E73
  0
XRECORD
  5
7F4C
102
{ACAD_REACTORS
330
C
102
}
330
C
100
AcDbXrecord
280
     1
 90
        1
330
7E7B
330
7E91
330
7E93
  0
DICTIONARY
  5
7E3E
102
{ACAD_REACTORS
330
C
102
}
330
C
100
AcDbDictionary
281
     1
  3
CANNOSCALE
350
7EF9
  3
CMLEADERSTYLE
350
7EF5
  3
CTABLESTYLE
350
7EF4
  3
CVIEWDETAILSTYLE
350
7EF6
  3
CVIEWSECTIONSTYLE
350
7EF7
  3
DIMASSOC
350
7E3F
  3
LAYEREVAL
350
7EFB
  3
LAYERNOTIFY
350
7EFC
  3
LIGHTINGUNITS
350
7EFA
  3
MSLTSCALE
350
7EF8
  0
DICTIONARY
  5
7E99
102
{ACAD_REACTORS
330
7E98
102
}
330
7E98
100
AcDbDictionary
281
     1
  0
XRECORD
  5
7EDF
102
{ACAD_REACTORS
330
7EDE
102
}
330
7EDE
100
AcDbXrecord
280
     1
290
     1
  0
XRECORD
  5
7EE1
102
{ACAD_REACTORS
330
7EE0
102
}
330
7EE0
100
AcDbXrecord
280
     1
290
     1
  0
XRECORD
  5
7EE3
102
{ACAD_REACTORS
330
7EE2
102
}
330
7EE2
100
AcDbXrecord
280
     1
290
     1
  0
XRECORD
  5
7EE5
102
{ACAD_REACTORS
330
7EE4
102
}
330
7EE4
100
AcDbXrecord
280
     1
290
     1
  0
XRECORD
  5
7EE7
102
{ACAD_REACTORS
330
7EE6
102
}
330
7EE6
100
AcDbXrecord
280
     1
290
     1
  0
XRECORD
  5
7DA6
102
{ACAD_REACTORS
330
7DA5
102
}
330
7DA5
100
AcDbXrecord
280
     1
340
19
  0
XRECORD
  5
7DA4
102
{ACAD_REACTORS
330
7DA3
102
}
330
7DA3
100
AcDbXrecord
280
     1
340
16
  0
ACDBDETAILVIEWSTYLE
  5
7E93
102
{ACAD_XDICTIONARY
360
7EF1
102
}
102
{ACAD_REACTORS
330
7E92
102
}
330
7E92
100
AcDbModelDocViewStyle
 70
     0
  3
Imperial24
290
     0
100
AcDbDetailViewStyle
 70
     0
 71
     0
 90
        3
 71
     1
340
10
 62
   256
 40
0.24
340
0
 62
   256
 40
0.24
300

 40
0.36
280
     3
 71
     2
340
15
 90
       25
 62
   256
 71
     3
340
10
 62
   256
 40
0.24
 90
        1
 40
0.75
 90
        1
300
%<\AcVar ViewType \f "%tc1">% %<\AcVar ViewDetailId>%\PSCALE %<\AcVar ViewScale \f "%sn">%
 71
     4
340
15
 90
       25
 62
   256
340
15
 90
       25
 62
   256
280
     0
  0
LAYOUT
  5
7D7A
102
{ACAD_REACTORS
330
7D78
102
}
330
7D78
100
AcDbPlotSettings
  1

  2
\\Txbo34x8944cqyd\EPSON LP-6100
  4

  6

 40
0.0
 41
0.0
 42
0.0
 43
0.0
 44
0.0
 45
0.0
 46
0.0
 47
0.0
 48
0.0
 49
0.0
140
0.0
141
0.0
142
1.0
143
1.0
 70
  1712
 72
     0
 73
     0
 74
     0
  7
GOD2000TABLE.ctb
 75
     0
147
1.0
 76
     0
 77
     2
 78
   300
148
0.0
149
0.0
100
AcDbLayout
  1
Model
 70
     1
 71
     0
 10
0.0
 20
0.0
 11
12.0
 21
9.0
 12
0.0
 22
0.0
 32
0.0
 14
0.0
 24
0.0
 34
0.0
 15
0.0
 25
0.0
 35
0.0
146
0.0
 13
0.0
 23
0.0
 33
0.0
 16
1.0
 26
0.0
 36
0.0
 17
0.0
 27
1.0
 37
0.0
 76
     0
330
19
331
7E45
  0
LAYOUT
  5
7D7B
102
{ACAD_REACTORS
330
7D78
102
}
330
7D78
100
AcDbPlotSettings
  1

  2
\\Txbo34x8944cqyd\EPSON LP-6100
  4

  6

 40
0.0
 41
0.0
 42
0.0
 43
0.0
 44
0.0
 45
0.0
 46
0.0
 47
0.0
 48
0.0
 49
0.0
140
0.0
141
0.0
142
1.0
143
1.0
 70
   688
 72
     0
 73
     0
 74
     5
  7
GOD2000TABLE.ctb
 75
    16
147
1.0
 76
     0
 77
     2
 78
   300
148
0.0
149
0.0
100
AcDbLayout
  1
ﾚｲｱｳﾄ1
 70
     1
 71
     1
 10
0.0
 20
0.0
 11
12.0
 21
9.0
 12
0.0
 22
0.0
 32
0.0
 14
1.000000000000000E+20
 24
1.000000000000000E+20
 34
1.000000000000000E+20
 15
-1.000000000000000E+20
 25
-1.000000000000000E+20
 35
-1.000000000000000E+20
146
0.0
 13
0.0
 23
0.0
 33
0.0
 16
1.0
 26
0.0
 36
0.0
 17
0.0
 27
1.0
 37
0.0
 76
     0
330
16
  0
MATERIAL
  5
7E50
102
{ACAD_XDICTIONARY
360
7E51
102
}
102
{ACAD_REACTORS
330
7E47
102
}
330
7E47
100
AcDbMaterial
  1
ByBlock
 72
     0
 43
0.0208333333333333
 43
0.0
 43
0.0
 43
0.0
 43
0.0
 43
0.0208333333333333
 43
0.0
 43
0.0
 43
0.0
 43
0.0
 43
1.0
 43
0.0
 43
0.0
 43
0.0
 43
0.0
 43
1.0
 77
     0
 47
0.0208333333333333
 47
0.0
 47
0.0
 47
0.0
 47
0.0
 47
0.0208333333333333
 47
0.0
 47
0.0
 47
0.0
 47
0.0
 47
1.0
 47
0.0
 47
0.0
 47
0.0
 47
0.0
 47
1.0
171
     0
 49
0.0208333333333333
 49
0.0
 49
0.0
 49
0.0
 49
0.0
 49
0.0208333333333333
 49
0.0
 49
0.0
 49
0.0
 49
0.0
 49
1.0
 49
0.0
 49
0.0
 49
0.0
 49
0.0
 49
1.0
175
     0
142
0.0208333333333333
142
0.0
142
0.0
142
0.0
142
0.0
142
0.0208333333333333
142
0.0
142
0.0
142
0.0
142
0.0
142
1.0
142
0.0
142
0.0
142
0.0
142
0.0
142
1.0
179
     0
144
0.0208333333333333
144
0.0
144
0.0
144
0.0
144
0.0
144
0.0208333333333333
144
0.0
144
0.0
144
0.0
144
0.0
144
1.0
144
0.0
144
0.0
144
0.0
144
0.0
144
1.0
147
0.0208333333333333
147
0.0
147
0.0
147
0.0
147
0.0
147
0.0208333333333333
147
0.0
147
0.0
147
0.0
147
0.0
147
1.0
147
0.0
147
0.0
147
0.0
147
0.0
147
1.0
  0
MATERIAL
  5
7E48
102
{ACAD_XDICTIONARY
360
7E49
102
}
102
{ACAD_REACTORS
330
7E47
102
}
330
7E47
100
AcDbMaterial
  1
ByLayer
 72
     0
 43
0.0208333333333333
 43
0.0
 43
0.0
 43
0.0
 43
0.0
 43
0.0208333333333333
 43
0.0
 43
0.0
 43
0.0
 43
0.0
 43
1.0
 43
0.0
 43
0.0
 43
0.0
 43
0.0
 43
1.0
 77
     0
 47
0.0208333333333333
 47
0.0
 47
0.0
 47
0.0
 47
0.0
 47
0.0208333333333333
 47
0.0
 47
0.0
 47
0.0
 47
0.0
 47
1.0
 47
0.0
 47
0.0
 47
0.0
 47
0.0
 47
1.0
171
     0
 49
0.0208333333333333
 49
0.0
 49
0.0
 49
0.0
 49
0.0
 49
0.0208333333333333
 49
0.0
 49
0.0
 49
0.0
 49
0.0
 49
1.0
 49
0.0
 49
0.0
 49
0.0
 49
0.0
 49
1.0
175
     0
142
0.0208333333333333
142
0.0
142
0.0
142
0.0
142
0.0
142
0.0208333333333333
142
0.0
142
0.0
142
0.0
142
0.0
142
1.0
142
0.0
142
0.0
142
0.0
142
0.0
142
1.0
179
     0
144
0.0208333333333333
144
0.0
144
0.0
144
0.0
144
0.0
144
0.0208333333333333
144
0.0
144
0.0
144
0.0
144
0.0
144
1.0
144
0.0
144
0.0
144
0.0
144
0.0
144
1.0
147
0.0208333333333333
147
0.0
147
0.0
147
0.0
147
0.0
147
0.0208333333333333
147
0.0
147
0.0
147
0.0
147
0.0
147
1.0
147
0.0
147
0.0
147
0.0
147
0.0
147
1.0
  0
MATERIAL
  5
7E58
102
{ACAD_XDICTIONARY
360
7E59
102
}
102
{ACAD_REACTORS
330
7E47
102
}
330
7E47
100
AcDbMaterial
  1
Global
 72
     0
 43
0.0208333333333333
 43
0.0
 43
0.0
 43
0.0
 43
0.0
 43
0.0208333333333333
 43
0.0
 43
0.0
 43
0.0
 43
0.0
 43
1.0
 43
0.0
 43
0.0
 43
0.0
 43
0.0
 43
1.0
 77
     0
 47
0.0208333333333333
 47
0.0
 47
0.0
 47
0.0
 47
0.0
 47
0.0208333333333333
 47
0.0
 47
0.0
 47
0.0
 47
0.0
 47
1.0
 47
0.0
 47
0.0
 47
0.0
 47
0.0
 47
1.0
171
     0
 49
0.0208333333333333
 49
0.0
 49
0.0
 49
0.0
 49
0.0
 49
0.0208333333333333
 49
0.0
 49
0.0
 49
0.0
 49
0.0
 49
1.0
 49
0.0
 49
0.0
 49
0.0
 49
0.0
 49
1.0
175
     0
142
0.0208333333333333
142
0.0
142
0.0
142
0.0
142
0.0
142
0.0208333333333333
142
0.0
142
0.0
142
0.0
142
0.0
142
1.0
142
0.0
142
0.0
142
0.0
142
0.0
142
1.0
179
     0
144
0.0208333333333333
144
0.0
144
0.0
144
0.0
144
0.0
144
0.0208333333333333
144
0.0
144
0.0
144
0.0
144
0.0
144
1.0
144
0.0
144
0.0
144
0.0
144
0.0
144
1.0
147
0.0208333333333333
147
0.0
147
0.0
147
0.0
147
0.0
147
0.0208333333333333
147
0.0
147
0.0
147
0.0
147
0.0
147
1.0
147
0.0
147
0.0
147
0.0
147
0.0
147
1.0
  0
MLEADERSTYLE
  5
7E8F
102
{ACAD_REACTORS
330
7E8E
102
}
330
7E8E
100
AcDbMLeaderStyle
179
     2
170
     2
171
     1
172
     0
 90
        2
 40
0.0
 41
0.0
173
     1
 91
-1056964608
340
13
 92
       -2
290
     1
 42
0.09
291
     1
 43
0.36
  3
Standard
 44
0.18
300

342
10
174
     1
178
     6
175
     1
176
     0
 93
-1056964608
 45
0.18
292
     0
297
     0
 46
0.18
 94
-1056964608
 47
1.0
 49
1.0
140
1.0
293
     1
141
0.0
294
     1
177
     0
142
1.0
295
     1
296
     0
143
0.125
271
     0
272
     9
273
     9
298
     1
  0
MLINESTYLE
  5
1C
102
{ACAD_REACTORS
330
E
102
}
330
0
100
AcDbMlineStyle
  2
STANDARD
 70
     0
  3

 62
     0
 51
90.0
 52
90.0
 71
     2
 49
0.5
 62
   256
  6
BYLAYER
 49
-0.5
 62
   256
  6
BYLAYER
  0
ACDBPLACEHOLDER
  5
7D77
102
{ACAD_REACTORS
330
7D76
102
}
330
7D76
  0
SCALE
  5
7E7D
102
{ACAD_REACTORS
330
7E7C
102
}
330
7E7C
100
AcDbScale
 70
     0
300
1:1
140
1.0
141
1.0
290
     1
  0
SCALE
  5
7E7E
102
{ACAD_REACTORS
330
7E7C
102
}
330
7E7C
100
AcDbScale
 70
     0
300
1/128" = 1'-0"
140
0.0078125
141
12.0
290
     0
  0
SCALE
  5
7E7F
102
{ACAD_REACTORS
330
7E7C
102
}
330
7E7C
100
AcDbScale
 70
     0
300
1/64" = 1'-0"
140
0.015625
141
12.0
290
     0
  0
SCALE
  5
7E80
102
{ACAD_REACTORS
330
7E7C
102
}
330
7E7C
100
AcDbScale
 70
     0
300
1/32" = 1'-0"
140
0.03125
141
12.0
290
     0
  0
SCALE
  5
7E81
102
{ACAD_REACTORS
330
7E7C
102
}
330
7E7C
100
AcDbScale
 70
     0
300
1/16" = 1'-0"
140
0.0625
141
12.0
290
     0
  0
SCALE
  5
7E82
102
{ACAD_REACTORS
330
7E7C
102
}
330
7E7C
100
AcDbScale
 70
     0
300
3/32" = 1'-0"
140
0.09375
141
12.0
290
     0
  0
SCALE
  5
7E83
102
{ACAD_REACTORS
330
7E7C
102
}
330
7E7C
100
AcDbScale
 70
     0
300
1/8" = 1'-0"
140
0.125
141
12.0
290
     0
  0
SCALE
  5
7E84
102
{ACAD_REACTORS
330
7E7C
102
}
330
7E7C
100
AcDbScale
 70
     0
300
3/16" = 1'-0"
140
0.1875
141
12.0
290
     0
  0
SCALE
  5
7E85
102
{ACAD_REACTORS
330
7E7C
102
}
330
7E7C
100
AcDbScale
 70
     0
300
1/4" = 1'-0"
140
0.25
141
12.0
290
     0
  0
SCALE
  5
7E86
102
{ACAD_REACTORS
330
7E7C
102
}
330
7E7C
100
AcDbScale
 70
     0
300
3/8" = 1'-0"
140
0.375
141
12.0
290
     0
  0
SCALE
  5
7E87
102
{ACAD_REACTORS
330
7E7C
102
}
330
7E7C
100
AcDbScale
 70
     0
300
1/2" = 1'-0"
140
0.5
141
12.0
290
     0
  0
SCALE
  5
7E88
102
{ACAD_REACTORS
330
7E7C
102
}
330
7E7C
100
AcDbScale
 70
     0
300
3/4" = 1'-0"
140
0.75
141
12.0
290
     0
  0
SCALE
  5
7E89
102
{ACAD_REACTORS
330
7E7C
102
}
330
7E7C
100
AcDbScale
 70
     0
300
1" = 1'-0"
140
1.0
141
12.0
290
     0
  0
SCALE
  5
7E8A
102
{ACAD_REACTORS
330
7E7C
102
}
330
7E7C
100
AcDbScale
 70
     0
300
1-1/2" = 1'-0"
140
1.5
141
12.0
290
     0
  0
SCALE
  5
7E8B
102
{ACAD_REACTORS
330
7E7C
102
}
330
7E7C
100
AcDbScale
 70
     0
300
3" = 1'-0"
140
3.0
141
12.0
290
     0
  0
SCALE
  5
7E8C
102
{ACAD_REACTORS
330
7E7C
102
}
330
7E7C
100
AcDbScale
 70
     0
300
6" = 1'-0"
140
6.0
141
12.0
290
     0
  0
SCALE
  5
7E8D
102
{ACAD_REACTORS
330
7E7C
102
}
330
7E7C
100
AcDbScale
 70
     0
300
1'-0" = 1'-0"
140
12.0
141
12.0
290
     0
  0
ACDBSECTIONVIEWSTYLE
  5
7E91
102
{ACAD_XDICTIONARY
360
7EEF
102
}
102
{ACAD_REACTORS
330
7E90
102
}
330
7E90
100
AcDbModelDocViewStyle
 70
     0
  3
Imperial24
290
     0
100
AcDbSectionViewStyle
 70
     0
 71
     0
 90
       78
 71
     1
340
10
 62
   256
 40
0.24
340
0
340
0
 62
   256
 40
0.24
300
I, O, Q, S, X, Z
 40
0.48
 90
        3
 40
0.18
 90
        1
 71
     2
340
15
 90
       25
 62
   256
340
15
 90
       50
 62
   256
 40
0.24
 40
0.0
 40
0.24
 71
     3
340
10
 62
   256
 40
0.24
 90
        1
 40
0.75
 90
        1
300
%<\AcVar ViewType \f "%tc1">% %<\AcVar ViewSectionStartId>%-%<\AcVar ViewSectionEndId>%\PSCALE %<\AcVar ViewScale \f "%sn">%
 71
     4
 62
   256
 62
   257
300
ANSI31
 40
1.0
 90
        0
290
     0
290
     0
 90
        6
 40
0.0
 40
1.570796326794896
 40
0.2617993877991494
 40
1.308996938995747
 40
-0.2617993877991494
 40
1.832595714594046
  0
TABLESTYLE
  5
7E7B
102
{ACAD_XDICTIONARY
360
7F48
102
}
102
{ACAD_REACTORS
330
7E7A
102
}
330
7E7A
100
AcDbTableStyle
280
     0
  3
Standard
 70
     0
 71
     0
 40
0.06
 41
0.06
280
     0
281
     0
  7
STANDARD
140
0.18
170
     2
 62
     0
 63
     7
283
     0
 90
      512
 91
        0
  1

274
    -2
284
     1
 64
     0
275
    -2
285
     1
 65
     0
276
    -2
286
     1
 66
     0
277
    -2
287
     1
 67
     0
278
    -2
288
     1
 68
     0
279
    -2
289
     1
 69
     0
  7
STANDARD
140
0.25
170
     5
 62
     0
 63
     7
283
     0
 90
      512
 91
        0
  1

274
    -2
284
     1
 64
     0
275
    -2
285
     1
 65
     0
276
    -2
286
     1
 66
     0
277
    -2
287
     1
 67
     0
278
    -2
288
     1
 68
     0
279
    -2
289
     1
 69
     0
  7
STANDARD
140
0.18
170
     5
 62
     0
 63
     7
283
     0
 90
      512
 91
        0
  1

274
    -2
284
     1
 64
     0
275
    -2
285
     1
 65
     0
276
    -2
286
     1
 66
     0
277
    -2
287
     1
 67
     0
278
    -2
288
     1
 68
     0
279
    -2
289
     1
 69
     0
  0
VISUALSTYLE
  5
7E66
102
{ACAD_REACTORS
330
7E60
102
}
330
7E60
100
AcDbVisualStyle
  2
2dWireframe
 70
     4
177
     3
291
     0
 70
    58
 90
        0
176
     1
 90
        2
176
     1
 90
        0
176
     1
 90
        0
176
     1
 40
0.6
176
     1
 40
30.0
176
     1
 62
     7
420
 16777215
176
     1
 90
        1
176
     1
 90
        4
176
     1
 62
     7
176
     1
 62
   257
176
     1
 90
        1
176
     1
 90
        1
176
     1
 40
1.0
176
     1
 90
        0
176
     1
 62
   257
176
     1
 40
1.0
176
     1
 90
        1
176
     1
 90
        6
176
     1
 90
        2
176
     1
 62
     7
176
     1
 90
        5
176
     1
 90
        0
176
     1
 90
        0
176
     1
290
     0
176
     1
 90
        1
176
     1
 40
0.0
176
     1
 90
        0
176
     1
290
     1
176
     1
290
     1
176
     1
290
     0
176
     1
290
     0
176
     1
290
     0
176
     1
290
     0
176
     1
290
     0
176
     1
290
     0
176
     1
290
     0
176
     1
 90
       50
176
     1
 40
0.0
176
     1
 40
1.0
176
     1
 90
        0
176
     1
 62
    18
420
        0
176
     1
 90
       50
176
     1
 90
        3
176
     1
 62
     5
420
      255
176
     1
290
     0
176
     1
 90
       50
176
     1
 90
       50
176
     1
 90
       50
176
     1
290
     0
176
     1
 90
       50
176
     1
 62
   256
176
     0
 40
1.0
176
     0
 90
        2
176
     1
  1
strokes_ogs.tif
176
     1
290
     0
176
     1
 40
1.0
176
     1
 40
1.0
176
     1
  0
VISUALSTYLE
  5
7E65
102
{ACAD_REACTORS
330
7E60
102
}
330
7E60
100
AcDbVisualStyle
  2
Basic
 70
     7
177
     3
291
     1
 70
    58
 90
        1
176
     1
 90
        0
176
     1
 90
        1
176
     1
 90
        0
176
     1
 40
0.6
176
     1
 40
30.0
176
     1
 62
     7
420
 16777215
176
     1
 90
        0
176
     1
 90
        4
176
     1
 62
     7
176
     1
 62
   257
176
     1
 90
        1
176
     1
 90
        1
176
     1
 40
1.0
176
     1
 90
        8
176
     1
 62
     7
176
     1
 40
1.0
176
     1
 90
        1
176
     1
 90
        6
176
     1
 90
        2
176
     1
 62
     7
176
     1
 90
        5
176
     1
 90
        0
176
     1
 90
        0
176
     1
290
     0
176
     1
 90
        1
176
     1
 40
0.0
176
     1
 90
        0
176
     1
290
     0
176
     1
290
     1
176
     1
290
     1
176
     1
290
     0
176
     1
290
     0
176
     1
290
     0
176
     1
290
     0
176
     1
290
     0
176
     1
290
     0
176
     1
 90
       50
176
     1
 40
0.0
176
     1
 40
1.0
176
     1
 90
        0
176
     1
 62
    18
420
        0
176
     1
 90
       50
176
     1
 90
        3
176
     1
 62
     5
420
      255
176
     1
290
     0
176
     1
 90
       50
176
     1
 90
       50
176
     1
 90
       50
176
     1
290
     0
176
     1
 90
       50
176
     1
 62
   256
176
     0
 40
1.0
176
     0
 90
        2
176
     1
  1
strokes_ogs.tif
176
     1
290
     0
176
     1
 40
1.0
176
     1
 40
1.0
176
     1
  0
VISUALSTYLE
  5
7E6C
102
{ACAD_REACTORS
330
7E60
102
}
330
7E60
100
AcDbVisualStyle
  2
Brighten
 70
    12
177
     3
291
     1
 70
    58
 90
        2
176
     1
 90
        2
176
     1
 90
        0
176
     1
 90
        0
176
     1
 40
0.6
176
     1
 40
30.0
176
     1
 62
     7
420
 16777215
176
     1
 90
        1
176
     1
 90
        4
176
     1
 62
     7
176
     1
 62
   257
176
     1
 90
        1
176
     1
 90
        1
176
     1
 40
1.0
176
     1
 90
        8
176
     1
 62
     7
176
     1
 40
1.0
176
     1
 90
        1
176
     1
 90
        6
176
     1
 90
        2
176
     1
 62
     7
176
     1
 90
        5
176
     1
 90
        0
176
     1
 90
        0
176
     1
290
     0
176
     1
 90
        1
176
     1
 40
50.0
176
     1
 90
        0
176
     1
290
     0
176
     1
290
     1
176
     1
290
     1
176
     1
290
     0
176
     1
290
     0
176
     1
290
     0
176
     1
290
     0
176
     1
290
     0
176
     1
290
     0
176
     1
 90
       50
176
     1
 40
0.0
176
     1
 40
1.0
176
     1
 90
        0
176
     1
 62
    18
420
        0
176
     1
 90
       50
176
     1
 90
        3
176
     1
 62
     5
420
      255
176
     1
290
     0
176
     1
 90
       50
176
     1
 90
       50
176
     1
 90
       50
176
     1
290
     0
176
     1
 90
       50
176
     1
 62
   256
176
     0
 40
1.0
176
     0
 90
        2
176
     1
  1
strokes_ogs.tif
176
     1
290
     0
176
     1
 40
1.0
176
     1
 40
1.0
176
     1
  0
VISUALSTYLE
  5
7E70
102
{ACAD_REACTORS
330
7E60
102
}
330
7E60
100
AcDbVisualStyle
  2
ColorChange
 70
    16
177
     3
291
     1
 70
    58
 90
        2
176
     1
 90
        2
176
     1
 90
        3
176
     1
 90
        0
176
     1
 40
0.6
176
     1
 40
30.0
176
     1
 62
     8
420
  8421504
176
     1
 90
        1
176
     1
 90
        4
176
     1
 62
     7
176
     1
 62
   257
176
     1
 90
        1
176
     1
 90
        1
176
     1
 40
1.0
176
     1
 90
        8
176
     1
 62
     8
420
  8421504
176
     1
 40
1.0
176
     1
 90
        1
176
     1
 90
        6
176
     1
 90
        2
176
     1
 62
     7
176
     1
 90
        5
176
     1
 90
        0
176
     1
 90
        0
176
     1
290
     0
176
     1
 90
        1
176
     1
 40
0.0
176
     1
 90
        0
176
     1
290
     0
176
     1
290
     1
176
     1
290
     1
176
     1
290
     0
176
     1
290
     0
176
     1
290
     0
176
     1
290
     0
176
     1
290
     0
176
     1
290
     0
176
     1
 90
       50
176
     1
 40
0.0
176
     1
 40
1.0
176
     1
 90
        0
176
     1
 62
    18
420
        0
176
     1
 90
       50
176
     1
 90
        3
176
     1
 62
     5
420
      255
176
     1
290
     0
176
     1
 90
       50
176
     1
 90
       50
176
     1
 90
       50
176
     1
290
     0
176
     1
 90
       50
176
     1
 62
   256
176
     0
 40
1.0
176
     0
 90
        2
176
     1
  1
strokes_ogs.tif
176
     1
290
     0
176
     1
 40
1.0
176
     1
 40
1.0
176
     1
  0
VISUALSTYLE
  5
7E69
102
{ACAD_REACTORS
330
7E60
102
}
330
7E60
100
AcDbVisualStyle
  2
Conceptual
 70
     9
177
     3
291
     0
 70
    58
 90
        3
176
     1
 90
        2
176
     1
 90
        0
176
     1
 90
        0
176
     1
 40
0.6
176
     1
 40
30.0
176
     1
 62
     7
420
 16777215
176
     1
 90
        2
176
     1
 90
        2
176
     1
 62
     7
176
     1
 62
   257
176
     1
 90
        1
176
     1
 90
        1
176
     1
 40
179.0
176
     1
 90
        8
176
     1
 62
     7
176
     1
 40
1.0
176
     1
 90
        1
176
     1
 90
        6
176
     1
 90
        2
176
     1
 62
     7
176
     1
 90
        3
176
     1
 90
        0
176
     1
 90
        0
176
     1
290
     0
176
     1
 90
        1
176
     1
 40
0.0
176
     1
 90
        0
176
     1
290
     0
176
     1
290
     1
176
     1
290
     1
176
     1
290
     0
176
     1
290
     0
176
     1
290
     0
176
     1
290
     0
176
     1
290
     0
176
     1
290
     0
176
     1
 90
       50
176
     1
 40
0.0
176
     1
 40
1.0
176
     1
 90
        0
176
     1
 62
    18
420
        0
176
     1
 90
       50
176
     1
 90
        3
176
     1
 62
     5
420
      255
176
     1
290
     0
176
     1
 90
       50
176
     1
 90
       50
176
     1
 90
       50
176
     1
290
     0
176
     1
 90
       50
176
     1
 62
   256
176
     0
 40
1.0
176
     0
 90
        2
176
     1
  1
strokes_ogs.tif
176
     1
290
     0
176
     1
 40
1.0
176
     1
 40
1.0
176
     1
  0
VISUALSTYLE
  5
7E6B
102
{ACAD_REACTORS
330
7E60
102
}
330
7E60
100
AcDbVisualStyle
  2
Dim
 70
    11
177
     3
291
     1
 70
    58
 90
        2
176
     1
 90
        2
176
     1
 90
        0
176
     1
 90
        0
176
     1
 40
0.6
176
     1
 40
30.0
176
     1
 62
     7
420
 16777215
176
     1
 90
        1
176
     1
 90
        4
176
     1
 62
     7
176
     1
 62
   257
176
     1
 90
        1
176
     1
 90
        1
176
     1
 40
1.0
176
     1
 90
        8
176
     1
 62
     7
176
     1
 40
1.0
176
     1
 90
        1
176
     1
 90
        6
176
     1
 90
        2
176
     1
 62
     7
176
     1
 90
        5
176
     1
 90
        0
176
     1
 90
        0
176
     1
290
     0
176
     1
 90
        1
176
     1
 40
-50.0
176
     1
 90
        0
176
     1
290
     0
176
     1
290
     1
176
     1
290
     1
176
     1
290
     0
176
     1
290
     0
176
     1
290
     0
176
     1
290
     0
176
     1
290
     0
176
     1
290
     0
176
     1
 90
       50
176
     1
 40
0.0
176
     1
 40
1.0
176
     1
 90
        0
176
     1
 62
    18
420
        0
176
     1
 90
       50
176
     1
 90
        3
176
     1
 62
     5
420
      255
176
     1
290
     0
176
     1
 90
       50
176
     1
 90
       50
176
     1
 90
       50
176
     1
290
     0
176
     1
 90
       50
176
     1
 62
   256
176
     0
 40
1.0
176
     0
 90
        2
176
     1
  1
strokes_ogs.tif
176
     1
290
     0
176
     1
 40
1.0
176
     1
 40
1.0
176
     1
  0
VISUALSTYLE
  5
7E78
102
{ACAD_REACTORS
330
7E60
102
}
330
7E60
100
AcDbVisualStyle
  2
EdgeColorOff
 70
    22
177
     3
291
     1
 70
    58
 90
        2
176
     0
 90
        2
176
     0
 90
        0
176
     0
 90
        0
176
     0
 40
0.6
176
     0
 40
30.0
176
     0
 62
     7
420
 16777215
176
     0
 90
        1
176
     0
 90
        4
176
     0
 62
     7
176
     0
 62
   257
176
     0
 90
        1
176
     0
 90
        1
176
     0
 40
1.0
176
     0
 90
        8
176
     2
 62
     7
176
     0
 40
1.0
176
     0
 90
        1
176
     0
 90
        6
176
     0
 90
        2
176
     0
 62
     7
176
     0
 90
        5
176
     0
 90
        0
176
     0
 90
        0
176
     0
290
     0
176
     0
 90
        1
176
     0
 40
0.0
176
     0
 90
        0
176
     0
290
     0
176
     0
290
     1
176
     0
290
     1
176
     0
290
     0
176
     0
290
     0
176
     0
290
     0
176
     0
290
     0
176
     0
290
     0
176
     0
290
     0
176
     0
 90
       50
176
     0
 40
0.0
176
     0
 40
1.0
176
     0
 90
        0
176
     0
 62
    18
420
        0
176
     0
 90
       50
176
     0
 90
        3
176
     0
 62
     5
420
      255
176
     0
290
     0
176
     0
 90
       50
176
     0
 90
       50
176
     0
 90
       50
176
     0
290
     0
176
     0
 90
       50
176
     0
 62
   256
176
     0
 40
1.0
176
     0
 90
        2
176
     0
  1
strokes_ogs.tif
176
     0
290
     0
176
     0
 40
1.0
176
     0
 40
1.0
176
     0
  0
VISUALSTYLE
  5
7E6F
102
{ACAD_REACTORS
330
7E60
102
}
330
7E60
100
AcDbVisualStyle
  2
Facepattern
 70
    15
177
     3
291
     1
 70
    58
 90
        2
176
     1
 90
        2
176
     1
 90
        0
176
     1
 90
        0
176
     1
 40
0.6
176
     1
 40
30.0
176
     1
 62
     7
420
 16777215
176
     1
 90
        1
176
     1
 90
        4
176
     1
 62
     7
176
     1
 62
   257
176
     1
 90
        1
176
     1
 90
        1
176
     1
 40
1.0
176
     1
 90
        8
176
     1
 62
     7
176
     1
 40
1.0
176
     1
 90
        1
176
     1
 90
        6
176
     1
 90
        2
176
     1
 62
     7
176
     1
 90
        5
176
     1
 90
        0
176
     1
 90
        0
176
     1
290
     0
176
     1
 90
        1
176
     1
 40
0.0
176
     1
 90
        0
176
     1
290
     0
176
     1
290
     1
176
     1
290
     1
176
     1
290
     0
176
     1
290
     0
176
     1
290
     0
176
     1
290
     0
176
     1
290
     0
176
     1
290
     0
176
     1
 90
       50
176
     1
 40
0.0
176
     1
 40
1.0
176
     1
 90
        0
176
     1
 62
    18
420
        0
176
     1
 90
       50
176
     1
 90
        3
176
     1
 62
     5
420
      255
176
     1
290
     0
176
     1
 90
       50
176
     1
 90
       50
176
     1
 90
       50
176
     1
290
     0
176
     1
 90
       50
176
     1
 62
   256
176
     0
 40
1.0
176
     0
 90
        2
176
     1
  1
strokes_ogs.tif
176
     1
290
     0
176
     1
 40
1.0
176
     1
 40
1.0
176
     1
  0
VISUALSTYLE
  5
7E61
102
{ACAD_REACTORS
330
7E60
102
}
330
7E60
100
AcDbVisualStyle
  2
Flat
 70
     0
177
     3
291
     1
 70
    58
 90
        2
176
     1
 90
        1
176
     1
 90
        1
176
     1
 90
        2
176
     1
 40
0.6
176
     1
 40
30.0
176
     1
 62
     7
420
 16777215
176
     1
 90
        0
176
     1
 90
        0
176
     1
 62
     7
176
     1
 62
   257
176
     1
 90
        1
176
     1
 90
        1
176
     1
 40
1.0
176
     1
 90
        8
176
     1
 62
     7
176
     1
 40
1.0
176
     1
 90
        1
176
     1
 90
        6
176
     1
 90
        2
176
     1
 62
     7
176
     1
 90
        5
176
     1
 90
        0
176
     1
 90
        0
176
     1
290
     0
176
     1
 90
       13
176
     1
 40
0.0
176
     1
 90
        0
176
     1
290
     0
176
     1
290
     1
176
     1
290
     1
176
     1
290
     0
176
     1
290
     0
176
     1
290
     0
176
     1
290
     0
176
     1
290
     0
176
     1
290
     0
176
     1
 90
       50
176
     1
 40
0.0
176
     1
 40
1.0
176
     1
 90
        0
176
     1
 62
    18
420
        0
176
     1
 90
       50
176
     1
 90
        3
176
     1
 62
     5
420
      255
176
     1
290
     0
176
     1
 90
       50
176
     1
 90
       50
176
     1
 90
       50
176
     1
290
     0
176
     1
 90
       50
176
     1
 62
   256
176
     0
 40
1.0
176
     0
 90
        2
176
     1
  1
strokes_ogs.tif
176
     1
290
     0
176
     1
 40
1.0
176
     1
 40
1.0
176
     1
  0
VISUALSTYLE
  5
7E62
102
{ACAD_REACTORS
330
7E60
102
}
330
7E60
100
AcDbVisualStyle
  2
FlatWithEdges
 70
     1
177
     3
291
     1
 70
    58
 90
        2
176
     1
 90
        1
176
     1
 90
        1
176
     1
 90
        2
176
     1
 40
0.6
176
     1
 40
30.0
176
     1
 62
     7
420
 16777215
176
     1
 90
        1
176
     1
 90
        0
176
     1
 62
     7
176
     1
 62
   257
176
     1
 90
        1
176
     1
 90
        1
176
     1
 40
1.0
176
     1
 90
        0
176
     1
 62
   257
176
     1
 40
1.0
176
     1
 90
        1
176
     1
 90
        6
176
     1
 90
        2
176
     1
 62
     7
176
     1
 90
        5
176
     1
 90
        0
176
     1
 90
        0
176
     1
290
     0
176
     1
 90
       13
176
     1
 40
0.0
176
     1
 90
        0
176
     1
290
     0
176
     1
290
     1
176
     1
290
     1
176
     1
290
     0
176
     1
290
     0
176
     1
290
     0
176
     1
290
     0
176
     1
290
     0
176
     1
290
     0
176
     1
 90
       50
176
     1
 40
0.0
176
     1
 40
1.0
176
     1
 90
        0
176
     1
 62
    18
420
        0
176
     1
 90
       50
176
     1
 90
        3
176
     1
 62
     5
420
      255
176
     1
290
     0
176
     1
 90
       50
176
     1
 90
       50
176
     1
 90
       50
176
     1
290
     0
176
     1
 90
       50
176
     1
 62
   256
176
     0
 40
1.0
176
     0
 90
        2
176
     1
  1
strokes_ogs.tif
176
     1
290
     0
176
     1
 40
1.0
176
     1
 40
1.0
176
     1
  0
VISUALSTYLE
  5
7E63
102
{ACAD_REACTORS
330
7E60
102
}
330
7E60
100
AcDbVisualStyle
  2
Gouraud
 70
     2
177
     3
291
     1
 70
    58
 90
        2
176
     1
 90
        2
176
     1
 90
        1
176
     1
 90
        2
176
     1
 40
0.6
176
     1
 40
30.0
176
     1
 62
     7
420
 16777215
176
     1
 90
        0
176
     1
 90
        0
176
     1
 62
     7
176
     1
 62
   257
176
     1
 90
        1
176
     1
 90
        1
176
     1
 40
1.0
176
     1
 90
        0
176
     1
 62
     7
176
     1
 40
1.0
176
     1
 90
        1
176
     1
 90
        6
176
     1
 90
        2
176
     1
 62
     7
176
     1
 90
        5
176
     1
 90
        0
176
     1
 90
        0
176
     1
290
     0
176
     1
 90
       13
176
     1
 40
0.0
176
     1
 90
        0
176
     1
290
     0
176
     1
290
     1
176
     1
290
     1
176
     1
290
     0
176
     1
290
     0
176
     1
290
     0
176
     1
290
     0
176
     1
290
     0
176
     1
290
     0
176
     1
 90
       50
176
     1
 40
0.0
176
     1
 40
1.0
176
     1
 90
        0
176
     1
 62
    18
420
        0
176
     1
 90
       50
176
     1
 90
        3
176
     1
 62
     5
420
      255
176
     1
290
     0
176
     1
 90
       50
176
     1
 90
       50
176
     1
 90
       50
176
     1
290
     0
176
     1
 90
       50
176
     1
 62
   256
176
     0
 40
1.0
176
     0
 90
        2
176
     1
  1
strokes_ogs.tif
176
     1
290
     0
176
     1
 40
1.0
176
     1
 40
1.0
176
     1
  0
VISUALSTYLE
  5
7E64
102
{ACAD_REACTORS
330
7E60
102
}
330
7E60
100
AcDbVisualStyle
  2
GouraudWithEdges
 70
     3
177
     3
291
     1
 70
    58
 90
        2
176
     1
 90
        2
176
     1
 90
        1
176
     1
 90
        2
176
     1
 40
0.6
176
     1
 40
30.0
176
     1
 62
     7
420
 16777215
176
     1
 90
        1
176
     1
 90
        0
176
     1
 62
     7
176
     1
 62
   257
176
     1
 90
        1
176
     1
 90
        1
176
     1
 40
1.0
176
     1
 90
        0
176
     1
 62
   257
176
     1
 40
1.0
176
     1
 90
        1
176
     1
 90
        6
176
     1
 90
        2
176
     1
 62
     7
176
     1
 90
        5
176
     1
 90
        0
176
     1
 90
        0
176
     1
290
     0
176
     1
 90
       13
176
     1
 40
0.0
176
     1
 90
        0
176
     1
290
     0
176
     1
290
     1
176
     1
290
     1
176
     1
290
     0
176
     1
290
     0
176
     1
290
     0
176
     1
290
     0
176
     1
290
     0
176
     1
290
     0
176
     1
 90
       50
176
     1
 40
0.0
176
     1
 40
1.0
176
     1
 90
        0
176
     1
 62
    18
420
        0
176
     1
 90
       50
176
     1
 90
        3
176
     1
 62
     5
420
      255
176
     1
290
     0
176
     1
 90
       50
176
     1
 90
       50
176
     1
 90
       50
176
     1
290
     0
176
     1
 90
       50
176
     1
 62
   256
176
     0
 40
1.0
176
     0
 90
        2
176
     1
  1
strokes_ogs.tif
176
     1
290
     0
176
     1
 40
1.0
176
     1
 40
1.0
176
     1
  0
VISUALSTYLE
  5
7E68
102
{ACAD_REACTORS
330
7E60
102
}
330
7E60
100
AcDbVisualStyle
  2
Hidden
 70
     6
177
     3
291
     0
 70
    58
 90
        1
176
     1
 90
        2
176
     1
 90
        2
176
     1
 90
        0
176
     1
 40
0.6
176
     1
 40
30.0
176
     1
 62
     7
420
 16777215
176
     1
 90
        2
176
     1
 90
        2
176
     1
 62
     7
176
     1
 62
   257
176
     1
 90
        2
176
     1
 90
        1
176
     1
 40
40.0
176
     1
 90
        0
176
     1
 62
   257
176
     1
 40
1.0
176
     1
 90
        1
176
     1
 90
        6
176
     1
 90
        2
176
     1
 62
     7
176
     1
 90
        3
176
     1
 90
        0
176
     1
 90
        0
176
     1
290
     0
176
     1
 90
        1
176
     1
 40
0.0
176
     1
 90
        0
176
     1
290
     0
176
     1
290
     1
176
     1
290
     1
176
     1
290
     0
176
     1
290
     0
176
     1
290
     0
176
     1
290
     0
176
     1
290
     0
176
     1
290
     0
176
     1
 90
       50
176
     1
 40
0.0
176
     1
 40
1.0
176
     1
 90
        0
176
     1
 62
    18
420
        0
176
     1
 90
       50
176
     1
 90
        3
176
     1
 62
     5
420
      255
176
     1
290
     0
176
     1
 90
       50
176
     1
 90
       50
176
     1
 90
       50
176
     1
290
     0
176
     1
 90
       50
176
     1
 62
   256
176
     0
 40
1.0
176
     0
 90
        2
176
     1
  1
strokes_ogs.tif
176
     1
290
     0
176
     1
 40
1.0
176
     1
 40
1.0
176
     1
  0
VISUALSTYLE
  5
7E76
102
{ACAD_REACTORS
330
7E60
102
}
330
7E60
100
AcDbVisualStyle
  2
JitterOff
 70
    20
177
     3
291
     1
 70
    58
 90
        2
176
     0
 90
        2
176
     0
 90
        0
176
     0
 90
        0
176
     0
 40
0.6
176
     0
 40
30.0
176
     0
 62
     7
420
 16777215
176
     0
 90
        1
176
     0
 90
        4
176
     0
 62
     7
176
     0
 62
   257
176
     0
 90
        1
176
     0
 90
        1
176
     0
 40
1.0
176
     0
 90
       10
176
     2
 62
     7
176
     0
 40
1.0
176
     0
 90
        1
176
     0
 90
        6
176
     0
 90
        2
176
     0
 62
     7
176
     0
 90
        5
176
     0
 90
        0
176
     0
 90
        0
176
     0
290
     0
176
     0
 90
        1
176
     0
 40
0.0
176
     0
 90
        0
176
     0
290
     0
176
     0
290
     1
176
     0
290
     1
176
     0
290
     0
176
     0
290
     0
176
     0
290
     0
176
     0
290
     0
176
     0
290
     0
176
     0
290
     0
176
     0
 90
       50
176
     0
 40
0.0
176
     0
 40
1.0
176
     0
 90
        0
176
     0
 62
    18
420
        0
176
     0
 90
       50
176
     0
 90
        3
176
     0
 62
     5
420
      255
176
     0
290
     0
176
     0
 90
       50
176
     0
 90
       50
176
     0
 90
       50
176
     0
290
     0
176
     0
 90
       50
176
     0
 62
   256
176
     0
 40
1.0
176
     0
 90
        2
176
     0
  1
strokes_ogs.tif
176
     0
290
     0
176
     0
 40
1.0
176
     0
 40
1.0
176
     0
  0
VISUALSTYLE
  5
7E6E
102
{ACAD_REACTORS
330
7E60
102
}
330
7E60
100
AcDbVisualStyle
  2
Linepattern
 70
    14
177
     3
291
     1
 70
    58
 90
        2
176
     1
 90
        2
176
     1
 90
        0
176
     1
 90
        0
176
     1
 40
0.6
176
     1
 40
30.0
176
     1
 62
     7
420
 16777215
176
     1
 90
        1
176
     1
 90
        4
176
     1
 62
     7
176
     1
 62
   257
176
     1
 90
        7
176
     1
 90
        7
176
     1
 40
1.0
176
     1
 90
        8
176
     1
 62
     7
176
     1
 40
1.0
176
     1
 90
        1
176
     1
 90
        6
176
     1
 90
        2
176
     1
 62
     7
176
     1
 90
        5
176
     1
 90
        0
176
     1
 90
        0
176
     1
290
     0
176
     1
 90
        1
176
     1
 40
0.0
176
     1
 90
        0
176
     1
290
     0
176
     1
290
     1
176
     1
290
     1
176
     1
290
     0
176
     1
290
     0
176
     1
290
     0
176
     1
290
     0
176
     1
290
     0
176
     1
290
     0
176
     1
 90
       50
176
     1
 40
0.0
176
     1
 40
1.0
176
     1
 90
        0
176
     1
 62
    18
420
        0
176
     1
 90
       50
176
     1
 90
        3
176
     1
 62
     5
420
      255
176
     1
290
     0
176
     1
 90
       50
176
     1
 90
       50
176
     1
 90
       50
176
     1
290
     0
176
     1
 90
       50
176
     1
 62
   256
176
     0
 40
1.0
176
     0
 90
        2
176
     1
  1
strokes_ogs.tif
176
     1
290
     0
176
     1
 40
1.0
176
     1
 40
1.0
176
     1
  0
VISUALSTYLE
  5
7E77
102
{ACAD_REACTORS
330
7E60
102
}
330
7E60
100
AcDbVisualStyle
  2
OverhangOff
 70
    21
177
     3
291
     1
 70
    58
 90
        2
176
     0
 90
        2
176
     0
 90
        0
176
     0
 90
        0
176
     0
 40
0.6
176
     0
 40
30.0
176
     0
 62
     7
420
 16777215
176
     0
 90
        1
176
     0
 90
        4
176
     0
 62
     7
176
     0
 62
   257
176
     0
 90
        1
176
     0
 90
        1
176
     0
 40
1.0
176
     0
 90
        9
176
     2
 62
     7
176
     0
 40
1.0
176
     0
 90
        1
176
     0
 90
        6
176
     0
 90
        2
176
     0
 62
     7
176
     0
 90
        5
176
     0
 90
        0
176
     0
 90
        0
176
     0
290
     0
176
     0
 90
        1
176
     0
 40
0.0
176
     0
 90
        0
176
     0
290
     0
176
     0
290
     1
176
     0
290
     1
176
     0
290
     0
176
     0
290
     0
176
     0
290
     0
176
     0
290
     0
176
     0
290
     0
176
     0
290
     0
176
     0
 90
       50
176
     0
 40
0.0
176
     0
 40
1.0
176
     0
 90
        0
176
     0
 62
    18
420
        0
176
     0
 90
       50
176
     0
 90
        3
176
     0
 62
     5
420
      255
176
     0
290
     0
176
     0
 90
       50
176
     0
 90
       50
176
     0
 90
       50
176
     0
290
     0
176
     0
 90
       50
176
     0
 62
   256
176
     0
 40
1.0
176
     0
 90
        2
176
     0
  1
strokes_ogs.tif
176
     0
290
     0
176
     0
 40
1.0
176
     0
 40
1.0
176
     0
  0
VISUALSTYLE
  5
7E6A
102
{ACAD_REACTORS
330
7E60
102
}
330
7E60
100
AcDbVisualStyle
  2
Realistic
 70
     8
177
     3
291
     0
 70
    58
 90
        2
176
     1
 90
        3
176
     1
 90
        0
176
     1
 90
        2
176
     1
 40
0.6
176
     1
 40
30.0
176
     1
 62
     7
420
 16777215
176
     1
 90
        0
176
     1
 90
        0
176
     1
 62
     7
176
     1
 62
   257
176
     1
 90
        1
176
     1
 90
        1
176
     1
 40
1.0
176
     1
 90
        8
176
     1
 62
   257
176
     1
 40
1.0
176
     1
 90
        1
176
     1
 90
        6
176
     1
 90
        2
176
     1
 62
     7
176
     1
 90
        3
176
     1
 90
        0
176
     1
 90
        0
176
     1
290
     0
176
     1
 90
       13
176
     1
 40
0.0
176
     1
 90
        0
176
     1
290
     0
176
     1
290
     1
176
     1
290
     1
176
     1
290
     0
176
     1
290
     0
176
     1
290
     0
176
     1
290
     0
176
     1
290
     0
176
     1
290
     0
176
     1
 90
       50
176
     1
 40
0.0
176
     1
 40
1.0
176
     1
 90
        0
176
     1
 62
    18
420
        0
176
     1
 90
       50
176
     1
 90
        3
176
     1
 62
     5
420
      255
176
     1
290
     0
176
     1
 90
       50
176
     1
 90
       50
176
     1
 90
       50
176
     1
290
     0
176
     1
 90
       50
176
     1
 62
   256
176
     0
 40
1.0
176
     0
 90
        2
176
     1
  1
strokes_ogs.tif
176
     1
290
     0
176
     1
 40
1.0
176
     1
 40
1.0
176
     1
  0
VISUALSTYLE
  5
7E75
102
{ACAD_REACTORS
330
7E60
102
}
330
7E60
100
AcDbVisualStyle
  2
Shaded
 70
    27
177
     3
291
     0
 70
    58
 90
        2
176
     1
 90
        2
176
     1
 90
        1
176
     1
 90
        2
176
     1
 40
0.6
176
     1
 40
30.0
176
     1
 62
     7
420
 16777215
176
     1
 90
        0
176
     1
 90
        4
176
     1
 62
     7
176
     1
 62
   257
176
     1
 90
        1
176
     1
 90
        1
176
     1
 40
1.0
176
     1
 90
        8
176
     1
 62
   257
176
     1
 40
1.0
176
     1
 90
        1
176
     1
 90
        6
176
     1
 90
        2
176
     1
 62
     8
420
  7895160
176
     1
 90
        3
176
     1
 90
        0
176
     1
 90
        0
176
     1
290
     0
176
     1
 90
        5
176
     1
 40
0.0
176
     1
 90
        0
176
     1
290
     0
176
     1
290
     1
176
     1
290
     1
176
     1
290
     0
176
     1
290
     0
176
     1
290
     0
176
     1
290
     0
176
     1
290
     0
176
     1
290
     0
176
     1
 90
       50
176
     1
 40
0.0
176
     1
 40
1.0
176
     1
 90
        0
176
     1
 62
    18
420
        0
176
     1
 90
       50
176
     1
 90
        3
176
     1
 62
     5
420
      255
176
     1
290
     0
176
     1
 90
       50
176
     1
 90
       50
176
     1
 90
       50
176
     1
290
     0
176
     1
 90
       50
176
     1
 62
   256
176
     0
 40
1.0
176
     0
 90
        2
176
     1
  1
strokes_ogs.tif
176
     1
290
     0
176
     1
 40
1.0
176
     1
 40
1.0
176
     1
  0
VISUALSTYLE
  5
7E74
102
{ACAD_REACTORS
330
7E60
102
}
330
7E60
100
AcDbVisualStyle
  2
Shaded with edges
 70
    26
177
     3
291
     0
 70
    58
 90
        2
176
     1
 90
        2
176
     1
 90
        1
176
     1
 90
        2
176
     1
 40
0.6
176
     1
 40
30.0
176
     1
 62
     7
420
 16777215
176
     1
 90
        1
176
     1
 90
       10
176
     1
 62
     7
176
     1
 62
   257
176
     1
 90
        2
176
     1
 90
        1
176
     1
 40
1.0
176
     1
 90
        8
176
     1
 62
   257
176
     1
 40
1.0
176
     1
 90
        1
176
     1
 90
        6
176
     1
 90
        2
176
     1
 62
     7
176
     1
 90
        3
176
     1
 90
        0
176
     1
 90
        0
176
     1
290
     0
176
     1
 90
        5
176
     1
 40
0.0
176
     1
 90
        0
176
     1
290
     0
176
     1
290
     1
176
     1
290
     1
176
     1
290
     0
176
     1
290
     0
176
     1
290
     0
176
     1
290
     0
176
     1
290
     0
176
     1
290
     0
176
     1
 90
       50
176
     1
 40
0.0
176
     1
 40
1.0
176
     1
 90
        0
176
     1
 62
    18
420
        0
176
     1
 90
       50
176
     1
 90
        3
176
     1
 62
     5
420
      255
176
     1
290
     0
176
     1
 90
       50
176
     1
 90
       50
176
     1
 90
       50
176
     1
290
     0
176
     1
 90
       50
176
     1
 62
   256
176
     0
 40
1.0
176
     0
 90
        2
176
     1
  1
strokes_ogs.tif
176
     1
290
     0
176
     1
 40
1.0
176
     1
 40
1.0
176
     1
  0
VISUALSTYLE
  5
7E71
102
{ACAD_REACTORS
330
7E60
102
}
330
7E60
100
AcDbVisualStyle
  2
Shades of Gray
 70
    23
177
     3
291
     0
 70
    58
 90
        2
176
     1
 90
        2
176
     1
 90
        3
176
     1
 90
        0
176
     1
 40
0.6
176
     1
 40
30.0
176
     1
 62
     7
420
 16777215
176
     1
 90
        2
176
     1
 90
        2
176
     1
 62
     7
176
     1
 62
     7
176
     1
 90
        1
176
     1
 90
        1
176
     1
 40
40.0
176
     1
 90
        8
176
     1
 62
     7
176
     1
 40
1.0
176
     1
 90
        1
176
     1
 90
        6
176
     1
 90
        2
176
     1
 62
     7
176
     1
 90
        3
176
     1
 90
        0
176
     1
 90
        0
176
     1
290
     0
176
     1
 90
        1
176
     1
 40
0.0
176
     1
 90
        0
176
     1
290
     0
176
     1
290
     1
176
     1
290
     1
176
     1
290
     0
176
     1
290
     0
176
     1
290
     0
176
     1
290
     0
176
     1
290
     0
176
     1
290
     0
176
     1
 90
       50
176
     1
 40
0.0
176
     1
 40
1.0
176
     1
 90
        0
176
     1
 62
    18
420
        0
176
     1
 90
       50
176
     1
 90
        3
176
     1
 62
     5
420
      255
176
     1
290
     0
176
     1
 90
       50
176
     1
 90
       50
176
     1
 90
       50
176
     1
290
     0
176
     1
 90
       50
176
     1
 62
   256
176
     0
 40
1.0
176
     0
 90
        2
176
     1
  1
strokes_ogs.tif
176
     1
290
     0
176
     1
 40
1.0
176
     1
 40
1.0
176
     1
  0
VISUALSTYLE
  5
7E72
102
{ACAD_REACTORS
330
7E60
102
}
330
7E60
100
AcDbVisualStyle
  2
Sketchy
 70
    24
177
     3
291
     0
 70
    58
 90
        1
176
     1
 90
        2
176
     1
 90
        2
176
     1
 90
        0
176
     1
 40
0.6
176
     1
 40
30.0
176
     1
 62
     7
420
 16777215
176
     1
 90
        2
176
     1
 90
        2
176
     1
 62
     7
176
     1
 62
     7
176
     1
 90
        1
176
     1
 90
        1
176
     1
 40
40.0
176
     1
 90
       11
176
     1
 62
     7
176
     1
 40
1.0
176
     1
 90
        1
176
     1
 90
        6
176
     1
 90
        2
176
     1
 62
     7
176
     1
 90
        6
176
     1
 90
        0
176
     1
 90
        0
176
     1
290
     0
176
     1
 90
        1
176
     1
 40
0.0
176
     1
 90
        0
176
     1
290
     0
176
     1
290
     1
176
     1
290
     1
176
     1
290
     0
176
     1
290
     0
176
     1
290
     0
176
     1
290
     0
176
     1
290
     0
176
     1
290
     0
176
     1
 90
       50
176
     1
 40
0.0
176
     1
 40
1.0
176
     1
 90
        0
176
     1
 62
    18
420
        0
176
     1
 90
       50
176
     1
 90
        3
176
     1
 62
     5
420
      255
176
     1
290
     0
176
     1
 90
       50
176
     1
 90
       50
176
     1
 90
       50
176
     1
290
     0
176
     1
 90
       50
176
     1
 62
   256
176
     0
 40
1.0
176
     0
 90
        2
176
     1
  1
strokes_ogs.tif
176
     1
290
     0
176
     1
 40
1.0
176
     1
 40
1.0
176
     1
  0
VISUALSTYLE
  5
7E6D
102
{ACAD_REACTORS
330
7E60
102
}
330
7E60
100
AcDbVisualStyle
  2
Thicken
 70
    13
177
     3
291
     1
 70
    58
 90
        2
176
     1
 90
        2
176
     1
 90
        0
176
     1
 90
        0
176
     1
 40
0.6
176
     1
 40
30.0
176
     1
 62
     7
420
 16777215
176
     1
 90
        1
176
     1
 90
        4
176
     1
 62
     7
176
     1
 62
   257
176
     1
 90
        1
176
     1
 90
        1
176
     1
 40
1.0
176
     1
 90
       12
176
     1
 62
     7
176
     1
 40
1.0
176
     1
 90
        1
176
     1
 90
        6
176
     1
 90
        2
176
     1
 62
     7
176
     1
 90
        5
176
     1
 90
        0
176
     1
 90
        0
176
     1
290
     0
176
     1
 90
        1
176
     1
 40
0.0
176
     1
 90
        0
176
     1
290
     0
176
     1
290
     1
176
     1
290
     1
176
     1
290
     0
176
     1
290
     0
176
     1
290
     0
176
     1
290
     0
176
     1
290
     0
176
     1
290
     0
176
     1
 90
       50
176
     1
 40
0.0
176
     1
 40
1.0
176
     1
 90
        0
176
     1
 62
    18
420
        0
176
     1
 90
       50
176
     1
 90
        3
176
     1
 62
     5
420
      255
176
     1
290
     0
176
     1
 90
       50
176
     1
 90
       50
176
     1
 90
       50
176
     1
290
     0
176
     1
 90
       50
176
     1
 62
   256
176
     0
 40
1.0
176
     0
 90
        2
176
     1
  1
strokes_ogs.tif
176
     1
290
     0
176
     1
 40
1.0
176
     1
 40
1.0
176
     1
  0
VISUALSTYLE
  5
7E67
102
{ACAD_REACTORS
330
7E60
102
}
330
7E60
100
AcDbVisualStyle
  2
Wireframe
 70
     5
177
     3
291
     0
 70
    58
 90
        0
176
     1
 90
        2
176
     1
 90
        0
176
     1
 90
        0
176
     1
 40
0.6
176
     1
 40
30.0
176
     1
 62
     7
420
 16777215
176
     1
 90
        1
176
     1
 90
        4
176
     1
 62
     7
176
     1
 62
   257
176
     1
 90
        1
176
     1
 90
        1
176
     1
 40
1.0
176
     1
 90
        0
176
     1
 62
   257
176
     1
 40
1.0
176
     1
 90
        1
176
     1
 90
        6
176
     1
 90
        2
176
     1
 62
     7
176
     1
 90
        3
176
     1
 90
        0
176
     1
 90
        0
176
     1
290
     0
176
     1
 90
        1
176
     1
 40
0.0
176
     1
 90
        0
176
     1
290
     0
176
     1
290
     1
176
     1
290
     1
176
     1
290
     0
176
     1
290
     0
176
     1
290
     0
176
     1
290
     0
176
     1
290
     0
176
     1
290
     0
176
     1
 90
       50
176
     1
 40
0.0
176
     1
 40
1.0
176
     1
 90
        0
176
     1
 62
    18
420
        0
176
     1
 90
       50
176
     1
 90
        3
176
     1
 62
     5
420
      255
176
     1
290
     0
176
     1
 90
       50
176
     1
 90
       50
176
     1
 90
       50
176
     1
290
     0
176
     1
 90
       50
176
     1
 62
   256
176
     0
 40
1.0
176
     0
 90
        2
176
     1
  1
strokes_ogs.tif
176
     1
290
     0
176
     1
 40
1.0
176
     1
 40
1.0
176
     1
  0
VISUALSTYLE
  5
7E73
102
{ACAD_REACTORS
330
7E60
102
}
330
7E60
100
AcDbVisualStyle
  2
X-Ray
 70
    25
177
     3
291
     0
 70
    58
 90
        2
176
     1
 90
        2
176
     1
 90
        1
176
     1
 90
        1
176
     1
 40
0.5
176
     1
 40
30.0
176
     1
 62
     7
420
 16777215
176
     1
 90
        1
176
     1
 90
        0
176
     1
 62
     7
176
     1
 62
   257
176
     1
 90
        1
176
     1
 90
        1
176
     1
 40
1.0
176
     1
 90
        8
176
     1
 62
     7
176
     1
 40
1.0
176
     1
 90
        1
176
     1
 90
        6
176
     1
 90
        2
176
     1
 62
     7
176
     1
 90
        3
176
     1
 90
        0
176
     1
 90
        0
176
     1
290
     0
176
     1
 90
       13
176
     1
 40
0.0
176
     1
 90
        0
176
     1
290
     0
176
     1
290
     1
176
     1
290
     1
176
     1
290
     0
176
     1
290
     0
176
     1
290
     0
176
     1
290
     0
176
     1
290
     0
176
     1
290
     0
176
     1
 90
       50
176
     1
 40
0.0
176
     1
 40
1.0
176
     1
 90
        0
176
     1
 62
    18
420
        0
176
     1
 90
       50
176
     1
 90
        3
176
     1
 62
     5
420
      255
176
     1
290
     0
176
     1
 90
       50
176
     1
 90
       50
176
     1
 90
       50
176
     1
290
     0
176
     1
 90
       50
176
     1
 62
   256
176
     0
 40
1.0
176
     0
 90
        2
176
     1
  1
strokes_ogs.tif
176
     1
290
     0
176
     1
 40
1.0
176
     1
 40
1.0
176
     1
  0
DICTIONARYVAR
  5
7EF9
102
{ACAD_REACTORS
330
7E3E
102
}
330
7E3E
100
DictionaryVariables
280
     0
  1
1:1
  0
DICTIONARYVAR
  5
7EF5
102
{ACAD_REACTORS
330
7E3E
102
}
330
7E3E
100
DictionaryVariables
280
     0
  1
STANDARD
  0
DICTIONARYVAR
  5
7EF4
102
{ACAD_REACTORS
330
7E3E
102
}
330
7E3E
100
DictionaryVariables
280
     0
  1
STANDARD
  0
DICTIONARYVAR
  5
7EF6
102
{ACAD_REACTORS
330
7E3E
102
}
330
7E3E
100
DictionaryVariables
280
     0
  1
Imperial24
  0
DICTIONARYVAR
  5
7EF7
102
{ACAD_REACTORS
330
7E3E
102
}
330
7E3E
100
DictionaryVariables
280
     0
  1
Imperial24
  0
DICTIONARYVAR
  5
7E3F
102
{ACAD_REACTORS
330
7E3E
102
}
330
7E3E
100
DictionaryVariables
280
     0
  1
1
  0
DICTIONARYVAR
  5
7EFB
102
{ACAD_REACTORS
330
7E3E
102
}
330
7E3E
100
DictionaryVariables
280
     0
  1
1
  0
DICTIONARYVAR
  5
7EFC
102
{ACAD_REACTORS
330
7E3E
102
}
330
7E3E
100
DictionaryVariables
280
     0
  1
15
  0
DICTIONARYVAR
  5
7EFA
102
{ACAD_REACTORS
330
7E3E
102
}
330
7E3E
100
DictionaryVariables
280
     0
  1
0
  0
DICTIONARYVAR
  5
7EF8
102
{ACAD_REACTORS
330
7E3E
102
}
330
7E3E
100
DictionaryVariables
280
     0
  1
0
  0
DICTIONARY
  5
7EF1
330
7E93
100
AcDbDictionary
280
     1
281
     1
  3
ACAD_XREC_ROUNDTRIP
360
7F4B
  0
DICTIONARY
  5
7E51
330
7E50
100
AcDbDictionary
280
     1
281
     1
  3
BUMPTILE
360
7E53
  3
DIFFUSETILE
360
7E52
  3
OPACITYTILE
360
7E56
  3
REFLECTIONTILE
360
7E55
  3
REFRACTIONTILE
360
7E57
  3
SPECULARTILE
360
7E54
  0
DICTIONARY
  5
7E49
330
7E48
100
AcDbDictionary
280
     1
281
     1
  3
BUMPTILE
360
7E4B
  3
DIFFUSETILE
360
7E4A
  3
OPACITYTILE
360
7E4E
  3
REFLECTIONTILE
360
7E4D
  3
REFRACTIONTILE
360
7E4F
  3
SPECULARTILE
360
7E4C
  0
DICTIONARY
  5
7E59
330
7E58
100
AcDbDictionary
280
     1
281
     1
  3
BUMPTILE
360
7E5B
  3
DIFFUSETILE
360
7E5A
  3
OPACITYTILE
360
7E5E
  3
REFLECTIONTILE
360
7E5D
  3
REFRACTIONTILE
360
7E5F
  3
SPECULARTILE
360
7E5C
  0
DICTIONARY
  5
7EEF
330
7E91
100
AcDbDictionary
280
     1
281
     1
  3
ACAD_XREC_ROUNDTRIP
360
7F4A
  0
DICTIONARY
  5
7F48
330
7E7B
100
AcDbDictionary
280
     1
281
     1
  3
ACAD_ROUNDTRIP_2008_TABLESTYLE_CELLSTYLEMAP
360
7F49
  0
XRECORD
  5
7F4B
102
{ACAD_REACTORS
330
7EF1
102
}
330
7EF1
100
AcDbXrecord
280
     1
102
DISPLAYNAME
  1
Imperial24
102
FLAGS
 90
        0
  0
XRECORD
  5
7E53
102
{ACAD_REACTORS
330
7E51
102
}
330
7E51
100
AcDbXrecord
280
     1
270
     1
271
     1
  0
XRECORD
  5
7E52
102
{ACAD_REACTORS
330
7E51
102
}
330
7E51
100
AcDbXrecord
280
     1
270
     1
271
     1
  0
XRECORD
  5
7E56
102
{ACAD_REACTORS
330
7E51
102
}
330
7E51
100
AcDbXrecord
280
     1
270
     1
271
     1
  0
XRECORD
  5
7E55
102
{ACAD_REACTORS
330
7E51
102
}
330
7E51
100
AcDbXrecord
280
     1
270
     1
271
     1
  0
XRECORD
  5
7E57
102
{ACAD_REACTORS
330
7E51
102
}
330
7E51
100
AcDbXrecord
280
     1
270
     1
271
     1
  0
XRECORD
  5
7E54
102
{ACAD_REACTORS
330
7E51
102
}
330
7E51
100
AcDbXrecord
280
     1
270
     1
271
     1
  0
XRECORD
  5
7E4B
102
{ACAD_REACTORS
330
7E49
102
}
330
7E49
100
AcDbXrecord
280
     1
270
     1
271
     1
  0
XRECORD
  5
7E4A
102
{ACAD_REACTORS
330
7E49
102
}
330
7E49
100
AcDbXrecord
280
     1
270
     1
271
     1
  0
XRECORD
  5
7E4E
102
{ACAD_REACTORS
330
7E49
102
}
330
7E49
100
AcDbXrecord
280
     1
270
     1
271
     1
  0
XRECORD
  5
7E4D
102
{ACAD_REACTORS
330
7E49
102
}
330
7E49
100
AcDbXrecord
280
     1
270
     1
271
     1
  0
XRECORD
  5
7E4F
102
{ACAD_REACTORS
330
7E49
102
}
330
7E49
100
AcDbXrecord
280
     1
270
     1
271
     1
  0
XRECORD
  5
7E4C
102
{ACAD_REACTORS
330
7E49
102
}
330
7E49
100
AcDbXrecord
280
     1
270
     1
271
     1
  0
XRECORD
  5
7E5B
102
{ACAD_REACTORS
330
7E59
102
}
330
7E59
100
AcDbXrecord
280
     1
270
     1
271
     1
  0
XRECORD
  5
7E5A
102
{ACAD_REACTORS
330
7E59
102
}
330
7E59
100
AcDbXrecord
280
     1
270
     1
271
     1
  0
XRECORD
  5
7E5E
102
{ACAD_REACTORS
330
7E59
102
}
330
7E59
100
AcDbXrecord
280
     1
270
     1
271
     1
  0
XRECORD
  5
7E5D
102
{ACAD_REACTORS
330
7E59
102
}
330
7E59
100
AcDbXrecord
280
     1
270
     1
271
     1
  0
XRECORD
  5
7E5F
102
{ACAD_REACTORS
330
7E59
102
}
330
7E59
100
AcDbXrecord
280
     1
270
     1
271
     1
  0
XRECORD
  5
7E5C
102
{ACAD_REACTORS
330
7E59
102
}
330
7E59
100
AcDbXrecord
280
     1
270
     1
271
     1
  0
XRECORD
  5
7F4A
102
{ACAD_REACTORS
330
7EEF
102
}
330
7EEF
100
AcDbXrecord
280
     1
102
DISPLAYNAME
  1
Imperial24
102
FLAGS
 90
        0
  0
CELLSTYLEMAP
  5
7F49
102
{ACAD_REACTORS
330
7F48
102
}
330
7F48
100
AcDbCellStyleMap
 90
        3
300
CELLSTYLE
  1
TABLEFORMAT_BEGIN
 90
        5
170
     1
 91
        0
 92
    32768
 62
   257
 93
        1
300
CONTENTFORMAT
  1
CONTENTFORMAT_BEGIN
 90
        0
 91
        0
 92
      512
 93
        0
300

 40
0.0
140
1.0
 94
        5
 62
     0
340
10
144
0.25
309
CONTENTFORMAT_END
171
     0
 94
        0
309
TABLEFORMAT_END
  1
CELLSTYLE_BEGIN
 90
        1
 91
        1
300
_TITLE
309
CELLSTYLE_END
300
CELLSTYLE
  1
TABLEFORMAT_BEGIN
 90
        5
170
     1
 91
        0
 92
        0
 62
   257
 93
        1
300
CONTENTFORMAT
  1
CONTENTFORMAT_BEGIN
 90
        0
 91
        0
 92
      512
 93
        0
300

 40
0.0
140
1.0
 94
        5
 62
     0
340
10
144
0.18
309
CONTENTFORMAT_END
171
     0
 94
        0
309
TABLEFORMAT_END
  1
CELLSTYLE_BEGIN
 90
        2
 91
        1
300
_HEADER
309
CELLSTYLE_END
300
CELLSTYLE
  1
TABLEFORMAT_BEGIN
 90
        5
170
     1
 91
        0
 92
        0
 62
   257
 93
        1
300
CONTENTFORMAT
  1
CONTENTFORMAT_BEGIN
 90
        0
 91
        0
 92
      512
 93
        0
300

 40
0.0
140
1.0
 94
        2
 62
     0
340
10
144
0.18
309
CONTENTFORMAT_END
171
     0
 94
        0
309
TABLEFORMAT_END
  1
CELLSTYLE_BEGIN
 90
        3
 91
        2
300
_DATA
309
CELLSTYLE_END
  0
ENDSEC
  0
SECTION
  2
ACDSDATA
 70
     2
 71
     8
  0
ACDSSCHEMA
 90
        0
  1
AcDb_Thumbnail_Schema
  2
AcDbDs::ID
280
    10
 91
        8
  2
Thumbnail_Data
280
    15
 91
        0
101
ACDSRECORD
 95
        0
 90
        1
  2
AcDbDs::TreatedAsObjectData
280
     1
291
     1
101
ACDSRECORD
 95
        0
 90
        2
  2
AcDbDs::Legacy
280
     1
291
     1
101
ACDSRECORD
  1
AcDbDs::ID
 90
        3
  2
AcDs:Indexable
280
     1
291
     1
101
ACDSRECORD
  1
AcDbDs::ID
 90
        4
  2
AcDbDs::HandleAttribute
280
     7
282
     1
  0
ACDSSCHEMA
 90
        1
  1
AcDbDs::TreatedAsObjectDataSchema
  2
AcDbDs::TreatedAsObjectData
280
     1
 91
        0
  0
ACDSSCHEMA
 90
        2
  1
AcDbDs::LegacySchema
  2
AcDbDs::Legacy
280
     1
 91
        0
  0
ACDSSCHEMA
 90
        3
  1
AcDbDs::IndexedPropertySchema
  2
AcDs:Indexable
280
     1
 91
        0
  0
ACDSSCHEMA
 90
        4
  1
AcDbDs::HandleAttributeSchema
  2
AcDbDs::HandleAttribute
280
     7
 91
        1
284
     1
  0
ACDSRECORD
 90
        0
  2
AcDbDs::ID
280
    10
320
7D7A
  2
Thumbnail_Data
280
    15
 94
     1744
310
89504E470D0A1A0A0000000D49484452000001000000007C0803000000B13B9E5A00000300504C5445000000000000C8C8C80000000000000000000000000000000000000000000000000000330000660000990000CC0000FF0033000033330033660033990033CC0033FF0066000066330066660066990066CC0066FF0099
310
000099330099660099990099CC0099FF00CC0000CC3300CC6600CC9900CCCC00CCFF00FF0000FF3300FF6600FF9900FFCC00FFFF3300003300333300663300993300CC3300FF3333003333333333663333993333CC3333FF3366003366333366663366993366CC3366FF3399003399333399663399993399CC3399FF33CC00
310
33CC3333CC6633CC9933CCCC33CCFF33FF0033FF3333FF6633FF9933FFCC33FFFF6600006600336600666600996600CC6600FF6633006633336633666633996633CC6633FF6666006666336666666666996666CC6666FF6699006699336699666699996699CC6699FF66CC0066CC3366CC6666CC9966CCCC66CCFF66FF0066
310
FF3366FF6666FF9966FFCC66FFFF9900009900339900669900999900CC9900FF9933009933339933669933999933CC9933FF9966009966339966669966999966CC9966FF9999009999339999669999999999CC9999FF99CC0099CC3399CC6699CC9999CCCC99CCFF99FF0099FF3399FF6699FF9999FFCC99FFFFCC0000CC00
310
33CC0066CC0099CC00CCCC00FFCC3300CC3333CC3366CC3399CC33CCCC33FFCC6600CC6633CC6666CC6699CC66CCCC66FFCC9900CC9933CC9966CC9999CC99CCCC99FFCCCC00CCCC33CCCC66CCCC99CCCCCCCCCCFFCCFF00CCFF33CCFF66CCFF99CCFFCCCCFFFFFF0000FF0033FF0066FF0099FF00CCFF00FFFF3300FF3333
310
FF3366FF3399FF33CCFF33FFFF6600FF6633FF6666FF6699FF66CCFF66FFFF9900FF9933FF9966FF9999FF99CCFF99FFFFCC00FFCC33FFCC66FFCC99FFCCCCFFCCFFFFFF00FFFF33FFFF66FFFF99FFFFCCFFFFFF0000000D0D0D1A1A1A2828283535354343435050505D5D5D6B6B6B787878868686939393A1A1A1AEAEAEBB
310
BBBBC9C9C9D6D6D6E4E4E4F1F1F1FFFFFF00000000000000000000000000000000000000000000000000000000000008F1915C000003704944415478DAED9D5D6EEC200C85BD1C5ED8FF66BC0DDE6F03C6FC4E924A95EE609FA3AA9321C948FEB00D012288BE4F692772A4F4B2CC2E80B4DAEB0CC0EAF4EE3C6026801C70AA
310
1FFF994C54E3F7FC1C00FC2700C59553CE73F94BF95A0B2472EC00C826AAC97D40779FB43D21BF914E0720953E9BD917D42BFA74272E41E97000A4E6AD1E40ADC2A97C5777107083D9E7E6802104A4975BFF2B8EDE6ECD0C83D5680500003D41773ADFE67D45EEAA360D7750CB8787D7FCD4FC6F01B4DE520F80B49D30EE01
310
A4FD04BD81EC00709E01200882200882206852706A77AC0AF5C01B80D9030000001CC57D0C7B31B3F55AD784B77AC055E200C078300320E700D893072CFD006700D407422D02000000004FAD80A6C19A04C9413F80E346DA0A70966D00F4118079EF1F01F48F07A1768C01C01100BF21D01DD78C1776673D01204F00EEE5CB
310
037E7B1682200882200882207772F3ACF40CC02107D34FCDD59A3BB3FA13F9323300B22DF2EFA666D7412436EBDB0F00AC8500CF07CF00F200AA31003A23F6C9215867115886D02D01C853A261591DC4DDB7B698E62A096467E890F3AAA03A31F202403407A0D8AF3343DC92DD3D00238990EB2C61282B055E03B0328BC6D9
310
01AA513FC7BE00FC247309FD9897C874D97D02505B8106CBC24AA22833C5975941560D7E4882B15F416301400821AF95E65032E0F53D84A93F20008C2EA9D65561EB1B232C7FCD44AD7CD284797A0844B52CDBA439A003C05B0054C2E570009AD262F6816B898CB40262D8EC01BA82B00138F979A03ABEA0883909566F68F1
310
BF0750BCE5EC663007728CCDB94B0EA00E800C126C42C0424FB0643D69F84A89AC127B03403DE0E40C78B563C57A21106A68D06E78A42DABEB72C0D1002285CEA201803601734FD01280283EDFBAF93380B52738F703CE0630F66D6369062F00AC639ECBC3506CE9E3F0576CEF568B772970F72C50AE35F010B43E1C2CE7E6
310
862E2ED7DAF68065F0DB9007D08D07F4A3659FBA3AC1A003CC6F8C98F680ED2B331C9F62A0DD76FA4810DF160E070380FB1FB009607F9B1900FD2CB7767F591BC1F5361E2E3100809D0278F3C2C40680A7772A2C443A0441100441D0A3DC6FB030EFADD3CA5FDC6A0B409A01F45B2CA5B6ED4EDB7DC63880C1E6162C750722
310
3B007EEFDFC954082009EE2D1A36DBDA57B7450F98C1D40F4A4E01F47B8F79680697101876DBF3E001DF9104FF0197490B09AE1CFBE20000000049454E44AE4260821D02BFB10AFC01824D3BBAFFC64CF70000000049454E44AE426082
  0
ENDSEC
  0
EOF
