  0
SECTION
  2
HEADER
  9
$ACADVER
  1
AC1027
  9
$ACADMAINTVER
 70
    81
  9
$DWGCODEPAGE
  3
ANSI_932
  9
$LASTSAVEDBY
  1
reiko.miyawaki
  9
$REQUIREDVERSIONS
160
                 0
  9
$INSBASE
 10
0.0
 20
0.0
 30
0.0
  9
$EXTMIN
 10
375.0
 20
450.0
 30
0.0
  9
$EXTMAX
 10
2775.0
 20
4179.978392
 30
0.0
  9
$LIMMIN
 10
0.0
 20
0.0
  9
$LIMMAX
 10
297.0
 20
210.0
  9
$ORTHOMODE
 70
     0
  9
$REGENMODE
 70
     1
  9
$FILLMODE
 70
     0
  9
$QTEXTMODE
 70
     0
  9
$MIRRTEXT
 70
     1
  9
$LTSCALE
 40
100.0
  9
$ATTMODE
 70
     1
  9
$TEXTSIZE
 40
180.0
  9
$TRACEWID
 40
0.05
  9
$TEXTSTYLE
  7
STANDARD
  9
$CLAYER
  8
3
  9
$CELTYPE
  6
BYLAYER
  9
$CECOLOR
 62
   256
  9
$CELTSCALE
 40
1.0
  9
$DISPSILH
 70
     0
  9
$DIMSCALE
 40
15.0
  9
$DIMASZ
 40
2.0
  9
$DIMEXO
 40
0.5
  9
$DIMDLI
 40
10.0
  9
$DIMRND
 40
0.0
  9
$DIMDLE
 40
0.0
  9
$DIMEXE
 40
1.0
  9
$DIMTP
 40
1.0
  9
$DIMTM
 40
1.0
  9
$DIMTXT
 40
3.0
  9
$DIMCEN
 40
0.0
  9
$DIMTSZ
 40
0.0
  9
$DIMTOL
 70
     0
  9
$DIMLIM
 70
     0
  9
$DIMTIH
 70
     0
  9
$DIMTOH
 70
     0
  9
$DIMSE1
 70
     0
  9
$DIMSE2
 70
     0
  9
$DIMTAD
 70
     1
  9
$DIMZIN
 70
     8
  9
$DIMBLK
  1

  9
$DIMASO
 70
     1
  9
$DIMSHO
 70
     1
  9
$DIMPOST
  1
(<>)
  9
$DIMAPOST
  1

  9
$DIMALT
 70
     0
  9
$DIMALTD
 70
     2
  9
$DIMALTF
 40
0.039
  9
$DIMLFAC
 40
1.0
  9
$DIMTOFL
 70
     1
  9
$DIMTVP
 40
0.0
  9
$DIMTIX
 70
     0
  9
$DIMSOXD
 70
     0
  9
$DIMSAH
 70
     1
  9
$DIMBLK1
  1
OPEN
  9
$DIMBLK2
  1
OPEN
  9
$DIMSTYLE
  2
IGA
  9
$DIMCLRD
 70
     0
  9
$DIMCLRE
 70
     0
  9
$DIMCLRT
 70
     0
  9
$DIMTFAC
 40
10.0
  9
$DIMGAP
 40
1.0
  9
$DIMJUST
 70
     0
  9
$DIMSD1
 70
     0
  9
$DIMSD2
 70
     0
  9
$DIMTOLJ
 70
     1
  9
$DIMTZIN
 70
     8
  9
$DIMALTZ
 70
     0
  9
$DIMALTTZ
 70
     0
  9
$DIMUPT
 70
     0
  9
$DIMDEC
 70
     0
  9
$DIMTDEC
 70
     0
  9
$DIMALTU
 70
     2
  9
$DIMALTTD
 70
     2
  9
$DIMTXSTY
  7
STANDARD
  9
$DIMAUNIT
 70
     0
  9
$DIMADEC
 70
     0
  9
$DIMALTRND
 40
0.0
  9
$DIMAZIN
 70
     0
  9
$DIMDSEP
 70
    46
  9
$DIMATFIT
 70
     3
  9
$DIMFRAC
 70
     0
  9
$DIMLDRBLK
  1
OPEN
  9
$DIMLUNIT
 70
     2
  9
$DIMLWD
 70
    -2
  9
$DIMLWE
 70
    -2
  9
$DIMTMOVE
 70
     2
  9
$DIMFXL
 40
1.0
  9
$DIMFXLON
 70
     0
  9
$DIMJOGANG
 40
0.7853981633974483
  9
$DIMTFILL
 70
     0
  9
$DIMTFILLCLR
 70
     0
  9
$DIMARCSYM
 70
     0
  9
$DIMLTYPE
  6

  9
$DIMLTEX1
  6

  9
$DIMLTEX2
  6

  9
$DIMTXTDIRECTION
 70
     0
  9
$LUNITS
 70
     2
  9
$LUPREC
 70
     3
  9
$SKETCHINC
 40
0.1
  9
$FILLETRAD
 40
50.0
  9
$AUNITS
 70
     0
  9
$AUPREC
 70
     0
  9
$MENU
  1
acad
  9
$ELEVATION
 40
0.0
  9
$PELEVATION
 40
0.0
  9
$THICKNESS
 40
0.0
  9
$LIMCHECK
 70
     0
  9
$CHAMFERA
 40
0.5
  9
$CHAMFERB
 40
0.5
  9
$CHAMFERC
 40
20.0
  9
$CHAMFERD
 40
0.0
  9
$SKPOLY
 70
     0
  9
$TDCREATE
 40
2450745.641349190
  9
$TDUCREATE
 40
2450745.266349190
  9
$TDUPDATE
 40
2459024.553785394
  9
$TDUUPDATE
 40
2459024.178785393
  9
$TDINDWG
 40
0.0077299421
  9
$TDUSRTIMER
 40
0.0077299421
  9
$USRTIMER
 70
     1
  9
$ANGBASE
 50
0.0
  9
$ANGDIR
 70
     0
  9
$PDMODE
 70
     0
  9
$PDSIZE
 40
0.0
  9
$PLINEWID
 40
0.0
  9
$SPLFRAME
 70
     0
  9
$SPLINETYPE
 70
     6
  9
$SPLINESEGS
 70
     8
  9
$HANDSEED
  5
7F23
  9
$SURFTAB1
 70
     6
  9
$SURFTAB2
 70
     6
  9
$SURFTYPE
 70
     6
  9
$SURFU
 70
     6
  9
$SURFV
 70
     6
  9
$UCSBASE
  2

  9
$UCSNAME
  2

  9
$UCSORG
 10
0.0
 20
0.0
 30
0.0
  9
$UCSXDIR
 10
1.0
 20
0.0
 30
0.0
  9
$UCSYDIR
 10
0.0
 20
1.0
 30
0.0
  9
$UCSORTHOREF
  2

  9
$UCSORTHOVIEW
 70
     0
  9
$UCSORGTOP
 10
0.0
 20
0.0
 30
0.0
  9
$UCSORGBOTTOM
 10
0.0
 20
0.0
 30
0.0
  9
$UCSORGLEFT
 10
0.0
 20
0.0
 30
0.0
  9
$UCSORGRIGHT
 10
0.0
 20
0.0
 30
0.0
  9
$UCSORGFRONT
 10
0.0
 20
0.0
 30
0.0
  9
$UCSORGBACK
 10
0.0
 20
0.0
 30
0.0
  9
$PUCSBASE
  2

  9
$PUCSNAME
  2

  9
$PUCSORG
 10
0.0
 20
0.0
 30
0.0
  9
$PUCSXDIR
 10
1.0
 20
0.0
 30
0.0
  9
$PUCSYDIR
 10
0.0
 20
1.0
 30
0.0
  9
$PUCSORTHOREF
  2

  9
$PUCSORTHOVIEW
 70
     0
  9
$PUCSORGTOP
 10
0.0
 20
0.0
 30
0.0
  9
$PUCSORGBOTTOM
 10
0.0
 20
0.0
 30
0.0
  9
$PUCSORGLEFT
 10
0.0
 20
0.0
 30
0.0
  9
$PUCSORGRIGHT
 10
0.0
 20
0.0
 30
0.0
  9
$PUCSORGFRONT
 10
0.0
 20
0.0
 30
0.0
  9
$PUCSORGBACK
 10
0.0
 20
0.0
 30
0.0
  9
$USERI1
 70
     0
  9
$USERI2
 70
     0
  9
$USERI3
 70
     0
  9
$USERI4
 70
     0
  9
$USERI5
 70
     0
  9
$USERR1
 40
0.0
  9
$USERR2
 40
0.0
  9
$USERR3
 40
0.0
  9
$USERR4
 40
0.0
  9
$USERR5
 40
0.0
  9
$WORLDVIEW
 70
     1
  9
$SHADEDGE
 70
     3
  9
$SHADEDIF
 70
    70
  9
$TILEMODE
 70
     1
  9
$MAXACTVP
 70
    16
  9
$PINSBASE
 10
0.0
 20
0.0
 30
0.0
  9
$PLIMCHECK
 70
     0
  9
$PEXTMIN
 10
1.000000000000000E+20
 20
1.000000000000000E+20
 30
1.000000000000000E+20
  9
$PEXTMAX
 10
-1.000000000000000E+20
 20
-1.000000000000000E+20
 30
-1.000000000000000E+20
  9
$PLIMMIN
 10
0.0
 20
0.0
  9
$PLIMMAX
 10
12.0
 20
9.0
  9
$UNITMODE
 70
     0
  9
$VISRETAIN
 70
     0
  9
$PLINEGEN
 70
     0
  9
$PSLTSCALE
 70
     1
  9
$TREEDEPTH
 70
  3020
  9
$CMLSTYLE
  2
STANDARD
  9
$CMLJUST
 70
     0
  9
$CMLSCALE
 40
20.0
  9
$PROXYGRAPHICS
 70
     1
  9
$MEASUREMENT
 70
     0
  9
$CELWEIGHT
370
    -1
  9
$ENDCAPS
280
     0
  9
$JOINSTYLE
280
     0
  9
$LWDISPLAY
290
     0
  9
$INSUNITS
 70
     0
  9
$HYPERLINKBASE
  1

  9
$STYLESHEET
  1

  9
$XEDIT
290
     1
  9
$CEPSNTYPE
380
     0
  9
$PSTYLEMODE
290
     1
  9
$FINGERPRINTGUID
  2
{97AEE313-086B-4369-BF71-70CD5CDBD4F1}
  9
$VERSIONGUID
  2
{5569DFE8-FB2F-465A-BC64-AFD13CB64CF3}
  9
$EXTNAMES
290
     1
  9
$PSVPSCALE
 40
0.0
  9
$OLESTARTUP
290
     0
  9
$SORTENTS
280
   127
  9
$INDEXCTL
280
     0
  9
$HIDETEXT
280
     0
  9
$XCLIPFRAME
280
     2
  9
$HALOGAP
280
     0
  9
$OBSCOLOR
 70
   257
  9
$OBSLTYPE
280
     0
  9
$INTERSECTIONDISPLAY
280
     0
  9
$INTERSECTIONCOLOR
 70
   257
  9
$DIMASSOC
280
     1
  9
$PROJECTNAME
  1

  9
$CAMERADISPLAY
290
     0
  9
$LENSLENGTH
 40
50.0
  9
$CAMERAHEIGHT
 40
0.0
  9
$STEPSPERSEC
 40
2.0
  9
$STEPSIZE
 40
6.0
  9
$3DDWFPREC
 40
2.0
  9
$PSOLWIDTH
 40
0.25
  9
$PSOLHEIGHT
 40
4.0
  9
$LOFTANG1
 40
1.570796326794896
  9
$LOFTANG2
 40
1.570796326794896
  9
$LOFTMAG1
 40
0.0
  9
$LOFTMAG2
 40
0.0
  9
$LOFTPARAM
 70
     7
  9
$LOFTNORMALS
280
     1
  9
$LATITUDE
 40
37.795
  9
$LONGITUDE
 40
-122.394
  9
$NORTHDIRECTION
 40
0.0
  9
$TIMEZONE
 70
 -8000
  9
$LIGHTGLYPHDISPLAY
280
     1
  9
$TILEMODELIGHTSYNCH
280
     1
  9
$CMATERIAL
347
7DE1
  9
$SOLIDHIST
280
     0
  9
$SHOWHIST
280
     1
  9
$DWFFRAME
280
     2
  9
$DGNFRAME
280
     0
  9
$REALWORLDSCALE
290
     1
  9
$INTERFERECOLOR
 62
     1
  9
$INTERFEREOBJVS
345
7E03
  9
$INTERFEREVPVS
346
7E00
  9
$CSHADOW
280
     0
  9
$SHADOWPLANELOCATION
 40
0.0
  0
ENDSEC
  0
SECTION
  2
CLASSES
  0
CLASS
  1
ACDBDICTIONARYWDFLT
  2
AcDbDictionaryWithDefault
  3
ObjectDBX Classes
 90
        0
 91
        1
280
     0
281
     0
  0
CLASS
  1
DICTIONARYVAR
  2
AcDbDictionaryVar
  3
ObjectDBX Classes
 90
        0
 91
       10
280
     0
281
     0
  0
CLASS
  1
MATERIAL
  2
AcDbMaterial
  3
ObjectDBX Classes
 90
     1153
 91
        3
280
     0
281
     0
  0
CLASS
  1
VISUALSTYLE
  2
AcDbVisualStyle
  3
ObjectDBX Classes
 90
     4095
 91
       24
280
     0
281
     0
  0
CLASS
  1
TABLESTYLE
  2
AcDbTableStyle
  3
ObjectDBX Classes
 90
     4095
 91
        1
280
     0
281
     0
  0
CLASS
  1
SCALE
  2
AcDbScale
  3
ObjectDBX Classes
 90
     1153
 91
       17
280
     0
281
     0
  0
CLASS
  1
MLEADERSTYLE
  2
AcDbMLeaderStyle
  3
ACDB_MLEADERSTYLE_CLASS
 90
     4095
 91
        1
280
     0
281
     0
  0
CLASS
  1
ACDBSECTIONVIEWSTYLE
  2
AcDbSectionViewStyle
  3
ObjectDBX Classes
 90
     1025
 91
        1
280
     0
281
     0
  0
CLASS
  1
ACDBDETAILVIEWSTYLE
  2
AcDbDetailViewStyle
  3
ObjectDBX Classes
 90
     1025
 91
        1
280
     0
281
     0
  0
CLASS
  1
CELLSTYLEMAP
  2
AcDbCellStyleMap
  3
ObjectDBX Classes
 90
     1152
 91
        1
280
     0
281
     0
  0
ENDSEC
  0
SECTION
  2
TABLES
  0
TABLE
  2
VPORT
  5
8
330
0
100
AcDbSymbolTable
 70
     1
  0
VPORT
  5
7DDE
330
8
100
AcDbSymbolTableRecord
100
AcDbViewportTableRecord
  2
*Active
 70
     0
 10
0.0
 20
0.0
 11
1.0
 21
1.0
 12
1574.974257472756
 22
2404.276351447015
 13
0.0
 23
0.0
 14
10.0
 24
10.0
 15
10.0
 25
10.0
 16
0.0
 26
0.0
 36
1.0
 17
0.0
 27
0.0
 37
0.0
 40
3932.738508853232
 41
1.957107843137254
 42
50.0
 43
0.0
 44
0.0
 50
0.0
 51
0.0
 71
     0
 72
   100
 73
     1
 74
     0
 75
     0
 76
     0
 77
     0
 78
     0
281
     0
 65
     1
110
0.0
120
0.0
130
0.0
111
1.0
121
0.0
131
0.0
112
0.0
122
1.0
132
0.0
 79
     0
146
0.0
348
7DFF
 60
     3
 61
     5
292
     1
282
     1
141
0.0
142
0.0
 63
   250
421
  3355443
1001
ACAD_NAV_VCDISPLAY
1070
     3
  0
ENDTAB
  0
TABLE
  2
LTYPE
  5
5
330
0
100
AcDbSymbolTable
 70
     2
  0
LTYPE
  5
13
330
5
100
AcDbSymbolTableRecord
100
AcDbLinetypeTableRecord
  2
BYBLOCK
 70
     0
  3

 72
    65
 73
     0
 40
0.0
  0
LTYPE
  5
14
330
5
100
AcDbSymbolTableRecord
100
AcDbLinetypeTableRecord
  2
BYLAYER
 70
     0
  3

 72
    65
 73
     0
 40
0.0
  0
LTYPE
  5
15
330
5
100
AcDbSymbolTableRecord
100
AcDbLinetypeTableRecord
  2
CONTINUOUS
 70
     0
  3
Solid line
 72
    65
 73
     0
 40
0.0
  0
LTYPE
  5
1F
330
5
100
AcDbSymbolTableRecord
100
AcDbLinetypeTableRecord
  2
CENTER
 70
     0
  3
____ _ ____ _ ____ _ ____ _ ____ _ ____ _ ____ 
 72
    65
 73
     4
 40
2.0
 49
1.25
 74
     0
 49
-0.25
 74
     0
 49
0.25
 74
     0
 49
-0.25
 74
     0
  0
ENDTAB
  0
TABLE
  2
LAYER
  5
2
102
{ACAD_XDICTIONARY
360
7E31
102
}
330
0
100
AcDbSymbolTable
 70
     6
  0
LAYER
  5
F
102
{ACAD_XDICTIONARY
360
7EAB
102
}
330
2
100
AcDbSymbolTableRecord
100
AcDbLayerTableRecord
  2
0
 70
     0
 62
     7
  6
CONTINUOUS
370
    -3
390
7D1C
347
7DF1
348
0
  0
LAYER
  5
31
102
{ACAD_XDICTIONARY
360
7EAD
102
}
330
2
100
AcDbSymbolTableRecord
100
AcDbLayerTableRecord
  2
3
 70
     0
 62
     2
  6
CONTINUOUS
370
    -3
390
7D1C
347
7DF1
348
0
  0
LAYER
  5
76D0
102
{ACAD_XDICTIONARY
360
7EAF
102
}
330
2
100
AcDbSymbolTableRecord
100
AcDbLayerTableRecord
  2
2
 70
     0
 62
     3
  6
CENTER
370
    -3
390
7D1C
347
7DF1
348
0
  0
LAYER
  5
76D1
102
{ACAD_XDICTIONARY
360
7EB1
102
}
330
2
100
AcDbSymbolTableRecord
100
AcDbLayerTableRecord
  2
1
 70
     0
 62
     4
  6
CONTINUOUS
370
    -3
390
7D1C
347
7DF1
348
0
  0
LAYER
  5
76D2
102
{ACAD_XDICTIONARY
360
7EB3
102
}
330
2
100
AcDbSymbolTableRecord
100
AcDbLayerTableRecord
  2
4
 70
     0
 62
     7
  6
CONTINUOUS
370
    -3
390
7D1C
347
7DF1
348
0
  0
LAYER
  5
7B47
330
2
100
AcDbSymbolTableRecord
100
AcDbLayerTableRecord
  2
DEFPOINTS
 70
     0
 62
     7
  6
CONTINUOUS
290
     0
370
    -3
390
7D1C
347
7DF1
348
0
  0
ENDTAB
  0
TABLE
  2
STYLE
  5
3
330
0
100
AcDbSymbolTable
 70
     1
  0
STYLE
  5
10
330
3
100
AcDbSymbolTableRecord
100
AcDbTextStyleTableRecord
  2
STANDARD
 70
     0
 40
0.0
 41
1.0
 50
0.0
 71
     0
 42
180.0
  3
simplex.shx
  4
extfont.shx
  0
ENDTAB
  0
TABLE
  2
VIEW
  5
6
330
0
100
AcDbSymbolTable
 70
     0
  0
ENDTAB
  0
TABLE
  2
UCS
  5
7
330
0
100
AcDbSymbolTable
 70
     0
  0
ENDTAB
  0
TABLE
  2
APPID
  5
9
330
0
100
AcDbSymbolTable
 70
     4
  0
APPID
  5
11
330
9
100
AcDbSymbolTableRecord
100
AcDbRegAppTableRecord
  2
ACAD
 70
     0
  0
APPID
  5
7E30
330
9
100
AcDbSymbolTableRecord
100
AcDbRegAppTableRecord
  2
ACAD_NAV_VCDISPLAY
 70
     0
  0
APPID
  5
7ECE
330
9
100
AcDbSymbolTableRecord
100
AcDbRegAppTableRecord
  2
AcadAnnoMonitorAlertIconDisabled
 70
     0
  0
APPID
  5
7ECF
330
9
100
AcDbSymbolTableRecord
100
AcDbRegAppTableRecord
  2
ACAD_EXEMPT_FROM_CAD_STANDARDS
 70
     0
  0
ENDTAB
  0
TABLE
  2
DIMSTYLE
  5
A
330
0
100
AcDbSymbolTable
 70
     1
100
AcDbDimStyleTable
 71
     1
340
1D
  0
DIMSTYLE
105
1D
102
{ACAD_REACTORS
330
7B4C
330
7BB5
330
7BC2
330
7BCE
330
7BDB
330
7BE8
330
7BF7
330
7C04
330
7C12
330
7C46
330
7C66
330
7C72
330
7CE9
330
7CF6
330
7D05
330
7D14
330
7F03
102
}
330
A
100
AcDbSymbolTableRecord
100
AcDbDimStyleTableRecord
  2
IGA
 70
     0
 40
2.0
 41
2.0
 42
0.5
 43
10.0
 44
1.0
 47
1.0
 48
1.0
 73
     0
 74
     0
 77
     1
 78
     8
140
3.0
141
0.0
143
0.03937
146
10.0
147
1.0
173
     1
271
     1
272
     0
279
     2
284
     8
340
10
341
7B39
343
7B39
344
7B39
  0
ENDTAB
  0
TABLE
  2
BLOCK_RECORD
  5
1
330
0
100
AcDbSymbolTable
 70
    20
  0
BLOCK_RECORD
  5
19
102
{ACAD_XDICTIONARY
360
7D4A
102
}
330
1
100
AcDbSymbolTableRecord
100
AcDbBlockTableRecord
  2
*MODEL_SPACE
340
7D1F
 70
     0
280
     1
281
     0
  0
BLOCK_RECORD
  5
16
102
{ACAD_XDICTIONARY
360
7D48
102
}
330
1
100
AcDbSymbolTableRecord
100
AcDbBlockTableRecord
  2
*PAPER_SPACE
340
7D20
 70
     0
280
     1
281
     0
  0
BLOCK_RECORD
  5
7B39
330
1
100
AcDbSymbolTableRecord
100
AcDbBlockTableRecord
  2
_OPEN
340
0
102
{BLKREFS
331
7F0A
331
7F0B
331
7DAB
331
7DAC
331
7DB3
331
7DB4
331
7E3F
331
7E40
331
7E48
331
7E49
331
7E51
331
7E52
331
7E9B
331
7EA7
331
7EEF
331
7EF0
331
7D5C
331
7D5D
331
7D65
331
7D66
331
7D6D
331
7D6E
331
7D76
331
7D77
331
7D7F
331
7D80
331
7D88
331
7D89
331
7D9A
331
7D9B
331
7DA2
331
7DA3
102
}
 70
     0
280
     1
281
     0
  0
BLOCK_RECORD
  5
7B3F
330
1
100
AcDbSymbolTableRecord
100
AcDbBlockTableRecord
  2
*D1
340
0
 70
     0
280
     1
281
     0
  0
BLOCK_RECORD
  5
7BA9
330
1
100
AcDbSymbolTableRecord
100
AcDbBlockTableRecord
  2
*D2
340
0
 70
     0
280
     1
281
     0
  0
BLOCK_RECORD
  5
7BB6
330
1
100
AcDbSymbolTableRecord
100
AcDbBlockTableRecord
  2
*D3
340
0
 70
     0
280
     1
281
     0
  0
BLOCK_RECORD
  5
7BC3
330
1
100
AcDbSymbolTableRecord
100
AcDbBlockTableRecord
  2
*D4
340
0
 70
     0
280
     1
281
     0
  0
BLOCK_RECORD
  5
7BCF
330
1
100
AcDbSymbolTableRecord
100
AcDbBlockTableRecord
  2
*D5
340
0
 70
     0
280
     1
281
     0
  0
BLOCK_RECORD
  5
7BDC
330
1
100
AcDbSymbolTableRecord
100
AcDbBlockTableRecord
  2
*D6
340
0
 70
     0
280
     1
281
     0
  0
BLOCK_RECORD
  5
7BEB
330
1
100
AcDbSymbolTableRecord
100
AcDbBlockTableRecord
  2
*D7
340
0
 70
     0
280
     1
281
     0
  0
BLOCK_RECORD
  5
7BF8
330
1
100
AcDbSymbolTableRecord
100
AcDbBlockTableRecord
  2
*D8
340
0
 70
     0
280
     1
281
     0
  0
BLOCK_RECORD
  5
7C05
330
1
100
AcDbSymbolTableRecord
100
AcDbBlockTableRecord
  2
*D9
340
0
 70
     0
280
     1
281
     0
  0
BLOCK_RECORD
  5
7C3A
330
1
100
AcDbSymbolTableRecord
100
AcDbBlockTableRecord
  2
*D10
340
0
 70
     0
280
     1
281
     0
  0
BLOCK_RECORD
  5
7C5A
330
1
100
AcDbSymbolTableRecord
100
AcDbBlockTableRecord
  2
*D11
340
0
 70
     0
280
     1
281
     0
  0
BLOCK_RECORD
  5
7C67
330
1
100
AcDbSymbolTableRecord
100
AcDbBlockTableRecord
  2
*D12
340
0
 70
     0
280
     1
281
     0
  0
BLOCK_RECORD
  5
7CDD
330
1
100
AcDbSymbolTableRecord
100
AcDbBlockTableRecord
  2
*D13
340
0
 70
     0
280
     1
281
     0
  0
BLOCK_RECORD
  5
7CEA
330
1
100
AcDbSymbolTableRecord
100
AcDbBlockTableRecord
  2
*D14
340
0
 70
     0
280
     1
281
     0
  0
BLOCK_RECORD
  5
7CF7
330
1
100
AcDbSymbolTableRecord
100
AcDbBlockTableRecord
  2
*D15
340
0
 70
     0
280
     1
281
     0
  0
BLOCK_RECORD
  5
7D06
330
1
100
AcDbSymbolTableRecord
100
AcDbBlockTableRecord
  2
*D16
340
0
 70
     0
280
     1
281
     0
  0
BLOCK_RECORD
  5
7E83
330
1
100
AcDbSymbolTableRecord
100
AcDbBlockTableRecord
  2
_Dot
340
0
102
{BLKREFS
331
7EA6
102
}
 70
     0
280
     1
281
     0
  0
BLOCK_RECORD
  5
7E93
330
1
100
AcDbSymbolTableRecord
100
AcDbBlockTableRecord
  2
_None
340
0
 70
     0
280
     1
281
     0
  0
BLOCK_RECORD
  5
7F04
330
1
100
AcDbSymbolTableRecord
100
AcDbBlockTableRecord
  2
*D19
340
0
 70
     0
280
     1
281
     0
  0
ENDTAB
  0
ENDSEC
  0
SECTION
  2
BLOCKS
  0
BLOCK
  5
1A
330
19
100
AcDbEntity
  8
0
100
AcDbBlockBegin
  2
*MODEL_SPACE
 70
     0
 10
0.0
 20
0.0
 30
0.0
  3
*MODEL_SPACE
  1

  0
ENDBLK
  5
1B
330
19
100
AcDbEntity
  8
0
100
AcDbBlockEnd
  0
BLOCK
  5
17
330
16
100
AcDbEntity
 67
     1
  8
0
100
AcDbBlockBegin
  2
*PAPER_SPACE
 70
     0
 10
0.0
 20
0.0
 30
0.0
  3
*PAPER_SPACE
  1

  0
ENDBLK
  5
18
330
16
100
AcDbEntity
 67
     1
  8
0
100
AcDbBlockEnd
  0
BLOCK
  5
7B3A
330
7B39
100
AcDbEntity
  8
0
100
AcDbBlockBegin
  2
_OPEN
 70
     0
 10
0.0
 20
0.0
 30
0.0
  3
_OPEN
  1

  0
LINE
  5
7B3B
330
7B39
100
AcDbEntity
  8
0
  6
ByBlock
 62
     0
100
AcDbLine
 10
-1.0
 20
0.166667
 30
0.0
 11
0.0
 21
0.0
 31
0.0
  0
LINE
  5
7B3C
330
7B39
100
AcDbEntity
  8
0
  6
ByBlock
 62
     0
100
AcDbLine
 10
0.0
 20
0.0
 30
0.0
 11
-1.0
 21
-0.166667
 31
0.0
  0
LINE
  5
7B3D
330
7B39
100
AcDbEntity
  8
0
  6
ByBlock
 62
     0
100
AcDbLine
 10
0.0
 20
0.0
 30
0.0
 11
-1.0
 21
0.0
 31
0.0
  0
ENDBLK
  5
7B3E
330
7B39
100
AcDbEntity
  8
0
100
AcDbBlockEnd
  0
BLOCK
  5
7B40
330
7B3F
100
AcDbEntity
  8
0
100
AcDbBlockBegin
  2
*D1
 70
     1
 10
0.0
 20
0.0
 30
0.0
  3
*D1
  1

  0
LINE
  5
7E3C
330
7B3F
100
AcDbEntity
  8
3
  6
Continuous
 62
     0
440
 16777216
370
    -2
100
AcDbLine
 10
705.0322354381378
 20
1035.522432919998
 30
0.0
 11
705.0322354381378
 21
922.7864049199984
 31
0.0
  0
LINE
  5
7E3D
330
7B3F
100
AcDbEntity
  8
3
  6
Continuous
 62
     0
440
 16777216
370
    -2
100
AcDbLine
 10
970.0322354381379
 20
989.4323629199984
 30
0.0
 11
970.0322354381379
 21
922.7864049199984
 31
0.0
  0
LINE
  5
7E3E
330
7B3F
100
AcDbEntity
  8
3
  6
Continuous
 62
     0
440
 16777216
370
    -2
100
AcDbLine
 10
735.0322354381378
 20
937.7864049199983
 30
0.0
 11
940.0322354381378
 21
937.7864049199983
 31
0.0
  0
INSERT
  5
7E3F
330
7B3F
100
AcDbEntity
  8
3
  6
Continuous
 62
     0
440
 16777216
370
    -2
100
AcDbBlockReference
  2
_OPEN
 10
705.0322354381378
 20
937.7864049199983
 30
0.0
 41
30.0
 42
30.0
 43
30.0
 50
180.0
  0
INSERT
  5
7E40
330
7B3F
100
AcDbEntity
  8
3
  6
Continuous
 62
     0
440
 16777216
370
    -2
100
AcDbBlockReference
  2
_OPEN
 10
970.0322354381379
 20
937.7864049199983
 30
0.0
 41
30.0
 42
30.0
 43
30.0
  0
MTEXT
  5
7E41
330
7B3F
100
AcDbEntity
  8
3
  6
Continuous
 62
     0
440
 16777216
100
AcDbMText
 10
839.4213264381377
 20
975.2864049199983
 30
0.0
 40
45.0
 41
0.0
 46
0.0
 71
     5
 72
     1
  1
\A1;265
 73
     1
 44
1.0
  0
POINT
  5
7E42
330
7B3F
100
AcDbEntity
  8
DEFPOINTS
  6
Continuous
 62
     0
440
 16777216
100
AcDbPoint
 10
705.0322354381378
 20
1043.022432919998
 30
0.0
  0
POINT
  5
7E43
330
7B3F
100
AcDbEntity
  8
DEFPOINTS
  6
Continuous
 62
     0
440
 16777216
100
AcDbPoint
 10
970.0322354381379
 20
996.9323629199985
 30
0.0
  0
POINT
  5
7E44
330
7B3F
100
AcDbEntity
  8
DEFPOINTS
  6
Continuous
 62
     0
440
 16777216
100
AcDbPoint
 10
970.0322354381379
 20
937.7864049199983
 30
0.0
  0
ENDBLK
  5
7B4B
330
7B3F
100
AcDbEntity
  8
0
100
AcDbBlockEnd
  0
BLOCK
  5
7BAA
330
7BA9
100
AcDbEntity
  8
0
100
AcDbBlockBegin
  2
*D2
 70
     1
 10
0.0
 20
0.0
 30
0.0
  3
*D2
  1

  0
LINE
  5
7D59
330
7BA9
100
AcDbEntity
  8
3
  6
Continuous
 62
     0
440
 16777216
100
AcDbLine
 10
970.0322354381379
 20
1800.522432919999
 30
0.0
 11
970.0322354381379
 21
1869.292022919998
 31
0.0
  0
LINE
  5
7D5A
330
7BA9
100
AcDbEntity
  8
3
  6
Continuous
 62
     0
440
 16777216
100
AcDbLine
 10
1285.032235438138
 20
1800.522432919999
 30
0.0
 11
1285.032235438138
 21
1869.292022919998
 31
0.0
  0
LINE
  5
7D5B
330
7BA9
100
AcDbEntity
  8
3
  6
Continuous
 62
     0
440
 16777216
100
AcDbLine
 10
1000.032235438138
 20
1854.292022919998
 30
0.0
 11
1255.032235438138
 21
1854.292022919998
 31
0.0
  0
INSERT
  5
7D5C
330
7BA9
100
AcDbEntity
  8
3
  6
Continuous
 62
     0
440
 16777216
100
AcDbBlockReference
  2
_OPEN
 10
970.0322354381379
 20
1854.292022919998
 30
0.0
 41
30.0
 42
30.0
 43
30.0
 50
180.0
  0
INSERT
  5
7D5D
330
7BA9
100
AcDbEntity
  8
3
  6
Continuous
 62
     0
440
 16777216
100
AcDbBlockReference
  2
_OPEN
 10
1285.032235438138
 20
1854.292022919998
 30
0.0
 41
30.0
 42
30.0
 43
30.0
  0
MTEXT
  5
7D5E
330
7BA9
100
AcDbEntity
  8
3
  6
Continuous
 62
     0
440
 16777216
100
AcDbMText
 10
1128.177879438138
 20
1891.792022919998
 30
0.0
 40
45.0
 41
0.0
 46
0.0
 71
     5
 72
     5
  1
\A1;315
 73
     1
 44
1.0
  0
POINT
  5
7D5F
330
7BA9
100
AcDbEntity
  8
DEFPOINTS
  6
Continuous
 62
     0
440
 16777216
100
AcDbPoint
 10
970.0322354381379
 20
1793.022432919998
 30
0.0
  0
POINT
  5
7D60
330
7BA9
100
AcDbEntity
  8
DEFPOINTS
  6
Continuous
 62
     0
440
 16777216
100
AcDbPoint
 10
1285.032235438138
 20
1793.022432919998
 30
0.0
  0
POINT
  5
7D61
330
7BA9
100
AcDbEntity
  8
DEFPOINTS
  6
Continuous
 62
     0
440
 16777216
100
AcDbPoint
 10
1285.032235438138
 20
1854.292022919998
 30
0.0
  0
ENDBLK
  5
7BB4
330
7BA9
100
AcDbEntity
  8
0
100
AcDbBlockEnd
  0
BLOCK
  5
7BB7
330
7BB6
100
AcDbEntity
  8
0
100
AcDbBlockBegin
  2
*D3
 70
     1
 10
0.0
 20
0.0
 30
0.0
  3
*D3
  1

  0
LINE
  5
7D62
330
7BB6
100
AcDbEntity
  8
3
  6
Continuous
 62
     0
440
 16777216
100
AcDbLine
 10
737.7870494381381
 20
1550.522432919998
 30
0.0
 11
737.7870494381381
 21
1958.709891919998
 31
0.0
  0
LINE
  5
7D63
330
7BB6
100
AcDbEntity
  8
3
  6
Continuous
 62
     0
440
 16777216
100
AcDbLine
 10
970.0322354381379
 20
1800.522432919999
 30
0.0
 11
970.0322354381379
 21
1958.709891919998
 31
0.0
  0
LINE
  5
7D64
330
7BB6
100
AcDbEntity
  8
3
  6
Continuous
 62
     0
440
 16777216
100
AcDbLine
 10
767.7870494381381
 20
1943.709891919998
 30
0.0
 11
940.0322354381378
 21
1943.709891919998
 31
0.0
  0
INSERT
  5
7D65
330
7BB6
100
AcDbEntity
  8
3
  6
Continuous
 62
     0
440
 16777216
100
AcDbBlockReference
  2
_OPEN
 10
737.7870494381381
 20
1943.709891919998
 30
0.0
 41
30.0
 42
30.0
 43
30.0
 50
180.0
  0
INSERT
  5
7D66
330
7BB6
100
AcDbEntity
  8
3
  6
Continuous
 62
     0
440
 16777216
100
AcDbBlockReference
  2
_OPEN
 10
970.0322354381379
 20
1943.709891919998
 30
0.0
 41
30.0
 42
30.0
 43
30.0
  0
MTEXT
  5
7D67
330
7BB6
100
AcDbEntity
  8
3
  6
Continuous
 62
     0
440
 16777216
100
AcDbMText
 10
867.1750924381381
 20
1981.209891919998
 30
0.0
 40
45.0
 41
0.0
 46
0.0
 71
     5
 72
     5
  1
\A1;232
 73
     1
 44
1.0
  0
POINT
  5
7D68
330
7BB6
100
AcDbEntity
  8
DEFPOINTS
  6
Continuous
 62
     0
440
 16777216
100
AcDbPoint
 10
737.7870494381381
 20
1543.022432919998
 30
0.0
  0
POINT
  5
7D69
330
7BB6
100
AcDbEntity
  8
DEFPOINTS
  6
Continuous
 62
     0
440
 16777216
100
AcDbPoint
 10
970.0322354381379
 20
1793.022432919998
 30
0.0
  0
POINT
  5
7D6A
330
7BB6
100
AcDbEntity
  8
DEFPOINTS
  6
Continuous
 62
     0
440
 16777216
100
AcDbPoint
 10
970.0322354381379
 20
1943.709891919998
 30
0.0
  0
ENDBLK
  5
7BC1
330
7BB6
100
AcDbEntity
  8
0
100
AcDbBlockEnd
  0
BLOCK
  5
7BC4
330
7BC3
100
AcDbEntity
  8
0
100
AcDbBlockBegin
  2
*D4
 70
     1
 10
0.0
 20
0.0
 30
0.0
  3
*D4
  1

  0
LINE
  5
7D6B
330
7BC3
100
AcDbEntity
  8
3
  6
Continuous
 62
     0
440
 16777216
100
AcDbLine
 10
1295.032235438138
 20
1780.522432919998
 30
0.0
 11
1295.032235438138
 21
1958.709891919998
 31
0.0
  0
LINE
  5
7D6C
330
7BC3
100
AcDbEntity
  8
3
  6
Continuous
 62
     0
440
 16777216
100
AcDbLine
 10
1000.032235438138
 20
1943.709891919998
 30
0.0
 11
1265.032235438138
 21
1943.709891919998
 31
0.0
  0
INSERT
  5
7D6D
330
7BC3
100
AcDbEntity
  8
3
  6
Continuous
 62
     0
440
 16777216
100
AcDbBlockReference
  2
_OPEN
 10
970.0322354381379
 20
1943.709891919998
 30
0.0
 41
30.0
 42
30.0
 43
30.0
 50
180.0
  0
INSERT
  5
7D6E
330
7BC3
100
AcDbEntity
  8
3
  6
Continuous
 62
     0
440
 16777216
100
AcDbBlockReference
  2
_OPEN
 10
1295.032235438138
 20
1943.709891919998
 30
0.0
 41
30.0
 42
30.0
 43
30.0
  0
MTEXT
  5
7D6F
330
7BC3
100
AcDbEntity
  8
3
  6
Continuous
 62
     0
440
 16777216
100
AcDbMText
 10
1132.532235438138
 20
1981.209891919998
 30
0.0
 40
45.0
 41
0.0
 46
0.0
 71
     5
 72
     5
  1
\A1;325
 73
     1
 44
1.0
  0
POINT
  5
7D70
330
7BC3
100
AcDbEntity
  8
DEFPOINTS
  6
Continuous
 62
     0
440
 16777216
100
AcDbPoint
 10
970.0322354381379
 20
1793.022432919998
 30
0.0
  0
POINT
  5
7D71
330
7BC3
100
AcDbEntity
  8
DEFPOINTS
  6
Continuous
 62
     0
440
 16777216
100
AcDbPoint
 10
1295.032235438138
 20
1773.022432919998
 30
0.0
  0
POINT
  5
7D72
330
7BC3
100
AcDbEntity
  8
DEFPOINTS
  6
Continuous
 62
     0
440
 16777216
100
AcDbPoint
 10
1295.032235438138
 20
1943.709891919998
 30
0.0
  0
ENDBLK
  5
7BCD
330
7BC3
100
AcDbEntity
  8
0
100
AcDbBlockEnd
  0
BLOCK
  5
7BD0
330
7BCF
100
AcDbEntity
  8
0
100
AcDbBlockBegin
  2
*D5
 70
     1
 10
0.0
 20
0.0
 30
0.0
  3
*D5
  1

  0
LINE
  5
7D73
330
7BCF
100
AcDbEntity
  8
3
  6
Continuous
 62
     0
440
 16777216
100
AcDbLine
 10
705.0322354381379
 20
2687.950668740926
 30
0.0
 11
705.0322354381379
 21
2471.508099740927
 31
0.0
  0
LINE
  5
7D74
330
7BCF
100
AcDbEntity
  8
3
  6
Continuous
 62
     0
440
 16777216
100
AcDbLine
 10
1615.032235438138
 20
2687.950668740926
 30
0.0
 11
1615.032235438138
 21
2471.508099740927
 31
0.0
  0
LINE
  5
7D75
330
7BCF
100
AcDbEntity
  8
3
  6
Continuous
 62
     0
440
 16777216
100
AcDbLine
 10
735.0322354381379
 20
2486.508099740927
 30
0.0
 11
1585.032235438138
 21
2486.508099740927
 31
0.0
  0
INSERT
  5
7D76
330
7BCF
100
AcDbEntity
  8
3
  6
Continuous
 62
     0
440
 16777216
100
AcDbBlockReference
  2
_OPEN
 10
705.0322354381379
 20
2486.508099740927
 30
0.0
 41
30.0
 42
30.0
 43
30.0
 50
180.0
  0
INSERT
  5
7D77
330
7BCF
100
AcDbEntity
  8
3
  6
Continuous
 62
     0
440
 16777216
100
AcDbBlockReference
  2
_OPEN
 10
1615.032235438138
 20
2486.508099740927
 30
0.0
 41
30.0
 42
30.0
 43
30.0
  0
MTEXT
  5
7D78
330
7BCF
100
AcDbEntity
  8
3
  6
Continuous
 62
     0
440
 16777216
100
AcDbMText
 10
1142.615708438138
 20
2524.008099740927
 30
0.0
 40
45.0
 41
0.0
 46
0.0
 71
     5
 72
     5
  1
\A1;910
 73
     1
 44
1.0
  0
POINT
  5
7D79
330
7BCF
100
AcDbEntity
  8
DEFPOINTS
  6
Continuous
 62
     0
440
 16777216
100
AcDbPoint
 10
705.0322354381379
 20
2695.450668740927
 30
0.0
  0
POINT
  5
7D7A
330
7BCF
100
AcDbEntity
  8
DEFPOINTS
  6
Continuous
 62
     0
440
 16777216
100
AcDbPoint
 10
1615.032235438138
 20
2695.450668740927
 30
0.0
  0
POINT
  5
7D7B
330
7BCF
100
AcDbEntity
  8
DEFPOINTS
  6
Continuous
 62
     0
440
 16777216
100
AcDbPoint
 10
1615.032235438138
 20
2486.508099740927
 30
0.0
  0
ENDBLK
  5
7BDA
330
7BCF
100
AcDbEntity
  8
0
100
AcDbBlockEnd
  0
BLOCK
  5
7BDD
330
7BDC
100
AcDbEntity
  8
0
100
AcDbBlockBegin
  2
*D6
 70
     1
 10
0.0
 20
0.0
 30
0.0
  3
*D6
  1

  0
LINE
  5
7D7C
330
7BDC
100
AcDbEntity
  8
3
  6
Continuous
 62
     0
440
 16777216
100
AcDbLine
 10
1622.532235438138
 20
3010.450668740926
 30
0.0
 11
1758.229306438138
 21
3010.450668740926
 31
0.0
  0
LINE
  5
7D7D
330
7BDC
100
AcDbEntity
  8
3
  6
Continuous
 62
     0
440
 16777216
100
AcDbLine
 10
1622.532235438138
 20
2695.450668740927
 30
0.0
 11
1758.229306438138
 21
2695.450668740927
 31
0.0
  0
LINE
  5
7D7E
330
7BDC
100
AcDbEntity
  8
3
  6
Continuous
 62
     0
440
 16777216
100
AcDbLine
 10
1743.229306438138
 20
2980.450668740926
 30
0.0
 11
1743.229306438138
 21
2725.450668740926
 31
0.0
  0
INSERT
  5
7D7F
330
7BDC
100
AcDbEntity
  8
3
  6
Continuous
 62
     0
440
 16777216
100
AcDbBlockReference
  2
_OPEN
 10
1743.229306438138
 20
3010.450668740926
 30
0.0
 41
30.0
 42
30.0
 43
30.0
 50
90.0
  0
INSERT
  5
7D80
330
7BDC
100
AcDbEntity
  8
3
  6
Continuous
 62
     0
440
 16777216
100
AcDbBlockReference
  2
_OPEN
 10
1743.229306438138
 20
2695.450668740927
 30
0.0
 41
30.0
 42
30.0
 43
30.0
 50
270.0
  0
MTEXT
  5
7D81
330
7BDC
100
AcDbEntity
  8
3
  6
Continuous
 62
     0
440
 16777216
100
AcDbMText
 10
1705.729306438138
 20
2852.832911740927
 30
0.0
 40
45.0
 41
0.0
 46
0.0
 71
     5
 72
     5
  1
\A1;315
 11
0.0000000000000001
 21
1.0
 31
0.0
 73
     1
 44
1.0
  0
POINT
  5
7D82
330
7BDC
100
AcDbEntity
  8
DEFPOINTS
  6
Continuous
 62
     0
440
 16777216
100
AcDbPoint
 10
1615.032235438138
 20
3010.450668740926
 30
0.0
  0
POINT
  5
7D83
330
7BDC
100
AcDbEntity
  8
DEFPOINTS
  6
Continuous
 62
     0
440
 16777216
100
AcDbPoint
 10
1615.032235438138
 20
2695.450668740927
 30
0.0
  0
POINT
  5
7D84
330
7BDC
100
AcDbEntity
  8
DEFPOINTS
  6
Continuous
 62
     0
440
 16777216
100
AcDbPoint
 10
1743.229306438138
 20
2695.450668740927
 30
0.0
  0
ENDBLK
  5
7BE7
330
7BDC
100
AcDbEntity
  8
0
100
AcDbBlockEnd
  0
BLOCK
  5
7BEC
330
7BEB
100
AcDbEntity
  8
0
100
AcDbBlockBegin
  2
*D7
 70
     1
 10
0.0
 20
0.0
 30
0.0
  3
*D7
  1

  0
LINE
  5
7D85
330
7BEB
100
AcDbEntity
  8
3
  6
Continuous
 62
     0
440
 16777216
100
AcDbLine
 10
2320.207381158927
 20
1800.522432919999
 30
0.0
 11
2320.207381158927
 21
1857.467262919998
 31
0.0
  0
LINE
  5
7D86
330
7BEB
100
AcDbEntity
  8
3
  6
Continuous
 62
     0
440
 16777216
100
AcDbLine
 10
2544.207381158927
 20
1800.522432919999
 30
0.0
 11
2544.207381158927
 21
1857.467262919998
 31
0.0
  0
LINE
  5
7D87
330
7BEB
100
AcDbEntity
  8
3
  6
Continuous
 62
     0
440
 16777216
100
AcDbLine
 10
2350.207381158927
 20
1842.467262919998
 30
0.0
 11
2514.207381158927
 21
1842.467262919998
 31
0.0
  0
INSERT
  5
7D88
330
7BEB
100
AcDbEntity
  8
3
  6
Continuous
 62
     0
440
 16777216
100
AcDbBlockReference
  2
_OPEN
 10
2320.207381158927
 20
1842.467262919998
 30
0.0
 41
30.0
 42
30.0
 43
30.0
 50
180.0
  0
INSERT
  5
7D89
330
7BEB
100
AcDbEntity
  8
3
  6
Continuous
 62
     0
440
 16777216
100
AcDbBlockReference
  2
_OPEN
 10
2544.207381158927
 20
1842.467262919998
 30
0.0
 41
30.0
 42
30.0
 43
30.0
  0
MTEXT
  5
7D8A
330
7BEB
100
AcDbEntity
  8
3
  6
Continuous
 62
     0
440
 16777216
100
AcDbMText
 10
2424.135952158927
 20
1879.967262919998
 30
0.0
 40
45.0
 41
0.0
 46
0.0
 71
     5
 72
     5
  1
\A1;224
 73
     1
 44
1.0
  0
POINT
  5
7D8B
330
7BEB
100
AcDbEntity
  8
DEFPOINTS
  6
Continuous
 62
     0
440
 16777216
100
AcDbPoint
 10
2320.207381158927
 20
1793.022432919998
 30
0.0
  0
POINT
  5
7D8C
330
7BEB
100
AcDbEntity
  8
DEFPOINTS
  6
Continuous
 62
     0
440
 16777216
100
AcDbPoint
 10
2544.207381158927
 20
1793.022432919998
 30
0.0
  0
POINT
  5
7D8D
330
7BEB
100
AcDbEntity
  8
DEFPOINTS
  6
Continuous
 62
     0
440
 16777216
100
AcDbPoint
 10
2544.207381158927
 20
1842.467262919998
 30
0.0
  0
ENDBLK
  5
7BF6
330
7BEB
100
AcDbEntity
  8
0
100
AcDbBlockEnd
  0
BLOCK
  5
7CC0
330
7BF8
100
AcDbEntity
  8
0
100
AcDbBlockBegin
  2
*D8
 70
     1
 10
0.0
 20
0.0
 30
0.0
  3
*D8
  1

  0
LINE
  5
7EEC
330
7BF8
100
AcDbEntity
  8
3
  6
Continuous
 62
     0
440
 16777216
370
    -2
100
AcDbLine
 10
2012.207381158928
 20
1780.522432919998
 30
0.0
 11
2012.207381158928
 21
1952.940994919998
 31
0.0
  0
LINE
  5
7EED
330
7BF8
100
AcDbEntity
  8
3
  6
Continuous
 62
     0
440
 16777216
370
    -2
100
AcDbLine
 10
2432.207381158927
 20
1914.984910149799
 30
0.0
 11
2432.207381158927
 21
1952.940994919998
 31
0.0
  0
LINE
  5
7EEE
330
7BF8
100
AcDbEntity
  8
3
  6
Continuous
 62
     0
440
 16777216
370
    -2
100
AcDbLine
 10
2042.207381158927
 20
1937.940994919998
 30
0.0
 11
2402.207381158927
 21
1937.940994919998
 31
0.0
  0
INSERT
  5
7EEF
330
7BF8
100
AcDbEntity
  8
3
  6
Continuous
 62
     0
440
 16777216
370
    -2
100
AcDbBlockReference
  2
_OPEN
 10
2012.207381158928
 20
1937.940994919998
 30
0.0
 41
30.0
 42
30.0
 43
30.0
 50
180.0
  0
INSERT
  5
7EF0
330
7BF8
100
AcDbEntity
  8
3
  6
Continuous
 62
     0
440
 16777216
370
    -2
100
AcDbBlockReference
  2
_OPEN
 10
2432.207381158927
 20
1937.940994919998
 30
0.0
 41
30.0
 42
30.0
 43
30.0
  0
MTEXT
  5
7EF1
330
7BF8
100
AcDbEntity
  8
3
  6
Continuous
 62
     0
440
 16777216
100
AcDbMText
 10
2235.824830158927
 20
1987.226709205713
 30
0.0
 40
45.0
 41
0.0
 46
0.0
 71
     5
 72
     1
  1
\A1;(420)
 73
     1
 44
1.0
  0
POINT
  5
7EF2
330
7BF8
100
AcDbEntity
  8
DEFPOINTS
  6
Continuous
 62
     0
440
 16777216
100
AcDbPoint
 10
2012.207381158928
 20
1773.022432919998
 30
0.0
  0
POINT
  5
7EF3
330
7BF8
100
AcDbEntity
  8
DEFPOINTS
  6
Continuous
 62
     0
440
 16777216
100
AcDbPoint
 10
2432.207381158927
 20
1907.484910149799
 30
0.0
  0
POINT
  5
7EF4
330
7BF8
100
AcDbEntity
  8
DEFPOINTS
  6
Continuous
 62
     0
440
 16777216
100
AcDbPoint
 10
2432.207381158927
 20
1937.940994919998
 30
0.0
  0
ENDBLK
  5
7CCA
330
7BF8
100
AcDbEntity
  8
0
100
AcDbBlockEnd
  0
BLOCK
  5
7CCB
330
7C05
100
AcDbEntity
  8
0
100
AcDbBlockBegin
  2
*D9
 70
     1
 10
0.0
 20
0.0
 30
0.0
  3
*D9
  1

  0
LINE
  5
7D97
330
7C05
100
AcDbEntity
  8
3
  6
Continuous
 62
     0
440
 16777216
100
AcDbLine
 10
2553.207381158927
 20
1733.022432919998
 30
0.0
 11
2553.207381158927
 21
1952.940994919998
 31
0.0
  0
LINE
  5
7D98
330
7C05
100
AcDbEntity
  8
3
  6
Continuous
 62
     0
440
 16777216
100
AcDbLine
 10
2462.207381158927
 20
1937.940994919998
 30
0.0
 11
2523.207381158927
 21
1937.940994919998
 31
0.0
  0
MTEXT
  5
7D99
330
7C05
100
AcDbEntity
  8
3
  6
Continuous
 62
     0
440
 16777216
100
AcDbMText
 10
2489.930578158928
 20
1975.440994919998
 30
0.0
 40
45.0
 41
0.0
 46
0.0
 71
     5
 72
     5
  1
\A1;121
 73
     1
 44
1.0
  0
INSERT
  5
7D9A
330
7C05
100
AcDbEntity
  8
3
  6
Continuous
 62
     0
440
 16777216
100
AcDbBlockReference
  2
_OPEN
 10
2432.207381158927
 20
1937.940994919998
 30
0.0
 41
30.0
 42
30.0
 43
30.0
 50
180.0
  0
INSERT
  5
7D9B
330
7C05
100
AcDbEntity
  8
3
  6
Continuous
 62
     0
440
 16777216
100
AcDbBlockReference
  2
_OPEN
 10
2553.207381158927
 20
1937.940994919998
 30
0.0
 41
30.0
 42
30.0
 43
30.0
  0
POINT
  5
7D9C
330
7C05
100
AcDbEntity
  8
DEFPOINTS
  6
Continuous
 62
     0
440
 16777216
100
AcDbPoint
 10
2432.207381158927
 20
1907.484910149799
 30
0.0
  0
POINT
  5
7D9D
330
7C05
100
AcDbEntity
  8
DEFPOINTS
  6
Continuous
 62
     0
440
 16777216
100
AcDbPoint
 10
2553.207381158927
 20
1725.522432919999
 30
0.0
  0
POINT
  5
7D9E
330
7C05
100
AcDbEntity
  8
DEFPOINTS
  6
Continuous
 62
     0
440
 16777216
100
AcDbPoint
 10
2553.207381158927
 20
1937.940994919998
 30
0.0
  0
ENDBLK
  5
7CD4
330
7C05
100
AcDbEntity
  8
0
100
AcDbBlockEnd
  0
BLOCK
  5
7CAA
330
7C3A
100
AcDbEntity
  8
0
100
AcDbBlockBegin
  2
*D10
 70
     1
 10
0.0
 20
0.0
 30
0.0
  3
*D10
  1

  0
LINE
  5
7D9F
330
7C3A
100
AcDbEntity
  8
3
  6
Continuous
 62
     0
440
 16777216
100
AcDbLine
 10
2560.707381158927
 20
1700.522432919998
 30
0.0
 11
2680.058108158928
 21
1700.522432919998
 31
0.0
  0
LINE
  5
7DA0
330
7C3A
100
AcDbEntity
  8
3
  6
Continuous
 62
     0
440
 16777216
100
AcDbLine
 10
2560.707381158927
 20
1385.522432919998
 30
0.0
 11
2680.058108158928
 21
1385.522432919998
 31
0.0
  0
LINE
  5
7DA1
330
7C3A
100
AcDbEntity
  8
3
  6
Continuous
 62
     0
440
 16777216
100
AcDbLine
 10
2665.058108158928
 20
1670.522432919998
 30
0.0
 11
2665.058108158928
 21
1415.522432919998
 31
0.0
  0
INSERT
  5
7DA2
330
7C3A
100
AcDbEntity
  8
3
  6
Continuous
 62
     0
440
 16777216
100
AcDbBlockReference
  2
_OPEN
 10
2665.058108158928
 20
1700.522432919998
 30
0.0
 41
30.0
 42
30.0
 43
30.0
 50
90.0
  0
INSERT
  5
7DA3
330
7C3A
100
AcDbEntity
  8
3
  6
Continuous
 62
     0
440
 16777216
100
AcDbBlockReference
  2
_OPEN
 10
2665.058108158928
 20
1385.522432919998
 30
0.0
 41
30.0
 42
30.0
 43
30.0
 50
270.0
  0
MTEXT
  5
7DA4
330
7C3A
100
AcDbEntity
  8
3
  6
Continuous
 62
     0
440
 16777216
100
AcDbMText
 10
2627.558108158928
 20
1539.394202919998
 30
0.0
 40
45.0
 41
0.0
 46
0.0
 71
     5
 72
     5
  1
\A1;φ315
 11
0.0000000000000001
 21
1.0
 31
0.0
 73
     1
 44
1.0
  0
POINT
  5
7DA5
330
7C3A
100
AcDbEntity
  8
DEFPOINTS
  6
Continuous
 62
     0
440
 16777216
100
AcDbPoint
 10
2553.207381158927
 20
1700.522432919998
 30
0.0
  0
POINT
  5
7DA6
330
7C3A
100
AcDbEntity
  8
DEFPOINTS
  6
Continuous
 62
     0
440
 16777216
100
AcDbPoint
 10
2553.207381158927
 20
1385.522432919998
 30
0.0
  0
POINT
  5
7DA7
330
7C3A
100
AcDbEntity
  8
DEFPOINTS
  6
Continuous
 62
     0
440
 16777216
100
AcDbPoint
 10
2665.058108158928
 20
1385.522432919998
 30
0.0
  0
ENDBLK
  5
7CB4
330
7C3A
100
AcDbEntity
  8
0
100
AcDbBlockEnd
  0
BLOCK
  5
7C5B
330
7C5A
100
AcDbEntity
  8
0
100
AcDbBlockBegin
  2
*D11
 70
     1
 10
0.0
 20
0.0
 30
0.0
  3
*D11
  1

  0
LINE
  5
7DA8
330
7C5A
100
AcDbEntity
  8
3
 62
     0
440
 16777216
100
AcDbLine
 10
941.0322354381378
 20
1793.022432919998
 30
0.0
 11
591.6322566348521
 21
1793.022432919998
 31
0.0
  0
LINE
  5
7DA9
330
7C5A
100
AcDbEntity
  8
3
 62
     0
440
 16777216
100
AcDbLine
 10
663.3748034381378
 20
1543.022432919998
 30
0.0
 11
591.6322566348519
 21
1543.022432919998
 31
0.0
  0
LINE
  5
7DAA
330
7C5A
100
AcDbEntity
  8
3
 62
     0
440
 16777216
100
AcDbLine
 10
606.6322566348519
 20
1763.022432919999
 30
0.0
 11
606.6322566348519
 21
1573.022432919998
 31
0.0
  0
INSERT
  5
7DAB
330
7C5A
100
AcDbEntity
  8
3
 62
     0
440
 16777216
100
AcDbBlockReference
  2
_OPEN
 10
606.632256634852
 20
1793.022432919998
 30
0.0
 41
30.0
 42
30.0
 43
30.0
 50
90.0
  0
INSERT
  5
7DAC
330
7C5A
100
AcDbEntity
  8
3
 62
     0
440
 16777216
100
AcDbBlockReference
  2
_OPEN
 10
606.6322566348519
 20
1543.022432919998
 30
0.0
 41
30.0
 42
30.0
 43
30.0
 50
270.0
  0
MTEXT
  5
7DAD
330
7C5A
100
AcDbEntity
  8
3
 62
     0
440
 16777216
100
AcDbMText
 10
569.1322566348516
 20
1645.879575777141
 30
0.0
 40
45.0
 41
0.0
 46
0.0
 71
     5
 72
     5
  1
\A1;250
 11
0.0000000000000001
 21
1.0
 31
0.0
 73
     1
 44
1.0
  0
POINT
  5
7DAE
330
7C5A
100
AcDbEntity
  8
DEFPOINTS
 62
     0
440
 16777216
100
AcDbPoint
 10
948.5322354381379
 20
1793.022432919998
 30
0.0
  0
POINT
  5
7DAF
330
7C5A
100
AcDbEntity
  8
DEFPOINTS
 62
     0
440
 16777216
100
AcDbPoint
 10
670.8748034381378
 20
1543.022432919998
 30
0.0
  0
POINT
  5
7DB0
330
7C5A
100
AcDbEntity
  8
DEFPOINTS
 62
     0
440
 16777216
100
AcDbPoint
 10
606.6322566348519
 20
1543.022432919998
 30
0.0
  0
ENDBLK
  5
7C65
330
7C5A
100
AcDbEntity
  8
0
100
AcDbBlockEnd
  0
BLOCK
  5
7C68
330
7C67
100
AcDbEntity
  8
0
100
AcDbBlockBegin
  2
*D12
 70
     1
 10
0.0
 20
0.0
 30
0.0
  3
*D12
  1

  0
LINE
  5
7DB1
330
7C67
100
AcDbEntity
  8
3
 62
     0
440
 16777216
100
AcDbLine
 10
727.5322354381378
 20
1143.022432919998
 30
0.0
 11
591.6322566348517
 21
1143.022432919998
 31
0.0
  0
LINE
  5
7DB2
330
7C67
100
AcDbEntity
  8
3
 62
     0
440
 16777216
100
AcDbLine
 10
606.6322566348518
 20
1513.022432919998
 30
0.0
 11
606.6322566348517
 21
1173.022432919998
 31
0.0
  0
INSERT
  5
7DB3
330
7C67
100
AcDbEntity
  8
3
 62
     0
440
 16777216
100
AcDbBlockReference
  2
_OPEN
 10
606.6322566348518
 20
1543.022432919998
 30
0.0
 41
30.0
 42
30.0
 43
30.0
 50
90.0
  0
INSERT
  5
7DB4
330
7C67
100
AcDbEntity
  8
3
 62
     0
440
 16777216
100
AcDbBlockReference
  2
_OPEN
 10
606.6322566348517
 20
1143.022432919998
 30
0.0
 41
30.0
 42
30.0
 43
30.0
 50
270.0
  0
MTEXT
  5
7DB5
330
7C67
100
AcDbEntity
  8
3
 62
     0
440
 16777216
100
AcDbMText
 10
569.1322566348516
 20
1343.022432919999
 30
0.0
 40
45.0
 41
0.0
 46
0.0
 71
     5
 72
     5
  1
\A1;400
 11
0.0000000000000001
 21
1.0
 31
0.0
 73
     1
 44
1.0
  0
POINT
  5
7DB6
330
7C67
100
AcDbEntity
  8
DEFPOINTS
 62
     0
440
 16777216
100
AcDbPoint
 10
670.8748034381378
 20
1543.022432919998
 30
0.0
  0
POINT
  5
7DB7
330
7C67
100
AcDbEntity
  8
DEFPOINTS
 62
     0
440
 16777216
100
AcDbPoint
 10
735.0322354381378
 20
1143.022432919998
 30
0.0
  0
POINT
  5
7DB8
330
7C67
100
AcDbEntity
  8
DEFPOINTS
 62
     0
440
 16777216
100
AcDbPoint
 10
606.6322566348517
 20
1143.022432919998
 30
0.0
  0
ENDBLK
  5
7C71
330
7C67
100
AcDbEntity
  8
0
100
AcDbBlockEnd
  0
BLOCK
  5
7CDE
330
7CDD
100
AcDbEntity
  8
0
100
AcDbBlockBegin
  2
*D13
 70
     1
 10
0.0
 20
0.0
 30
0.0
  3
*D13
  1

  0
LINE
  5
7E45
330
7CDD
100
AcDbEntity
  8
3
 62
     0
440
 16777216
370
    -2
100
AcDbLine
 10
970.0322354381379
 20
1035.522432919998
 30
0.0
 11
970.0322354381379
 21
922.8585291734999
 31
0.0
  0
LINE
  5
7E46
330
7CDD
100
AcDbEntity
  8
3
 62
     0
440
 16777216
370
    -2
100
AcDbLine
 10
1615.032235438138
 20
1035.522432919998
 30
0.0
 11
1615.032235438138
 21
922.8585291734999
 31
0.0
  0
LINE
  5
7E47
330
7CDD
100
AcDbEntity
  8
3
 62
     0
440
 16777216
370
    -2
100
AcDbLine
 10
1000.032235438138
 20
937.8585291734998
 30
0.0
 11
1585.032235438138
 21
937.8585291734998
 31
0.0
  0
INSERT
  5
7E48
330
7CDD
100
AcDbEntity
  8
3
 62
     0
440
 16777216
370
    -2
100
AcDbBlockReference
  2
_OPEN
 10
970.0322354381379
 20
937.8585291734998
 30
0.0
 41
30.0
 42
30.0
 43
30.0
 50
180.0
  0
INSERT
  5
7E49
330
7CDD
100
AcDbEntity
  8
3
 62
     0
440
 16777216
370
    -2
100
AcDbBlockReference
  2
_OPEN
 10
1615.032235438138
 20
937.8585291734998
 30
0.0
 41
30.0
 42
30.0
 43
30.0
  0
MTEXT
  5
7E4A
330
7CDD
100
AcDbEntity
  8
3
 62
     0
440
 16777216
100
AcDbMText
 10
1292.532235438138
 20
975.3585291734998
 30
0.0
 40
45.0
 41
0.0
 46
0.0
 71
     5
 72
     1
  1
\A1;645
 73
     1
 44
1.0
  0
POINT
  5
7E4B
330
7CDD
100
AcDbEntity
  8
DEFPOINTS
 62
     0
440
 16777216
100
AcDbPoint
 10
970.0322354381379
 20
1043.022432919998
 30
0.0
  0
POINT
  5
7E4C
330
7CDD
100
AcDbEntity
  8
DEFPOINTS
 62
     0
440
 16777216
100
AcDbPoint
 10
1615.032235438138
 20
1043.022432919998
 30
0.0
  0
POINT
  5
7E4D
330
7CDD
100
AcDbEntity
  8
DEFPOINTS
 62
     0
440
 16777216
100
AcDbPoint
 10
1615.032235438138
 20
937.8585291734998
 30
0.0
  0
ENDBLK
  5
7CE8
330
7CDD
100
AcDbEntity
  8
0
100
AcDbBlockEnd
  0
BLOCK
  5
7CEB
330
7CEA
100
AcDbEntity
  8
0
100
AcDbBlockBegin
  2
*D14
 70
     1
 10
0.0
 20
0.0
 30
0.0
  3
*D14
  1

  0
LINE
  5
7E4E
330
7CEA
100
AcDbEntity
  8
3
 62
     0
440
 16777216
370
    -2
100
AcDbLine
 10
2117.207381158927
 20
1035.522432919998
 30
0.0
 11
2117.207381158927
 21
922.8585291734999
 31
0.0
  0
LINE
  5
7E4F
330
7CEA
100
AcDbEntity
  8
3
 62
     0
440
 16777216
370
    -2
100
AcDbLine
 10
2432.207381158927
 20
1035.522432919998
 30
0.0
 11
2432.207381158927
 21
922.8585291734999
 31
0.0
  0
LINE
  5
7E50
330
7CEA
100
AcDbEntity
  8
3
 62
     0
440
 16777216
370
    -2
100
AcDbLine
 10
2147.207381158927
 20
937.8585291734998
 30
0.0
 11
2402.207381158927
 21
937.8585291734998
 31
0.0
  0
INSERT
  5
7E51
330
7CEA
100
AcDbEntity
  8
3
 62
     0
440
 16777216
370
    -2
100
AcDbBlockReference
  2
_OPEN
 10
2117.207381158927
 20
937.8585291734998
 30
0.0
 41
30.0
 42
30.0
 43
30.0
 50
180.0
  0
INSERT
  5
7E52
330
7CEA
100
AcDbEntity
  8
3
 62
     0
440
 16777216
370
    -2
100
AcDbBlockReference
  2
_OPEN
 10
2432.207381158927
 20
937.8585291734998
 30
0.0
 41
30.0
 42
30.0
 43
30.0
  0
MTEXT
  5
7E53
330
7CEA
100
AcDbEntity
  8
3
 62
     0
440
 16777216
100
AcDbMText
 10
2274.707381158927
 20
975.3585291734998
 30
0.0
 40
45.0
 41
0.0
 46
0.0
 71
     5
 72
     1
  1
\A1;315
 73
     1
 44
1.0
  0
POINT
  5
7E54
330
7CEA
100
AcDbEntity
  8
DEFPOINTS
 62
     0
440
 16777216
100
AcDbPoint
 10
2117.207381158927
 20
1043.022432919998
 30
0.0
  0
POINT
  5
7E55
330
7CEA
100
AcDbEntity
  8
DEFPOINTS
 62
     0
440
 16777216
100
AcDbPoint
 10
2432.207381158927
 20
1043.022432919998
 30
0.0
  0
POINT
  5
7E56
330
7CEA
100
AcDbEntity
  8
DEFPOINTS
 62
     0
440
 16777216
100
AcDbPoint
 10
2432.207381158927
 20
937.8585291734998
 30
0.0
  0
ENDBLK
  5
7CF5
330
7CEA
100
AcDbEntity
  8
0
100
AcDbBlockEnd
  0
BLOCK
  5
7CF8
330
7CF7
100
AcDbEntity
  8
0
100
AcDbBlockBegin
  2
*D15
 70
     1
 10
0.0
 20
0.0
 30
0.0
  3
*D15
  1

  0
LINE
  5
7E96
330
7CF7
100
AcDbEntity
  8
3
 62
     0
440
 16777216
370
    -2
100
AcDbLine
 10
697.5322354381378
 20
1073.022432919998
 30
0.0
 11
591.6758543534273
 21
1073.022432919998
 31
0.0
  0
LINE
  5
7E97
330
7CF7
100
AcDbEntity
  8
3
 62
     0
440
 16777216
370
    -2
100
AcDbLine
 10
697.5322354381378
 20
1043.022432919998
 30
0.0
 11
591.6758543534273
 21
1043.022432919998
 31
0.0
  0
LINE
  5
7E98
330
7CF7
100
AcDbEntity
  8
3
 62
     0
440
 16777216
370
    -2
100
AcDbLine
 10
606.6758543534273
 20
1073.022432919998
 30
0.0
 11
606.6758543534273
 21
1103.022432919998
 31
0.0
  0
LINE
  5
7E99
330
7CF7
100
AcDbEntity
  8
3
 62
     0
440
 16777216
370
    -2
100
AcDbLine
 10
606.6758543534273
 20
1013.022432919998
 30
0.0
 11
606.6758543534273
 21
880.1652900628557
 31
0.0
  0
LINE
  5
7E9A
330
7CF7
100
AcDbEntity
  8
3
 62
     0
440
 16777216
370
    -2
100
AcDbLine
 10
606.6758543534273
 20
1073.022432919998
 30
0.0
 11
606.6758543534273
 21
1043.022432919998
 31
0.0
  0
INSERT
  5
7E9B
330
7CF7
100
AcDbEntity
  8
3
 62
     0
440
 16777216
370
    -2
100
AcDbBlockReference
  2
_OPEN
 10
606.6758543534273
 20
1043.022432919998
 30
0.0
 41
30.0
 42
30.0
 43
30.0
 50
90.0
  0
MTEXT
  5
7E9C
330
7CF7
100
AcDbEntity
  8
3
 62
     0
440
 16777216
100
AcDbMText
 10
569.1758543534271
 20
931.5938614914271
 30
0.0
 40
45.0
 41
0.0
 46
0.0
 71
     5
 72
     1
  1
\A1;30
 11
0.0000000000000001
 21
1.0
 31
0.0
 73
     1
 44
1.0
  0
POINT
  5
7E9D
330
7CF7
100
AcDbEntity
  8
DEFPOINTS
 62
     0
440
 16777216
100
AcDbPoint
 10
705.0322354381378
 20
1073.022432919998
 30
0.0
  0
POINT
  5
7E9E
330
7CF7
100
AcDbEntity
  8
DEFPOINTS
 62
     0
440
 16777216
100
AcDbPoint
 10
705.0322354381378
 20
1043.022432919998
 30
0.0
  0
POINT
  5
7E9F
330
7CF7
100
AcDbEntity
  8
DEFPOINTS
 62
     0
440
 16777216
100
AcDbPoint
 10
606.6758543534273
 20
1043.022432919998
 30
0.0
  0
ENDBLK
  5
7D04
330
7CF7
100
AcDbEntity
  8
0
100
AcDbBlockEnd
  0
BLOCK
  5
7D07
330
7D06
100
AcDbEntity
  8
0
100
AcDbBlockBegin
  2
*D16
 70
     1
 10
0.0
 20
0.0
 30
0.0
  3
*D16
  1

  0
LINE
  5
7EA0
330
7D06
100
AcDbEntity
  8
3
 62
     0
440
 16777216
370
    -2
100
AcDbLine
 10
697.5322354381378
 20
1073.022432919998
 30
0.0
 11
591.6758543534273
 21
1073.022432919998
 31
0.0
  0
LINE
  5
7EA1
330
7D06
100
AcDbEntity
  8
3
 62
     0
440
 16777216
370
    -2
100
AcDbLine
 10
727.5322354381378
 20
1143.022432919998
 30
0.0
 11
591.6758543534273
 21
1143.022432919998
 31
0.0
  0
LINE
  5
7EA2
330
7D06
100
AcDbEntity
  8
3
 62
     0
440
 16777216
370
    -2
100
AcDbLine
 10
606.6758543534273
 20
1043.022432919998
 30
0.0
 11
606.6758543534273
 21
1013.022432919998
 31
0.0
  0
LINE
  5
7EA3
330
7D06
100
AcDbEntity
  8
3
 62
     0
440
 16777216
370
    -2
100
AcDbLine
 10
606.6758543534273
 20
1173.022432919998
 30
0.0
 11
606.6758543534273
 21
1203.022432919998
 31
0.0
  0
MTEXT
  5
7EA4
330
7D06
100
AcDbEntity
  8
3
 62
     0
440
 16777216
100
AcDbMText
 10
557.4961917761538
 20
1109.52901864198
 30
0.0
 40
45.0
 41
0.0
 46
0.0
 71
     5
 72
     1
  1
\A1;(70)
 11
0.0000000000000001
 21
1.0
 31
0.0
 73
     1
 44
1.0
  0
LINE
  5
7EA5
330
7D06
100
AcDbEntity
  8
3
 62
     0
440
 16777216
370
    -2
100
AcDbLine
 10
606.6758543534273
 20
1073.022432919998
 30
0.0
 11
606.6758543534273
 21
1143.022432919998
 31
0.0
  0
INSERT
  5
7EA6
330
7D06
100
AcDbEntity
  8
3
 62
     0
440
 16777216
370
    -2
100
AcDbBlockReference
  2
_Dot
 10
606.6758543534273
 20
1073.022432919998
 30
0.0
 41
30.0
 42
30.0
 43
30.0
 50
90.0
  0
INSERT
  5
7EA7
330
7D06
100
AcDbEntity
  8
3
 62
     0
440
 16777216
370
    -2
100
AcDbBlockReference
  2
_OPEN
 10
606.6758543534273
 20
1143.022432919998
 30
0.0
 41
30.0
 42
30.0
 43
30.0
 50
270.0
  0
POINT
  5
7EA8
330
7D06
100
AcDbEntity
  8
DEFPOINTS
 62
     0
440
 16777216
100
AcDbPoint
 10
705.0322354381378
 20
1073.022432919998
 30
0.0
  0
POINT
  5
7EA9
330
7D06
100
AcDbEntity
  8
DEFPOINTS
 62
     0
440
 16777216
100
AcDbPoint
 10
735.0322354381378
 20
1143.022432919998
 30
0.0
  0
POINT
  5
7EAA
330
7D06
100
AcDbEntity
  8
DEFPOINTS
 62
     0
440
 16777216
100
AcDbPoint
 10
606.6758543534273
 20
1143.022432919998
 30
0.0
  0
ENDBLK
  5
7D13
330
7D06
100
AcDbEntity
  8
0
100
AcDbBlockEnd
  0
BLOCK
  5
7E86
330
7E83
100
AcDbEntity
  8
0
100
AcDbBlockBegin
  2
_Dot
 70
     0
 10
0.0
 20
0.0
 30
0.0
  3
_Dot
  1

  0
LWPOLYLINE
  5
7E84
330
7E83
100
AcDbEntity
  8
0
  6
ByBlock
 62
     0
100
AcDbPolyline
 90
        2
 70
     1
 43
0.5
 10
-0.25
 20
0.0
 42
1.0
 10
0.25
 20
0.0
 42
1.0
  0
LINE
  5
7E85
330
7E83
100
AcDbEntity
  8
0
  6
ByBlock
 62
     0
370
    -2
100
AcDbLine
 10
-0.5
 20
0.0
 30
0.0
 11
-1.0
 21
0.0
 31
0.0
  0
ENDBLK
  5
7E87
330
7E83
100
AcDbEntity
  8
0
100
AcDbBlockEnd
  0
BLOCK
  5
7E94
330
7E93
100
AcDbEntity
  8
0
100
AcDbBlockBegin
  2
_None
 70
     0
 10
0.0
 20
0.0
 30
0.0
  3
_None
  1

  0
ENDBLK
  5
7E95
330
7E93
100
AcDbEntity
  8
0
100
AcDbBlockEnd
  0
BLOCK
  5
7F05
330
7F04
100
AcDbEntity
  8
0
100
AcDbBlockBegin
  2
*D19
 70
     1
 10
0.0
 20
0.0
 30
0.0
  3
*D19
  1

  0
LINE
  5
7F07
330
7F04
100
AcDbEntity
  8
3
 62
     0
440
 16777216
370
    -2
100
AcDbLine
 10
697.5322354381378
 20
1043.022432919998
 30
0.0
 11
474.7017101294149
 21
1043.022432919999
 31
0.0
  0
LINE
  5
7F08
330
7F04
100
AcDbEntity
  8
3
 62
     0
440
 16777216
370
    -2
100
AcDbLine
 10
941.0322354381378
 20
1793.022432919998
 30
0.0
 11
474.7017101294151
 21
1793.022432919999
 31
0.0
  0
LINE
  5
7F09
330
7F04
100
AcDbEntity
  8
3
 62
     0
440
 16777216
370
    -2
100
AcDbLine
 10
489.7017101294149
 20
1073.022432919998
 30
0.0
 11
489.7017101294151
 21
1763.022432919999
 31
0.0
  0
INSERT
  5
7F0A
330
7F04
100
AcDbEntity
  8
3
 62
     0
440
 16777216
370
    -2
100
AcDbBlockReference
  2
_OPEN
 10
489.7017101294149
 20
1043.022432919999
 30
0.0
 41
30.0
 42
30.0
 43
30.0
 50
270.0
  0
INSERT
  5
7F0B
330
7F04
100
AcDbEntity
  8
3
 62
     0
440
 16777216
370
    -2
100
AcDbBlockReference
  2
_OPEN
 10
489.7017101294151
 20
1793.022432919999
 30
0.0
 41
30.0
 42
30.0
 43
30.0
 50
90.0
  0
MTEXT
  5
7F0C
330
7F04
100
AcDbEntity
  8
3
 62
     0
440
 16777216
100
AcDbMText
 10
440.4159958437005
 20
1418.022432919999
 30
0.0
 40
45.0
 41
0.0
 46
0.0
 71
     5
 72
     1
  1
\A1;(750)
 11
0.0000000000000001
 21
1.0
 31
0.0
 73
     1
 44
1.0
  0
POINT
  5
7F0D
330
7F04
100
AcDbEntity
  8
DEFPOINTS
 62
     0
440
 16777216
100
AcDbPoint
 10
705.0322354381378
 20
1043.022432919998
 30
0.0
  0
POINT
  5
7F0E
330
7F04
100
AcDbEntity
  8
DEFPOINTS
 62
     0
440
 16777216
100
AcDbPoint
 10
948.5322354381379
 20
1793.022432919998
 30
0.0
  0
POINT
  5
7F0F
330
7F04
100
AcDbEntity
  8
DEFPOINTS
 62
     0
440
 16777216
100
AcDbPoint
 10
489.7017101294151
 20
1793.022432919999
 30
0.0
  0
ENDBLK
  5
7F06
330
7F04
100
AcDbEntity
  8
0
100
AcDbBlockEnd
  0
ENDSEC
  0
SECTION
  2
ENTITIES
  0
LINE
  5
7A8D
330
19
100
AcDbEntity
  8
1
  6
Continuous
100
AcDbLine
 10
1419.532235438138
 20
1274.522432919998
 30
0.0
 11
944.3322354381379
 21
1484.922432919998
 31
0.0
  0
LINE
  5
7A8E
330
19
100
AcDbEntity
  8
1
  6
Continuous
100
AcDbLine
 10
1464.432235438138
 20
1370.622432919998
 30
0.0
 11
998.0322354381378
 21
1600.022432919998
 31
0.0
  0
LINE
  5
7A8F
330
19
100
AcDbEntity
  8
1
  6
Continuous
100
AcDbLine
 10
1000.032235438138
 20
1773.022432919998
 30
0.0
 11
1255.032235438138
 21
1773.022432919998
 31
0.0
  0
ARC
  5
7A90
330
19
100
AcDbEntity
  8
1
  6
Continuous
100
AcDbCircle
 10
995.5322354381378
 20
1568.522432919998
 30
0.0
 40
299.5
100
AcDbArc
 50
259.4
 51
0.0
  0
LINE
  5
7A91
330
19
100
AcDbEntity
  8
1
  6
Continuous
100
AcDbLine
 10
1000.032235438138
 20
1773.022432919998
 30
0.0
 11
1255.032235438138
 21
1773.022432919998
 31
0.0
  0
LINE
  5
7A92
330
19
100
AcDbEntity
  8
1
  6
Continuous
100
AcDbLine
 10
768.0322354381379
 20
3122.450668740926
 30
0.0
 11
1285.032235438138
 21
3122.450668740926
 31
0.0
  0
LINE
  5
7A93
330
19
100
AcDbEntity
  8
1
  6
Continuous
100
AcDbLine
 10
1285.032235438138
 20
2898.450668740926
 30
0.0
 11
768.0322354381379
 21
2898.450668740926
 31
0.0
  0
LINE
  5
7A94
330
19
100
AcDbEntity
  8
1
  6
Continuous
100
AcDbLine
 10
1285.032235438138
 20
2898.450668740926
 30
0.0
 11
970.0322354381381
 21
3122.450668740926
 31
0.0
  0
LINE
  5
7A95
330
19
100
AcDbEntity
  8
1
  6
Continuous
100
AcDbLine
 10
1285.032235438138
 20
3122.450668740926
 30
0.0
 11
970.0322354381381
 21
2898.450668740926
 31
0.0
  0
LINE
  5
7A96
330
19
100
AcDbEntity
  8
1
  6
Continuous
100
AcDbLine
 10
948.5322354381379
 20
1793.022432919998
 30
0.0
 11
1306.532235438138
 21
1793.022432919998
 31
0.0
  0
LINE
  5
7A97
330
19
100
AcDbEntity
  8
1
  6
Continuous
100
AcDbLine
 10
1585.032235438138
 20
1213.022432919998
 30
0.0
 11
735.0322354381378
 21
1213.022432919998
 31
0.0
  0
LINE
  5
7A98
330
19
100
AcDbEntity
  8
1
  6
Continuous
100
AcDbLine
 10
1585.032235438138
 20
1143.022432919998
 30
0.0
 11
735.0322354381378
 21
1143.022432919998
 31
0.0
  0
LINE
  5
7A99
330
19
100
AcDbEntity
  8
1
  6
Continuous
100
AcDbLine
 10
1025.532235438138
 20
1773.022432919998
 30
0.0
 11
1555.532235438138
 21
1423.022432919998
 31
0.0
  0
LINE
  5
7A9A
330
19
100
AcDbEntity
  8
1
  6
Continuous
100
AcDbLine
 10
1429.032235438138
 20
2695.450668740927
 30
0.0
 11
982.032235438138
 21
2695.450668740927
 31
0.0
  0
LINE
  5
7A9B
330
19
100
AcDbEntity
  8
1
  6
Continuous
100
AcDbLine
 10
1555.532235438138
 20
2590.450668740926
 30
0.0
 11
825.5322354381378
 21
2590.450668740926
 31
0.0
  0
LINE
  5
7A9C
330
19
100
AcDbEntity
  8
1
  6
Continuous
100
AcDbLine
 10
1555.532235438138
 20
2675.450668740926
 30
0.0
 11
825.5322354381378
 21
2675.450668740926
 31
0.0
  0
LINE
  5
7A9D
330
19
100
AcDbEntity
  8
1
  6
Continuous
100
AcDbLine
 10
1615.032235438138
 20
1043.022432919998
 30
0.0
 11
705.0322354381378
 21
1043.022432919998
 31
0.0
  0
LINE
  5
7A9E
330
19
100
AcDbEntity
  8
1
  6
Continuous
100
AcDbLine
 10
1615.032235438138
 20
1073.022432919998
 30
0.0
 11
705.0322354381378
 21
1073.022432919998
 31
0.0
  0
ARC
  5
7A9F
330
19
100
AcDbEntity
  8
1
  6
Continuous
100
AcDbCircle
 10
952.0322354381377
 20
1525.022432919998
 30
0.0
 40
215.0
100
AcDbArc
 50
98.59999999999999
 51
190.6
  0
ARC
  5
7AA0
330
19
100
AcDbEntity
  8
1
  6
Continuous
100
AcDbCircle
 10
991.0322354381378
 20
1522.022432919998
 30
0.0
 40
253.0
100
AcDbArc
 50
188.2
 51
258.4
  0
LINE
  5
7AA1
330
19
100
AcDbEntity
  8
1
  6
Continuous
100
AcDbLine
 10
1175.032235438138
 20
1506.522432919998
 30
0.0
 11
765.0322354381378
 21
1506.522432919998
 31
0.0
  0
LINE
  5
7AA2
330
19
100
AcDbEntity
  8
1
  6
Continuous
100
AcDbLine
 10
877.732235438138
 20
1723.022432919998
 30
0.0
 11
765.0322354381378
 21
1628.422432919998
 31
0.0
  0
LINE
  5
7AA3
330
19
100
AcDbEntity
  8
1
  6
Continuous
100
AcDbLine
 10
765.0322354381378
 20
1213.022432919998
 30
0.0
 11
765.0322354381378
 21
1628.422432919998
 31
0.0
  0
LINE
  5
7AA4
330
19
100
AcDbEntity
  8
1
  6
Continuous
100
AcDbLine
 10
705.0322354381378
 20
1043.022432919998
 30
0.0
 11
705.0322354381378
 21
1073.022432919998
 31
0.0
  0
LINE
  5
7AA5
330
19
100
AcDbEntity
  8
1
  6
Continuous
100
AcDbLine
 10
735.0322354381378
 20
1213.022432919998
 30
0.0
 11
735.0322354381378
 21
1143.022432919998
 31
0.0
  0
CIRCLE
  5
7AA6
330
19
100
AcDbEntity
  8
1
  6
Continuous
100
AcDbCircle
 10
970.0322354381379
 20
1543.022432919998
 30
0.0
 40
157.5
  0
CIRCLE
  5
7AA7
330
19
100
AcDbEntity
  8
1
  6
Continuous
100
AcDbCircle
 10
970.0322354381379
 20
1543.022432919998
 30
0.0
 40
182.5
  0
LINE
  5
7AA8
330
19
100
AcDbEntity
  8
1
  6
Continuous
100
AcDbLine
 10
1175.032235438138
 20
1213.022432919998
 30
0.0
 11
1175.032235438138
 21
1628.422432919998
 31
0.0
  0
LINE
  5
7AA9
330
19
100
AcDbEntity
  8
1
  6
Continuous
100
AcDbLine
 10
825.5322354381378
 20
1643.022432919998
 30
0.0
 11
825.5322354381378
 21
1203.522432919998
 31
0.0
  0
LINE
  5
7AAA
330
19
100
AcDbEntity
  8
2
  6
CENTER
100
AcDbLine
 10
2578.920684079394
 20
1543.022432919998
 30
0.0
 11
2015.111983772181
 21
1543.022432919998
 31
0.0
  0
LINE
  5
7AAB
330
19
100
AcDbEntity
  8
1
  6
Continuous
100
AcDbLine
 10
1062.332235438138
 20
1723.022432919998
 30
0.0
 11
877.732235438138
 21
1723.022432919998
 31
0.0
  0
CIRCLE
  5
7AAC
330
19
100
AcDbEntity
  8
1
  6
Continuous
100
AcDbCircle
 10
970.0322354381379
 20
1543.022432919998
 30
0.0
 40
63.5
  0
LINE
  5
7AAD
330
19
100
AcDbEntity
  8
1
  6
Continuous
100
AcDbLine
 10
825.5322354381378
 20
1643.022432919998
 30
0.0
 11
1025.532235438138
 21
1773.022432919998
 31
0.0
  0
LINE
  5
7AAE
330
19
100
AcDbEntity
  8
1
  6
Continuous
100
AcDbLine
 10
980.0322354381378
 20
1793.022432919998
 30
0.0
 11
1000.032235438138
 21
1773.022432919998
 31
0.0
  0
LINE
  5
7AAF
330
19
100
AcDbEntity
  8
2
  6
CENTER
100
AcDbLine
 10
970.0322354381379
 20
1043.022432919998
 30
0.0
 11
970.0322354381379
 21
1835.416387919998
 31
0.0
  0
ARC
  5
7AB0
330
19
100
AcDbEntity
  8
1
  6
Continuous
100
AcDbCircle
 10
893.0322354381377
 20
1811.022432919998
 30
0.0
 40
78.0
100
AcDbArc
 50
288.8
 51
331.0
  0
LINE
  5
7AB1
330
19
100
AcDbEntity
  8
1
  6
Continuous
100
AcDbLine
 10
961.1322354381382
 20
1773.022432919998
 30
0.0
 11
970.0322354381379
 21
1773.022432919998
 31
0.0
  0
LINE
  5
7AB2
330
19
100
AcDbEntity
  8
1
  6
Continuous
100
AcDbLine
 10
970.0322354381379
 20
1773.022432919998
 30
0.0
 11
970.0322354381379
 21
1793.022432919998
 31
0.0
  0
LINE
  5
7AB3
330
19
100
AcDbEntity
  8
1
  6
Continuous
100
AcDbLine
 10
1062.332235438138
 20
1723.022432919998
 30
0.0
 11
1175.032235438138
 21
1628.422432919998
 31
0.0
  0
LINE
  5
7AB4
330
19
100
AcDbEntity
  8
1
  6
Continuous
100
AcDbLine
 10
765.0322354381379
 20
2888.650668740926
 30
0.0
 11
1175.032235438138
 21
2888.650668740926
 31
0.0
  0
LINE
  5
7AB5
330
19
100
AcDbEntity
  8
1
  6
Continuous
100
AcDbLine
 10
958.032235438138
 20
2695.450668740927
 30
0.0
 11
705.0322354381379
 21
2695.450668740927
 31
0.0
  0
LINE
  5
7AB6
330
19
100
AcDbEntity
  8
1
  6
Continuous
100
AcDbLine
 10
958.032235438138
 20
2725.450668740926
 30
0.0
 11
765.0322354381379
 21
2725.450668740926
 31
0.0
  0
LINE
  5
7AB7
330
19
100
AcDbEntity
  8
1
  6
Continuous
100
AcDbLine
 10
748.0322354381379
 20
3102.450668740926
 30
0.0
 11
748.0322354381379
 21
2918.450668740926
 31
0.0
  0
LINE
  5
7AB8
330
19
100
AcDbEntity
  8
1
  6
Continuous
100
AcDbLine
 10
705.0322354381379
 20
2695.450668740927
 30
0.0
 11
705.0322354381379
 21
3010.450668740926
 31
0.0
  0
ARC
  5
7AB9
330
19
100
AcDbEntity
  8
1
  6
Continuous
100
AcDbCircle
 10
768.0322354381379
 20
2918.450668740926
 30
0.0
 40
20.0
100
AcDbArc
 50
180.0
 51
270.0
  0
LINE
  5
7ABA
330
19
100
AcDbEntity
  8
1
  6
Continuous
100
AcDbLine
 10
705.0322354381379
 20
3010.450668740926
 30
0.0
 11
748.0322354381379
 21
3010.450668740926
 31
0.0
  0
LINE
  5
7ABB
330
19
100
AcDbEntity
  8
1
  6
Continuous
100
AcDbLine
 10
765.0322354381379
 20
2725.450668740926
 30
0.0
 11
765.0322354381379
 21
2888.650668740926
 31
0.0
  0
ARC
  5
7ABC
330
19
100
AcDbEntity
  8
1
  6
Continuous
100
AcDbCircle
 10
768.0322354381379
 20
3102.450668740926
 30
0.0
 40
20.0
100
AcDbArc
 50
90.0
 51
180.0
  0
LINE
  5
7ABD
330
19
100
AcDbEntity
  8
1
  6
Continuous
100
AcDbLine
 10
970.0322354381381
 20
3122.450668740926
 30
0.0
 11
970.0322354381381
 21
2898.450668740926
 31
0.0
  0
LINE
  5
7ABE
330
19
100
AcDbEntity
  8
1
  6
Continuous
100
AcDbLine
 10
1152.532235438138
 20
2888.450668740926
 30
0.0
 11
787.5322354381379
 21
2888.450668740926
 31
0.0
  0
LINE
  5
7ABF
330
19
100
AcDbEntity
  8
1
  6
Continuous
100
AcDbLine
 10
906.5322354381379
 20
2651.950668740926
 30
0.0
 11
1033.532235438138
 21
2651.950668740926
 31
0.0
  0
LINE
  5
7AC0
330
19
100
AcDbEntity
  8
1
  6
Continuous
100
AcDbLine
 10
1033.532235438138
 20
2616.950668740927
 30
0.0
 11
906.5322354381379
 21
2616.950668740927
 31
0.0
  0
LINE
  5
7AC1
330
19
100
AcDbEntity
  8
1
  6
Continuous
100
AcDbLine
 10
1175.032235438138
 20
2725.450668740926
 30
0.0
 11
982.032235438138
 21
2725.450668740926
 31
0.0
  0
LINE
  5
7AC2
330
19
100
AcDbEntity
  8
1
  6
Continuous
100
AcDbLine
 10
982.032235438138
 20
2888.650668740926
 30
0.0
 11
982.032235438138
 21
2651.950668740926
 31
0.0
  0
LINE
  5
7AC3
330
19
100
AcDbEntity
  8
1
  6
Continuous
100
AcDbLine
 10
958.032235438138
 20
2888.650668740926
 30
0.0
 11
958.032235438138
 21
2651.950668740926
 31
0.0
  0
LINE
  5
7AC4
330
19
100
AcDbEntity
  8
1
  6
Continuous
100
AcDbLine
 10
825.5322354381378
 20
2675.450668740926
 30
0.0
 11
825.5322354381378
 21
2590.450668740926
 31
0.0
  0
LINE
  5
7AC5
330
19
100
AcDbEntity
  8
1
  6
Continuous
100
AcDbLine
 10
906.5322354381379
 20
2616.950668740927
 30
0.0
 11
906.5322354381379
 21
2651.950668740926
 31
0.0
  0
LINE
  5
7AC6
330
19
100
AcDbEntity
  8
1
  6
Continuous
100
AcDbLine
 10
787.5322354381379
 20
2888.450668740926
 30
0.0
 11
787.5322354381379
 21
2898.450668740926
 31
0.0
  0
LINE
  5
7AC7
330
19
100
AcDbEntity
  8
1
  6
Continuous
100
AcDbLine
 10
1033.532235438138
 20
2651.950668740926
 30
0.0
 11
1033.532235438138
 21
2616.950668740927
 31
0.0
  0
LINE
  5
7AC8
330
19
100
AcDbEntity
  8
1
  6
Continuous
100
AcDbLine
 10
1152.532235438138
 20
2888.450668740926
 30
0.0
 11
1152.532235438138
 21
2898.450668740926
 31
0.0
  0
LINE
  5
7AC9
330
19
100
AcDbEntity
  8
1
  6
Continuous
100
AcDbLine
 10
1175.032235438138
 20
2725.450668740926
 30
0.0
 11
1175.032235438138
 21
2888.650668740926
 31
0.0
  0
LINE
  5
7ACA
330
19
100
AcDbEntity
  8
1
  6
Continuous
100
AcDbLine
 10
787.5322354381379
 20
3131.450668740927
 30
0.0
 11
1152.532235438138
 21
3131.450668740927
 31
0.0
  0
LINE
  5
7ACB
330
19
100
AcDbEntity
  8
1
  6
Continuous
100
AcDbLine
 10
787.5322354381379
 20
3131.450668740927
 30
0.0
 11
787.5322354381379
 21
3122.450668740926
 31
0.0
  0
LINE
  5
7ACC
330
19
100
AcDbEntity
  8
1
  6
Continuous
100
AcDbLine
 10
1152.532235438138
 20
3131.450668740927
 30
0.0
 11
1152.532235438138
 21
3122.450668740926
 31
0.0
  0
ARC
  5
7ACD
330
19
100
AcDbEntity
  8
1
  6
Continuous
100
AcDbCircle
 10
1441.032235438138
 20
1323.022432919998
 30
0.0
 40
101.0
100
AcDbArc
 50
322.9
 51
217.1
  0
LINE
  5
7ACE
330
19
100
AcDbEntity
  8
1
  6
Continuous
100
AcDbLine
 10
1555.532235438138
 20
1423.022432919998
 30
0.0
 11
1555.532235438138
 21
1213.022432919998
 31
0.0
  0
LINE
  5
7ACF
330
19
100
AcDbEntity
  8
1
  6
Continuous
100
AcDbLine
 10
1555.032235438138
 20
1233.022432919998
 30
0.0
 11
1240.032235438138
 21
1233.022432919998
 31
0.0
  0
CIRCLE
  5
7AD0
330
19
100
AcDbEntity
  8
1
  6
Continuous
100
AcDbCircle
 10
1441.032235438138
 20
1323.022432919998
 30
0.0
 40
53.0
  0
LINE
  5
7AD1
330
19
100
AcDbEntity
  8
2
  6
CENTER
100
AcDbLine
 10
1494.032235438138
 20
1323.022432919998
 30
0.0
 11
1388.032235438138
 21
1323.022432919998
 31
0.0
  0
LINE
  5
7AD2
330
19
100
AcDbEntity
  8
1
  6
Continuous
100
AcDbLine
 10
1240.032235438138
 20
1213.022432919998
 30
0.0
 11
1240.032235438138
 21
1233.022432919998
 31
0.0
  0
LINE
  5
7AD3
330
19
100
AcDbEntity
  8
1
  6
Continuous
100
AcDbLine
 10
1349.132235438138
 20
1233.022432919998
 30
0.0
 11
1360.532235438138
 21
1262.022432919998
 31
0.0
  0
LINE
  5
7AD4
330
19
100
AcDbEntity
  8
1
  6
Continuous
100
AcDbLine
 10
1615.032235438138
 20
1043.022432919998
 30
0.0
 11
1615.032235438138
 21
1073.022432919998
 31
0.0
  0
LINE
  5
7AD5
330
19
100
AcDbEntity
  8
2
  6
CENTER
100
AcDbLine
 10
1441.032235438138
 20
1270.022432919998
 30
0.0
 11
1441.032235438138
 21
1376.022432919998
 31
0.0
  0
LINE
  5
7AD6
330
19
100
AcDbEntity
  8
1
  6
Continuous
100
AcDbLine
 10
1532.932235438138
 20
1233.022432919998
 30
0.0
 11
1521.532235438138
 21
1262.022432919998
 31
0.0
  0
LINE
  5
7AD7
330
19
100
AcDbEntity
  8
1
  6
Continuous
100
AcDbLine
 10
1585.032235438138
 20
1213.022432919998
 30
0.0
 11
1585.032235438138
 21
1143.022432919998
 31
0.0
  0
LINE
  5
7AD8
330
19
100
AcDbEntity
  8
1
  6
Continuous
100
AcDbLine
 10
1555.032235438138
 20
1213.022432919998
 30
0.0
 11
1555.032235438138
 21
1233.022432919998
 31
0.0
  0
LINE
  5
7AD9
330
19
100
AcDbEntity
  8
1
  6
Continuous
100
AcDbLine
 10
1295.032235438138
 20
1773.022432919998
 30
0.0
 11
1295.032235438138
 21
1568.522432919998
 31
0.0
  0
LINE
  5
7ADA
330
19
100
AcDbEntity
  8
1
  6
Continuous
100
AcDbLine
 10
1285.032235438138
 20
1773.022432919998
 30
0.0
 11
1295.032235438138
 21
1773.022432919998
 31
0.0
  0
LINE
  5
7ADB
330
19
100
AcDbEntity
  8
1
  6
Continuous
100
AcDbLine
 10
1285.032235438138
 20
1793.022432919998
 30
0.0
 11
1285.032235438138
 21
1773.022432919998
 31
0.0
  0
LINE
  5
7ADC
330
19
100
AcDbEntity
  8
1
  6
Continuous
100
AcDbLine
 10
1275.032235438138
 20
1793.022432919998
 30
0.0
 11
1255.032235438138
 21
1773.022432919998
 31
0.0
  0
LINE
  5
7ADD
330
19
100
AcDbEntity
  8
1
  6
Continuous
100
AcDbLine
 10
1285.032235438138
 20
3122.450668740926
 30
0.0
 11
1285.032235438138
 21
2898.450668740926
 31
0.0
  0
LINE
  5
7ADE
330
19
100
AcDbEntity
  8
1
  6
Continuous
100
AcDbLine
 10
1285.032235438138
 20
3010.450668740926
 30
0.0
 11
1615.032235438138
 21
3010.450668740926
 31
0.0
  0
LINE
  5
7ADF
330
19
100
AcDbEntity
  8
1
  6
Continuous
100
AcDbLine
 10
1340.032235438138
 20
2711.950668740926
 30
0.0
 11
1531.032235438138
 21
2711.950668740926
 31
0.0
  0
LINE
  5
7AE0
330
19
100
AcDbEntity
  8
1
  6
Continuous
100
AcDbLine
 10
1340.032235438138
 20
2983.950668740926
 30
0.0
 11
1531.032235438138
 21
2983.950668740926
 31
0.0
  0
LINE
  5
7AE1
330
19
100
AcDbEntity
  8
1
  6
Continuous
100
AcDbLine
 10
1504.532235438138
 20
2616.950668740927
 30
0.0
 11
1377.532235438138
 21
2616.950668740927
 31
0.0
  0
LINE
  5
7AE2
330
19
100
AcDbEntity
  8
1
  6
Continuous
100
AcDbLine
 10
1377.532235438138
 20
2651.950668740926
 30
0.0
 11
1504.532235438138
 21
2651.950668740926
 31
0.0
  0
LINE
  5
7AE3
330
19
100
AcDbEntity
  8
1
  6
Continuous
100
AcDbLine
 10
1340.032235438138
 20
2711.950668740926
 30
0.0
 11
1340.032235438138
 21
2983.950668740926
 31
0.0
  0
LINE
  5
7AE4
330
19
100
AcDbEntity
  8
1
  6
Continuous
100
AcDbLine
 10
1377.532235438138
 20
2616.950668740927
 30
0.0
 11
1377.532235438138
 21
2651.950668740926
 31
0.0
  0
LINE
  5
7AE5
330
19
100
AcDbEntity
  8
1
  6
Continuous
100
AcDbLine
 10
1531.032235438138
 20
2983.950668740926
 30
0.0
 11
1531.032235438138
 21
2711.950668740926
 31
0.0
  0
LINE
  5
7AE6
330
19
100
AcDbEntity
  8
1
  6
Continuous
100
AcDbLine
 10
1615.032235438138
 20
2695.450668740927
 30
0.0
 11
1615.032235438138
 21
3010.450668740926
 31
0.0
  0
LINE
  5
7AE7
330
19
100
AcDbEntity
  8
1
  6
Continuous
100
AcDbLine
 10
1615.032235438138
 20
2695.450668740927
 30
0.0
 11
1453.032235438138
 21
2695.450668740927
 31
0.0
  0
LINE
  5
7AE8
330
19
100
AcDbEntity
  8
1
  6
Continuous
100
AcDbLine
 10
1429.032235438138
 20
2651.950668740926
 30
0.0
 11
1429.032235438138
 21
2711.950668740926
 31
0.0
  0
LINE
  5
7AE9
330
19
100
AcDbEntity
  8
1
  6
Continuous
100
AcDbLine
 10
1453.032235438138
 20
2651.950668740926
 30
0.0
 11
1453.032235438138
 21
2711.950668740926
 31
0.0
  0
LINE
  5
7AEA
330
19
100
AcDbEntity
  8
1
  6
Continuous
100
AcDbLine
 10
1429.032235438138
 20
2616.950668740927
 30
0.0
 11
1453.032235438138
 21
2616.950668740927
 31
0.0
  0
LINE
  5
7AEB
330
19
100
AcDbEntity
  8
1
  6
Continuous
100
AcDbLine
 10
1504.532235438138
 20
2651.950668740926
 30
0.0
 11
1504.532235438138
 21
2616.950668740927
 31
0.0
  0
LINE
  5
7AEC
330
19
100
AcDbEntity
  8
1
  6
Continuous
100
AcDbLine
 10
1555.532235438138
 20
2675.450668740926
 30
0.0
 11
1555.532235438138
 21
2590.450668740926
 31
0.0
  0
LINE
  5
7AED
330
19
100
AcDbEntity
  8
1
  6
Continuous
100
AcDbLine
 10
2072.207381158927
 20
1530.622432919998
 30
0.0
 11
2180.807381158928
 21
1530.622432919998
 31
0.0
  0
LINE
  5
7AEE
330
19
100
AcDbEntity
  8
1
  6
Continuous
100
AcDbLine
 10
2072.207381158927
 20
1555.622432919998
 30
0.0
 11
2213.207381158927
 21
1555.622432919998
 31
0.0
  0
LINE
  5
7AEF
330
19
100
AcDbEntity
  8
1
  6
Continuous
100
AcDbLine
 10
2072.207381158927
 20
1335.122432919998
 30
0.0
 11
2146.207381158927
 21
1335.122432919998
 31
0.0
  0
LINE
  5
7AF0
330
19
100
AcDbEntity
  8
1
  6
Continuous
100
AcDbLine
 10
2072.207381158927
 20
1311.122432919998
 30
0.0
 11
2146.207381158927
 21
1311.122432919998
 31
0.0
  0
LINE
  5
7AF1
330
19
100
AcDbEntity
  8
1
  6
Continuous
100
AcDbLine
 10
2097.207381158927
 20
1213.122432919998
 30
0.0
 11
2097.207381158927
 21
1773.022432919998
 31
0.0
  0
LINE
  5
7AF2
330
19
100
AcDbEntity
  8
1
  6
Continuous
100
AcDbLine
 10
2012.207381158928
 20
1213.122432919998
 30
0.0
 11
2012.207381158928
 21
1773.022432919998
 31
0.0
  0
LINE
  5
7AF6
330
19
100
AcDbEntity
  8
1
  6
Continuous
100
AcDbLine
 10
2037.207381158927
 20
1386.622432919998
 30
0.0
 11
2037.207381158927
 21
1259.622432919998
 31
0.0
  0
LINE
  5
7AF7
330
19
100
AcDbEntity
  8
1
  6
Continuous
100
AcDbLine
 10
2072.207381158927
 20
1386.622432919998
 30
0.0
 11
2037.207381158927
 21
1386.622432919998
 31
0.0
  0
LINE
  5
7AF8
330
19
100
AcDbEntity
  8
1
  6
Continuous
100
AcDbLine
 10
2072.207381158927
 20
1259.622432919998
 30
0.0
 11
2072.207381158927
 21
1386.622432919998
 31
0.0
  0
LINE
  5
7AF9
330
19
100
AcDbEntity
  8
1
  6
Continuous
100
AcDbLine
 10
2037.207381158927
 20
1259.622432919998
 30
0.0
 11
2072.207381158927
 21
1259.622432919998
 31
0.0
  0
LINE
  5
7AFA
330
19
100
AcDbEntity
  8
1
  6
Continuous
100
AcDbLine
 10
2012.207381158928
 20
1213.122432919998
 30
0.0
 11
2097.207381158927
 21
1213.122432919998
 31
0.0
  0
LINE
  5
7AFB
330
19
100
AcDbEntity
  8
1
  6
Continuous
100
AcDbLine
 10
2037.207381158927
 20
1479.622432919998
 30
0.0
 11
2072.207381158927
 21
1479.622432919998
 31
0.0
  0
LINE
  5
7AFC
330
19
100
AcDbEntity
  8
1
  6
Continuous
100
AcDbLine
 10
2072.207381158927
 20
1479.622432919998
 30
0.0
 11
2072.207381158927
 21
1606.622432919998
 31
0.0
  0
LINE
  5
7AFD
330
19
100
AcDbEntity
  8
1
  6
Continuous
100
AcDbLine
 10
2072.207381158927
 20
1606.622432919998
 30
0.0
 11
2037.207381158927
 21
1606.622432919998
 31
0.0
  0
LINE
  5
7AFE
330
19
100
AcDbEntity
  8
1
  6
Continuous
100
AcDbLine
 10
2037.207381158927
 20
1606.622432919998
 30
0.0
 11
2037.207381158927
 21
1479.622432919998
 31
0.0
  0
LINE
  5
7AFF
330
19
100
AcDbEntity
  8
1
  6
Continuous
100
AcDbLine
 10
2012.207381158928
 20
1773.022432919998
 30
0.0
 11
2097.207381158927
 21
1773.022432919998
 31
0.0
  0
LINE
  5
7B00
330
19
100
AcDbEntity
  8
1
  6
Continuous
100
AcDbLine
 10
2299.207381158927
 20
1793.022432919998
 30
0.0
 11
2565.207381158927
 21
1793.022432919998
 31
0.0
  0
LINE
  5
7B01
330
19
100
AcDbEntity
  8
1
  6
Continuous
100
AcDbLine
 10
2553.207381158927
 20
1360.522432919998
 30
0.0
 11
2544.207381158927
 21
1360.522432919998
 31
0.0
  0
ARC
  5
7B02
330
19
100
AcDbEntity
  8
1
  6
Continuous
100
AcDbCircle
 10
2524.207381158927
 20
1275.022432919998
 30
0.0
 40
20.0
100
AcDbArc
 50
270.0
 51
0.0
  0
LINE
  5
7B03
330
19
100
AcDbEntity
  8
1
  6
Continuous
100
AcDbLine
 10
2553.207381158927
 20
1725.522432919999
 30
0.0
 11
2545.007381158927
 21
1725.522432919999
 31
0.0
  0
LINE
  5
7B04
330
19
100
AcDbEntity
  8
1
  6
Continuous
100
AcDbLine
 10
2146.207381158927
 20
1504.022432919998
 30
0.0
 11
2146.207381158927
 21
1213.022432919998
 31
0.0
  0
LINE
  5
7B05
330
19
100
AcDbEntity
  8
1
  6
Continuous
100
AcDbLine
 10
2310.207381158927
 20
1725.622432919998
 30
0.0
 11
2310.207381158927
 21
1213.022432919998
 31
0.0
  0
LINE
  5
7B06
330
19
100
AcDbEntity
  8
1
  6
Continuous
100
AcDbLine
 10
2310.207381158927
 20
1360.522432919998
 30
0.0
 11
2310.207381158927
 21
1725.522432919999
 31
0.0
  0
LINE
  5
7B07
330
19
100
AcDbEntity
  8
1
  6
Continuous
100
AcDbLine
 10
2320.207381158927
 20
1275.022432919998
 30
0.0
 11
2320.207381158927
 21
1793.022432919998
 31
0.0
  0
LINE
  5
7B08
330
19
100
AcDbEntity
  8
1
  6
Continuous
100
AcDbLine
 10
2544.207381158927
 20
1793.022432919998
 30
0.0
 11
2544.207381158927
 21
1275.022432919998
 31
0.0
  0
LINE
  5
7B09
330
19
100
AcDbEntity
  8
1
  6
Continuous
100
AcDbLine
 10
2117.207381158927
 20
1043.022432919998
 30
0.0
 11
2432.207381158927
 21
1043.022432919998
 31
0.0
  0
LINE
  5
7B0A
330
19
100
AcDbEntity
  8
1
  6
Continuous
100
AcDbLine
 10
2117.207381158927
 20
1073.022432919998
 30
0.0
 11
2432.207381158927
 21
1073.022432919998
 31
0.0
  0
LINE
  5
7B0B
330
19
100
AcDbEntity
  8
1
  6
Continuous
100
AcDbLine
 10
2117.007381158927
 20
1143.022432919998
 30
0.0
 11
2432.007381158928
 21
1143.022432919998
 31
0.0
  0
LINE
  5
7B0C
330
19
100
AcDbEntity
  8
1
  6
Continuous
100
AcDbLine
 10
2432.007381158928
 20
1213.022432919998
 30
0.0
 11
2117.007381158927
 21
1213.022432919998
 31
0.0
  0
ARC
  5
7B0D
330
19
100
AcDbEntity
  8
1
  6
Continuous
100
AcDbCircle
 10
2340.207381158927
 20
1275.022432919998
 30
0.0
 40
20.0
100
AcDbArc
 50
180.0
 51
270.0
  0
LINE
  5
7B0E
330
19
100
AcDbEntity
  8
1
  6
Continuous
100
AcDbLine
 10
2117.207381158927
 20
1073.022432919998
 30
0.0
 11
2117.207381158927
 21
1043.022432919998
 31
0.0
  0
LINE
  5
7B0F
330
19
100
AcDbEntity
  8
1
  6
Continuous
100
AcDbLine
 10
2117.007381158927
 20
1213.022432919998
 30
0.0
 11
2117.007381158927
 21
1143.022432919998
 31
0.0
  0
LINE
  5
7B10
330
19
100
AcDbEntity
  8
1
  6
Continuous
100
AcDbLine
 10
2310.207381158927
 20
1360.522432919998
 30
0.0
 11
2319.407381158927
 21
1360.522432919998
 31
0.0
  0
LINE
  5
7B11
330
19
100
AcDbEntity
  8
1
  6
Continuous
100
AcDbLine
 10
2432.207381158927
 20
1043.022432919998
 30
0.0
 11
2432.207381158927
 21
1073.022432919998
 31
0.0
  0
LINE
  5
7B12
330
19
100
AcDbEntity
  8
1
  6
Continuous
100
AcDbLine
 10
2340.207381158927
 20
1255.022432919998
 30
0.0
 11
2524.207381158927
 21
1255.022432919998
 31
0.0
  0
LINE
  5
7B13
330
19
100
AcDbEntity
  8
1
  6
Continuous
100
AcDbLine
 10
2432.007381158928
 20
1143.022432919998
 30
0.0
 11
2432.007381158928
 21
1213.022432919998
 31
0.0
  0
LINE
  5
7B14
330
19
100
AcDbEntity
  8
1
  6
Continuous
100
AcDbLine
 10
2310.207381158927
 20
1630.222432919998
 30
0.0
 11
2146.207381158927
 21
1504.022432919998
 31
0.0
  0
LINE
  5
7B15
330
19
100
AcDbEntity
  8
1
  6
Continuous
100
AcDbLine
 10
2310.207381158927
 20
1725.522432919999
 30
0.0
 11
2319.407381158927
 21
1725.522432919999
 31
0.0
  0
LINE
  5
7B16
330
19
100
AcDbEntity
  8
1
  6
Continuous
100
AcDbLine
 10
2349.207381158927
 20
1773.022432919998
 30
0.0
 11
2515.207381158927
 21
1773.022432919998
 31
0.0
  0
LINE
  5
7B17
330
19
100
AcDbEntity
  8
1
  6
Continuous
100
AcDbLine
 10
2329.207381158927
 20
1793.022432919998
 30
0.0
 11
2349.207381158927
 21
1773.022432919998
 31
0.0
  0
LINE
  5
7B18
330
19
100
AcDbEntity
  8
1
  6
Continuous
100
AcDbLine
 10
2535.207381158927
 20
1793.022432919998
 30
0.0
 11
2515.207381158927
 21
1773.022432919998
 31
0.0
  0
LINE
  5
7B19
330
19
100
AcDbEntity
  8
1
  6
Continuous
100
AcDbLine
 10
2553.207381158927
 20
1725.522432919999
 30
0.0
 11
2553.207381158927
 21
1360.522432919998
 31
0.0
  0
LINE
  5
7B1A
330
19
100
AcDbEntity
  8
4
  6
Continuous
100
AcDbLine
 10
2775.0
 20
750.0
 30
0.0
 11
2775.0
 21
450.0
 31
0.0
  0
LINE
  5
7B1B
330
19
100
AcDbEntity
  8
4
  6
Continuous
100
AcDbLine
 10
1725.0
 20
750.0
 30
0.0
 11
1725.0
 21
450.0
 31
0.0
  0
LINE
  5
7B1C
330
19
100
AcDbEntity
  8
4
  6
Continuous
100
AcDbLine
 10
975.0
 20
750.0
 30
0.0
 11
975.0
 21
450.0
 31
0.0
  0
LINE
  5
7B1F
330
19
100
AcDbEntity
  8
4
  6
Continuous
100
AcDbLine
 10
975.0
 20
450.0
 30
0.0
 11
2775.0
 21
450.0
 31
0.0
  0
LINE
  5
7B20
330
19
100
AcDbEntity
  8
4
  6
Continuous
100
AcDbLine
 10
975.0
 20
600.0
 30
0.0
 11
2775.0
 21
600.0
 31
0.0
  0
TEXT
  5
7B21
330
19
100
AcDbEntity
  8
4
  6
Continuous
100
AcDbText
 10
1032.753121
 20
647.3145389999999
 30
0.0
 40
75.0
  1
機器名称
100
AcDbText
  0
TEXT
  5
7B22
330
19
100
AcDbEntity
  8
4
  6
Continuous
100
AcDbText
 10
1029.387159
 20
482.4677349999999
 30
0.0
 40
75.0
  1
機器型番
100
AcDbText
  0
TEXT
  5
7B23
330
19
100
AcDbEntity
  8
4
  6
Continuous
100
AcDbText
 10
1766.518118
 20
633.857653
 30
0.0
 40
65.0
  1
ミツヤニューマルチファン
100
AcDbText
  0
TEXT
  5
7B24
330
19
100
AcDbEntity
  8
4
  6
Continuous
100
AcDbText
 10
1779.981743
 20
475.739376
 30
0.0
 40
75.0
  1
NM#2-1
100
AcDbText
  0
TEXT
  5
7B26
330
19
100
AcDbEntity
  8
4
  6
Continuous
100
AcDbText
 10
1131.744376
 20
3575.143262
 30
0.0
 40
81.0
  1
床置防振ベット
100
AcDbText
  0
TEXT
  5
7B27
330
19
100
AcDbEntity
  8
4
  6
Continuous
100
AcDbText
 10
474.25139
 20
3800.821464
 30
0.0
 40
108.0
  1
ベルト駆動式片吸込片持多翼ファン
100
AcDbText
  0
LINE
  5
7B28
330
19
100
AcDbEntity
  8
4
  6
Continuous
100
AcDbLine
 10
375.0
 20
3704.113131000001
 30
0.0
 11
2775.0
 21
3704.113131000001
 31
0.0
  0
LINE
  5
7B29
330
19
100
AcDbEntity
  8
4
  6
Continuous
100
AcDbLine
 10
375.0
 20
4004.113131
 30
0.0
 11
2775.0
 21
4004.113131
 31
0.0
  0
LINE
  5
7B2A
330
19
100
AcDbEntity
  8
4
  6
Continuous
100
AcDbLine
 10
975.0
 20
750.0
 30
0.0
 11
2775.0
 21
750.0
 31
0.0
  0
LINE
  5
7B2B
330
19
100
AcDbEntity
  8
4
  6
Continuous
100
AcDbLine
 10
375.0
 20
4004.113131
 30
0.0
 11
375.0
 21
3704.113131000001
 31
0.0
  0
TEXT
  5
7B2C
330
19
100
AcDbEntity
  8
4
  6
Continuous
100
AcDbText
 10
477.956128
 20
3573.479216
 30
0.0
 40
81.0
  1
左回転上向
100
AcDbText
  0
TEXT
  5
7B2D
330
19
100
AcDbEntity
  8
4
  6
Continuous
100
AcDbText
 10
2203.454339
 20
4059.091621999999
 30
0.0
 40
84.0
  1
No.
100
AcDbText
  0
TEXT
  5
7B2E
330
19
100
AcDbEntity
  8
4
  6
Continuous
100
AcDbText
 10
1966.944094
 20
3575.143262
 30
0.0
 40
81.0
  1
縮尺：1/15
100
AcDbText
  0
LINE
  5
7B2F
330
19
100
AcDbEntity
  8
4
  6
Continuous
100
AcDbLine
 10
2775.0
 20
4004.113131
 30
0.0
 11
2775.0
 21
3704.113131000001
 31
0.0
  0
LINE
  5
7B31
330
19
100
AcDbEntity
  8
4
  6
Continuous
100
AcDbLine
 10
2160.926134
 20
4021.895375
 30
0.0
 11
2160.926134
 21
4179.978392
 31
0.0
  0
LINE
  5
7B32
330
19
100
AcDbEntity
  8
4
  6
Continuous
100
AcDbLine
 10
2160.926134
 20
4179.978392
 30
0.0
 11
2775.0
 21
4179.978392
 31
0.0
  0
LINE
  5
7B33
330
19
100
AcDbEntity
  8
4
  6
Continuous
100
AcDbLine
 10
2775.0
 20
4179.978392
 30
0.0
 11
2775.0
 21
4021.895375
 31
0.0
  0
LINE
  5
7B34
330
19
100
AcDbEntity
  8
4
  6
Continuous
100
AcDbLine
 10
2775.0
 20
4021.895375
 30
0.0
 11
2160.926134
 21
4021.895375
 31
0.0
  0
DIMENSION
  5
7B4C
330
19
100
AcDbEntity
  8
3
  6
Continuous
100
AcDbDimension
280
     0
  2
*D1
 10
970.0322354381379
 20
937.7864049199983
 30
0.0
 11
839.4213264381377
 21
937.7864049199983
 31
0.0
 70
   160
 71
     5
 42
265.0
 73
     0
 74
     0
 75
     0
  3
IGA
100
AcDbAlignedDimension
 13
705.0322354381378
 23
1043.022432919998
 33
0.0
 14
970.0322354381379
 24
996.9323629199985
 34
0.0
100
AcDbRotatedDimension
1001
ACAD
1000
DSTYLE
1002
{
1070
   287
1070
     3
1070
    40
1040
15.0
1070
   143
1040
0.039
1070
   172
1070
     1
1070
   271
1070
     0
1070
   279
1070
     0
1070
   288
1070
     1
1002
}
  0
DIMENSION
  5
7BB5
330
19
100
AcDbEntity
  8
3
  6
Continuous
100
AcDbDimension
280
     0
  2
*D2
 10
1285.032235438138
 20
1854.292022919998
 30
0.0
 11
1128.177879438138
 21
1854.292022919998
 31
0.0
 70
   160
 71
     5
 42
-1.0
 73
     0
 74
     0
 75
     0
  3
IGA
100
AcDbAlignedDimension
 13
970.0322354381379
 23
1793.022432919998
 33
0.0
 14
1285.032235438138
 24
1793.022432919998
 34
0.0
100
AcDbRotatedDimension
1001
ACAD
1000
DSTYLE
1002
{
1070
   287
1070
     3
1070
    40
1040
15.0
1070
   143
1040
0.039
1070
   172
1070
     1
1070
   271
1070
     0
1070
   279
1070
     0
1070
   288
1070
     1
1002
}
  0
DIMENSION
  5
7BC2
330
19
100
AcDbEntity
  8
3
  6
Continuous
100
AcDbDimension
280
     0
  2
*D3
 10
970.0322354381379
 20
1943.709891919998
 30
0.0
 11
867.1750924381381
 21
1943.709891919998
 31
0.0
 70
   160
 71
     5
 42
-1.0
 73
     0
 74
     0
 75
     0
  3
IGA
100
AcDbAlignedDimension
 13
737.7870494381381
 23
1543.022432919998
 33
0.0
 14
970.0322354381379
 24
1793.022432919998
 34
0.0
100
AcDbRotatedDimension
1001
ACAD
1000
DSTYLE
1002
{
1070
   287
1070
     3
1070
    40
1040
15.0
1070
   143
1040
0.039
1070
   172
1070
     1
1070
   271
1070
     0
1070
   279
1070
     0
1070
   288
1070
     1
1002
}
  0
DIMENSION
  5
7BCE
330
19
100
AcDbEntity
  8
3
  6
Continuous
100
AcDbDimension
280
     0
  2
*D4
 10
1295.032235438138
 20
1943.709891919998
 30
0.0
 11
1132.532235438138
 21
1981.209891919998
 31
0.0
 70
    32
 71
     5
 42
-1.0
 73
     0
 74
     0
 75
     0
  3
IGA
100
AcDbAlignedDimension
 13
970.0322354381379
 23
1793.022432919998
 33
0.0
 14
1295.032235438138
 24
1773.022432919998
 34
0.0
100
AcDbRotatedDimension
1001
ACAD
1000
DSTYLE
1002
{
1070
   287
1070
     4
1070
    40
1040
15.0
1070
    75
1070
     1
1070
   143
1040
0.039
1070
   172
1070
     1
1070
   271
1070
     0
1070
   279
1070
     1
1070
   288
1070
     1
1002
}
  0
DIMENSION
  5
7BDB
330
19
100
AcDbEntity
  8
3
  6
Continuous
100
AcDbDimension
280
     0
  2
*D5
 10
1615.032235438138
 20
2486.508099740927
 30
0.0
 11
1142.615708438138
 21
2486.508099740927
 31
0.0
 70
   160
 71
     5
 42
-1.0
 73
     0
 74
     0
 75
     0
  3
IGA
100
AcDbAlignedDimension
 13
705.0322354381379
 23
2695.450668740927
 33
0.0
 14
1615.032235438138
 24
2695.450668740927
 34
0.0
100
AcDbRotatedDimension
1001
ACAD
1000
DSTYLE
1002
{
1070
   287
1070
     3
1070
    40
1040
15.0
1070
   143
1040
0.039
1070
   172
1070
     1
1070
   271
1070
     0
1070
   279
1070
     0
1070
   288
1070
     1
1002
}
  0
DIMENSION
  5
7BE8
330
19
100
AcDbEntity
  8
3
  6
Continuous
100
AcDbDimension
280
     0
  2
*D6
 10
1743.229306438138
 20
2695.450668740927
 30
0.0
 11
1743.229306438138
 21
2852.832911740927
 31
0.0
 70
   160
 71
     5
 42
-1.0
 73
     0
 74
     0
 75
     0
  3
IGA
100
AcDbAlignedDimension
 13
1615.032235438138
 23
3010.450668740926
 33
0.0
 14
1615.032235438138
 24
2695.450668740927
 34
0.0
 50
90.0
100
AcDbRotatedDimension
1001
ACAD
1000
DSTYLE
1002
{
1070
   287
1070
     3
1070
    40
1040
15.0
1070
   143
1040
0.039
1070
   172
1070
     1
1070
   271
1070
     0
1070
   279
1070
     0
1070
   288
1070
     1
1002
}
  0
LINE
  5
7BE9
330
19
100
AcDbEntity
  8
2
  6
CENTER
100
AcDbLine
 10
707.606316438138
 20
3010.450668740926
 30
0.0
 11
1341.857707438138
 21
3010.450668740926
 31
0.0
  0
LINE
  5
7BEA
330
19
100
AcDbEntity
  8
2
  6
CENTER
100
AcDbLine
 10
2432.207381158927
 20
1835.863825287308
 30
0.0
 11
2432.207381158927
 21
1065.782040919998
 31
0.0
  0
DIMENSION
  5
7BF7
330
19
100
AcDbEntity
  8
3
  6
Continuous
100
AcDbDimension
280
     0
  2
*D7
 10
2544.207381158927
 20
1842.467262919998
 30
0.0
 11
2424.135952158927
 21
1842.467262919998
 31
0.0
 70
   160
 71
     5
 42
-1.0
 73
     0
 74
     0
 75
     0
  3
IGA
100
AcDbAlignedDimension
 13
2320.207381158927
 23
1793.022432919998
 33
0.0
 14
2544.207381158927
 24
1793.022432919998
 34
0.0
100
AcDbRotatedDimension
1001
ACAD
1000
DSTYLE
1002
{
1070
   287
1070
     3
1070
    40
1040
15.0
1070
   143
1040
0.039
1070
   172
1070
     1
1070
   271
1070
     0
1070
   279
1070
     0
1070
   288
1070
     1
1002
}
  0
DIMENSION
  5
7C04
330
19
100
AcDbEntity
  8
3
  6
Continuous
100
AcDbDimension
280
     0
  2
*D8
 10
2432.207381158927
 20
1937.940994919998
 30
0.0
 11
2235.824830158927
 21
1937.940994919998
 31
0.0
 70
   160
  1
(420)
 71
     5
 42
419.9999999999997
 73
     0
 74
     0
 75
     0
  3
IGA
100
AcDbAlignedDimension
 13
2012.207381158928
 23
1773.022432919998
 33
0.0
 14
2432.207381158927
 24
1907.484910149799
 34
0.0
100
AcDbRotatedDimension
1001
ACAD
1000
DSTYLE
1002
{
1070
   287
1070
     3
1070
    40
1040
15.0
1070
   143
1040
0.039
1070
   172
1070
     1
1070
   271
1070
     0
1070
   279
1070
     0
1070
   288
1070
     1
1002
}
  0
DIMENSION
  5
7C12
330
19
100
AcDbEntity
  8
3
  6
Continuous
100
AcDbDimension
280
     0
  2
*D9
 10
2553.207381158927
 20
1937.940994919998
 30
0.0
 11
2489.930578158928
 21
1937.940994919998
 31
0.0
 70
   160
 71
     5
 42
-1.0
 73
     0
 74
     0
 75
     0
  3
IGA
100
AcDbAlignedDimension
 13
2432.207381158927
 23
1907.484910149799
 33
0.0
 14
2553.207381158927
 24
1725.522432919999
 34
0.0
100
AcDbRotatedDimension
1001
ACAD
1000
DSTYLE
1002
{
1070
   287
1070
     4
1070
    40
1040
15.0
1070
    75
1070
     1
1070
   143
1040
0.039
1070
   172
1070
     1
1070
   271
1070
     0
1070
   279
1070
     1
1070
   288
1070
     1
1002
}
  0
LINE
  5
7C37
330
19
100
AcDbEntity
  8
3
  6
Continuous
100
AcDbLine
 10
2553.207381158927
 20
1385.522432919998
 30
0.0
 11
2567.465014158927
 21
1385.522432919998
 31
0.0
  0
LINE
  5
7C39
330
19
100
AcDbEntity
  8
3
  6
Continuous
100
AcDbLine
 10
2553.207381158927
 20
1700.522432919998
 30
0.0
 11
2566.620055158927
 21
1700.522432919998
 31
0.0
  0
DIMENSION
  5
7C46
330
19
100
AcDbEntity
  8
3
  6
Continuous
100
AcDbDimension
280
     0
  2
*D10
 10
2665.058108158928
 20
1385.522432919998
 30
0.0
 11
2665.058108158927
 21
1539.394202919998
 31
0.0
 70
   160
 71
     5
 42
-1.0
 73
     0
 74
     0
 75
     0
  3
IGA
100
AcDbAlignedDimension
 13
2553.207381158927
 23
1700.522432919998
 33
0.0
 14
2553.207381158927
 24
1385.522432919998
 34
0.0
 50
90.0
100
AcDbRotatedDimension
1001
ACAD
1000
DSTYLE
1002
{
1070
   287
1070
     3
1070
     3
1000
φ<>
1070
    40
1040
15.0
1070
   143
1040
0.039
1070
   172
1070
     1
1070
   271
1070
     0
1070
   279
1070
     0
1070
   288
1070
     1
1002
}
  0
LINE
  5
7C47
330
19
100
AcDbEntity
  8
2
  6
CENTER
100
AcDbLine
 10
1464.097989438138
 20
1543.022432919998
 30
0.0
 11
670.8748034381378
 21
1543.022432919998
 31
0.0
  0
LINE
  5
7C48
330
19
100
AcDbEntity
  8
2
  6
CENTER
100
AcDbLine
 10
970.0322354381381
 20
2569.256566266061
 30
0.0
 11
970.0322354381381
 21
3174.193110740926
 31
0.0
  0
DIMENSION
  5
7C66
330
19
100
AcDbEntity
  8
3
100
AcDbDimension
280
     0
  2
*D11
 10
606.6322566348519
 20
1543.022432919998
 30
0.0
 11
606.6322566348517
 21
1645.879575777141
 31
0.0
 70
   160
 71
     5
 42
-1.0
 73
     0
 74
     0
 75
     0
  3
IGA
100
AcDbAlignedDimension
 13
948.5322354381379
 23
1793.022432919998
 33
0.0
 14
670.8748034381378
 24
1543.022432919998
 34
0.0
 50
90.0
100
AcDbRotatedDimension
1001
ACAD
1000
DSTYLE
1002
{
1070
   287
1070
     3
1070
    40
1040
15.0
1070
   143
1040
0.039
1070
   172
1070
     1
1070
   271
1070
     0
1070
   279
1070
     0
1070
   288
1070
     1
1002
}
  0
DIMENSION
  5
7C72
330
19
100
AcDbEntity
  8
3
100
AcDbDimension
280
     0
  2
*D12
 10
606.6322566348517
 20
1143.022432919998
 30
0.0
 11
569.1322566348516
 21
1343.022432919999
 31
0.0
 70
    32
 71
     5
 42
-1.0
 73
     0
 74
     0
 75
     0
  3
IGA
100
AcDbAlignedDimension
 13
670.8748034381378
 23
1543.022432919998
 33
0.0
 14
735.0322354381378
 24
1143.022432919998
 34
0.0
 50
90.0
100
AcDbRotatedDimension
1001
ACAD
1000
DSTYLE
1002
{
1070
   287
1070
     4
1070
    40
1040
15.0
1070
    75
1070
     1
1070
   143
1040
0.039
1070
   172
1070
     1
1070
   271
1070
     0
1070
   279
1070
     1
1070
   288
1070
     1
1002
}
  0
DIMENSION
  5
7CE9
330
19
100
AcDbEntity
  8
3
100
AcDbDimension
280
     0
  2
*D13
 10
1615.032235438138
 20
937.8585291734998
 30
0.0
 11
1292.532235438138
 21
975.3585291734998
 31
0.0
 70
    32
 71
     5
 42
645.0000000000002
 73
     0
 74
     0
 75
     0
  3
IGA
100
AcDbAlignedDimension
 13
970.0322354381379
 23
1043.022432919998
 33
0.0
 14
1615.032235438138
 24
1043.022432919998
 34
0.0
100
AcDbRotatedDimension
1001
ACAD
1000
DSTYLE
1002
{
1070
   287
1070
     3
1070
    40
1040
15.0
1070
   143
1040
0.039
1070
   172
1070
     1
1070
   271
1070
     0
1070
   279
1070
     0
1002
}
  0
DIMENSION
  5
7CF6
330
19
100
AcDbEntity
  8
3
100
AcDbDimension
280
     0
  2
*D14
 10
2432.207381158927
 20
937.8585291734998
 30
0.0
 11
2274.707381158927
 21
975.3585291734998
 31
0.0
 70
    32
 71
     5
 42
315.0
 73
     0
 74
     0
 75
     0
  3
IGA
100
AcDbAlignedDimension
 13
2117.207381158927
 23
1043.022432919998
 33
0.0
 14
2432.207381158927
 24
1043.022432919998
 34
0.0
100
AcDbRotatedDimension
1001
ACAD
1000
DSTYLE
1002
{
1070
   287
1070
     3
1070
    40
1040
15.0
1070
   143
1040
0.039
1070
   172
1070
     1
1070
   271
1070
     0
1070
   279
1070
     0
1002
}
  0
DIMENSION
  5
7D05
330
19
100
AcDbEntity
  8
3
100
AcDbDimension
280
     0
  2
*D15
 10
606.6758543534273
 20
1043.022432919998
 30
0.0
 11
569.1758543534271
 21
931.5938614914271
 31
0.0
 70
    32
 71
     5
 42
30.0
 73
     0
 74
     0
 75
     0
  3
IGA
100
AcDbAlignedDimension
 13
705.0322354381378
 23
1073.022432919998
 33
0.0
 14
705.0322354381378
 24
1043.022432919998
 34
0.0
 50
90.0
100
AcDbRotatedDimension
1001
ACAD
1000
DSTYLE
1002
{
1070
   343
1005
7E93
1070
   287
1070
     3
1070
    40
1040
15.0
1070
   143
1040
0.039
1070
   172
1070
     1
1070
   271
1070
     0
1070
   279
1070
     0
1002
}
  0
DIMENSION
  5
7D14
330
19
100
AcDbEntity
  8
3
100
AcDbDimension
280
     0
  2
*D16
 10
606.6758543534273
 20
1143.022432919998
 30
0.0
 11
557.4961917761538
 21
1109.52901864198
 31
0.0
 70
   160
 71
     5
 42
70.0
 73
     0
 74
     0
 75
     0
  3
IGA
100
AcDbAlignedDimension
 13
705.0322354381378
 23
1073.022432919998
 33
0.0
 14
735.0322354381378
 24
1143.022432919998
 34
0.0
 50
90.0
100
AcDbRotatedDimension
1001
ACAD
1000
DSTYLE
1002
{
1070
     3
1000
(<>)
1070
    40
1040
15.0
1070
   143
1040
0.039
1070
   172
1070
     1
1070
   271
1070
     0
1070
   343
1005
7E83
1002
}
  0
DIMENSION
  5
7F03
330
19
100
AcDbEntity
  8
3
100
AcDbDimension
280
     0
  2
*D19
 10
489.7017101294151
 20
1793.022432919999
 30
0.0
 11
440.4159958437005
 21
1418.022432919999
 31
0.0
 70
    32
 71
     5
 42
750.0
 73
     0
 74
     0
 75
     0
  3
IGA
100
AcDbAlignedDimension
 13
705.0322354381378
 23
1043.022432919998
 33
0.0
 14
948.5322354381379
 24
1793.022432919998
 34
0.0
 50
90.0
100
AcDbRotatedDimension
1001
ACAD
1000
DSTYLE
1002
{
1070
     3
1000
(<>)
1070
    40
1040
15.0
1070
   143
1040
0.039
1070
   172
1070
     1
1070
   271
1070
     0
1002
}
  0
ENDSEC
  0
SECTION
  2
OBJECTS
  0
DICTIONARY
  5
C
330
0
100
AcDbDictionary
281
     1
  3
ACAD_CIP_PREVIOUS_PRODUCT_INFO
350
7E2F
  3
ACAD_COLOR
350
7E12
  3
ACAD_DETAILVIEWSTYLE
350
7E2B
  3
ACAD_GROUP
350
D
  3
ACAD_LAYOUT
350
7D1D
  3
ACAD_MATERIAL
350
7DE0
  3
ACAD_MLEADERSTYLE
350
7E27
  3
ACAD_MLINESTYLE
350
E
  3
ACAD_PLOTSETTINGS
350
7D1E
  3
ACAD_PLOTSTYLENAME
350
7D1B
  3
ACAD_SCALELIST
350
7E15
  3
ACAD_SECTIONVIEWSTYLE
350
7E29
  3
ACAD_TABLESTYLE
350
7E13
  3
ACAD_VISUALSTYLE
350
7DF9
  3
ACDB_RECOMPOSE_DATA
350
7F22
  3
AcDbVariableDictionary
350
7DD8
  0
DICTIONARY
  5
7E31
330
2
100
AcDbDictionary
280
     1
281
     1
  3
ACAD_LAYERSTATES
360
7E32
  0
DICTIONARY
  5
7EAB
330
F
100
AcDbDictionary
280
     1
281
     1
  3
ADSK_XREC_LAYER_RECONCILED
360
7EAC
  0
DICTIONARY
  5
7EAD
330
31
100
AcDbDictionary
280
     1
281
     1
  3
ADSK_XREC_LAYER_RECONCILED
360
7EAE
  0
DICTIONARY
  5
7EAF
330
76D0
100
AcDbDictionary
280
     1
281
     1
  3
ADSK_XREC_LAYER_RECONCILED
360
7EB0
  0
DICTIONARY
  5
7EB1
330
76D1
100
AcDbDictionary
280
     1
281
     1
  3
ADSK_XREC_LAYER_RECONCILED
360
7EB2
  0
DICTIONARY
  5
7EB3
330
76D2
100
AcDbDictionary
280
     1
281
     1
  3
ADSK_XREC_LAYER_RECONCILED
360
7EB4
  0
DICTIONARY
  5
7D4A
330
19
100
AcDbDictionary
280
     1
281
     1
  3
ACAD_LAYOUTSELFREF
360
7D4B
  0
DICTIONARY
  5
7D48
330
16
100
AcDbDictionary
280
     1
281
     1
  3
ACAD_LAYOUTSELFREF
360
7D49
  0
XRECORD
  5
7E2F
102
{ACAD_REACTORS
330
C
102
}
330
C
100
AcDbXrecord
280
     1
300
ACDLT
300
2015
300
INVLTS_F_S
  0
DICTIONARY
  5
7E12
102
{ACAD_REACTORS
330
C
102
}
330
C
100
AcDbDictionary
281
     1
  0
DICTIONARY
  5
7E2B
102
{ACAD_REACTORS
330
C
102
}
330
C
100
AcDbDictionary
281
     1
  3
Imperial24
350
7E2C
  0
DICTIONARY
  5
D
102
{ACAD_REACTORS
330
C
102
}
330
0
100
AcDbDictionary
281
     1
  0
DICTIONARY
  5
7D1D
102
{ACAD_REACTORS
330
C
102
}
330
C
100
AcDbDictionary
281
     1
  3
Model
350
7D1F
  3
ﾚｲｱｳﾄ1
350
7D20
  0
DICTIONARY
  5
7DE0
102
{ACAD_REACTORS
330
C
102
}
330
C
100
AcDbDictionary
281
     1
  3
ByBlock
350
7DE9
  3
ByLayer
350
7DE1
  3
Global
350
7DF1
  0
DICTIONARY
  5
7E27
102
{ACAD_REACTORS
330
C
102
}
330
C
100
AcDbDictionary
281
     1
  3
Standard
350
7E28
  0
DICTIONARY
  5
E
102
{ACAD_REACTORS
330
C
102
}
330
0
100
AcDbDictionary
281
     1
  3
STANDARD
350
1C
  0
DICTIONARY
  5
7D1E
102
{ACAD_REACTORS
330
C
102
}
330
C
100
AcDbDictionary
281
     1
  0
ACDBDICTIONARYWDFLT
  5
7D1B
102
{ACAD_REACTORS
330
C
102
}
330
C
100
AcDbDictionary
281
     1
  3
Normal
350
7D1C
100
AcDbDictionaryWithDefault
340
7D1C
1001
ACAD
1000
TREAT_AS_HARD
1070
     0
  0
DICTIONARY
  5
7E15
102
{ACAD_REACTORS
330
C
102
}
330
C
100
AcDbDictionary
281
     1
  3
A0
350
7E16
  3
A1
350
7E17
  3
A2
350
7E18
  3
A3
350
7E19
  3
A4
350
7E1A
  3
A5
350
7E1B
  3
A6
350
7E1C
  3
A7
350
7E1D
  3
A8
350
7E1E
  3
A9
350
7E1F
  3
B0
350
7E20
  3
B1
350
7E21
  3
B2
350
7E22
  3
B3
350
7E23
  3
B4
350
7E24
  3
B5
350
7E25
  3
B6
350
7E26
  0
DICTIONARY
  5
7E29
102
{ACAD_REACTORS
330
C
102
}
330
C
100
AcDbDictionary
281
     1
  3
Imperial24
350
7E2A
  0
DICTIONARY
  5
7E13
102
{ACAD_REACTORS
330
C
102
}
330
C
100
AcDbDictionary
281
     1
  3
Standard
350
7E14
  0
DICTIONARY
  5
7DF9
102
{ACAD_REACTORS
330
C
102
}
330
C
100
AcDbDictionary
281
     1
  3
2dWireframe
350
7DFF
  3
Basic
350
7DFE
  3
Brighten
350
7E05
  3
ColorChange
350
7E09
  3
Conceptual
350
7E02
  3
Dim
350
7E04
  3
EdgeColorOff
350
7E11
  3
Facepattern
350
7E08
  3
Flat
350
7DFA
  3
FlatWithEdges
350
7DFB
  3
Gouraud
350
7DFC
  3
GouraudWithEdges
350
7DFD
  3
Hidden
350
7E01
  3
JitterOff
350
7E0F
  3
Linepattern
350
7E07
  3
OverhangOff
350
7E10
  3
Realistic
350
7E03
  3
Shaded
350
7E0E
  3
Shaded with edges
350
7E0D
  3
Shades of Gray
350
7E0A
  3
Sketchy
350
7E0B
  3
Thicken
350
7E06
  3
Wireframe
350
7E00
  3
X-Ray
350
7E0C
  0
XRECORD
  5
7F22
102
{ACAD_REACTORS
330
C
102
}
330
C
100
AcDbXrecord
280
     1
 90
        1
330
7E14
330
7E2A
330
7E2C
  0
DICTIONARY
  5
7DD8
102
{ACAD_REACTORS
330
C
102
}
330
C
100
AcDbDictionary
281
     1
  3
CANNOSCALE
350
7EC6
  3
CMLEADERSTYLE
350
7EC2
  3
CTABLESTYLE
350
7EC1
  3
CVIEWDETAILSTYLE
350
7EC3
  3
CVIEWSECTIONSTYLE
350
7EC4
  3
DIMASSOC
350
7DD9
  3
LAYEREVAL
350
7EC8
  3
LAYERNOTIFY
350
7EC9
  3
LIGHTINGUNITS
350
7EC7
  3
MSLTSCALE
350
7EC5
  0
DICTIONARY
  5
7E32
102
{ACAD_REACTORS
330
7E31
102
}
330
7E31
100
AcDbDictionary
281
     1
  0
XRECORD
  5
7EAC
102
{ACAD_REACTORS
330
7EAB
102
}
330
7EAB
100
AcDbXrecord
280
     1
290
     1
  0
XRECORD
  5
7EAE
102
{ACAD_REACTORS
330
7EAD
102
}
330
7EAD
100
AcDbXrecord
280
     1
290
     1
  0
XRECORD
  5
7EB0
102
{ACAD_REACTORS
330
7EAF
102
}
330
7EAF
100
AcDbXrecord
280
     1
290
     1
  0
XRECORD
  5
7EB2
102
{ACAD_REACTORS
330
7EB1
102
}
330
7EB1
100
AcDbXrecord
280
     1
290
     1
  0
XRECORD
  5
7EB4
102
{ACAD_REACTORS
330
7EB3
102
}
330
7EB3
100
AcDbXrecord
280
     1
290
     1
  0
XRECORD
  5
7D4B
102
{ACAD_REACTORS
330
7D4A
102
}
330
7D4A
100
AcDbXrecord
280
     1
340
19
  0
XRECORD
  5
7D49
102
{ACAD_REACTORS
330
7D48
102
}
330
7D48
100
AcDbXrecord
280
     1
340
16
  0
ACDBDETAILVIEWSTYLE
  5
7E2C
102
{ACAD_XDICTIONARY
360
7EBE
102
}
102
{ACAD_REACTORS
330
7E2B
102
}
330
7E2B
100
AcDbModelDocViewStyle
 70
     0
  3
Imperial24
290
     0
100
AcDbDetailViewStyle
 70
     0
 71
     0
 90
        3
 71
     1
340
10
 62
   256
 40
0.24
340
0
 62
   256
 40
0.24
300

 40
0.36
280
     3
 71
     2
340
15
 90
       25
 62
   256
 71
     3
340
10
 62
   256
 40
0.24
 90
        1
 40
0.75
 90
        1
300
%<\AcVar ViewType \f "%tc1">% %<\AcVar ViewDetailId>%\PSCALE %<\AcVar ViewScale \f "%sn">%
 71
     4
340
15
 90
       25
 62
   256
340
15
 90
       25
 62
   256
280
     0
  0
LAYOUT
  5
7D1F
102
{ACAD_REACTORS
330
7D1D
102
}
330
7D1D
100
AcDbPlotSettings
  1

  2
\\Txbo34x8944cqyd\EPSON LP-6100
  4

  6

 40
0.0
 41
0.0
 42
0.0
 43
0.0
 44
0.0
 45
0.0
 46
0.0
 47
0.0
 48
0.0
 49
0.0
140
0.0
141
0.0
142
1.0
143
1.0
 70
  1712
 72
     0
 73
     0
 74
     0
  7
GOD2000TABLE.ctb
 75
     0
147
1.0
 76
     0
 77
     2
 78
   300
148
0.0
149
0.0
100
AcDbLayout
  1
Model
 70
     1
 71
     0
 10
0.0
 20
0.0
 11
12.0
 21
9.0
 12
0.0
 22
0.0
 32
0.0
 14
0.0
 24
0.0
 34
0.0
 15
0.0
 25
0.0
 35
0.0
146
0.0
 13
0.0
 23
0.0
 33
0.0
 16
1.0
 26
0.0
 36
0.0
 17
0.0
 27
1.0
 37
0.0
 76
     0
330
19
331
7DDE
  0
LAYOUT
  5
7D20
102
{ACAD_REACTORS
330
7D1D
102
}
330
7D1D
100
AcDbPlotSettings
  1

  2
\\Txbo34x8944cqyd\EPSON LP-6100
  4

  6

 40
0.0
 41
0.0
 42
0.0
 43
0.0
 44
0.0
 45
0.0
 46
0.0
 47
0.0
 48
0.0
 49
0.0
140
0.0
141
0.0
142
1.0
143
1.0
 70
   688
 72
     0
 73
     0
 74
     5
  7
GOD2000TABLE.ctb
 75
    16
147
1.0
 76
     0
 77
     2
 78
   300
148
0.0
149
0.0
100
AcDbLayout
  1
ﾚｲｱｳﾄ1
 70
     1
 71
     1
 10
0.0
 20
0.0
 11
12.0
 21
9.0
 12
0.0
 22
0.0
 32
0.0
 14
1.000000000000000E+20
 24
1.000000000000000E+20
 34
1.000000000000000E+20
 15
-1.000000000000000E+20
 25
-1.000000000000000E+20
 35
-1.000000000000000E+20
146
0.0
 13
0.0
 23
0.0
 33
0.0
 16
1.0
 26
0.0
 36
0.0
 17
0.0
 27
1.0
 37
0.0
 76
     0
330
16
  0
MATERIAL
  5
7DE9
102
{ACAD_XDICTIONARY
360
7DEA
102
}
102
{ACAD_REACTORS
330
7DE0
102
}
330
7DE0
100
AcDbMaterial
  1
ByBlock
 72
     0
 43
0.0208333333333333
 43
0.0
 43
0.0
 43
0.0
 43
0.0
 43
0.0208333333333333
 43
0.0
 43
0.0
 43
0.0
 43
0.0
 43
1.0
 43
0.0
 43
0.0
 43
0.0
 43
0.0
 43
1.0
 77
     0
 47
0.0208333333333333
 47
0.0
 47
0.0
 47
0.0
 47
0.0
 47
0.0208333333333333
 47
0.0
 47
0.0
 47
0.0
 47
0.0
 47
1.0
 47
0.0
 47
0.0
 47
0.0
 47
0.0
 47
1.0
171
     0
 49
0.0208333333333333
 49
0.0
 49
0.0
 49
0.0
 49
0.0
 49
0.0208333333333333
 49
0.0
 49
0.0
 49
0.0
 49
0.0
 49
1.0
 49
0.0
 49
0.0
 49
0.0
 49
0.0
 49
1.0
175
     0
142
0.0208333333333333
142
0.0
142
0.0
142
0.0
142
0.0
142
0.0208333333333333
142
0.0
142
0.0
142
0.0
142
0.0
142
1.0
142
0.0
142
0.0
142
0.0
142
0.0
142
1.0
179
     0
144
0.0208333333333333
144
0.0
144
0.0
144
0.0
144
0.0
144
0.0208333333333333
144
0.0
144
0.0
144
0.0
144
0.0
144
1.0
144
0.0
144
0.0
144
0.0
144
0.0
144
1.0
147
0.0208333333333333
147
0.0
147
0.0
147
0.0
147
0.0
147
0.0208333333333333
147
0.0
147
0.0
147
0.0
147
0.0
147
1.0
147
0.0
147
0.0
147
0.0
147
0.0
147
1.0
  0
MATERIAL
  5
7DE1
102
{ACAD_XDICTIONARY
360
7DE2
102
}
102
{ACAD_REACTORS
330
7DE0
102
}
330
7DE0
100
AcDbMaterial
  1
ByLayer
 72
     0
 43
0.0208333333333333
 43
0.0
 43
0.0
 43
0.0
 43
0.0
 43
0.0208333333333333
 43
0.0
 43
0.0
 43
0.0
 43
0.0
 43
1.0
 43
0.0
 43
0.0
 43
0.0
 43
0.0
 43
1.0
 77
     0
 47
0.0208333333333333
 47
0.0
 47
0.0
 47
0.0
 47
0.0
 47
0.0208333333333333
 47
0.0
 47
0.0
 47
0.0
 47
0.0
 47
1.0
 47
0.0
 47
0.0
 47
0.0
 47
0.0
 47
1.0
171
     0
 49
0.0208333333333333
 49
0.0
 49
0.0
 49
0.0
 49
0.0
 49
0.0208333333333333
 49
0.0
 49
0.0
 49
0.0
 49
0.0
 49
1.0
 49
0.0
 49
0.0
 49
0.0
 49
0.0
 49
1.0
175
     0
142
0.0208333333333333
142
0.0
142
0.0
142
0.0
142
0.0
142
0.0208333333333333
142
0.0
142
0.0
142
0.0
142
0.0
142
1.0
142
0.0
142
0.0
142
0.0
142
0.0
142
1.0
179
     0
144
0.0208333333333333
144
0.0
144
0.0
144
0.0
144
0.0
144
0.0208333333333333
144
0.0
144
0.0
144
0.0
144
0.0
144
1.0
144
0.0
144
0.0
144
0.0
144
0.0
144
1.0
147
0.0208333333333333
147
0.0
147
0.0
147
0.0
147
0.0
147
0.0208333333333333
147
0.0
147
0.0
147
0.0
147
0.0
147
1.0
147
0.0
147
0.0
147
0.0
147
0.0
147
1.0
  0
MATERIAL
  5
7DF1
102
{ACAD_XDICTIONARY
360
7DF2
102
}
102
{ACAD_REACTORS
330
7DE0
102
}
330
7DE0
100
AcDbMaterial
  1
Global
 72
     0
 43
0.0208333333333333
 43
0.0
 43
0.0
 43
0.0
 43
0.0
 43
0.0208333333333333
 43
0.0
 43
0.0
 43
0.0
 43
0.0
 43
1.0
 43
0.0
 43
0.0
 43
0.0
 43
0.0
 43
1.0
 77
     0
 47
0.0208333333333333
 47
0.0
 47
0.0
 47
0.0
 47
0.0
 47
0.0208333333333333
 47
0.0
 47
0.0
 47
0.0
 47
0.0
 47
1.0
 47
0.0
 47
0.0
 47
0.0
 47
0.0
 47
1.0
171
     0
 49
0.0208333333333333
 49
0.0
 49
0.0
 49
0.0
 49
0.0
 49
0.0208333333333333
 49
0.0
 49
0.0
 49
0.0
 49
0.0
 49
1.0
 49
0.0
 49
0.0
 49
0.0
 49
0.0
 49
1.0
175
     0
142
0.0208333333333333
142
0.0
142
0.0
142
0.0
142
0.0
142
0.0208333333333333
142
0.0
142
0.0
142
0.0
142
0.0
142
1.0
142
0.0
142
0.0
142
0.0
142
0.0
142
1.0
179
     0
144
0.0208333333333333
144
0.0
144
0.0
144
0.0
144
0.0
144
0.0208333333333333
144
0.0
144
0.0
144
0.0
144
0.0
144
1.0
144
0.0
144
0.0
144
0.0
144
0.0
144
1.0
147
0.0208333333333333
147
0.0
147
0.0
147
0.0
147
0.0
147
0.0208333333333333
147
0.0
147
0.0
147
0.0
147
0.0
147
1.0
147
0.0
147
0.0
147
0.0
147
0.0
147
1.0
  0
MLEADERSTYLE
  5
7E28
102
{ACAD_REACTORS
330
7E27
102
}
330
7E27
100
AcDbMLeaderStyle
179
     2
170
     2
171
     1
172
     0
 90
        2
 40
0.0
 41
0.0
173
     1
 91
-1056964608
340
13
 92
       -2
290
     1
 42
0.09
291
     1
 43
0.36
  3
Standard
 44
0.18
300

342
10
174
     1
178
     6
175
     1
176
     0
 93
-1056964608
 45
0.18
292
     0
297
     0
 46
0.18
 94
-1056964608
 47
1.0
 49
1.0
140
1.0
293
     1
141
0.0
294
     1
177
     0
142
1.0
295
     1
296
     0
143
0.125
271
     0
272
     9
273
     9
298
     1
  0
MLINESTYLE
  5
1C
102
{ACAD_REACTORS
330
E
102
}
330
0
100
AcDbMlineStyle
  2
STANDARD
 70
     0
  3

 62
     0
 51
90.0
 52
90.0
 71
     2
 49
0.5
 62
   256
  6
BYLAYER
 49
-0.5
 62
   256
  6
BYLAYER
  0
ACDBPLACEHOLDER
  5
7D1C
102
{ACAD_REACTORS
330
7D1B
102
}
330
7D1B
  0
SCALE
  5
7E16
102
{ACAD_REACTORS
330
7E15
102
}
330
7E15
100
AcDbScale
 70
     0
300
1:1
140
1.0
141
1.0
290
     1
  0
SCALE
  5
7E17
102
{ACAD_REACTORS
330
7E15
102
}
330
7E15
100
AcDbScale
 70
     0
300
1/128" = 1'-0"
140
0.0078125
141
12.0
290
     0
  0
SCALE
  5
7E18
102
{ACAD_REACTORS
330
7E15
102
}
330
7E15
100
AcDbScale
 70
     0
300
1/64" = 1'-0"
140
0.015625
141
12.0
290
     0
  0
SCALE
  5
7E19
102
{ACAD_REACTORS
330
7E15
102
}
330
7E15
100
AcDbScale
 70
     0
300
1/32" = 1'-0"
140
0.03125
141
12.0
290
     0
  0
SCALE
  5
7E1A
102
{ACAD_REACTORS
330
7E15
102
}
330
7E15
100
AcDbScale
 70
     0
300
1/16" = 1'-0"
140
0.0625
141
12.0
290
     0
  0
SCALE
  5
7E1B
102
{ACAD_REACTORS
330
7E15
102
}
330
7E15
100
AcDbScale
 70
     0
300
3/32" = 1'-0"
140
0.09375
141
12.0
290
     0
  0
SCALE
  5
7E1C
102
{ACAD_REACTORS
330
7E15
102
}
330
7E15
100
AcDbScale
 70
     0
300
1/8" = 1'-0"
140
0.125
141
12.0
290
     0
  0
SCALE
  5
7E1D
102
{ACAD_REACTORS
330
7E15
102
}
330
7E15
100
AcDbScale
 70
     0
300
3/16" = 1'-0"
140
0.1875
141
12.0
290
     0
  0
SCALE
  5
7E1E
102
{ACAD_REACTORS
330
7E15
102
}
330
7E15
100
AcDbScale
 70
     0
300
1/4" = 1'-0"
140
0.25
141
12.0
290
     0
  0
SCALE
  5
7E1F
102
{ACAD_REACTORS
330
7E15
102
}
330
7E15
100
AcDbScale
 70
     0
300
3/8" = 1'-0"
140
0.375
141
12.0
290
     0
  0
SCALE
  5
7E20
102
{ACAD_REACTORS
330
7E15
102
}
330
7E15
100
AcDbScale
 70
     0
300
1/2" = 1'-0"
140
0.5
141
12.0
290
     0
  0
SCALE
  5
7E21
102
{ACAD_REACTORS
330
7E15
102
}
330
7E15
100
AcDbScale
 70
     0
300
3/4" = 1'-0"
140
0.75
141
12.0
290
     0
  0
SCALE
  5
7E22
102
{ACAD_REACTORS
330
7E15
102
}
330
7E15
100
AcDbScale
 70
     0
300
1" = 1'-0"
140
1.0
141
12.0
290
     0
  0
SCALE
  5
7E23
102
{ACAD_REACTORS
330
7E15
102
}
330
7E15
100
AcDbScale
 70
     0
300
1-1/2" = 1'-0"
140
1.5
141
12.0
290
     0
  0
SCALE
  5
7E24
102
{ACAD_REACTORS
330
7E15
102
}
330
7E15
100
AcDbScale
 70
     0
300
3" = 1'-0"
140
3.0
141
12.0
290
     0
  0
SCALE
  5
7E25
102
{ACAD_REACTORS
330
7E15
102
}
330
7E15
100
AcDbScale
 70
     0
300
6" = 1'-0"
140
6.0
141
12.0
290
     0
  0
SCALE
  5
7E26
102
{ACAD_REACTORS
330
7E15
102
}
330
7E15
100
AcDbScale
 70
     0
300
1'-0" = 1'-0"
140
12.0
141
12.0
290
     0
  0
ACDBSECTIONVIEWSTYLE
  5
7E2A
102
{ACAD_XDICTIONARY
360
7EBC
102
}
102
{ACAD_REACTORS
330
7E29
102
}
330
7E29
100
AcDbModelDocViewStyle
 70
     0
  3
Imperial24
290
     0
100
AcDbSectionViewStyle
 70
     0
 71
     0
 90
       78
 71
     1
340
10
 62
   256
 40
0.24
340
0
340
0
 62
   256
 40
0.24
300
I, O, Q, S, X, Z
 40
0.48
 90
        3
 40
0.18
 90
        1
 71
     2
340
15
 90
       25
 62
   256
340
15
 90
       50
 62
   256
 40
0.24
 40
0.0
 40
0.24
 71
     3
340
10
 62
   256
 40
0.24
 90
        1
 40
0.75
 90
        1
300
%<\AcVar ViewType \f "%tc1">% %<\AcVar ViewSectionStartId>%-%<\AcVar ViewSectionEndId>%\PSCALE %<\AcVar ViewScale \f "%sn">%
 71
     4
 62
   256
 62
   257
300
ANSI31
 40
1.0
 90
        0
290
     0
290
     0
 90
        6
 40
0.0
 40
1.570796326794896
 40
0.2617993877991494
 40
1.308996938995747
 40
-0.2617993877991494
 40
1.832595714594046
  0
TABLESTYLE
  5
7E14
102
{ACAD_XDICTIONARY
360
7F1E
102
}
102
{ACAD_REACTORS
330
7E13
102
}
330
7E13
100
AcDbTableStyle
280
     0
  3
Standard
 70
     0
 71
     0
 40
0.06
 41
0.06
280
     0
281
     0
  7
STANDARD
140
0.18
170
     2
 62
     0
 63
     7
283
     0
 90
      512
 91
        0
  1

274
    -2
284
     1
 64
     0
275
    -2
285
     1
 65
     0
276
    -2
286
     1
 66
     0
277
    -2
287
     1
 67
     0
278
    -2
288
     1
 68
     0
279
    -2
289
     1
 69
     0
  7
STANDARD
140
0.25
170
     5
 62
     0
 63
     7
283
     0
 90
      512
 91
        0
  1

274
    -2
284
     1
 64
     0
275
    -2
285
     1
 65
     0
276
    -2
286
     1
 66
     0
277
    -2
287
     1
 67
     0
278
    -2
288
     1
 68
     0
279
    -2
289
     1
 69
     0
  7
STANDARD
140
0.18
170
     5
 62
     0
 63
     7
283
     0
 90
      512
 91
        0
  1

274
    -2
284
     1
 64
     0
275
    -2
285
     1
 65
     0
276
    -2
286
     1
 66
     0
277
    -2
287
     1
 67
     0
278
    -2
288
     1
 68
     0
279
    -2
289
     1
 69
     0
  0
VISUALSTYLE
  5
7DFF
102
{ACAD_REACTORS
330
7DF9
102
}
330
7DF9
100
AcDbVisualStyle
  2
2dWireframe
 70
     4
177
     3
291
     0
 70
    58
 90
        0
176
     1
 90
        2
176
     1
 90
        0
176
     1
 90
        0
176
     1
 40
0.6
176
     1
 40
30.0
176
     1
 62
     7
420
 16777215
176
     1
 90
        1
176
     1
 90
        4
176
     1
 62
     7
176
     1
 62
   257
176
     1
 90
        1
176
     1
 90
        1
176
     1
 40
1.0
176
     1
 90
        0
176
     1
 62
   257
176
     1
 40
1.0
176
     1
 90
        1
176
     1
 90
        6
176
     1
 90
        2
176
     1
 62
     7
176
     1
 90
        5
176
     1
 90
        0
176
     1
 90
        0
176
     1
290
     0
176
     1
 90
        1
176
     1
 40
0.0
176
     1
 90
        0
176
     1
290
     1
176
     1
290
     1
176
     1
290
     0
176
     1
290
     0
176
     1
290
     0
176
     1
290
     0
176
     1
290
     0
176
     1
290
     0
176
     1
290
     0
176
     1
 90
       50
176
     1
 40
0.0
176
     1
 40
1.0
176
     1
 90
        0
176
     1
 62
    18
420
        0
176
     1
 90
       50
176
     1
 90
        3
176
     1
 62
     5
420
      255
176
     1
290
     0
176
     1
 90
       50
176
     1
 90
       50
176
     1
 90
       50
176
     1
290
     0
176
     1
 90
       50
176
     1
 62
   256
176
     0
 40
1.0
176
     0
 90
        2
176
     1
  1
strokes_ogs.tif
176
     1
290
     0
176
     1
 40
1.0
176
     1
 40
1.0
176
     1
  0
VISUALSTYLE
  5
7DFE
102
{ACAD_REACTORS
330
7DF9
102
}
330
7DF9
100
AcDbVisualStyle
  2
Basic
 70
     7
177
     3
291
     1
 70
    58
 90
        1
176
     1
 90
        0
176
     1
 90
        1
176
     1
 90
        0
176
     1
 40
0.6
176
     1
 40
30.0
176
     1
 62
     7
420
 16777215
176
     1
 90
        0
176
     1
 90
        4
176
     1
 62
     7
176
     1
 62
   257
176
     1
 90
        1
176
     1
 90
        1
176
     1
 40
1.0
176
     1
 90
        8
176
     1
 62
     7
176
     1
 40
1.0
176
     1
 90
        1
176
     1
 90
        6
176
     1
 90
        2
176
     1
 62
     7
176
     1
 90
        5
176
     1
 90
        0
176
     1
 90
        0
176
     1
290
     0
176
     1
 90
        1
176
     1
 40
0.0
176
     1
 90
        0
176
     1
290
     0
176
     1
290
     1
176
     1
290
     1
176
     1
290
     0
176
     1
290
     0
176
     1
290
     0
176
     1
290
     0
176
     1
290
     0
176
     1
290
     0
176
     1
 90
       50
176
     1
 40
0.0
176
     1
 40
1.0
176
     1
 90
        0
176
     1
 62
    18
420
        0
176
     1
 90
       50
176
     1
 90
        3
176
     1
 62
     5
420
      255
176
     1
290
     0
176
     1
 90
       50
176
     1
 90
       50
176
     1
 90
       50
176
     1
290
     0
176
     1
 90
       50
176
     1
 62
   256
176
     0
 40
1.0
176
     0
 90
        2
176
     1
  1
strokes_ogs.tif
176
     1
290
     0
176
     1
 40
1.0
176
     1
 40
1.0
176
     1
  0
VISUALSTYLE
  5
7E05
102
{ACAD_REACTORS
330
7DF9
102
}
330
7DF9
100
AcDbVisualStyle
  2
Brighten
 70
    12
177
     3
291
     1
 70
    58
 90
        2
176
     1
 90
        2
176
     1
 90
        0
176
     1
 90
        0
176
     1
 40
0.6
176
     1
 40
30.0
176
     1
 62
     7
420
 16777215
176
     1
 90
        1
176
     1
 90
        4
176
     1
 62
     7
176
     1
 62
   257
176
     1
 90
        1
176
     1
 90
        1
176
     1
 40
1.0
176
     1
 90
        8
176
     1
 62
     7
176
     1
 40
1.0
176
     1
 90
        1
176
     1
 90
        6
176
     1
 90
        2
176
     1
 62
     7
176
     1
 90
        5
176
     1
 90
        0
176
     1
 90
        0
176
     1
290
     0
176
     1
 90
        1
176
     1
 40
50.0
176
     1
 90
        0
176
     1
290
     0
176
     1
290
     1
176
     1
290
     1
176
     1
290
     0
176
     1
290
     0
176
     1
290
     0
176
     1
290
     0
176
     1
290
     0
176
     1
290
     0
176
     1
 90
       50
176
     1
 40
0.0
176
     1
 40
1.0
176
     1
 90
        0
176
     1
 62
    18
420
        0
176
     1
 90
       50
176
     1
 90
        3
176
     1
 62
     5
420
      255
176
     1
290
     0
176
     1
 90
       50
176
     1
 90
       50
176
     1
 90
       50
176
     1
290
     0
176
     1
 90
       50
176
     1
 62
   256
176
     0
 40
1.0
176
     0
 90
        2
176
     1
  1
strokes_ogs.tif
176
     1
290
     0
176
     1
 40
1.0
176
     1
 40
1.0
176
     1
  0
VISUALSTYLE
  5
7E09
102
{ACAD_REACTORS
330
7DF9
102
}
330
7DF9
100
AcDbVisualStyle
  2
ColorChange
 70
    16
177
     3
291
     1
 70
    58
 90
        2
176
     1
 90
        2
176
     1
 90
        3
176
     1
 90
        0
176
     1
 40
0.6
176
     1
 40
30.0
176
     1
 62
     8
420
  8421504
176
     1
 90
        1
176
     1
 90
        4
176
     1
 62
     7
176
     1
 62
   257
176
     1
 90
        1
176
     1
 90
        1
176
     1
 40
1.0
176
     1
 90
        8
176
     1
 62
     8
420
  8421504
176
     1
 40
1.0
176
     1
 90
        1
176
     1
 90
        6
176
     1
 90
        2
176
     1
 62
     7
176
     1
 90
        5
176
     1
 90
        0
176
     1
 90
        0
176
     1
290
     0
176
     1
 90
        1
176
     1
 40
0.0
176
     1
 90
        0
176
     1
290
     0
176
     1
290
     1
176
     1
290
     1
176
     1
290
     0
176
     1
290
     0
176
     1
290
     0
176
     1
290
     0
176
     1
290
     0
176
     1
290
     0
176
     1
 90
       50
176
     1
 40
0.0
176
     1
 40
1.0
176
     1
 90
        0
176
     1
 62
    18
420
        0
176
     1
 90
       50
176
     1
 90
        3
176
     1
 62
     5
420
      255
176
     1
290
     0
176
     1
 90
       50
176
     1
 90
       50
176
     1
 90
       50
176
     1
290
     0
176
     1
 90
       50
176
     1
 62
   256
176
     0
 40
1.0
176
     0
 90
        2
176
     1
  1
strokes_ogs.tif
176
     1
290
     0
176
     1
 40
1.0
176
     1
 40
1.0
176
     1
  0
VISUALSTYLE
  5
7E02
102
{ACAD_REACTORS
330
7DF9
102
}
330
7DF9
100
AcDbVisualStyle
  2
Conceptual
 70
     9
177
     3
291
     0
 70
    58
 90
        3
176
     1
 90
        2
176
     1
 90
        0
176
     1
 90
        0
176
     1
 40
0.6
176
     1
 40
30.0
176
     1
 62
     7
420
 16777215
176
     1
 90
        2
176
     1
 90
        2
176
     1
 62
     7
176
     1
 62
   257
176
     1
 90
        1
176
     1
 90
        1
176
     1
 40
179.0
176
     1
 90
        8
176
     1
 62
     7
176
     1
 40
1.0
176
     1
 90
        1
176
     1
 90
        6
176
     1
 90
        2
176
     1
 62
     7
176
     1
 90
        3
176
     1
 90
        0
176
     1
 90
        0
176
     1
290
     0
176
     1
 90
        1
176
     1
 40
0.0
176
     1
 90
        0
176
     1
290
     0
176
     1
290
     1
176
     1
290
     1
176
     1
290
     0
176
     1
290
     0
176
     1
290
     0
176
     1
290
     0
176
     1
290
     0
176
     1
290
     0
176
     1
 90
       50
176
     1
 40
0.0
176
     1
 40
1.0
176
     1
 90
        0
176
     1
 62
    18
420
        0
176
     1
 90
       50
176
     1
 90
        3
176
     1
 62
     5
420
      255
176
     1
290
     0
176
     1
 90
       50
176
     1
 90
       50
176
     1
 90
       50
176
     1
290
     0
176
     1
 90
       50
176
     1
 62
   256
176
     0
 40
1.0
176
     0
 90
        2
176
     1
  1
strokes_ogs.tif
176
     1
290
     0
176
     1
 40
1.0
176
     1
 40
1.0
176
     1
  0
VISUALSTYLE
  5
7E04
102
{ACAD_REACTORS
330
7DF9
102
}
330
7DF9
100
AcDbVisualStyle
  2
Dim
 70
    11
177
     3
291
     1
 70
    58
 90
        2
176
     1
 90
        2
176
     1
 90
        0
176
     1
 90
        0
176
     1
 40
0.6
176
     1
 40
30.0
176
     1
 62
     7
420
 16777215
176
     1
 90
        1
176
     1
 90
        4
176
     1
 62
     7
176
     1
 62
   257
176
     1
 90
        1
176
     1
 90
        1
176
     1
 40
1.0
176
     1
 90
        8
176
     1
 62
     7
176
     1
 40
1.0
176
     1
 90
        1
176
     1
 90
        6
176
     1
 90
        2
176
     1
 62
     7
176
     1
 90
        5
176
     1
 90
        0
176
     1
 90
        0
176
     1
290
     0
176
     1
 90
        1
176
     1
 40
-50.0
176
     1
 90
        0
176
     1
290
     0
176
     1
290
     1
176
     1
290
     1
176
     1
290
     0
176
     1
290
     0
176
     1
290
     0
176
     1
290
     0
176
     1
290
     0
176
     1
290
     0
176
     1
 90
       50
176
     1
 40
0.0
176
     1
 40
1.0
176
     1
 90
        0
176
     1
 62
    18
420
        0
176
     1
 90
       50
176
     1
 90
        3
176
     1
 62
     5
420
      255
176
     1
290
     0
176
     1
 90
       50
176
     1
 90
       50
176
     1
 90
       50
176
     1
290
     0
176
     1
 90
       50
176
     1
 62
   256
176
     0
 40
1.0
176
     0
 90
        2
176
     1
  1
strokes_ogs.tif
176
     1
290
     0
176
     1
 40
1.0
176
     1
 40
1.0
176
     1
  0
VISUALSTYLE
  5
7E11
102
{ACAD_REACTORS
330
7DF9
102
}
330
7DF9
100
AcDbVisualStyle
  2
EdgeColorOff
 70
    22
177
     3
291
     1
 70
    58
 90
        2
176
     0
 90
        2
176
     0
 90
        0
176
     0
 90
        0
176
     0
 40
0.6
176
     0
 40
30.0
176
     0
 62
     7
420
 16777215
176
     0
 90
        1
176
     0
 90
        4
176
     0
 62
     7
176
     0
 62
   257
176
     0
 90
        1
176
     0
 90
        1
176
     0
 40
1.0
176
     0
 90
        8
176
     2
 62
     7
176
     0
 40
1.0
176
     0
 90
        1
176
     0
 90
        6
176
     0
 90
        2
176
     0
 62
     7
176
     0
 90
        5
176
     0
 90
        0
176
     0
 90
        0
176
     0
290
     0
176
     0
 90
        1
176
     0
 40
0.0
176
     0
 90
        0
176
     0
290
     0
176
     0
290
     1
176
     0
290
     1
176
     0
290
     0
176
     0
290
     0
176
     0
290
     0
176
     0
290
     0
176
     0
290
     0
176
     0
290
     0
176
     0
 90
       50
176
     0
 40
0.0
176
     0
 40
1.0
176
     0
 90
        0
176
     0
 62
    18
420
        0
176
     0
 90
       50
176
     0
 90
        3
176
     0
 62
     5
420
      255
176
     0
290
     0
176
     0
 90
       50
176
     0
 90
       50
176
     0
 90
       50
176
     0
290
     0
176
     0
 90
       50
176
     0
 62
   256
176
     0
 40
1.0
176
     0
 90
        2
176
     0
  1
strokes_ogs.tif
176
     0
290
     0
176
     0
 40
1.0
176
     0
 40
1.0
176
     0
  0
VISUALSTYLE
  5
7E08
102
{ACAD_REACTORS
330
7DF9
102
}
330
7DF9
100
AcDbVisualStyle
  2
Facepattern
 70
    15
177
     3
291
     1
 70
    58
 90
        2
176
     1
 90
        2
176
     1
 90
        0
176
     1
 90
        0
176
     1
 40
0.6
176
     1
 40
30.0
176
     1
 62
     7
420
 16777215
176
     1
 90
        1
176
     1
 90
        4
176
     1
 62
     7
176
     1
 62
   257
176
     1
 90
        1
176
     1
 90
        1
176
     1
 40
1.0
176
     1
 90
        8
176
     1
 62
     7
176
     1
 40
1.0
176
     1
 90
        1
176
     1
 90
        6
176
     1
 90
        2
176
     1
 62
     7
176
     1
 90
        5
176
     1
 90
        0
176
     1
 90
        0
176
     1
290
     0
176
     1
 90
        1
176
     1
 40
0.0
176
     1
 90
        0
176
     1
290
     0
176
     1
290
     1
176
     1
290
     1
176
     1
290
     0
176
     1
290
     0
176
     1
290
     0
176
     1
290
     0
176
     1
290
     0
176
     1
290
     0
176
     1
 90
       50
176
     1
 40
0.0
176
     1
 40
1.0
176
     1
 90
        0
176
     1
 62
    18
420
        0
176
     1
 90
       50
176
     1
 90
        3
176
     1
 62
     5
420
      255
176
     1
290
     0
176
     1
 90
       50
176
     1
 90
       50
176
     1
 90
       50
176
     1
290
     0
176
     1
 90
       50
176
     1
 62
   256
176
     0
 40
1.0
176
     0
 90
        2
176
     1
  1
strokes_ogs.tif
176
     1
290
     0
176
     1
 40
1.0
176
     1
 40
1.0
176
     1
  0
VISUALSTYLE
  5
7DFA
102
{ACAD_REACTORS
330
7DF9
102
}
330
7DF9
100
AcDbVisualStyle
  2
Flat
 70
     0
177
     3
291
     1
 70
    58
 90
        2
176
     1
 90
        1
176
     1
 90
        1
176
     1
 90
        2
176
     1
 40
0.6
176
     1
 40
30.0
176
     1
 62
     7
420
 16777215
176
     1
 90
        0
176
     1
 90
        0
176
     1
 62
     7
176
     1
 62
   257
176
     1
 90
        1
176
     1
 90
        1
176
     1
 40
1.0
176
     1
 90
        8
176
     1
 62
     7
176
     1
 40
1.0
176
     1
 90
        1
176
     1
 90
        6
176
     1
 90
        2
176
     1
 62
     7
176
     1
 90
        5
176
     1
 90
        0
176
     1
 90
        0
176
     1
290
     0
176
     1
 90
       13
176
     1
 40
0.0
176
     1
 90
        0
176
     1
290
     0
176
     1
290
     1
176
     1
290
     1
176
     1
290
     0
176
     1
290
     0
176
     1
290
     0
176
     1
290
     0
176
     1
290
     0
176
     1
290
     0
176
     1
 90
       50
176
     1
 40
0.0
176
     1
 40
1.0
176
     1
 90
        0
176
     1
 62
    18
420
        0
176
     1
 90
       50
176
     1
 90
        3
176
     1
 62
     5
420
      255
176
     1
290
     0
176
     1
 90
       50
176
     1
 90
       50
176
     1
 90
       50
176
     1
290
     0
176
     1
 90
       50
176
     1
 62
   256
176
     0
 40
1.0
176
     0
 90
        2
176
     1
  1
strokes_ogs.tif
176
     1
290
     0
176
     1
 40
1.0
176
     1
 40
1.0
176
     1
  0
VISUALSTYLE
  5
7DFB
102
{ACAD_REACTORS
330
7DF9
102
}
330
7DF9
100
AcDbVisualStyle
  2
FlatWithEdges
 70
     1
177
     3
291
     1
 70
    58
 90
        2
176
     1
 90
        1
176
     1
 90
        1
176
     1
 90
        2
176
     1
 40
0.6
176
     1
 40
30.0
176
     1
 62
     7
420
 16777215
176
     1
 90
        1
176
     1
 90
        0
176
     1
 62
     7
176
     1
 62
   257
176
     1
 90
        1
176
     1
 90
        1
176
     1
 40
1.0
176
     1
 90
        0
176
     1
 62
   257
176
     1
 40
1.0
176
     1
 90
        1
176
     1
 90
        6
176
     1
 90
        2
176
     1
 62
     7
176
     1
 90
        5
176
     1
 90
        0
176
     1
 90
        0
176
     1
290
     0
176
     1
 90
       13
176
     1
 40
0.0
176
     1
 90
        0
176
     1
290
     0
176
     1
290
     1
176
     1
290
     1
176
     1
290
     0
176
     1
290
     0
176
     1
290
     0
176
     1
290
     0
176
     1
290
     0
176
     1
290
     0
176
     1
 90
       50
176
     1
 40
0.0
176
     1
 40
1.0
176
     1
 90
        0
176
     1
 62
    18
420
        0
176
     1
 90
       50
176
     1
 90
        3
176
     1
 62
     5
420
      255
176
     1
290
     0
176
     1
 90
       50
176
     1
 90
       50
176
     1
 90
       50
176
     1
290
     0
176
     1
 90
       50
176
     1
 62
   256
176
     0
 40
1.0
176
     0
 90
        2
176
     1
  1
strokes_ogs.tif
176
     1
290
     0
176
     1
 40
1.0
176
     1
 40
1.0
176
     1
  0
VISUALSTYLE
  5
7DFC
102
{ACAD_REACTORS
330
7DF9
102
}
330
7DF9
100
AcDbVisualStyle
  2
Gouraud
 70
     2
177
     3
291
     1
 70
    58
 90
        2
176
     1
 90
        2
176
     1
 90
        1
176
     1
 90
        2
176
     1
 40
0.6
176
     1
 40
30.0
176
     1
 62
     7
420
 16777215
176
     1
 90
        0
176
     1
 90
        0
176
     1
 62
     7
176
     1
 62
   257
176
     1
 90
        1
176
     1
 90
        1
176
     1
 40
1.0
176
     1
 90
        0
176
     1
 62
     7
176
     1
 40
1.0
176
     1
 90
        1
176
     1
 90
        6
176
     1
 90
        2
176
     1
 62
     7
176
     1
 90
        5
176
     1
 90
        0
176
     1
 90
        0
176
     1
290
     0
176
     1
 90
       13
176
     1
 40
0.0
176
     1
 90
        0
176
     1
290
     0
176
     1
290
     1
176
     1
290
     1
176
     1
290
     0
176
     1
290
     0
176
     1
290
     0
176
     1
290
     0
176
     1
290
     0
176
     1
290
     0
176
     1
 90
       50
176
     1
 40
0.0
176
     1
 40
1.0
176
     1
 90
        0
176
     1
 62
    18
420
        0
176
     1
 90
       50
176
     1
 90
        3
176
     1
 62
     5
420
      255
176
     1
290
     0
176
     1
 90
       50
176
     1
 90
       50
176
     1
 90
       50
176
     1
290
     0
176
     1
 90
       50
176
     1
 62
   256
176
     0
 40
1.0
176
     0
 90
        2
176
     1
  1
strokes_ogs.tif
176
     1
290
     0
176
     1
 40
1.0
176
     1
 40
1.0
176
     1
  0
VISUALSTYLE
  5
7DFD
102
{ACAD_REACTORS
330
7DF9
102
}
330
7DF9
100
AcDbVisualStyle
  2
GouraudWithEdges
 70
     3
177
     3
291
     1
 70
    58
 90
        2
176
     1
 90
        2
176
     1
 90
        1
176
     1
 90
        2
176
     1
 40
0.6
176
     1
 40
30.0
176
     1
 62
     7
420
 16777215
176
     1
 90
        1
176
     1
 90
        0
176
     1
 62
     7
176
     1
 62
   257
176
     1
 90
        1
176
     1
 90
        1
176
     1
 40
1.0
176
     1
 90
        0
176
     1
 62
   257
176
     1
 40
1.0
176
     1
 90
        1
176
     1
 90
        6
176
     1
 90
        2
176
     1
 62
     7
176
     1
 90
        5
176
     1
 90
        0
176
     1
 90
        0
176
     1
290
     0
176
     1
 90
       13
176
     1
 40
0.0
176
     1
 90
        0
176
     1
290
     0
176
     1
290
     1
176
     1
290
     1
176
     1
290
     0
176
     1
290
     0
176
     1
290
     0
176
     1
290
     0
176
     1
290
     0
176
     1
290
     0
176
     1
 90
       50
176
     1
 40
0.0
176
     1
 40
1.0
176
     1
 90
        0
176
     1
 62
    18
420
        0
176
     1
 90
       50
176
     1
 90
        3
176
     1
 62
     5
420
      255
176
     1
290
     0
176
     1
 90
       50
176
     1
 90
       50
176
     1
 90
       50
176
     1
290
     0
176
     1
 90
       50
176
     1
 62
   256
176
     0
 40
1.0
176
     0
 90
        2
176
     1
  1
strokes_ogs.tif
176
     1
290
     0
176
     1
 40
1.0
176
     1
 40
1.0
176
     1
  0
VISUALSTYLE
  5
7E01
102
{ACAD_REACTORS
330
7DF9
102
}
330
7DF9
100
AcDbVisualStyle
  2
Hidden
 70
     6
177
     3
291
     0
 70
    58
 90
        1
176
     1
 90
        2
176
     1
 90
        2
176
     1
 90
        0
176
     1
 40
0.6
176
     1
 40
30.0
176
     1
 62
     7
420
 16777215
176
     1
 90
        2
176
     1
 90
        2
176
     1
 62
     7
176
     1
 62
   257
176
     1
 90
        2
176
     1
 90
        1
176
     1
 40
40.0
176
     1
 90
        0
176
     1
 62
   257
176
     1
 40
1.0
176
     1
 90
        1
176
     1
 90
        6
176
     1
 90
        2
176
     1
 62
     7
176
     1
 90
        3
176
     1
 90
        0
176
     1
 90
        0
176
     1
290
     0
176
     1
 90
        1
176
     1
 40
0.0
176
     1
 90
        0
176
     1
290
     0
176
     1
290
     1
176
     1
290
     1
176
     1
290
     0
176
     1
290
     0
176
     1
290
     0
176
     1
290
     0
176
     1
290
     0
176
     1
290
     0
176
     1
 90
       50
176
     1
 40
0.0
176
     1
 40
1.0
176
     1
 90
        0
176
     1
 62
    18
420
        0
176
     1
 90
       50
176
     1
 90
        3
176
     1
 62
     5
420
      255
176
     1
290
     0
176
     1
 90
       50
176
     1
 90
       50
176
     1
 90
       50
176
     1
290
     0
176
     1
 90
       50
176
     1
 62
   256
176
     0
 40
1.0
176
     0
 90
        2
176
     1
  1
strokes_ogs.tif
176
     1
290
     0
176
     1
 40
1.0
176
     1
 40
1.0
176
     1
  0
VISUALSTYLE
  5
7E0F
102
{ACAD_REACTORS
330
7DF9
102
}
330
7DF9
100
AcDbVisualStyle
  2
JitterOff
 70
    20
177
     3
291
     1
 70
    58
 90
        2
176
     0
 90
        2
176
     0
 90
        0
176
     0
 90
        0
176
     0
 40
0.6
176
     0
 40
30.0
176
     0
 62
     7
420
 16777215
176
     0
 90
        1
176
     0
 90
        4
176
     0
 62
     7
176
     0
 62
   257
176
     0
 90
        1
176
     0
 90
        1
176
     0
 40
1.0
176
     0
 90
       10
176
     2
 62
     7
176
     0
 40
1.0
176
     0
 90
        1
176
     0
 90
        6
176
     0
 90
        2
176
     0
 62
     7
176
     0
 90
        5
176
     0
 90
        0
176
     0
 90
        0
176
     0
290
     0
176
     0
 90
        1
176
     0
 40
0.0
176
     0
 90
        0
176
     0
290
     0
176
     0
290
     1
176
     0
290
     1
176
     0
290
     0
176
     0
290
     0
176
     0
290
     0
176
     0
290
     0
176
     0
290
     0
176
     0
290
     0
176
     0
 90
       50
176
     0
 40
0.0
176
     0
 40
1.0
176
     0
 90
        0
176
     0
 62
    18
420
        0
176
     0
 90
       50
176
     0
 90
        3
176
     0
 62
     5
420
      255
176
     0
290
     0
176
     0
 90
       50
176
     0
 90
       50
176
     0
 90
       50
176
     0
290
     0
176
     0
 90
       50
176
     0
 62
   256
176
     0
 40
1.0
176
     0
 90
        2
176
     0
  1
strokes_ogs.tif
176
     0
290
     0
176
     0
 40
1.0
176
     0
 40
1.0
176
     0
  0
VISUALSTYLE
  5
7E07
102
{ACAD_REACTORS
330
7DF9
102
}
330
7DF9
100
AcDbVisualStyle
  2
Linepattern
 70
    14
177
     3
291
     1
 70
    58
 90
        2
176
     1
 90
        2
176
     1
 90
        0
176
     1
 90
        0
176
     1
 40
0.6
176
     1
 40
30.0
176
     1
 62
     7
420
 16777215
176
     1
 90
        1
176
     1
 90
        4
176
     1
 62
     7
176
     1
 62
   257
176
     1
 90
        7
176
     1
 90
        7
176
     1
 40
1.0
176
     1
 90
        8
176
     1
 62
     7
176
     1
 40
1.0
176
     1
 90
        1
176
     1
 90
        6
176
     1
 90
        2
176
     1
 62
     7
176
     1
 90
        5
176
     1
 90
        0
176
     1
 90
        0
176
     1
290
     0
176
     1
 90
        1
176
     1
 40
0.0
176
     1
 90
        0
176
     1
290
     0
176
     1
290
     1
176
     1
290
     1
176
     1
290
     0
176
     1
290
     0
176
     1
290
     0
176
     1
290
     0
176
     1
290
     0
176
     1
290
     0
176
     1
 90
       50
176
     1
 40
0.0
176
     1
 40
1.0
176
     1
 90
        0
176
     1
 62
    18
420
        0
176
     1
 90
       50
176
     1
 90
        3
176
     1
 62
     5
420
      255
176
     1
290
     0
176
     1
 90
       50
176
     1
 90
       50
176
     1
 90
       50
176
     1
290
     0
176
     1
 90
       50
176
     1
 62
   256
176
     0
 40
1.0
176
     0
 90
        2
176
     1
  1
strokes_ogs.tif
176
     1
290
     0
176
     1
 40
1.0
176
     1
 40
1.0
176
     1
  0
VISUALSTYLE
  5
7E10
102
{ACAD_REACTORS
330
7DF9
102
}
330
7DF9
100
AcDbVisualStyle
  2
OverhangOff
 70
    21
177
     3
291
     1
 70
    58
 90
        2
176
     0
 90
        2
176
     0
 90
        0
176
     0
 90
        0
176
     0
 40
0.6
176
     0
 40
30.0
176
     0
 62
     7
420
 16777215
176
     0
 90
        1
176
     0
 90
        4
176
     0
 62
     7
176
     0
 62
   257
176
     0
 90
        1
176
     0
 90
        1
176
     0
 40
1.0
176
     0
 90
        9
176
     2
 62
     7
176
     0
 40
1.0
176
     0
 90
        1
176
     0
 90
        6
176
     0
 90
        2
176
     0
 62
     7
176
     0
 90
        5
176
     0
 90
        0
176
     0
 90
        0
176
     0
290
     0
176
     0
 90
        1
176
     0
 40
0.0
176
     0
 90
        0
176
     0
290
     0
176
     0
290
     1
176
     0
290
     1
176
     0
290
     0
176
     0
290
     0
176
     0
290
     0
176
     0
290
     0
176
     0
290
     0
176
     0
290
     0
176
     0
 90
       50
176
     0
 40
0.0
176
     0
 40
1.0
176
     0
 90
        0
176
     0
 62
    18
420
        0
176
     0
 90
       50
176
     0
 90
        3
176
     0
 62
     5
420
      255
176
     0
290
     0
176
     0
 90
       50
176
     0
 90
       50
176
     0
 90
       50
176
     0
290
     0
176
     0
 90
       50
176
     0
 62
   256
176
     0
 40
1.0
176
     0
 90
        2
176
     0
  1
strokes_ogs.tif
176
     0
290
     0
176
     0
 40
1.0
176
     0
 40
1.0
176
     0
  0
VISUALSTYLE
  5
7E03
102
{ACAD_REACTORS
330
7DF9
102
}
330
7DF9
100
AcDbVisualStyle
  2
Realistic
 70
     8
177
     3
291
     0
 70
    58
 90
        2
176
     1
 90
        3
176
     1
 90
        0
176
     1
 90
        2
176
     1
 40
0.6
176
     1
 40
30.0
176
     1
 62
     7
420
 16777215
176
     1
 90
        0
176
     1
 90
        0
176
     1
 62
     7
176
     1
 62
   257
176
     1
 90
        1
176
     1
 90
        1
176
     1
 40
1.0
176
     1
 90
        8
176
     1
 62
   257
176
     1
 40
1.0
176
     1
 90
        1
176
     1
 90
        6
176
     1
 90
        2
176
     1
 62
     7
176
     1
 90
        3
176
     1
 90
        0
176
     1
 90
        0
176
     1
290
     0
176
     1
 90
       13
176
     1
 40
0.0
176
     1
 90
        0
176
     1
290
     0
176
     1
290
     1
176
     1
290
     1
176
     1
290
     0
176
     1
290
     0
176
     1
290
     0
176
     1
290
     0
176
     1
290
     0
176
     1
290
     0
176
     1
 90
       50
176
     1
 40
0.0
176
     1
 40
1.0
176
     1
 90
        0
176
     1
 62
    18
420
        0
176
     1
 90
       50
176
     1
 90
        3
176
     1
 62
     5
420
      255
176
     1
290
     0
176
     1
 90
       50
176
     1
 90
       50
176
     1
 90
       50
176
     1
290
     0
176
     1
 90
       50
176
     1
 62
   256
176
     0
 40
1.0
176
     0
 90
        2
176
     1
  1
strokes_ogs.tif
176
     1
290
     0
176
     1
 40
1.0
176
     1
 40
1.0
176
     1
  0
VISUALSTYLE
  5
7E0E
102
{ACAD_REACTORS
330
7DF9
102
}
330
7DF9
100
AcDbVisualStyle
  2
Shaded
 70
    27
177
     3
291
     0
 70
    58
 90
        2
176
     1
 90
        2
176
     1
 90
        1
176
     1
 90
        2
176
     1
 40
0.6
176
     1
 40
30.0
176
     1
 62
     7
420
 16777215
176
     1
 90
        0
176
     1
 90
        4
176
     1
 62
     7
176
     1
 62
   257
176
     1
 90
        1
176
     1
 90
        1
176
     1
 40
1.0
176
     1
 90
        8
176
     1
 62
   257
176
     1
 40
1.0
176
     1
 90
        1
176
     1
 90
        6
176
     1
 90
        2
176
     1
 62
     8
420
  7895160
176
     1
 90
        3
176
     1
 90
        0
176
     1
 90
        0
176
     1
290
     0
176
     1
 90
        5
176
     1
 40
0.0
176
     1
 90
        0
176
     1
290
     0
176
     1
290
     1
176
     1
290
     1
176
     1
290
     0
176
     1
290
     0
176
     1
290
     0
176
     1
290
     0
176
     1
290
     0
176
     1
290
     0
176
     1
 90
       50
176
     1
 40
0.0
176
     1
 40
1.0
176
     1
 90
        0
176
     1
 62
    18
420
        0
176
     1
 90
       50
176
     1
 90
        3
176
     1
 62
     5
420
      255
176
     1
290
     0
176
     1
 90
       50
176
     1
 90
       50
176
     1
 90
       50
176
     1
290
     0
176
     1
 90
       50
176
     1
 62
   256
176
     0
 40
1.0
176
     0
 90
        2
176
     1
  1
strokes_ogs.tif
176
     1
290
     0
176
     1
 40
1.0
176
     1
 40
1.0
176
     1
  0
VISUALSTYLE
  5
7E0D
102
{ACAD_REACTORS
330
7DF9
102
}
330
7DF9
100
AcDbVisualStyle
  2
Shaded with edges
 70
    26
177
     3
291
     0
 70
    58
 90
        2
176
     1
 90
        2
176
     1
 90
        1
176
     1
 90
        2
176
     1
 40
0.6
176
     1
 40
30.0
176
     1
 62
     7
420
 16777215
176
     1
 90
        1
176
     1
 90
       10
176
     1
 62
     7
176
     1
 62
   257
176
     1
 90
        2
176
     1
 90
        1
176
     1
 40
1.0
176
     1
 90
        8
176
     1
 62
   257
176
     1
 40
1.0
176
     1
 90
        1
176
     1
 90
        6
176
     1
 90
        2
176
     1
 62
     7
176
     1
 90
        3
176
     1
 90
        0
176
     1
 90
        0
176
     1
290
     0
176
     1
 90
        5
176
     1
 40
0.0
176
     1
 90
        0
176
     1
290
     0
176
     1
290
     1
176
     1
290
     1
176
     1
290
     0
176
     1
290
     0
176
     1
290
     0
176
     1
290
     0
176
     1
290
     0
176
     1
290
     0
176
     1
 90
       50
176
     1
 40
0.0
176
     1
 40
1.0
176
     1
 90
        0
176
     1
 62
    18
420
        0
176
     1
 90
       50
176
     1
 90
        3
176
     1
 62
     5
420
      255
176
     1
290
     0
176
     1
 90
       50
176
     1
 90
       50
176
     1
 90
       50
176
     1
290
     0
176
     1
 90
       50
176
     1
 62
   256
176
     0
 40
1.0
176
     0
 90
        2
176
     1
  1
strokes_ogs.tif
176
     1
290
     0
176
     1
 40
1.0
176
     1
 40
1.0
176
     1
  0
VISUALSTYLE
  5
7E0A
102
{ACAD_REACTORS
330
7DF9
102
}
330
7DF9
100
AcDbVisualStyle
  2
Shades of Gray
 70
    23
177
     3
291
     0
 70
    58
 90
        2
176
     1
 90
        2
176
     1
 90
        3
176
     1
 90
        0
176
     1
 40
0.6
176
     1
 40
30.0
176
     1
 62
     7
420
 16777215
176
     1
 90
        2
176
     1
 90
        2
176
     1
 62
     7
176
     1
 62
     7
176
     1
 90
        1
176
     1
 90
        1
176
     1
 40
40.0
176
     1
 90
        8
176
     1
 62
     7
176
     1
 40
1.0
176
     1
 90
        1
176
     1
 90
        6
176
     1
 90
        2
176
     1
 62
     7
176
     1
 90
        3
176
     1
 90
        0
176
     1
 90
        0
176
     1
290
     0
176
     1
 90
        1
176
     1
 40
0.0
176
     1
 90
        0
176
     1
290
     0
176
     1
290
     1
176
     1
290
     1
176
     1
290
     0
176
     1
290
     0
176
     1
290
     0
176
     1
290
     0
176
     1
290
     0
176
     1
290
     0
176
     1
 90
       50
176
     1
 40
0.0
176
     1
 40
1.0
176
     1
 90
        0
176
     1
 62
    18
420
        0
176
     1
 90
       50
176
     1
 90
        3
176
     1
 62
     5
420
      255
176
     1
290
     0
176
     1
 90
       50
176
     1
 90
       50
176
     1
 90
       50
176
     1
290
     0
176
     1
 90
       50
176
     1
 62
   256
176
     0
 40
1.0
176
     0
 90
        2
176
     1
  1
strokes_ogs.tif
176
     1
290
     0
176
     1
 40
1.0
176
     1
 40
1.0
176
     1
  0
VISUALSTYLE
  5
7E0B
102
{ACAD_REACTORS
330
7DF9
102
}
330
7DF9
100
AcDbVisualStyle
  2
Sketchy
 70
    24
177
     3
291
     0
 70
    58
 90
        1
176
     1
 90
        2
176
     1
 90
        2
176
     1
 90
        0
176
     1
 40
0.6
176
     1
 40
30.0
176
     1
 62
     7
420
 16777215
176
     1
 90
        2
176
     1
 90
        2
176
     1
 62
     7
176
     1
 62
     7
176
     1
 90
        1
176
     1
 90
        1
176
     1
 40
40.0
176
     1
 90
       11
176
     1
 62
     7
176
     1
 40
1.0
176
     1
 90
        1
176
     1
 90
        6
176
     1
 90
        2
176
     1
 62
     7
176
     1
 90
        6
176
     1
 90
        0
176
     1
 90
        0
176
     1
290
     0
176
     1
 90
        1
176
     1
 40
0.0
176
     1
 90
        0
176
     1
290
     0
176
     1
290
     1
176
     1
290
     1
176
     1
290
     0
176
     1
290
     0
176
     1
290
     0
176
     1
290
     0
176
     1
290
     0
176
     1
290
     0
176
     1
 90
       50
176
     1
 40
0.0
176
     1
 40
1.0
176
     1
 90
        0
176
     1
 62
    18
420
        0
176
     1
 90
       50
176
     1
 90
        3
176
     1
 62
     5
420
      255
176
     1
290
     0
176
     1
 90
       50
176
     1
 90
       50
176
     1
 90
       50
176
     1
290
     0
176
     1
 90
       50
176
     1
 62
   256
176
     0
 40
1.0
176
     0
 90
        2
176
     1
  1
strokes_ogs.tif
176
     1
290
     0
176
     1
 40
1.0
176
     1
 40
1.0
176
     1
  0
VISUALSTYLE
  5
7E06
102
{ACAD_REACTORS
330
7DF9
102
}
330
7DF9
100
AcDbVisualStyle
  2
Thicken
 70
    13
177
     3
291
     1
 70
    58
 90
        2
176
     1
 90
        2
176
     1
 90
        0
176
     1
 90
        0
176
     1
 40
0.6
176
     1
 40
30.0
176
     1
 62
     7
420
 16777215
176
     1
 90
        1
176
     1
 90
        4
176
     1
 62
     7
176
     1
 62
   257
176
     1
 90
        1
176
     1
 90
        1
176
     1
 40
1.0
176
     1
 90
       12
176
     1
 62
     7
176
     1
 40
1.0
176
     1
 90
        1
176
     1
 90
        6
176
     1
 90
        2
176
     1
 62
     7
176
     1
 90
        5
176
     1
 90
        0
176
     1
 90
        0
176
     1
290
     0
176
     1
 90
        1
176
     1
 40
0.0
176
     1
 90
        0
176
     1
290
     0
176
     1
290
     1
176
     1
290
     1
176
     1
290
     0
176
     1
290
     0
176
     1
290
     0
176
     1
290
     0
176
     1
290
     0
176
     1
290
     0
176
     1
 90
       50
176
     1
 40
0.0
176
     1
 40
1.0
176
     1
 90
        0
176
     1
 62
    18
420
        0
176
     1
 90
       50
176
     1
 90
        3
176
     1
 62
     5
420
      255
176
     1
290
     0
176
     1
 90
       50
176
     1
 90
       50
176
     1
 90
       50
176
     1
290
     0
176
     1
 90
       50
176
     1
 62
   256
176
     0
 40
1.0
176
     0
 90
        2
176
     1
  1
strokes_ogs.tif
176
     1
290
     0
176
     1
 40
1.0
176
     1
 40
1.0
176
     1
  0
VISUALSTYLE
  5
7E00
102
{ACAD_REACTORS
330
7DF9
102
}
330
7DF9
100
AcDbVisualStyle
  2
Wireframe
 70
     5
177
     3
291
     0
 70
    58
 90
        0
176
     1
 90
        2
176
     1
 90
        0
176
     1
 90
        0
176
     1
 40
0.6
176
     1
 40
30.0
176
     1
 62
     7
420
 16777215
176
     1
 90
        1
176
     1
 90
        4
176
     1
 62
     7
176
     1
 62
   257
176
     1
 90
        1
176
     1
 90
        1
176
     1
 40
1.0
176
     1
 90
        0
176
     1
 62
   257
176
     1
 40
1.0
176
     1
 90
        1
176
     1
 90
        6
176
     1
 90
        2
176
     1
 62
     7
176
     1
 90
        3
176
     1
 90
        0
176
     1
 90
        0
176
     1
290
     0
176
     1
 90
        1
176
     1
 40
0.0
176
     1
 90
        0
176
     1
290
     0
176
     1
290
     1
176
     1
290
     1
176
     1
290
     0
176
     1
290
     0
176
     1
290
     0
176
     1
290
     0
176
     1
290
     0
176
     1
290
     0
176
     1
 90
       50
176
     1
 40
0.0
176
     1
 40
1.0
176
     1
 90
        0
176
     1
 62
    18
420
        0
176
     1
 90
       50
176
     1
 90
        3
176
     1
 62
     5
420
      255
176
     1
290
     0
176
     1
 90
       50
176
     1
 90
       50
176
     1
 90
       50
176
     1
290
     0
176
     1
 90
       50
176
     1
 62
   256
176
     0
 40
1.0
176
     0
 90
        2
176
     1
  1
strokes_ogs.tif
176
     1
290
     0
176
     1
 40
1.0
176
     1
 40
1.0
176
     1
  0
VISUALSTYLE
  5
7E0C
102
{ACAD_REACTORS
330
7DF9
102
}
330
7DF9
100
AcDbVisualStyle
  2
X-Ray
 70
    25
177
     3
291
     0
 70
    58
 90
        2
176
     1
 90
        2
176
     1
 90
        1
176
     1
 90
        1
176
     1
 40
0.5
176
     1
 40
30.0
176
     1
 62
     7
420
 16777215
176
     1
 90
        1
176
     1
 90
        0
176
     1
 62
     7
176
     1
 62
   257
176
     1
 90
        1
176
     1
 90
        1
176
     1
 40
1.0
176
     1
 90
        8
176
     1
 62
     7
176
     1
 40
1.0
176
     1
 90
        1
176
     1
 90
        6
176
     1
 90
        2
176
     1
 62
     7
176
     1
 90
        3
176
     1
 90
        0
176
     1
 90
        0
176
     1
290
     0
176
     1
 90
       13
176
     1
 40
0.0
176
     1
 90
        0
176
     1
290
     0
176
     1
290
     1
176
     1
290
     1
176
     1
290
     0
176
     1
290
     0
176
     1
290
     0
176
     1
290
     0
176
     1
290
     0
176
     1
290
     0
176
     1
 90
       50
176
     1
 40
0.0
176
     1
 40
1.0
176
     1
 90
        0
176
     1
 62
    18
420
        0
176
     1
 90
       50
176
     1
 90
        3
176
     1
 62
     5
420
      255
176
     1
290
     0
176
     1
 90
       50
176
     1
 90
       50
176
     1
 90
       50
176
     1
290
     0
176
     1
 90
       50
176
     1
 62
   256
176
     0
 40
1.0
176
     0
 90
        2
176
     1
  1
strokes_ogs.tif
176
     1
290
     0
176
     1
 40
1.0
176
     1
 40
1.0
176
     1
  0
DICTIONARYVAR
  5
7EC6
102
{ACAD_REACTORS
330
7DD8
102
}
330
7DD8
100
DictionaryVariables
280
     0
  1
1:1
  0
DICTIONARYVAR
  5
7EC2
102
{ACAD_REACTORS
330
7DD8
102
}
330
7DD8
100
DictionaryVariables
280
     0
  1
STANDARD
  0
DICTIONARYVAR
  5
7EC1
102
{ACAD_REACTORS
330
7DD8
102
}
330
7DD8
100
DictionaryVariables
280
     0
  1
STANDARD
  0
DICTIONARYVAR
  5
7EC3
102
{ACAD_REACTORS
330
7DD8
102
}
330
7DD8
100
DictionaryVariables
280
     0
  1
Imperial24
  0
DICTIONARYVAR
  5
7EC4
102
{ACAD_REACTORS
330
7DD8
102
}
330
7DD8
100
DictionaryVariables
280
     0
  1
Imperial24
  0
DICTIONARYVAR
  5
7DD9
102
{ACAD_REACTORS
330
7DD8
102
}
330
7DD8
100
DictionaryVariables
280
     0
  1
1
  0
DICTIONARYVAR
  5
7EC8
102
{ACAD_REACTORS
330
7DD8
102
}
330
7DD8
100
DictionaryVariables
280
     0
  1
1
  0
DICTIONARYVAR
  5
7EC9
102
{ACAD_REACTORS
330
7DD8
102
}
330
7DD8
100
DictionaryVariables
280
     0
  1
15
  0
DICTIONARYVAR
  5
7EC7
102
{ACAD_REACTORS
330
7DD8
102
}
330
7DD8
100
DictionaryVariables
280
     0
  1
0
  0
DICTIONARYVAR
  5
7EC5
102
{ACAD_REACTORS
330
7DD8
102
}
330
7DD8
100
DictionaryVariables
280
     0
  1
0
  0
DICTIONARY
  5
7EBE
330
7E2C
100
AcDbDictionary
280
     1
281
     1
  3
ACAD_XREC_ROUNDTRIP
360
7F21
  0
DICTIONARY
  5
7DEA
330
7DE9
100
AcDbDictionary
280
     1
281
     1
  3
BUMPTILE
360
7DEC
  3
DIFFUSETILE
360
7DEB
  3
OPACITYTILE
360
7DEF
  3
REFLECTIONTILE
360
7DEE
  3
REFRACTIONTILE
360
7DF0
  3
SPECULARTILE
360
7DED
  0
DICTIONARY
  5
7DE2
330
7DE1
100
AcDbDictionary
280
     1
281
     1
  3
BUMPTILE
360
7DE4
  3
DIFFUSETILE
360
7DE3
  3
OPACITYTILE
360
7DE7
  3
REFLECTIONTILE
360
7DE6
  3
REFRACTIONTILE
360
7DE8
  3
SPECULARTILE
360
7DE5
  0
DICTIONARY
  5
7DF2
330
7DF1
100
AcDbDictionary
280
     1
281
     1
  3
BUMPTILE
360
7DF4
  3
DIFFUSETILE
360
7DF3
  3
OPACITYTILE
360
7DF7
  3
REFLECTIONTILE
360
7DF6
  3
REFRACTIONTILE
360
7DF8
  3
SPECULARTILE
360
7DF5
  0
DICTIONARY
  5
7EBC
330
7E2A
100
AcDbDictionary
280
     1
281
     1
  3
ACAD_XREC_ROUNDTRIP
360
7F20
  0
DICTIONARY
  5
7F1E
330
7E14
100
AcDbDictionary
280
     1
281
     1
  3
ACAD_ROUNDTRIP_2008_TABLESTYLE_CELLSTYLEMAP
360
7F1F
  0
XRECORD
  5
7F21
102
{ACAD_REACTORS
330
7EBE
102
}
330
7EBE
100
AcDbXrecord
280
     1
102
DISPLAYNAME
  1
Imperial24
102
FLAGS
 90
        0
  0
XRECORD
  5
7DEC
102
{ACAD_REACTORS
330
7DEA
102
}
330
7DEA
100
AcDbXrecord
280
     1
270
     1
271
     1
  0
XRECORD
  5
7DEB
102
{ACAD_REACTORS
330
7DEA
102
}
330
7DEA
100
AcDbXrecord
280
     1
270
     1
271
     1
  0
XRECORD
  5
7DEF
102
{ACAD_REACTORS
330
7DEA
102
}
330
7DEA
100
AcDbXrecord
280
     1
270
     1
271
     1
  0
XRECORD
  5
7DEE
102
{ACAD_REACTORS
330
7DEA
102
}
330
7DEA
100
AcDbXrecord
280
     1
270
     1
271
     1
  0
XRECORD
  5
7DF0
102
{ACAD_REACTORS
330
7DEA
102
}
330
7DEA
100
AcDbXrecord
280
     1
270
     1
271
     1
  0
XRECORD
  5
7DED
102
{ACAD_REACTORS
330
7DEA
102
}
330
7DEA
100
AcDbXrecord
280
     1
270
     1
271
     1
  0
XRECORD
  5
7DE4
102
{ACAD_REACTORS
330
7DE2
102
}
330
7DE2
100
AcDbXrecord
280
     1
270
     1
271
     1
  0
XRECORD
  5
7DE3
102
{ACAD_REACTORS
330
7DE2
102
}
330
7DE2
100
AcDbXrecord
280
     1
270
     1
271
     1
  0
XRECORD
  5
7DE7
102
{ACAD_REACTORS
330
7DE2
102
}
330
7DE2
100
AcDbXrecord
280
     1
270
     1
271
     1
  0
XRECORD
  5
7DE6
102
{ACAD_REACTORS
330
7DE2
102
}
330
7DE2
100
AcDbXrecord
280
     1
270
     1
271
     1
  0
XRECORD
  5
7DE8
102
{ACAD_REACTORS
330
7DE2
102
}
330
7DE2
100
AcDbXrecord
280
     1
270
     1
271
     1
  0
XRECORD
  5
7DE5
102
{ACAD_REACTORS
330
7DE2
102
}
330
7DE2
100
AcDbXrecord
280
     1
270
     1
271
     1
  0
XRECORD
  5
7DF4
102
{ACAD_REACTORS
330
7DF2
102
}
330
7DF2
100
AcDbXrecord
280
     1
270
     1
271
     1
  0
XRECORD
  5
7DF3
102
{ACAD_REACTORS
330
7DF2
102
}
330
7DF2
100
AcDbXrecord
280
     1
270
     1
271
     1
  0
XRECORD
  5
7DF7
102
{ACAD_REACTORS
330
7DF2
102
}
330
7DF2
100
AcDbXrecord
280
     1
270
     1
271
     1
  0
XRECORD
  5
7DF6
102
{ACAD_REACTORS
330
7DF2
102
}
330
7DF2
100
AcDbXrecord
280
     1
270
     1
271
     1
  0
XRECORD
  5
7DF8
102
{ACAD_REACTORS
330
7DF2
102
}
330
7DF2
100
AcDbXrecord
280
     1
270
     1
271
     1
  0
XRECORD
  5
7DF5
102
{ACAD_REACTORS
330
7DF2
102
}
330
7DF2
100
AcDbXrecord
280
     1
270
     1
271
     1
  0
XRECORD
  5
7F20
102
{ACAD_REACTORS
330
7EBC
102
}
330
7EBC
100
AcDbXrecord
280
     1
102
DISPLAYNAME
  1
Imperial24
102
FLAGS
 90
        0
  0
CELLSTYLEMAP
  5
7F1F
102
{ACAD_REACTORS
330
7F1E
102
}
330
7F1E
100
AcDbCellStyleMap
 90
        3
300
CELLSTYLE
  1
TABLEFORMAT_BEGIN
 90
        5
170
     1
 91
        0
 92
    32768
 62
   257
 93
        1
300
CONTENTFORMAT
  1
CONTENTFORMAT_BEGIN
 90
        0
 91
        0
 92
      512
 93
        0
300

 40
0.0
140
1.0
 94
        5
 62
     0
340
10
144
0.25
309
CONTENTFORMAT_END
171
     0
 94
        0
309
TABLEFORMAT_END
  1
CELLSTYLE_BEGIN
 90
        1
 91
        1
300
_TITLE
309
CELLSTYLE_END
300
CELLSTYLE
  1
TABLEFORMAT_BEGIN
 90
        5
170
     1
 91
        0
 92
        0
 62
   257
 93
        1
300
CONTENTFORMAT
  1
CONTENTFORMAT_BEGIN
 90
        0
 91
        0
 92
      512
 93
        0
300

 40
0.0
140
1.0
 94
        5
 62
     0
340
10
144
0.18
309
CONTENTFORMAT_END
171
     0
 94
        0
309
TABLEFORMAT_END
  1
CELLSTYLE_BEGIN
 90
        2
 91
        1
300
_HEADER
309
CELLSTYLE_END
300
CELLSTYLE
  1
TABLEFORMAT_BEGIN
 90
        5
170
     1
 91
        0
 92
        0
 62
   257
 93
        1
300
CONTENTFORMAT
  1
CONTENTFORMAT_BEGIN
 90
        0
 91
        0
 92
      512
 93
        0
300

 40
0.0
140
1.0
 94
        2
 62
     0
340
10
144
0.18
309
CONTENTFORMAT_END
171
     0
 94
        0
309
TABLEFORMAT_END
  1
CELLSTYLE_BEGIN
 90
        3
 91
        2
300
_DATA
309
CELLSTYLE_END
  0
ENDSEC
  0
SECTION
  2
ACDSDATA
 70
     2
 71
     8
  0
ACDSSCHEMA
 90
        0
  1
AcDb_Thumbnail_Schema
  2
AcDbDs::ID
280
    10
 91
        8
  2
Thumbnail_Data
280
    15
 91
        0
101
ACDSRECORD
 95
        0
 90
        1
  2
AcDbDs::TreatedAsObjectData
280
     1
291
     1
101
ACDSRECORD
 95
        0
 90
        2
  2
AcDbDs::Legacy
280
     1
291
     1
101
ACDSRECORD
  1
AcDbDs::ID
 90
        3
  2
AcDs:Indexable
280
     1
291
     1
101
ACDSRECORD
  1
AcDbDs::ID
 90
        4
  2
AcDbDs::HandleAttribute
280
     7
282
     1
  0
ACDSSCHEMA
 90
        1
  1
AcDbDs::TreatedAsObjectDataSchema
  2
AcDbDs::TreatedAsObjectData
280
     1
 91
        0
  0
ACDSSCHEMA
 90
        2
  1
AcDbDs::LegacySchema
  2
AcDbDs::Legacy
280
     1
 91
        0
  0
ACDSSCHEMA
 90
        3
  1
AcDbDs::IndexedPropertySchema
  2
AcDs:Indexable
280
     1
 91
        0
  0
ACDSSCHEMA
 90
        4
  1
AcDbDs::HandleAttributeSchema
  2
AcDbDs::HandleAttribute
280
     7
 91
        1
284
     1
  0
ACDSRECORD
 90
        0
  2
AcDbDs::ID
280
    10
320
7D1F
  2
Thumbnail_Data
280
    15
 94
     1748
310
89504E470D0A1A0A0000000D49484452000001000000007C0803000000B13B9E5A00000300504C5445000000000000C8C8C80000000000000000000000000000000000000000000000000000330000660000990000CC0000FF0033000033330033660033990033CC0033FF0066000066330066660066990066CC0066FF0099
310
000099330099660099990099CC0099FF00CC0000CC3300CC6600CC9900CCCC00CCFF00FF0000FF3300FF6600FF9900FFCC00FFFF3300003300333300663300993300CC3300FF3333003333333333663333993333CC3333FF3366003366333366663366993366CC3366FF3399003399333399663399993399CC3399FF33CC00
310
33CC3333CC6633CC9933CCCC33CCFF33FF0033FF3333FF6633FF9933FFCC33FFFF6600006600336600666600996600CC6600FF6633006633336633666633996633CC6633FF6666006666336666666666996666CC6666FF6699006699336699666699996699CC6699FF66CC0066CC3366CC6666CC9966CCCC66CCFF66FF0066
310
FF3366FF6666FF9966FFCC66FFFF9900009900339900669900999900CC9900FF9933009933339933669933999933CC9933FF9966009966339966669966999966CC9966FF9999009999339999669999999999CC9999FF99CC0099CC3399CC6699CC9999CCCC99CCFF99FF0099FF3399FF6699FF9999FFCC99FFFFCC0000CC00
310
33CC0066CC0099CC00CCCC00FFCC3300CC3333CC3366CC3399CC33CCCC33FFCC6600CC6633CC6666CC6699CC66CCCC66FFCC9900CC9933CC9966CC9999CC99CCCC99FFCCCC00CCCC33CCCC66CCCC99CCCCCCCCCCFFCCFF00CCFF33CCFF66CCFF99CCFFCCCCFFFFFF0000FF0033FF0066FF0099FF00CCFF00FFFF3300FF3333
310
FF3366FF3399FF33CCFF33FFFF6600FF6633FF6666FF6699FF66CCFF66FFFF9900FF9933FF9966FF9999FF99CCFF99FFFFCC00FFCC33FFCC66FFCC99FFCCCCFFCCFFFFFF00FFFF33FFFF66FFFF99FFFFCCFFFFFF0000000D0D0D1A1A1A2828283535354343435050505D5D5D6B6B6B787878868686939393A1A1A1AEAEAEBB
310
BBBBC9C9C9D6D6D6E4E4E4F1F1F1FFFFFF00000000000000000000000000000000000000000000000000000000000008F1915C000003764944415478DAED9D5B6E2B210C86BD9C7961FF9BF136786F03B631B7C9443DD209B6FF4A4D432EAA3F6C636640007C9FF24AE048F9619B5D0079B6D71980D9E9DD79C0482072C0A9
310
7EFCCF64A21BBFE7EB02C07F02505D39973C579ED4A7DC409163074031514CD601AD1E61F9027D473E1D0075FA68A66EE077E874472E01F9700020E6CD1E00ADC3A13E177720709DD9E7E6802E04A8CAE5DF8243DB2D99A1B33A4681001095A03B9D6F731ED2DCDA35FA8CD9460530D0F332DAEBE9ED68BF544B1A00C83861
310
C303F20E00489D202F811D00CE334028140A8542A1502814225D01C0AB52D5959A9C01200F60BBDD02A0BF92B4F80300E4FEBE005C4B7136C022E339701102920C5F4D083E00E8249840A503F30016C3A002603D02C4DF2F5D0338034021D09B1E0002002541F700C06512745407E062186C7250092275F81280F5DE1700BF
310
3F5737094AD4EA0580770FE0E9F0FE550700CADF53C60B000E00DC0B42A15028140A8542A15028140A81C559B298F4C43601608603F636E1FE32104E00D08E4F3FB90C64F48211B607EEDBFB770A0C23970C19008A55EF0150D81803F03E04E6603016020B57DF7940BD93723280299FA95BC29B95922877CF91EEA59D0D80
310
A2BD1851D786F142B9CD47DA2ADA64C003809338EA9BA3AE0070F907E30A910F009C9C080540359B164BDFAD169F011CBD864A03207B2A81F40900B4022095B5C26F4280D834626703E0518000800C043B1F48DDE2311B0010AFAD76005EDB09785BC1752A0055F54FCBE4EA0AA9B4F1002339404DE6D29803B6D5802D00D0
310
0380570E2000C0B96E310A8C004E2D860A002400C5EEAB2B03F4BE897B00077B007B6F9252B8D2A84D579A5C600E81732B4154FFBBCA01AD12A061F16D0E38BA0A521E200B256B2D9068EF9C5D00AA122C6B82390748FAB3EE016A3A5CB74C4808B0A9F739800B073B002404206DB791CFA300580070BB61623917A00F1C0F
310
809280DA3CBD9A006F1B6C006857431F7840EF042600C01F3AF4B2E5001B0F48763D600480EB5D63E3A7F62F1D3A2390C91CEE868ADD73130060719FB39BE0AC00BCB9877C5410E850C0058069AAF7E01EF2B9009E6C9931B538227604416C890A854222F7072C8C67EBB4F6071FB505208F00F4114BB91DBBD34E9F310EA0
310
B3B9050B9F406407C0E7FE9D4D854024C1B545DD615BEBEEB6E80123187E80EC14803E94C7C33038854077DA9E070FF88E24F803BA94D68943C07D300000000049454E44AE426082A873B30000000049454E44AE426082000049454E44AE426082
  0
ENDSEC
  0
EOF
