  0
SECTION
  2
HEADER
  9
$ACADVER
  1
AC1009
  9
$INSBASE
 10
0.0
 20
0.0
 30
0.0
  9
$EXTMIN
 10
375.0
 20
450.0
 30
0.0
  9
$EXTMAX
 10
2775.0
 20
4179.978392
 30
0.0
  9
$LIMMIN
 10
0.0
 20
0.0
  9
$LIMMAX
 10
297.0
 20
210.0
  9
$ORTHOMODE
 70
     0
  9
$REGENMODE
 70
     1
  9
$FILLMODE
 70
     0
  9
$QTEXTMODE
 70
     0
  9
$MIRRTEXT
 70
     1
  9
$DRAGMODE
 70
     2
  9
$LTSCALE
 40
100.0
  9
$OSMODE
 70
    37
  9
$ATTMODE
 70
     1
  9
$TEXTSIZE
 40
180.0
  9
$TRACEWID
 40
0.05
  9
$TEXTSTYLE
  7
STANDARD
  9
$CLAYER
  8
3
  9
$CELTYPE
  6
BYLAYER
  9
$CECOLOR
 62
   256
  9
$DIMSCALE
 40
15.0
  9
$DIMASZ
 40
2.0
  9
$DIMEXO
 40
0.5
  9
$DIMDLI
 40
10.0
  9
$DIMRND
 40
0.0
  9
$DIMDLE
 40
0.0
  9
$DIMEXE
 40
1.0
  9
$DIMTP
 40
1.0
  9
$DIMTM
 40
1.0
  9
$DIMTXT
 40
3.0
  9
$DIMCEN
 40
0.0
  9
$DIMTSZ
 40
0.0
  9
$DIMTOL
 70
     0
  9
$DIMLIM
 70
     0
  9
$DIMTIH
 70
     0
  9
$DIMTOH
 70
     0
  9
$DIMSE1
 70
     0
  9
$DIMSE2
 70
     0
  9
$DIMTAD
 70
     1
  9
$DIMZIN
 70
     8
  9
$DIMBLK
  1

  9
$DIMASO
 70
     1
  9
$DIMSHO
 70
     1
  9
$DIMPOST
  1

  9
$DIMAPOST
  1

  9
$DIMALT
 70
     0
  9
$DIMALTD
 70
     2
  9
$DIMALTF
 40
0.039
  9
$DIMLFAC
 40
1.0
  9
$DIMTOFL
 70
     1
  9
$DIMTVP
 40
0.0
  9
$DIMTIX
 70
     0
  9
$DIMSOXD
 70
     0
  9
$DIMSAH
 70
     1
  9
$DIMBLK1
  1
OPEN
  9
$DIMBLK2
  1
OPEN
  9
$DIMSTYLE
  2
IGA
  9
$DIMCLRD
 70
     0
  9
$DIMCLRE
 70
     0
  9
$DIMCLRT
 70
     0
  9
$DIMTFAC
 40
10.0
  9
$DIMGAP
 40
1.0
  9
$LUNITS
 70
     2
  9
$LUPREC
 70
     3
  9
$SKETCHINC
 40
0.1
  9
$FILLETRAD
 40
50.0
  9
$AUNITS
 70
     0
  9
$AUPREC
 70
     0
  9
$MENU
  1
acad
  9
$ELEVATION
 40
0.0
  9
$PELEVATION
 40
0.0
  9
$THICKNESS
 40
0.0
  9
$LIMCHECK
 70
     0
  9
$BLIPMODE
 70
     0
  9
$CHAMFERA
 40
0.5
  9
$CHAMFERB
 40
0.5
  9
$SKPOLY
 70
     0
  9
$TDCREATE
 40
2450745.6233190969
  9
$TDUPDATE
 40
2454953.8576670368
  9
$TDINDWG
 40
0.007006875
  9
$TDUSRTIMER
 40
0.007006875
  9
$USRTIMER
 70
     1
  9
$ANGBASE
 50
0.0
  9
$ANGDIR
 70
     0
  9
$PDMODE
 70
     0
  9
$PDSIZE
 40
0.0
  9
$PLINEWID
 40
0.0
  9
$COORDS
 70
     1
  9
$SPLFRAME
 70
     0
  9
$SPLINETYPE
 70
     6
  9
$SPLINESEGS
 70
     8
  9
$ATTDIA
 70
     0
  9
$ATTREQ
 70
     1
  9
$HANDLING
 70
 10241
  9
$HANDSEED
  5
7E5E
  9
$SURFTAB1
 70
     6
  9
$SURFTAB2
 70
     6
  9
$SURFTYPE
 70
     6
  9
$SURFU
 70
     6
  9
$SURFV
 70
     6
  9
$UCSNAME
  2

  9
$UCSORG
 10
0.0
 20
0.0
 30
0.0
  9
$UCSXDIR
 10
1.0
 20
0.0
 30
0.0
  9
$UCSYDIR
 10
0.0
 20
1.0
 30
0.0
  9
$PUCSNAME
  2

  9
$PUCSORG
 10
0.0
 20
0.0
 30
0.0
  9
$PUCSXDIR
 10
1.0
 20
0.0
 30
0.0
  9
$PUCSYDIR
 10
0.0
 20
1.0
 30
0.0
  9
$USERI1
 70
     0
  9
$USERI2
 70
     0
  9
$USERI3
 70
     0
  9
$USERI4
 70
     0
  9
$USERI5
 70
     0
  9
$USERR1
 40
0.0
  9
$USERR2
 40
0.0
  9
$USERR3
 40
0.0
  9
$USERR4
 40
0.0
  9
$USERR5
 40
0.0
  9
$WORLDVIEW
 70
     1
  9
$SHADEDGE
 70
     3
  9
$SHADEDIF
 70
    70
  9
$TILEMODE
 70
     1
  9
$MAXACTVP
 70
    16
  9
$PLIMCHECK
 70
     0
  9
$PEXTMIN
 10
1.0000000000000000E+020
 20
1.0000000000000000E+020
 30
1.0000000000000000E+020
  9
$PEXTMAX
 10
-1.0000000000000000E+020
 20
-1.0000000000000000E+020
 30
-1.0000000000000000E+020
  9
$PLIMMIN
 10
0.0
 20
0.0
  9
$PLIMMAX
 10
12.0
 20
9.0
  9
$UNITMODE
 70
     0
  9
$VISRETAIN
 70
     0
  9
$PLINEGEN
 70
     0
  9
$PSLTSCALE
 70
     1
  0
ENDSEC
  0
SECTION
  2
TABLES
  0
TABLE
  2
VPORT
 70
     2
  0
VPORT
  2
*ACTIVE
 70
     0
 10
0.0
 20
0.0
 11
1.0
 21
1.0
 12
4352.955133089532
 22
2988.1380024198502
 13
0.0
 23
0.0
 14
10.0
 24
10.0
 15
10.0
 25
10.0
 16
0.0
 26
0.0
 36
1.0
 17
0.0
 27
0.0
 37
0.0
 40
5790.646323821431
 41
1.5051150895140659
 42
50.0
 43
0.0
 44
0.0
 50
0.0
 51
0.0
 71
     0
 72
   100
 73
     1
 74
     0
 75
     0
 76
     0
 77
     0
 78
     0
  0
ENDTAB
  0
TABLE
  2
LTYPE
 70
     2
  0
LTYPE
  2
CONTINUOUS
 70
     0
  3
Solid line
 72
    65
 73
     0
 40
0.0
  0
LTYPE
  2
CENTER
 70
     0
  3
____ _ ____ _ ____ _ ____ _ ____ _ ____ _ ____ 
 72
    65
 73
     4
 40
2.0
 49
1.25
 49
-0.25
 49
0.25
 49
-0.25
  0
ENDTAB
  0
TABLE
  2
LAYER
 70
     6
  0
LAYER
  2
0
 70
     0
 62
     7
  6
CONTINUOUS
  0
LAYER
  2
3
 70
     0
 62
     2
  6
CONTINUOUS
  0
LAYER
  2
2
 70
     0
 62
     3
  6
CENTER
  0
LAYER
  2
1
 70
     0
 62
     4
  6
CONTINUOUS
  0
LAYER
  2
4
 70
     0
 62
     7
  6
CONTINUOUS
  0
LAYER
  2
DEFPOINTS
 70
     0
 62
     7
  6
CONTINUOUS
  0
ENDTAB
  0
TABLE
  2
STYLE
 70
     1
  0
STYLE
  2
STANDARD
 70
     0
 40
0.0
 41
1.0
 50
0.0
 71
     0
 42
180.0
  3
simplex.shx
  4
extfont.shx
  0
ENDTAB
  0
TABLE
  2
VIEW
 70
     0
  0
ENDTAB
  0
TABLE
  2
UCS
 70
     0
  0
ENDTAB
  0
TABLE
  2
APPID
 70
     1
  0
APPID
  2
ACAD
 70
     0
  0
ENDTAB
  0
TABLE
  2
DIMSTYLE
 70
     1
  0
DIMSTYLE
  2
IGA
 70
     0
  3

  4

  5

  6
OPEN
  7
OPEN
 40
2.0
 41
2.0
 42
0.5
 43
10.0
 44
1.0
 45
0.0
 46
0.0
 47
1.0
 48
1.0
140
3.0
141
0.0
142
0.0
143
0.03937
144
1.0
145
0.0
146
10.0
147
1.0
 71
     0
 72
     0
 73
     0
 74
     0
 75
     0
 76
     0
 77
     1
 78
     8
170
     0
171
     2
172
     0
173
     1
174
     0
175
     0
176
     0
177
     0
178
     0
  0
ENDTAB
  0
ENDSEC
  0
SECTION
  2
BLOCKS
  0
BLOCK
  8
0
  2
$MODEL_SPACE
 70
     0
 10
0.0
 20
0.0
 30
0.0
  3
$MODEL_SPACE
  1

  0
ENDBLK
  5
1B
  8
0
  0
BLOCK
 67
     1
  8
0
  2
$PAPER_SPACE
 70
     0
 10
0.0
 20
0.0
 30
0.0
  3
$PAPER_SPACE
  1

  0
ENDBLK
  5
18
 67
     1
  8
0
  0
BLOCK
  8
0
  2
_OPEN
 70
     0
 10
0.0
 20
0.0
 30
0.0
  3
_OPEN
  1

  0
LINE
  5
7B37
  8
0
  6
BYBLOCK
 62
     0
 10
-1.0
 20
0.166667
 30
0.0
 11
0.0
 21
0.0
 31
0.0
  0
LINE
  5
7B38
  8
0
  6
BYBLOCK
 62
     0
 10
0.0
 20
0.0
 30
0.0
 11
-1.0
 21
-0.166667
 31
0.0
  0
LINE
  5
7B39
  8
0
  6
BYBLOCK
 62
     0
 10
0.0
 20
0.0
 30
0.0
 11
-1.0
 21
0.0
 31
0.0
  0
ENDBLK
  5
7B3A
  8
0
  0
BLOCK
  8
0
  2
*D1
 70
     1
 10
0.0
 20
0.0
 30
0.0
  3
*D1
  1

  0
LINE
  5
7DB5
  8
3
  6
CONTINUOUS
 62
     0
 10
515.782331
 20
1236.3694069999999
 30
0.0
 11
515.782331
 21
1088.873724
 31
0.0
  0
LINE
  5
7DB6
  8
3
  6
CONTINUOUS
 62
     0
 10
1160.7823310000001
 20
1192.202305
 30
0.0
 11
1160.7823310000001
 21
1088.873724
 31
0.0
  0
LINE
  5
7DB7
  8
3
  6
CONTINUOUS
 62
     0
 10
545.782331
 20
1103.873724
 30
0.0
 11
1130.7823310000001
 21
1103.873724
 31
0.0
  0
INSERT
  5
7DB8
  8
3
  6
CONTINUOUS
 62
     0
  2
_OPEN
 10
515.782331
 20
1103.873724
 30
0.0
 41
30.0
 42
30.0
 43
30.0
 50
180.0
  0
INSERT
  5
7DB9
  8
3
  6
CONTINUOUS
 62
     0
  2
_OPEN
 10
1160.7823310000001
 20
1103.873724
 30
0.0
 41
30.0
 42
30.0
 43
30.0
  0
TEXT
  8
3
  40
45
  5
7E4C
  62
0
  72
0
  71
0
 10
767.634
 20
1061.72
 30
0.000000
  1
645
  0
POINT
  5
7DBB
  8
DEFPOINTS
  6
CONTINUOUS
 62
     0
 10
515.782331
 20
1243.8694069999999
 30
0.0
  0
POINT
  5
7DBC
  8
DEFPOINTS
  6
CONTINUOUS
 62
     0
 10
1160.7823310000001
 20
1199.702305
 30
0.0
  0
POINT
  5
7DBD
  8
DEFPOINTS
  6
CONTINUOUS
 62
     0
 10
1160.7823310000001
 20
1103.873724
 30
0.0
  0
ENDBLK
  5
7B47
  8
0
  0
BLOCK
  8
0
  2
*D2
 70
     1
 10
0.0
 20
0.0
 30
0.0
  3
*D2
  1

  0
LINE
  5
7DBE
  8
3
  6
CONTINUOUS
 62
     0
 10
1425.7823310000001
 20
1236.3694069999999
 30
0.0
 11
1425.7823310000001
 21
1088.873724
 31
0.0
  0
LINE
  5
7DBF
  8
3
  6
CONTINUOUS
 62
     0
 10
1190.7823310000001
 20
1103.873724
 30
0.0
 11
1395.7823310000001
 21
1103.873724
 31
0.0
  0
INSERT
  5
7DC0
  8
3
  6
CONTINUOUS
 62
     0
  2
_OPEN
 10
1160.7823310000001
 20
1103.873724
 30
0.0
 41
30.0
 42
30.0
 43
30.0
 50
180.0
  0
INSERT
  5
7DC1
  8
3
  6
CONTINUOUS
 62
     0
  2
_OPEN
 10
1425.7823310000001
 20
1103.873724
 30
0.0
 41
30.0
 42
30.0
 43
30.0
  0
TEXT
  8
3
  40
45
  5
7E4D
  62
0
  72
0
  71
0
 10
1203.28
 20
1061.72
 30
0.000000
  1
265
  0
POINT
  5
7DC3
  8
DEFPOINTS
  6
CONTINUOUS
 62
     0
 10
1160.7823310000001
 20
1199.702305
 30
0.0
  0
POINT
  5
7DC4
  8
DEFPOINTS
  6
CONTINUOUS
 62
     0
 10
1425.7823310000001
 20
1243.8694069999999
 30
0.0
  0
POINT
  5
7DC5
  8
DEFPOINTS
  6
CONTINUOUS
 62
     0
 10
1425.7823310000001
 20
1103.873724
 30
0.0
  0
ENDBLK
  5
7B53
  8
0
  0
BLOCK
  8
0
  2
*D3
 70
     1
 10
0.0
 20
0.0
 30
0.0
  3
*D3
  1

  0
LINE
  5
7DC6
  8
3
  6
CONTINUOUS
 62
     0
 10
1418.2823310000001
 20
2010.8694069999999
 30
0.0
 11
1555.382807
 21
2010.869406999999
 31
0.0
  0
LINE
  5
7DC7
  8
3
  6
CONTINUOUS
 62
     0
 10
1418.2823310000001
 20
1695.869406999999
 30
0.0
 11
1555.382807
 21
1695.869406999999
 31
0.0
  0
LINE
  5
7DC8
  8
3
  6
CONTINUOUS
 62
     0
 10
1540.382807
 20
1980.869406999999
 30
0.0
 11
1540.382807
 21
1725.8694069999999
 31
0.0
  0
INSERT
  5
7DC9
  8
3
  6
CONTINUOUS
 62
     0
  2
_OPEN
 10
1540.382807
 20
2010.869406999999
 30
0.0
 41
30.0
 42
30.0
 43
30.0
 50
90.0
  0
INSERT
  5
7DCA
  8
3
  6
CONTINUOUS
 62
     0
  2
_OPEN
 10
1540.382807
 20
1695.869406999999
 30
0.0
 41
30.0
 42
30.0
 43
30.0
 50
270.0
  0
TEXT
  8
3
  40
45
  5
7E4E
  62
0
  72
0
  71
0
 10
1412.88
 20
1789.69
 30
0.000000
  1
315
  0
POINT
  5
7DCC
  8
DEFPOINTS
  6
CONTINUOUS
 62
     0
 10
1410.7823310000001
 20
2010.8694069999999
 30
0.0
  0
POINT
  5
7DCD
  8
DEFPOINTS
  6
CONTINUOUS
 62
     0
 10
1410.7823310000001
 20
1695.869406999999
 30
0.0
  0
POINT
  5
7DCE
  8
DEFPOINTS
  6
CONTINUOUS
 62
     0
 10
1540.382807
 20
1695.869406999999
 30
0.0
  0
ENDBLK
  5
7B60
  8
0
  0
BLOCK
  8
0
  2
*D4
 70
     1
 10
0.0
 20
0.0
 30
0.0
  3
*D4
  1

  0
LINE
  5
7DCF
  8
3
  6
CONTINUOUS
 62
     0
 10
1398.2823310000001
 20
2020.8694069999999
 30
0.0
 11
1656.4476070000001
 21
2020.8694069999999
 31
0.0
  0
LINE
  5
7DD0
  8
3
  6
CONTINUOUS
 62
     0
 10
1418.2823310000001
 20
1695.869406999999
 30
0.0
 11
1656.4476070000001
 21
1695.869406999999
 31
0.0
  0
LINE
  5
7DD1
  8
3
  6
CONTINUOUS
 62
     0
 10
1641.4476070000001
 20
1990.869406999999
 30
0.0
 11
1641.4476070000001
 21
1725.8694069999999
 31
0.0
  0
INSERT
  5
7DD2
  8
3
  6
CONTINUOUS
 62
     0
  2
_OPEN
 10
1641.4476070000001
 20
2020.8694069999999
 30
0.0
 41
30.0
 42
30.0
 43
30.0
 50
90.0
  0
INSERT
  5
7DD3
  8
3
  6
CONTINUOUS
 62
     0
  2
_OPEN
 10
1641.4476070000001
 20
1695.869406999999
 30
0.0
 41
30.0
 42
30.0
 43
30.0
 50
270.0
  0
TEXT
  8
3
  40
45
  5
7E4F
  62
0
  72
0
  71
0
 10
1513.95
 20
1776.23
 30
0.000000
  1
325
  0
POINT
  5
7DD5
  8
DEFPOINTS
  6
CONTINUOUS
 62
     0
 10
1390.7823310000001
 20
2020.8694069999999
 30
0.0
  0
POINT
  5
7DD6
  8
DEFPOINTS
  6
CONTINUOUS
 62
     0
 10
1410.7823310000001
 20
1695.869406999999
 30
0.0
  0
POINT
  5
7DD7
  8
DEFPOINTS
  6
CONTINUOUS
 62
     0
 10
1641.4476070000001
 20
1695.869406999999
 30
0.0
  0
ENDBLK
  5
7B7A
  8
0
  0
BLOCK
  8
0
  2
*D5
 70
     1
 10
0.0
 20
0.0
 30
0.0
  3
*D5
  1

  0
LINE
  5
7DD8
  8
3
  6
CONTINUOUS
 62
     0
 10
1403.2823310000001
 20
1295.8694069999999
 30
0.0
 11
1656.4476070000001
 21
1295.8694069999999
 31
0.0
  0
LINE
  5
7DD9
  8
3
  6
CONTINUOUS
 62
     0
 10
1641.4476070000001
 20
1665.869406999999
 30
0.0
 11
1641.4476069999989
 21
1325.869406999999
 31
0.0
  0
INSERT
  5
7DDA
  8
3
  6
CONTINUOUS
 62
     0
  2
_OPEN
 10
1641.4476070000001
 20
1695.869406999999
 30
0.0
 41
30.0
 42
30.0
 43
30.0
 50
90.0
  0
INSERT
  5
7DDB
  8
3
  6
CONTINUOUS
 62
     0
  2
_OPEN
 10
1641.4476069999989
 20
1295.8694069999999
 30
0.0
 41
30.0
 42
30.0
 43
30.0
 50
270.0
  0
TEXT
  8
3
  40
45
  5
7E50
  62
0
  72
0
  71
0
 10
1513.95
 20
1416.22
 30
0.000000
  1
400
  0
POINT
  5
7DDD
  8
DEFPOINTS
  6
CONTINUOUS
 62
     0
 10
1410.7823310000001
 20
1695.869406999999
 30
0.0
  0
POINT
  5
7DDE
  8
DEFPOINTS
  6
CONTINUOUS
 62
     0
 10
1395.7823310000001
 20
1295.8694069999999
 30
0.0
  0
POINT
  5
7DDF
  8
DEFPOINTS
  6
CONTINUOUS
 62
     0
 10
1641.4476069999989
 20
1295.8694069999999
 30
0.0
  0
ENDBLK
  5
7B86
  8
0
  0
BLOCK
  8
0
  2
*D6
 70
     1
 10
0.0
 20
0.0
 30
0.0
  3
*D6
  1

  0
LINE
  5
7DE0
  8
3
  6
CONTINUOUS
 62
     0
 10
1403.2823310000001
 20
1295.8694069999999
 30
0.0
 11
1656.4476070000001
 21
1295.8694069999999
 31
0.0
  0
LINE
  5
7DE1
  8
3
  6
CONTINUOUS
 62
     0
 10
1433.2823310000001
 20
1243.8694069999999
 30
0.0
 11
1656.4476070000001
 21
1243.8694069999999
 31
0.0
  0
LINE
  5
7DE2
  8
3
  6
CONTINUOUS
 62
     0
 10
1641.4476070000001
 20
1325.869406999999
 30
0.0
 11
1641.4476070000001
 21
1355.8694069999999
 31
0.0
  0
LINE
  5
7DE3
  8
3
  6
CONTINUOUS
 62
     0
 10
1641.4476070000001
 20
1213.8694069999999
 30
0.0
 11
1641.4476070000001
 21
1081.012264142857
 31
0.0
  0
LINE
  5
7DE4
  8
3
  6
CONTINUOUS
 62
     0
 10
1641.4476070000001
 20
1295.8694069999999
 30
0.0
 11
1641.4476070000001
 21
1243.8694069999999
 31
0.0
  0
INSERT
  5
7DE5
  8
3
  6
CONTINUOUS
 62
     0
  2
_OPEN
 10
1641.4476070000001
 20
1295.8694069999999
 30
0.0
 41
30.0
 42
30.0
 43
30.0
 50
270.0
  0
INSERT
  5
7DE6
  8
3
  6
CONTINUOUS
 62
     0
  2
_OPEN
 10
1641.4476070000001
 20
1243.8694069999999
 30
0.0
 41
30.0
 42
30.0
 43
30.0
 50
90.0
  0
TEXT
  8
3
  40
45
  5
7E51
  62
0
  72
0
  71
0
 10
1513.95
 20
1052.79
 30
0.000000
  1
52
  0
POINT
  5
7DE8
  8
DEFPOINTS
  6
CONTINUOUS
 62
     0
 10
1395.7823310000001
 20
1295.8694069999999
 30
0.0
  0
POINT
  5
7DE9
  8
DEFPOINTS
  6
CONTINUOUS
 62
     0
 10
1425.7823310000001
 20
1243.8694069999999
 30
0.0
  0
POINT
  5
7DEA
  8
DEFPOINTS
  6
CONTINUOUS
 62
     0
 10
1641.4476070000001
 20
1243.8694069999999
 30
0.0
  0
ENDBLK
  5
7C7A
  8
0
  0
BLOCK
  8
0
  2
*D7
 70
     1
 10
0.0
 20
0.0
 30
0.0
  3
*D7
  1

  0
LINE
  5
7DEB
  8
3
  6
CONTINUOUS
 62
     0
 10
1418.2823310000001
 20
2032.3694069999999
 30
0.0
 11
1754.773055395463
 21
2032.3694069999999
 31
0.0
  0
LINE
  5
7DEC
  8
3
  6
CONTINUOUS
 62
     0
 10
1433.2823310000001
 20
1243.8694069999999
 30
0.0
 11
1754.7730553954621
 21
1243.8694069999999
 31
0.0
  0
LINE
  5
7DED
  8
3
  6
CONTINUOUS
 62
     0
 10
1739.7730553954621
 20
2002.3694069999999
 30
0.0
 11
1739.7730553954621
 21
1273.8694069999999
 31
0.0
  0
INSERT
  5
7DEE
  8
3
  6
CONTINUOUS
 62
     0
  2
_OPEN
 10
1739.7730553954621
 20
2032.3694069999999
 30
0.0
 41
30.0
 42
30.0
 43
30.0
 50
90.0
  0
INSERT
  5
7DEF
  8
3
  6
CONTINUOUS
 62
     0
  2
_OPEN
 10
1739.7730553954621
 20
1243.8694069999999
 30
0.0
 41
30.0
 42
30.0
 43
30.0
 50
270.0
  0
TEXT
  8
3
  40
45
  5
7E52
  62
0
  72
0
  71
0
 10
1612.27
 20
1630.18
 30
0.000000
  1
789
  0
POINT
  5
7DF1
  8
DEFPOINTS
  6
CONTINUOUS
 62
     0
 10
1410.7823310000001
 20
2032.3694069999999
 30
0.0
  0
POINT
  5
7DF2
  8
DEFPOINTS
  6
CONTINUOUS
 62
     0
 10
1425.7823310000001
 20
1243.8694069999999
 30
0.0
  0
POINT
  5
7DF3
  8
DEFPOINTS
  6
CONTINUOUS
 62
     0
 10
1739.7730553954621
 20
1243.8694069999999
 30
0.0
  0
ENDBLK
  5
7CBD
  8
0
  0
BLOCK
  8
0
  2
*D8
 70
     1
 10
0.0
 20
0.0
 30
0.0
  3
*D8
  1

  0
LINE
  5
7DF4
  8
3
  6
CONTINUOUS
 62
     0
 10
886.78233100000023
 20
1703.3694069999999
 30
0.0
 11
886.78233100000023
 21
2103.9754720000001
 31
0.0
  0
LINE
  5
7DF5
  8
3
  6
CONTINUOUS
 62
     0
 10
1160.7823310000001
 20
2027.2818729999999
 30
0.0
 11
1160.7823310000001
 21
2103.9754720000001
 31
0.0
  0
LINE
  5
7DF6
  8
3
  6
CONTINUOUS
 62
     0
 10
916.78233100000011
 20
2088.9754720000001
 30
0.0
 11
1130.7823310000001
 21
2088.9754720000001
 31
0.0
  0
INSERT
  5
7DF7
  8
3
  6
CONTINUOUS
 62
     0
  2
_OPEN
 10
886.78233100000023
 20
2088.9754720000001
 30
0.0
 41
30.0
 42
30.0
 43
30.0
 50
180.0
  0
INSERT
  5
7DF8
  8
3
  6
CONTINUOUS
 62
     0
  2
_OPEN
 10
1160.7823310000001
 20
2088.9754720000001
 30
0.0
 41
30.0
 42
30.0
 43
30.0
  0
TEXT
  8
3
  40
45
  5
7E53
  62
0
  72
0
  71
0
 10
932.707
 20
2046.83
 30
0.000000
  1
274
  0
POINT
  5
7DFA
  8
DEFPOINTS
  6
CONTINUOUS
 62
     0
 10
886.78233100000023
 20
1695.869406999999
 30
0.0
  0
POINT
  5
7DFB
  8
DEFPOINTS
  6
CONTINUOUS
 62
     0
 10
1160.7823310000001
 20
2019.7818729999999
 30
0.0
  0
POINT
  5
7DFC
  8
DEFPOINTS
  6
CONTINUOUS
 62
     0
 10
1160.7823310000001
 20
2088.9754720000001
 30
0.0
  0
ENDBLK
  5
7CCD
  8
0
  0
BLOCK
  8
0
  2
*D9
 70
     1
 10
0.0
 20
0.0
 30
0.0
  3
*D9
  1

  0
LINE
  5
7DFD
  8
3
  6
CONTINUOUS
 62
     0
 10
1410.7823310000001
 20
2039.8694069999999
 30
0.0
 11
1410.7823310000001
 21
2103.9754720000001
 31
0.0
  0
LINE
  5
7DFE
  8
3
  6
CONTINUOUS
 62
     0
 10
1190.7823310000001
 20
2088.9754720000001
 30
0.0
 11
1380.7823310000001
 21
2088.9754720000001
 31
0.0
  0
INSERT
  5
7DFF
  8
3
  6
CONTINUOUS
 62
     0
  2
_OPEN
 10
1160.7823310000001
 20
2088.9754720000001
 30
0.0
 41
30.0
 42
30.0
 43
30.0
 50
180.0
  0
INSERT
  5
7E00
  8
3
  6
CONTINUOUS
 62
     0
  2
_OPEN
 10
1410.7823310000001
 20
2088.9754720000001
 30
0.0
 41
30.0
 42
30.0
 43
30.0
  0
TEXT
  8
3
  40
45
  5
7E54
  62
0
  72
0
  71
0
 10
1195.78
 20
2046.83
 30
0.000000
  1
250
  0
POINT
  5
7E02
  8
DEFPOINTS
  6
CONTINUOUS
 62
     0
 10
1160.7823310000001
 20
2019.7818729999999
 30
0.0
  0
POINT
  5
7E03
  8
DEFPOINTS
  6
CONTINUOUS
 62
     0
 10
1410.7823310000001
 20
2032.3694069999999
 30
0.0
  0
POINT
  5
7E04
  8
DEFPOINTS
  6
CONTINUOUS
 62
     0
 10
1410.7823310000001
 20
2088.9754720000001
 30
0.0
  0
ENDBLK
  5
7BE1
  8
0
  0
BLOCK
  8
0
  2
*D10
 70
     1
 10
0.0
 20
0.0
 30
0.0
  3
*D10
  1

  0
LINE
  5
7E05
  8
3
  6
CONTINUOUS
 62
     0
 10
515.782331
 20
2688.5027899720089
 30
0.0
 11
515.782331
 21
2454.6511059720092
 31
0.0
  0
LINE
  5
7E06
  8
3
  6
CONTINUOUS
 62
     0
 10
1425.7823310000001
 20
2688.5027899720089
 30
0.0
 11
1425.7823310000001
 21
2454.6511059720092
 31
0.0
  0
LINE
  5
7E07
  8
3
  6
CONTINUOUS
 62
     0
 10
545.782331
 20
2469.6511059720092
 30
0.0
 11
1395.7823310000001
 21
2469.6511059720092
 31
0.0
  0
INSERT
  5
7E08
  8
3
  6
CONTINUOUS
 62
     0
  2
_OPEN
 10
515.782331
 20
2469.6511059720092
 30
0.0
 41
30.0
 42
30.0
 43
30.0
 50
180.0
  0
INSERT
  5
7E09
  8
3
  6
CONTINUOUS
 62
     0
  2
_OPEN
 10
1425.7823310000001
 20
2469.6511059720092
 30
0.0
 41
30.0
 42
30.0
 43
30.0
  0
TEXT
  8
3
  40
45
  5
7E55
  62
0
  72
0
  71
0
 10
864.391
 20
2427.50
 30
0.000000
  1
910
  0
POINT
  5
7E0B
  8
DEFPOINTS
  6
CONTINUOUS
 62
     0
 10
515.782331
 20
2696.0027899720089
 30
0.0
  0
POINT
  5
7E0C
  8
DEFPOINTS
  6
CONTINUOUS
 62
     0
 10
1425.7823310000001
 20
2696.0027899720089
 30
0.0
  0
POINT
  5
7E0D
  8
DEFPOINTS
  6
CONTINUOUS
 62
     0
 10
1425.7823310000001
 20
2469.6511059720092
 30
0.0
  0
ENDBLK
  5
7BEE
  8
0
  0
BLOCK
  8
0
  2
*D11
 70
     1
 10
0.0
 20
0.0
 30
0.0
  3
*D11
  1

  0
LINE
  5
7E0E
  8
3
  6
CONTINUOUS
 62
     0
 10
1433.2823310000001
 20
3011.0027899720089
 30
0.0
 11
1569.1462630000001
 21
3011.0027899720089
 31
0.0
  0
LINE
  5
7E0F
  8
3
  6
CONTINUOUS
 62
     0
 10
1433.2823310000001
 20
2696.0027899720089
 30
0.0
 11
1569.1462630000001
 21
2696.0027899720089
 31
0.0
  0
LINE
  5
7E10
  8
3
  6
CONTINUOUS
 62
     0
 10
1554.1462630000001
 20
2981.0027899720089
 30
0.0
 11
1554.1462630000001
 21
2726.002789972008
 31
0.0
  0
INSERT
  5
7E11
  8
3
  6
CONTINUOUS
 62
     0
  2
_OPEN
 10
1554.1462630000001
 20
3011.0027899720089
 30
0.0
 41
30.0
 42
30.0
 43
30.0
 50
90.0
  0
INSERT
  5
7E12
  8
3
  6
CONTINUOUS
 62
     0
  2
_OPEN
 10
1554.1462630000001
 20
2696.0027899720089
 30
0.0
 41
30.0
 42
30.0
 43
30.0
 50
270.0
  0
TEXT
  8
3
  40
45
  5
7E56
  62
0
  72
0
  71
0
 10
1426.65
 20
2777.00
 30
0.000000
  1
315
  0
POINT
  5
7E14
  8
DEFPOINTS
  6
CONTINUOUS
 62
     0
 10
1425.7823310000001
 20
3011.0027899720089
 30
0.0
  0
POINT
  5
7E15
  8
DEFPOINTS
  6
CONTINUOUS
 62
     0
 10
1425.7823310000001
 20
2696.0027899720089
 30
0.0
  0
POINT
  5
7E16
  8
DEFPOINTS
  6
CONTINUOUS
 62
     0
 10
1554.1462630000001
 20
2696.0027899720089
 30
0.0
  0
ENDBLK
  5
7BFB
  8
0
  0
BLOCK
  8
0
  2
*D12
 70
     1
 10
0.0
 20
0.0
 30
0.0
  3
*D12
  1

  0
LINE
  5
7E17
  8
3
  6
CONTINUOUS
 62
     0
 10
2272.7226558247448
 20
2018.3694069999999
 30
0.0
 11
2272.7226558247448
 21
2089.5638509999999
 31
0.0
  0
LINE
  5
7E18
  8
3
  6
CONTINUOUS
 62
     0
 10
2496.7226558247448
 20
2018.3694069999999
 30
0.0
 11
2496.7226558247448
 21
2089.5638509999999
 31
0.0
  0
LINE
  5
7E19
  8
3
  6
CONTINUOUS
 62
     0
 10
2302.7226558247439
 20
2074.5638509999999
 30
0.0
 11
2466.7226558247448
 21
2074.5638509999999
 31
0.0
  0
INSERT
  5
7E1A
  8
3
  6
CONTINUOUS
 62
     0
  2
_OPEN
 10
2272.7226558247448
 20
2074.5638509999999
 30
0.0
 41
30.0
 42
30.0
 43
30.0
 50
180.0
  0
INSERT
  5
7E1B
  8
3
  6
CONTINUOUS
 62
     0
  2
_OPEN
 10
2496.7226558247448
 20
2074.5638509999999
 30
0.0
 41
30.0
 42
30.0
 43
30.0
  0
TEXT
  8
3
  40
45
  5
7E57
  62
0
  72
0
  71
0
 10
2286.65
 20
2032.41
 30
0.000000
  1
224
  0
POINT
  5
7E1D
  8
DEFPOINTS
  6
CONTINUOUS
 62
     0
 10
2272.7226558247448
 20
2010.8694069999999
 30
0.0
  0
POINT
  5
7E1E
  8
DEFPOINTS
  6
CONTINUOUS
 62
     0
 10
2496.7226558247448
 20
2010.8694069999999
 30
0.0
  0
POINT
  5
7E1F
  8
DEFPOINTS
  6
CONTINUOUS
 62
     0
 10
2496.7226558247448
 20
2074.5638509999999
 30
0.0
  0
ENDBLK
  5
7C0A
  8
0
  0
BLOCK
  8
0
  2
*D13
 70
     1
 10
0.0
 20
0.0
 30
0.0
  3
*D13
  1

  0
LINE
  5
7E20
  8
3
  6
CONTINUOUS
 62
     0
 10
1964.7226558247439
 20
1933.3694069999999
 30
0.0
 11
1964.7226558247439
 21
2181.889267
 31
0.0
  0
LINE
  5
7E21
  8
3
  6
CONTINUOUS
 62
     0
 10
2384.7226558247448
 20
2144.5560347171422
 30
0.0
 11
2384.7226558247448
 21
2181.889267
 31
0.0
  0
LINE
  5
7E22
  8
3
  6
CONTINUOUS
 62
     0
 10
1994.7226558247451
 20
2166.889267
 30
0.0
 11
2354.7226558247439
 21
2166.889267
 31
0.0
  0
INSERT
  5
7E23
  8
3
  6
CONTINUOUS
 62
     0
  2
_OPEN
 10
1964.7226558247439
 20
2166.889267
 30
0.0
 41
30.0
 42
30.0
 43
30.0
 50
180.0
  0
INSERT
  5
7E24
  8
3
  6
CONTINUOUS
 62
     0
  2
_OPEN
 10
2384.7226558247448
 20
2166.889267
 30
0.0
 41
30.0
 42
30.0
 43
30.0
  0
TEXT
  8
3
  40
45
  5
7E58
  62
0
  72
0
  71
0
 10
2068.39
 20
2162.24
 30
0.000000
  1
MAX
  0
TEXT
  8
3
  40
45
  5
7E59
  62
0
  72
0
  71
0
 10
2068.39
 20
2103.74
 30
0.000000
  1
420
  0
POINT
  5
7E26
  8
DEFPOINTS
  6
CONTINUOUS
 62
     0
 10
1964.7226558247439
 20
1925.8694069999999
 30
0.0
  0
POINT
  5
7E27
  8
DEFPOINTS
  6
CONTINUOUS
 62
     0
 10
2384.7226558247448
 20
2137.0560347171422
 30
0.0
  0
POINT
  5
7E28
  8
DEFPOINTS
  6
CONTINUOUS
 62
     0
 10
2384.7226558247448
 20
2166.889267
 30
0.0
  0
ENDBLK
  5
7C9B
  8
0
  0
BLOCK
  8
0
  2
*D14
 70
     1
 10
0.0
 20
0.0
 30
0.0
  3
*D14
  1

  0
LINE
  5
7E29
  8
3
  6
CONTINUOUS
 62
     0
 10
2505.7226558247448
 20
1885.8694069999999
 30
0.0
 11
2505.7226558247448
 21
2181.889267
 31
0.0
  0
LINE
  5
7E2A
  8
3
  6
CONTINUOUS
 62
     0
 10
2414.7226558247439
 20
2166.889267
 30
0.0
 11
2475.7226558247439
 21
2166.889267
 31
0.0
  0
TEXT
  8
3
  40
45
  5
7E5A
  62
0
  72
0
  71
0
 10
2339.58
 20
2124.92
 30
0.000000
  1
121
  0
INSERT
  5
7E2C
  8
3
  6
CONTINUOUS
 62
     0
  2
_OPEN
 10
2384.7226558247448
 20
2166.889267
 30
0.0
 41
30.0
 42
30.0
 43
30.0
 50
180.0
  0
INSERT
  5
7E2D
  8
3
  6
CONTINUOUS
 62
     0
  2
_OPEN
 10
2505.7226558247448
 20
2166.889267
 30
0.0
 41
30.0
 42
30.0
 43
30.0
  0
POINT
  5
7E2E
  8
DEFPOINTS
  6
CONTINUOUS
 62
     0
 10
2384.7226558247448
 20
2137.0560347171422
 30
0.0
  0
POINT
  5
7E2F
  8
DEFPOINTS
  6
CONTINUOUS
 62
     0
 10
2505.7226558247448
 20
1878.3694069999999
 30
0.0
  0
POINT
  5
7E30
  8
DEFPOINTS
  6
CONTINUOUS
 62
     0
 10
2505.7226558247448
 20
2166.889267
 30
0.0
  0
ENDBLK
  5
7CA5
  8
0
  0
BLOCK
  8
0
  2
*D15
 70
     1
 10
0.0
 20
0.0
 30
0.0
  3
*D15
  1

  0
LINE
  5
7E31
  8
3
  6
CONTINUOUS
 62
     0
 10
2513.2226558247448
 20
1853.3694069999999
 30
0.0
 11
2640.3185788247451
 21
1853.369406999999
 31
0.0
  0
LINE
  5
7E32
  8
3
  6
CONTINUOUS
 62
     0
 10
2513.2226558247448
 20
1538.3694069999999
 30
0.0
 11
2640.3185788247451
 21
1538.3694069999999
 31
0.0
  0
LINE
  5
7E33
  8
3
  6
CONTINUOUS
 62
     0
 10
2625.3185788247451
 20
1823.369406999999
 30
0.0
 11
2625.3185788247451
 21
1568.3694069999999
 31
0.0
  0
INSERT
  5
7E34
  8
3
  6
CONTINUOUS
 62
     0
  2
_OPEN
 10
2625.3185788247451
 20
1853.369406999999
 30
0.0
 41
30.0
 42
30.0
 43
30.0
 50
90.0
  0
INSERT
  5
7E35
  8
3
  6
CONTINUOUS
 62
     0
  2
_OPEN
 10
2625.3185788247451
 20
1538.3694069999999
 30
0.0
 41
30.0
 42
30.0
 43
30.0
 50
270.0
  0
TEXT
  8
3
  40
45
  5
7E5B
  62
0
  72
0
  71
0
 10
2497.82
 20
1628.01
 30
0.000000
  1
φ315
  0
POINT
  5
7E37
  8
DEFPOINTS
  6
CONTINUOUS
 62
     0
 10
2505.7226558247448
 20
1853.3694069999999
 30
0.0
  0
POINT
  5
7E38
  8
DEFPOINTS
  6
CONTINUOUS
 62
     0
 10
2505.7226558247448
 20
1538.3694069999999
 30
0.0
  0
POINT
  5
7E39
  8
DEFPOINTS
  6
CONTINUOUS
 62
     0
 10
2625.3185788247451
 20
1538.3694069999999
 30
0.0
  0
ENDBLK
  5
7C90
  8
0
  0
BLOCK
  8
0
  2
*D16
 70
     1
 10
0.0
 20
0.0
 30
0.0
  3
*D16
  1

  0
LINE
  5
7E3A
  8
3
  6
CONTINUOUS
 62
     0
 10
2069.7226558247439
 20
1236.3694069999999
 30
0.0
 11
2069.7226558247439
 21
1124.2806789999991
 31
0.0
  0
LINE
  5
7E3B
  8
3
  6
CONTINUOUS
 62
     0
 10
2384.7226558247448
 20
1236.3694069999999
 30
0.0
 11
2384.7226558247448
 21
1124.2806789999991
 31
0.0
  0
LINE
  5
7E3C
  8
3
  6
CONTINUOUS
 62
     0
 10
2099.7226558247448
 20
1139.280679
 30
0.0
 11
2354.7226558247439
 21
1139.280679
 31
0.0
  0
INSERT
  5
7E3D
  8
3
  6
CONTINUOUS
 62
     0
  2
_OPEN
 10
2069.7226558247439
 20
1139.280679
 30
0.0
 41
30.0
 42
30.0
 43
30.0
 50
180.0
  0
INSERT
  5
7E3E
  8
3
  6
CONTINUOUS
 62
     0
  2
_OPEN
 10
2384.7226558247448
 20
1139.280679
 30
0.0
 41
30.0
 42
30.0
 43
30.0
  0
TEXT
  8
3
  40
45
  5
7E5C
  62
0
  72
0
  71
0
 10
2137.76
 20
1097.13
 30
0.000000
  1
315
  0
POINT
  5
7E40
  8
DEFPOINTS
  6
CONTINUOUS
 62
     0
 10
2069.7226558247439
 20
1243.8694069999999
 30
0.0
  0
POINT
  5
7E41
  8
DEFPOINTS
  6
CONTINUOUS
 62
     0
 10
2384.7226558247448
 20
1243.8694069999999
 30
0.0
  0
POINT
  5
7E42
  8
DEFPOINTS
  6
CONTINUOUS
 62
     0
 10
2384.7226558247448
 20
1139.280679
 30
0.0
  0
ENDBLK
  5
7C59
  8
0
  0
BLOCK
  8
0
  2
*D17
 70
     1
 10
0.0
 20
0.0
 30
0.0
  3
*D17
  1

  0
LINE
  5
7E43
  8
3
 62
     0
 10
1410.7823310000001
 20
2039.8694069999999
 30
0.0
 11
1410.7823310000001
 21
2198.4760853859898
 31
0.0
  0
LINE
  5
7E44
  8
3
 62
     0
 10
515.782331
 20
1281.3694069999999
 30
0.0
 11
515.782331
 21
2198.4760853859898
 31
0.0
  0
LINE
  5
7E45
  8
3
 62
     0
 10
1380.7823310000001
 20
2183.4760853859898
 30
0.0
 11
545.782331
 21
2183.4760853859898
 31
0.0
  0
INSERT
  5
7E46
  8
3
 62
     0
  2
_OPEN
 10
1410.7823310000001
 20
2183.4760853859898
 30
0.0
 41
30.0
 42
30.0
 43
30.0
  0
INSERT
  5
7E47
  8
3
 62
     0
  2
_OPEN
 10
515.782331
 20
2183.4760853859898
 30
0.0
 41
30.0
 42
30.0
 43
30.0
 50
180.0
  0
TEXT
  8
3
  40
45
  5
7E5D
  62
0
  72
0
  71
0
 10
872.767
 20
2141.33
 30
0.000000
  1
895
  0
POINT
  5
7E49
  8
DEFPOINTS
 62
     0
 10
1410.7823310000001
 20
2032.3694069999999
 30
0.0
  0
POINT
  5
7E4A
  8
DEFPOINTS
 62
     0
 10
515.782331
 20
1273.8694069999999
 30
0.0
  0
POINT
  5
7E4B
  8
DEFPOINTS
 62
     0
 10
515.782331
 20
2183.4760853859898
 30
0.0
  0
ENDBLK
  5
7CB1
  8
0
  0
ENDSEC
  0
SECTION
  2
ENTITIES
  0
LINE
  5
7A8B
  8
1
  6
CONTINUOUS
 10
515.782331
 20
1243.8694069999999
 30
0.0
 11
1425.7823310000001
 21
1243.8694069999999
 31
0.0
  0
LINE
  5
7A8C
  8
1
  6
CONTINUOUS
 10
515.782331
 20
1273.8694069999999
 30
0.0
 11
1425.7823310000001
 21
1273.8694069999999
 31
0.0
  0
LINE
  5
7A8D
  8
1
  6
CONTINUOUS
 10
545.782331
 20
1295.8694069999999
 30
0.0
 11
1395.7823310000001
 21
1295.8694069999999
 31
0.0
  0
LINE
  5
7A8E
  8
1
  6
CONTINUOUS
 10
545.782331
 20
1365.8694069999999
 30
0.0
 11
1395.7823310000001
 21
1365.8694069999999
 31
0.0
  0
LINE
  5
7A8F
  8
1
  6
CONTINUOUS
 10
1172.7823310000001
 20
2696.0027899720089
 30
0.0
 11
1425.7823310000001
 21
2696.0027899720089
 31
0.0
  0
LINE
  5
7A90
  8
1
  6
CONTINUOUS
 10
1410.7823310000001
 20
2899.002789972008
 30
0.0
 11
892.782331
 21
2899.002789972008
 31
0.0
  0
LINE
  5
7A91
  8
1
  6
CONTINUOUS
 10
892.782331
 20
3123.0027899720089
 30
0.0
 11
1410.7823310000001
 21
3123.0027899720089
 31
0.0
  0
LINE
  5
7A92
  8
1
  6
CONTINUOUS
 10
1390.7823310000001
 20
2020.8694069999999
 30
0.0
 11
1186.2823310000001
 21
2020.8694069999999
 31
0.0
  0
ARC
  5
7A93
  8
1
  6
CONTINUOUS
 10
1142.7823310000001
 20
1677.8694069999999
 30
0.0
 40
215.0
 50
259.39999999999992
 51
351.39999999999992
  0
ARC
  5
7A94
  8
1
  6
CONTINUOUS
 10
1428.7823310000001
 20
1618.8694069999999
 30
0.0
 40
78.0
 50
119.2
 51
161.1999999999999
  0
LINE
  5
7A95
  8
1
  6
CONTINUOUS
 10
1105.2823310000001
 20
1925.8694069999999
 30
0.0
 11
575.282331
 21
1575.8694069999999
 31
0.0
  0
ARC
  5
7A96
  8
1
  6
CONTINUOUS
 10
1186.2823310000001
 20
1721.3694069999999
 30
0.0
 40
299.5
 50
90.0
 51
190.59999999999999
  0
ARC
  5
7A97
  8
1
  6
CONTINUOUS
 10
1139.7823310000001
 20
1716.8694069999999
 30
0.0
 40
253.0
 50
191.59999999999991
 51
261.80000000000001
  0
LINE
  5
7A98
  8
1
  6
CONTINUOUS
 10
666.38233099999979
 20
1523.469407
 30
0.0
 11
1132.7823310000001
 21
1752.8694069999999
 31
0.0
  0
LINE
  5
7A99
  8
1
  6
CONTINUOUS
 10
711.282331
 20
1427.3694069999999
 30
0.0
 11
1186.4823309999999
 21
1637.769407
 31
0.0
  0
LINE
  5
7A9A
  8
1
  6
CONTINUOUS
 10
575.282331
 20
1575.8694069999999
 30
0.0
 11
575.282331
 21
1365.8694069999999
 31
0.0
  0
ARC
  5
7A9B
  8
1
  6
CONTINUOUS
 10
689.78233099999989
 20
1475.8694069999999
 30
0.0
 40
101.0
 50
322.89999999999992
 51
217.09999999999991
  0
LINE
  5
7A9C
  8
2
  6
CENTER
 10
636.782331
 20
1475.8694069999999
 30
0.0
 11
742.78233099999989
 21
1475.8694069999999
 31
0.0
  0
CIRCLE
  5
7A9D
  8
1
  6
CONTINUOUS
 10
689.78233099999989
 20
1475.8694069999999
 30
0.0
 40
53.0
  0
LINE
  5
7A9E
  8
1
  6
CONTINUOUS
 10
575.782331
 20
1385.8694069999999
 30
0.0
 11
890.78233099999989
 21
1385.8694069999999
 31
0.0
  0
LINE
  5
7A9F
  8
1
  6
CONTINUOUS
 10
515.782331
 20
1243.8694069999999
 30
0.0
 11
515.782331
 21
1273.8694069999999
 31
0.0
  0
LINE
  5
7AA0
  8
1
  6
CONTINUOUS
 10
597.88233099999991
 20
1385.8694069999999
 30
0.0
 11
609.28233099999989
 21
1414.8694069999999
 31
0.0
  0
LINE
  5
7AA1
  8
1
  6
CONTINUOUS
 10
575.782331
 20
1365.8694069999999
 30
0.0
 11
575.782331
 21
1385.8694069999999
 31
0.0
  0
LINE
  5
7AA2
  8
1
  6
CONTINUOUS
 10
545.782331
 20
1365.8694069999999
 30
0.0
 11
545.782331
 21
1295.8694069999999
 31
0.0
  0
LINE
  5
7AA3
  8
2
  6
CENTER
 10
689.78233099999989
 20
1422.8694069999999
 30
0.0
 11
689.78233099999989
 21
1528.8694069999999
 31
0.0
  0
LINE
  5
7AA4
  8
1
  6
CONTINUOUS
 10
781.68233099999998
 20
1385.8694069999999
 30
0.0
 11
770.282331
 21
1414.8694069999999
 31
0.0
  0
LINE
  5
7AA5
  8
1
  6
CONTINUOUS
 10
890.78233099999989
 20
1365.8694069999999
 30
0.0
 11
890.78233099999989
 21
1385.8694069999999
 31
0.0
  0
CIRCLE
  5
7AA6
  8
1
  6
CONTINUOUS
 10
1160.7823310000001
 20
1695.869406999999
 30
0.0
 40
157.5
  0
LINE
  5
7AA7
  8
1
  6
CONTINUOUS
 10
1305.2823310000001
 20
1795.8694069999999
 30
0.0
 11
1305.2823310000001
 21
1356.3694069999999
 31
0.0
  0
LINE
  5
7AA8
  8
1
  6
CONTINUOUS
 10
1365.7823310000001
 20
1365.8694069999999
 30
0.0
 11
1365.7823310000001
 21
1781.2694069999991
 31
0.0
  0
LINE
  5
7AA9
  8
1
  6
CONTINUOUS
 10
955.78233099999989
 20
1365.8694069999999
 30
0.0
 11
955.78233099999989
 21
1781.2694069999991
 31
0.0
  0
CIRCLE
  5
7AAA
  8
1
  6
CONTINUOUS
 10
1160.7823310000001
 20
1695.869406999999
 30
0.0
 40
182.5
  0
LINE
  5
7AAB
  8
1
  6
CONTINUOUS
 10
1305.2823310000001
 20
1795.8694069999999
 30
0.0
 11
1105.2823310000001
 21
1925.8694069999999
 31
0.0
  0
CIRCLE
  5
7AAC
  8
1
  6
CONTINUOUS
 10
1160.7823310000001
 20
1695.869406999999
 30
0.0
 40
63.5
  0
LINE
  5
7AAD
  8
1
  6
CONTINUOUS
 10
955.78233099999989
 20
1659.3694069999999
 30
0.0
 11
1365.7823310000001
 21
1659.3694069999999
 31
0.0
  0
LINE
  5
7AAE
  8
1
  6
CONTINUOUS
 10
1068.4823309999999
 20
1875.8694069999999
 30
0.0
 11
1253.0823310000001
 21
1875.8694069999999
 31
0.0
  0
LINE
  5
7AAF
  8
2
  6
CENTER
 10
698.90524299999993
 20
1695.869406999999
 30
0.0
 11
1454.7821949999991
 21
1695.869406999999
 31
0.0
  0
LINE
  5
7AB0
  8
1
  6
CONTINUOUS
 10
1068.4823309999999
 20
1875.8694069999999
 30
0.0
 11
955.78233099999989
 21
1781.2694069999991
 31
0.0
  0
LINE
  5
7AB1
  8
2
  6
CENTER
 10
1160.7823310000001
 20
1199.702305
 30
0.0
 11
1160.7823310000001
 21
2089.59924
 31
0.0
  0
LINE
  5
7AB2
  8
1
  6
CONTINUOUS
 10
1253.0823310000001
 20
1875.8694069999999
 30
0.0
 11
1365.7823310000001
 21
1781.2694069999991
 31
0.0
  0
LINE
  5
7AB3
  8
1
  6
CONTINUOUS
 10
575.282331
 20
2676.0027899720089
 30
0.0
 11
1305.2823310000001
 21
2676.0027899720089
 31
0.0
  0
LINE
  5
7AB4
  8
1
  6
CONTINUOUS
 10
575.282331
 20
2591.0027899720089
 30
0.0
 11
1305.2823310000001
 21
2591.0027899720089
 31
0.0
  0
LINE
  5
7AB5
  8
1
  6
CONTINUOUS
 10
701.78233099999989
 20
2696.0027899720089
 30
0.0
 11
1148.7823310000001
 21
2696.0027899720089
 31
0.0
  0
LINE
  5
7AB6
  8
1
  6
CONTINUOUS
 10
872.78233099999989
 20
3103.0027899720089
 30
0.0
 11
872.78233099999989
 21
2919.002789972008
 31
0.0
  0
LINE
  5
7AB7
  8
1
  6
CONTINUOUS
 10
872.78233099999989
 20
3011.0027899720089
 30
0.0
 11
515.782331
 21
3011.0027899720089
 31
0.0
  0
LINE
  5
7AB8
  8
1
  6
CONTINUOUS
 10
753.282331
 20
2652.5027899720089
 30
0.0
 11
626.28233099999989
 21
2652.5027899720089
 31
0.0
  0
LINE
  5
7AB9
  8
1
  6
CONTINUOUS
 10
626.28233099999989
 20
2617.5027899720089
 30
0.0
 11
753.282331
 21
2617.5027899720089
 31
0.0
  0
LINE
  5
7ABA
  8
1
  6
CONTINUOUS
 10
790.782331
 20
2984.5027899720089
 30
0.0
 11
599.782331
 21
2984.5027899720089
 31
0.0
  0
LINE
  5
7ABB
  8
1
  6
CONTINUOUS
 10
790.782331
 20
2712.5027899720089
 30
0.0
 11
599.782331
 21
2712.5027899720089
 31
0.0
  0
LINE
  5
7ABC
  8
1
  6
CONTINUOUS
 10
515.782331
 20
2696.0027899720089
 30
0.0
 11
515.782331
 21
3011.0027899720089
 31
0.0
  0
LINE
  5
7ABD
  8
1
  6
CONTINUOUS
 10
599.782331
 20
2984.5027899720089
 30
0.0
 11
599.782331
 21
2712.5027899720089
 31
0.0
  0
LINE
  5
7ABE
  8
1
  6
CONTINUOUS
 10
515.782331
 20
2696.0027899720089
 30
0.0
 11
677.782331
 21
2696.0027899720089
 31
0.0
  0
LINE
  5
7ABF
  8
1
  6
CONTINUOUS
 10
575.282331
 20
2676.0027899720089
 30
0.0
 11
575.282331
 21
2591.0027899720089
 31
0.0
  0
LINE
  5
7AC0
  8
1
  6
CONTINUOUS
 10
626.28233099999989
 20
2652.5027899720089
 30
0.0
 11
626.28233099999989
 21
2617.5027899720089
 31
0.0
  0
LINE
  5
7AC1
  8
1
  6
CONTINUOUS
 10
701.78233099999989
 20
2617.5027899720089
 30
0.0
 11
677.782331
 21
2617.5027899720089
 31
0.0
  0
LINE
  5
7AC2
  8
1
  6
CONTINUOUS
 10
677.782331
 20
2652.5027899720089
 30
0.0
 11
677.782331
 21
2712.5027899720089
 31
0.0
  0
LINE
  5
7AC3
  8
1
  6
CONTINUOUS
 10
701.78233099999989
 20
2652.5027899720089
 30
0.0
 11
701.78233099999989
 21
2712.5027899720089
 31
0.0
  0
LINE
  5
7AC4
  8
1
  6
CONTINUOUS
 10
790.782331
 20
2712.5027899720089
 30
0.0
 11
790.782331
 21
2984.5027899720089
 31
0.0
  0
LINE
  5
7AC5
  8
1
  6
CONTINUOUS
 10
753.282331
 20
2617.5027899720089
 30
0.0
 11
753.282331
 21
2652.5027899720089
 31
0.0
  0
ARC
  5
7AC6
  8
1
  6
CONTINUOUS
 10
892.782331
 20
2919.002789972008
 30
0.0
 40
20.0
 50
180.0
 51
270.0
  0
ARC
  5
7AC7
  8
1
  6
CONTINUOUS
 10
892.782331
 20
3103.0027899720089
 30
0.0
 40
20.0
 50
90.0
 51
180.0
  0
LINE
  5
7AC8
  8
1
  6
CONTINUOUS
 10
1097.2823310000001
 20
2617.5027899720089
 30
0.0
 11
1224.2823310000001
 21
2617.5027899720089
 31
0.0
  0
LINE
  5
7AC9
  8
1
  6
CONTINUOUS
 10
1224.2823310000001
 20
2652.5027899720089
 30
0.0
 11
1097.2823310000001
 21
2652.5027899720089
 31
0.0
  0
LINE
  5
7ACA
  8
1
  6
CONTINUOUS
 10
955.78233099999989
 20
2889.2027899720092
 30
0.0
 11
1365.7823310000001
 21
2889.2027899720092
 31
0.0
  0
LINE
  5
7ACB
  8
1
  6
CONTINUOUS
 10
1148.7823310000001
 20
2889.2027899720092
 30
0.0
 11
1148.7823310000001
 21
2652.5027899720089
 31
0.0
  0
LINE
  5
7ACC
  8
1
  6
CONTINUOUS
 10
1097.2823310000001
 20
2652.5027899720089
 30
0.0
 11
1097.2823310000001
 21
2617.5027899720089
 31
0.0
  0
LINE
  5
7ACD
  8
1
  6
CONTINUOUS
 10
955.78233099999989
 20
2726.002789972008
 30
0.0
 11
1148.7823310000001
 21
2726.002789972008
 31
0.0
  0
LINE
  5
7ACE
  8
1
  6
CONTINUOUS
 10
955.78233099999989
 20
2726.002789972008
 30
0.0
 11
955.78233099999989
 21
2889.2027899720092
 31
0.0
  0
LINE
  5
7ACF
  8
1
  6
CONTINUOUS
 10
978.28233099999989
 20
2889.2027899720092
 30
0.0
 11
978.28233099999989
 21
2899.002789972008
 31
0.0
  0
LINE
  5
7AD0
  8
1
  6
CONTINUOUS
 10
1172.7823310000001
 20
2889.2027899720092
 30
0.0
 11
1172.7823310000001
 21
2652.5027899720089
 31
0.0
  0
LINE
  5
7AD1
  8
1
  6
CONTINUOUS
 10
1224.2823310000001
 20
2617.5027899720089
 30
0.0
 11
1224.2823310000001
 21
2652.5027899720089
 31
0.0
  0
LINE
  5
7AD2
  8
1
  6
CONTINUOUS
 10
1305.2823310000001
 20
2676.0027899720089
 30
0.0
 11
1305.2823310000001
 21
2591.0027899720089
 31
0.0
  0
LINE
  5
7AD3
  8
1
  6
CONTINUOUS
 10
1172.7823310000001
 20
2726.002789972008
 30
0.0
 11
1365.7823310000001
 21
2726.002789972008
 31
0.0
  0
LINE
  5
7AD4
  8
1
  6
CONTINUOUS
 10
1343.2823310000001
 20
2889.2027899720092
 30
0.0
 11
1343.2823310000001
 21
2899.002789972008
 31
0.0
  0
LINE
  5
7AD5
  8
1
  6
CONTINUOUS
 10
1365.7823310000001
 20
2726.002789972008
 30
0.0
 11
1365.7823310000001
 21
2889.2027899720092
 31
0.0
  0
LINE
  5
7AD6
  8
1
  6
CONTINUOUS
 10
978.28233099999989
 20
3132.0027899720089
 30
0.0
 11
1343.2823310000001
 21
3132.0027899720089
 31
0.0
  0
LINE
  5
7AD7
  8
1
  6
CONTINUOUS
 10
978.28233099999989
 20
3132.0027899720089
 30
0.0
 11
978.28233099999989
 21
3123.8027899720091
 31
0.0
  0
LINE
  5
7AD8
  8
1
  6
CONTINUOUS
 10
1343.2823310000001
 20
3132.0027899720089
 30
0.0
 11
1343.2823310000001
 21
3123.8027899720091
 31
0.0
  0
LINE
  5
7AD9
  8
1
  6
CONTINUOUS
 10
2069.7226558247439
 20
1273.8694069999999
 30
0.0
 11
2384.7226558247448
 21
1273.8694069999999
 31
0.0
  0
LINE
  5
7ADA
  8
1
  6
CONTINUOUS
 10
2069.7226558247439
 20
1243.8694069999999
 30
0.0
 11
2384.7226558247448
 21
1243.8694069999999
 31
0.0
  0
LINE
  5
7ADB
  8
1
  6
CONTINUOUS
 10
2384.7226558247448
 20
1365.8694069999999
 30
0.0
 11
2069.7226558247439
 21
1365.8694069999999
 31
0.0
  0
LINE
  5
7ADC
  8
1
  6
CONTINUOUS
 10
2069.7226558247439
 20
1295.8694069999999
 30
0.0
 11
2384.7226558247448
 21
1295.8694069999999
 31
0.0
  0
LINE
  5
7ADD
  8
1
  6
CONTINUOUS
 10
2262.9226558247451
 20
1783.069407
 30
0.0
 11
2098.9226558247451
 21
1656.8694069999999
 31
0.0
  0
LINE
  5
7ADE
  8
1
  6
CONTINUOUS
 10
2024.7226558247439
 20
1708.469407
 30
0.0
 11
2165.9226558247451
 21
1708.469407
 31
0.0
  0
LINE
  5
7ADF
  8
1
  6
CONTINUOUS
 10
2098.9226558247451
 20
1656.8694069999999
 30
0.0
 11
2098.9226558247451
 21
1365.8694069999999
 31
0.0
  0
LINE
  5
7AE0
  8
1
  6
CONTINUOUS
 10
1964.7226558247439
 20
1365.969407
 30
0.0
 11
1964.7226558247439
 21
1925.8694069999999
 31
0.0
  0
LINE
  5
7AE1
  8
1
  6
CONTINUOUS
 10
2049.7226558247439
 20
1365.969407
 30
0.0
 11
2049.7226558247439
 21
1925.8694069999999
 31
0.0
  0
LINE
  5
7AE4
  8
1
  6
CONTINUOUS
 10
1425.7823310000001
 20
1243.8694069999999
 30
0.0
 11
1425.7823310000001
 21
1273.8694069999999
 31
0.0
  0
LINE
  5
7AE5
  8
1
  6
CONTINUOUS
 10
1395.7823310000001
 20
1365.8694069999999
 30
0.0
 11
1395.7823310000001
 21
1295.8694069999999
 31
0.0
  0
LINE
  5
7AE7
  8
1
  6
CONTINUOUS
 10
2069.7226558247439
 20
1273.8694069999999
 30
0.0
 11
2069.7226558247439
 21
1243.8694069999999
 31
0.0
  0
LINE
  5
7AE8
  8
1
  6
CONTINUOUS
 10
2024.7226558247439
 20
1463.969407
 30
0.0
 11
2098.9226558247451
 21
1463.969407
 31
0.0
  0
LINE
  5
7AE9
  8
1
  6
CONTINUOUS
 10
2024.7226558247439
 20
1487.969407
 30
0.0
 11
2098.9226558247451
 21
1487.969407
 31
0.0
  0
LINE
  5
7AEA
  8
1
  6
CONTINUOUS
 10
1964.7226558247439
 20
1365.969407
 30
0.0
 11
2049.7226558247439
 21
1365.969407
 31
0.0
  0
LINE
  5
7AEB
  8
1
  6
CONTINUOUS
 10
1989.7226558247451
 20
1412.469407
 30
0.0
 11
2024.7226558247439
 21
1412.469407
 31
0.0
  0
LINE
  5
7AEC
  8
1
  6
CONTINUOUS
 10
2024.7226558247439
 20
1412.469407
 30
0.0
 11
2024.7226558247439
 21
1539.469407
 31
0.0
  0
LINE
  5
7AED
  8
1
  6
CONTINUOUS
 10
2024.7226558247439
 20
1539.469407
 30
0.0
 11
1989.7226558247451
 21
1539.469407
 31
0.0
  0
LINE
  5
7AEE
  8
1
  6
CONTINUOUS
 10
1989.7226558247451
 20
1539.469407
 30
0.0
 11
1989.7226558247451
 21
1412.469407
 31
0.0
  0
LINE
  5
7AEF
  8
1
  6
CONTINUOUS
 10
2069.7226558247439
 20
1365.8694069999999
 30
0.0
 11
2069.7226558247439
 21
1295.8694069999999
 31
0.0
  0
LINE
  5
7AF0
  8
1
  6
CONTINUOUS
 10
1410.7823310000001
 20
1674.3694069999999
 30
0.0
 11
1410.7823310000001
 21
2032.3694069999999
 31
0.0
  0
LINE
  5
7AF1
  8
1
  6
CONTINUOUS
 10
1390.7823310000001
 20
1725.8694069999999
 30
0.0
 11
1390.7823310000001
 21
1980.8694069999999
 31
0.0
  0
LINE
  5
7AF2
  8
1
  6
CONTINUOUS
 10
1410.7823310000001
 20
1705.8694069999999
 30
0.0
 11
1390.7823310000001
 21
1725.8694069999999
 31
0.0
  0
LINE
  5
7AF3
  8
1
  6
CONTINUOUS
 10
1390.7823310000001
 20
1695.869406999999
 30
0.0
 11
1410.7823310000001
 21
1695.869406999999
 31
0.0
  0
LINE
  5
7AF4
  8
1
  6
CONTINUOUS
 10
1390.7823310000001
 20
1686.969407
 30
0.0
 11
1390.7823310000001
 21
1695.869406999999
 31
0.0
  0
LINE
  5
7AF5
  8
1
  6
CONTINUOUS
 10
1410.7823310000001
 20
2000.8694069999999
 30
0.0
 11
1390.7823310000001
 21
1980.8694069999999
 31
0.0
  0
LINE
  5
7AF6
  8
1
  6
CONTINUOUS
 10
1410.7823310000001
 20
2010.8694069999999
 30
0.0
 11
1390.7823310000001
 21
2010.8694069999999
 31
0.0
  0
LINE
  5
7AF7
  8
1
  6
CONTINUOUS
 10
1390.7823310000001
 20
2010.8694069999999
 30
0.0
 11
1390.7823310000001
 21
2020.8694069999999
 31
0.0
  0
LINE
  5
7AF8
  8
1
  6
CONTINUOUS
 10
2024.7226558247439
 20
1683.469407
 30
0.0
 11
2133.522655824745
 21
1683.469407
 31
0.0
  0
LINE
  5
7AF9
  8
1
  6
CONTINUOUS
 10
1989.7226558247451
 20
1759.469407
 30
0.0
 11
1989.7226558247451
 21
1632.469407
 31
0.0
  0
LINE
  5
7AFA
  8
1
  6
CONTINUOUS
 10
2024.7226558247439
 20
1759.469407
 30
0.0
 11
1989.7226558247451
 21
1759.469407
 31
0.0
  0
LINE
  5
7AFB
  8
1
  6
CONTINUOUS
 10
2024.7226558247439
 20
1632.469407
 30
0.0
 11
2024.7226558247439
 21
1759.469407
 31
0.0
  0
LINE
  5
7AFC
  8
1
  6
CONTINUOUS
 10
1989.7226558247451
 20
1632.469407
 30
0.0
 11
2024.7226558247439
 21
1632.469407
 31
0.0
  0
LINE
  5
7AFD
  8
1
  6
CONTINUOUS
 10
1964.7226558247439
 20
1925.8694069999999
 30
0.0
 11
2049.7226558247439
 21
1925.8694069999999
 31
0.0
  0
LINE
  5
7AFE
  8
1
  6
CONTINUOUS
 10
2272.7226558247448
 20
2010.8694069999999
 30
0.0
 11
2272.7226558247448
 21
1493.8694069999999
 31
0.0
  0
LINE
  5
7AFF
  8
1
  6
CONTINUOUS
 10
2496.7226558247448
 20
1493.8694069999999
 30
0.0
 11
2496.7226558247448
 21
2010.8694069999999
 31
0.0
  0
LINE
  5
7B00
  8
1
  6
CONTINUOUS
 10
2262.9226558247451
 20
1878.469407
 30
0.0
 11
2262.9226558247451
 21
1365.8694069999999
 31
0.0
  0
LINE
  5
7B01
  8
1
  6
CONTINUOUS
 10
2505.7226558247448
 20
1513.3694069999999
 30
0.0
 11
2505.7226558247448
 21
1878.3694069999999
 31
0.0
  0
LINE
  5
7B02
  8
1
  6
CONTINUOUS
 10
2476.7226558247439
 20
1473.8694069999999
 30
0.0
 11
2292.7226558247439
 21
1473.8694069999999
 31
0.0
  0
ARC
  5
7B03
  8
1
  6
CONTINUOUS
 10
2292.7226558247439
 20
1493.8694069999999
 30
0.0
 40
20.0
 50
180.0
 51
270.0
  0
LINE
  5
7B04
  8
1
  6
CONTINUOUS
 10
2262.9226558247451
 20
1513.3694069999999
 30
0.0
 11
2272.7226558247448
 21
1513.3694069999999
 31
0.0
  0
LINE
  5
7B05
  8
1
  6
CONTINUOUS
 10
2384.7226558247448
 20
1243.8694069999999
 30
0.0
 11
2384.7226558247448
 21
1273.8694069999999
 31
0.0
  0
ARC
  5
7B06
  8
1
  6
CONTINUOUS
 10
2476.7226558247439
 20
1493.8694069999999
 30
0.0
 40
20.0
 50
270.0
 51
0.0
  0
LINE
  5
7B07
  8
1
  6
CONTINUOUS
 10
2384.7226558247448
 20
1295.8694069999999
 30
0.0
 11
2384.7226558247448
 21
1365.8694069999999
 31
0.0
  0
LINE
  5
7B08
  8
1
  6
CONTINUOUS
 10
2505.7226558247448
 20
1513.3694069999999
 30
0.0
 11
2496.7226558247448
 21
1513.3694069999999
 31
0.0
  0
LINE
  5
7B09
  8
1
  6
CONTINUOUS
 10
2496.7226558247448
 20
2010.8694069999999
 30
0.0
 11
2272.7226558247448
 21
2010.8694069999999
 31
0.0
  0
LINE
  5
7B0A
  8
1
  6
CONTINUOUS
 10
2272.7226558247448
 20
1695.869406999999
 30
0.0
 11
2496.7226558247448
 21
1695.869406999999
 31
0.0
  0
LINE
  5
7B0B
  8
1
  6
CONTINUOUS
 10
2272.7226558247448
 20
2010.8694069999999
 30
0.0
 11
2496.7226558247448
 21
1695.869406999999
 31
0.0
  0
LINE
  5
7B0C
  8
1
  6
CONTINUOUS
 10
2272.7226558247448
 20
1695.869406999999
 30
0.0
 11
2496.7226558247448
 21
2010.8694069999999
 31
0.0
  0
LINE
  5
7B0D
  8
1
  6
CONTINUOUS
 10
2262.9226558247451
 20
1878.3694069999999
 30
0.0
 11
2272.9226558247451
 21
1878.3694069999999
 31
0.0
  0
LINE
  5
7B0E
  8
1
  6
CONTINUOUS
 10
2505.7226558247448
 20
1878.3694069999999
 30
0.0
 11
2496.522655824745
 21
1878.3694069999999
 31
0.0
  0
LINE
  5
7B0F
  8
1
  6
CONTINUOUS
 10
2384.7226558247448
 20
2010.8694069999999
 30
0.0
 11
2496.7226558247448
 21
2010.8694069999999
 31
0.0
  0
LINE
  5
7B10
  8
1
  6
CONTINUOUS
 10
1410.7823310000001
 20
3144.0027899720089
 30
0.0
 11
1410.7823310000001
 21
2878.0027899720089
 31
0.0
  0
LINE
  5
7B11
  8
1
  6
CONTINUOUS
 10
1390.7823310000001
 20
3094.0027899720089
 30
0.0
 11
1390.7823310000001
 21
2928.002789972008
 31
0.0
  0
LINE
  5
7B12
  8
1
  6
CONTINUOUS
 10
1425.7823310000001
 20
2696.0027899720089
 30
0.0
 11
1425.7823310000001
 21
3011.0027899720089
 31
0.0
  0
LINE
  5
7B13
  8
1
  6
CONTINUOUS
 10
1410.7823310000001
 20
2908.0027899720089
 30
0.0
 11
1390.7823310000001
 21
2928.002789972008
 31
0.0
  0
LINE
  5
7B14
  8
1
  6
CONTINUOUS
 10
1425.7823310000001
 20
3011.0027899720089
 30
0.0
 11
1410.7823310000001
 21
3011.0027899720089
 31
0.0
  0
LINE
  5
7B15
  8
1
  6
CONTINUOUS
 10
1410.7823310000001
 20
3114.002789972008
 30
0.0
 11
1390.7823310000001
 21
3094.0027899720089
 31
0.0
  0
LINE
  5
7B16
  8
4
  6
CONTINUOUS
 10
2775.0
 20
750.0
 30
0.0
 11
2775.0
 21
450.0
 31
0.0
  0
LINE
  5
7B17
  8
4
  6
CONTINUOUS
 10
1725.0
 20
750.0
 30
0.0
 11
1725.0
 21
450.0
 31
0.0
  0
LINE
  5
7B18
  8
4
  6
CONTINUOUS
 10
975.0
 20
750.0
 30
0.0
 11
975.0
 21
450.0
 31
0.0
  0
LINE
  5
7B1B
  8
4
  6
CONTINUOUS
 10
975.0
 20
450.0
 30
0.0
 11
2775.0
 21
450.0
 31
0.0
  0
LINE
  5
7B1C
  8
4
  6
CONTINUOUS
 10
975.0
 20
600.0
 30
0.0
 11
2775.0
 21
600.0
 31
0.0
  0
TEXT
  5
7B1D
  8
4
  6
CONTINUOUS
 10
1032.753121
 20
647.31453899999985
 30
0.0
 40
75.0
  1
機器名称
  0
TEXT
  5
7B1E
  8
4
  6
CONTINUOUS
 10
1029.387158999999
 20
482.46773499999989
 30
0.0
 40
75.0
  1
機器型番
  0
TEXT
  5
7B1F
  8
4
  6
CONTINUOUS
 10
1766.518118
 20
633.85765300000003
 30
0.0
 40
65.0
  1
ミツヤニューマルチファン
  0
TEXT
  5
7B20
  8
4
  6
CONTINUOUS
 10
1779.9817430000001
 20
475.73937599999999
 30
0.0
 40
75.0
  1
NM#2-1
  0
TEXT
  5
7B22
  8
4
  6
CONTINUOUS
 10
1157.535592
 20
3575.1432619999991
 30
0.0
 40
81.0
  1
床置防振ベット
  0
TEXT
  5
7B23
  8
4
  6
CONTINUOUS
 10
474.25139000000001
 20
3800.8214640000001
 30
0.0
 40
108.0
  1
ベルト駆動式片吸込片持多翼ファン
  0
LINE
  5
7B24
  8
4
  6
CONTINUOUS
 10
375.0
 20
3704.1131310000001
 30
0.0
 11
2775.0
 21
3704.1131310000001
 31
0.0
  0
LINE
  5
7B25
  8
4
  6
CONTINUOUS
 10
375.0
 20
4004.1131310000001
 30
0.0
 11
2775.0
 21
4004.1131310000001
 31
0.0
  0
LINE
  5
7B26
  8
4
  6
CONTINUOUS
 10
975.0
 20
750.0
 30
0.0
 11
2775.0
 21
750.0
 31
0.0
  0
LINE
  5
7B27
  8
4
  6
CONTINUOUS
 10
375.0
 20
4004.1131310000001
 30
0.0
 11
375.0
 21
3704.1131310000001
 31
0.0
  0
TEXT
  5
7B28
  8
4
  6
CONTINUOUS
 10
503.747344
 20
3573.4792159999988
 30
0.0
 40
81.0
  1
右回転右横向
  0
TEXT
  5
7B29
  8
4
  6
CONTINUOUS
 10
2203.454338999999
 20
4059.091621999999
 30
0.0
 40
84.0
  1
No.
  0
TEXT
  5
7B2A
  8
4
  6
CONTINUOUS
 10
1966.944094
 20
3575.1432619999991
 30
0.0
 40
81.0
  1
縮尺：1/15
  0
LINE
  5
7B2B
  8
4
  6
CONTINUOUS
 10
2775.0
 20
4004.1131310000001
 30
0.0
 11
2775.0
 21
3704.1131310000001
 31
0.0
  0
LINE
  5
7B2D
  8
4
  6
CONTINUOUS
 10
2160.9261339999989
 20
4021.8953750000001
 30
0.0
 11
2160.9261339999989
 21
4179.978392
 31
0.0
  0
LINE
  5
7B2E
  8
4
  6
CONTINUOUS
 10
2160.9261339999989
 20
4179.978392
 30
0.0
 11
2775.0
 21
4179.978392
 31
0.0
  0
LINE
  5
7B2F
  8
4
  6
CONTINUOUS
 10
2775.0
 20
4179.978392
 30
0.0
 11
2775.0
 21
4021.8953750000001
 31
0.0
  0
LINE
  5
7B30
  8
4
  6
CONTINUOUS
 10
2775.0
 20
4021.8953750000001
 30
0.0
 11
2160.9261339999989
 21
4021.8953750000001
 31
0.0
  0
DIMENSION
  5
7B48
  8
3
  6
CONTINUOUS
  2
*D1
 10
1160.7823310000001
 20
1103.873724
 30
0.0
 11
857.63401199999987
 21
1103.873724
 31
0.0
 70
   128
 13
515.782331
 23
1243.8694069999999
 33
0.0
 14
1160.7823310000001
 24
1199.702305
 34
0.0
1001
ACAD
1000
DSTYLE
1002
{
1070
   287
1070
     3
1070
   287
1070
     3
1070
    40
1040
15.0
1070
   143
1040
0.039
1070
   172
1070
     1
1070
   271
1070
     0
1070
   279
1070
     0
1070
   288
1070
     1
1002
}
  0
DIMENSION
  5
7B54
  8
3
  6
CONTINUOUS
  2
*D2
 10
1425.7823310000001
 20
1103.873724
 30
0.0
 11
1293.2823310000001
 21
1141.373724
 31
0.0
 70
     0
 13
1160.7823310000001
 23
1199.702305
 33
0.0
 14
1425.7823310000001
 24
1243.8694069999999
 34
0.0
1001
ACAD
1000
DSTYLE
1002
{
1070
   287
1070
     4
1070
   287
1070
     4
1070
    40
1040
15.0
1070
    75
1070
     1
1070
   143
1040
0.039
1070
   172
1070
     1
1070
   271
1070
     0
1070
   279
1070
     1
1070
   288
1070
     1
1002
}
  0
DIMENSION
  5
7B61
  8
3
  6
CONTINUOUS
  2
*D3
 10
1540.382807
 20
1695.869406999999
 30
0.0
 11
1540.382807
 21
1869.339657999999
 31
0.0
 70
   128
 13
1410.7823310000001
 23
2010.8694069999999
 33
0.0
 14
1410.7823310000001
 24
1695.869406999999
 34
0.0
 50
90.0
1001
ACAD
1000
DSTYLE
1002
{
1070
   287
1070
     3
1070
   287
1070
     3
1070
    40
1040
15.0
1070
   143
1040
0.039
1070
   172
1070
     1
1070
   271
1070
     0
1070
   279
1070
     0
1070
   288
1070
     1
1002
}
  0
DIMENSION
  5
7B7B
  8
3
  6
CONTINUOUS
  2
*D4
 10
1641.4476070000001
 20
1695.869406999999
 30
0.0
 11
1641.4476069999989
 21
1855.8789079999999
 31
0.0
 70
   128
 13
1390.7823310000001
 23
2020.8694069999999
 33
0.0
 14
1410.7823310000001
 24
1695.869406999999
 34
0.0
 50
90.0
1001
ACAD
1000
DSTYLE
1002
{
1070
   287
1070
     3
1070
   287
1070
     3
1070
    40
1040
15.0
1070
   143
1040
0.039
1070
   172
1070
     1
1070
   271
1070
     0
1070
   279
1070
     0
1070
   288
1070
     1
1002
}
  0
DIMENSION
  5
7B87
  8
3
  6
CONTINUOUS
  2
*D5
 10
1641.4476069999989
 20
1295.8694069999999
 30
0.0
 11
1603.9476070000001
 21
1495.8694069999999
 31
0.0
 70
     0
 13
1410.7823310000001
 23
1695.869406999999
 33
0.0
 14
1395.7823310000001
 24
1295.8694069999999
 34
0.0
 50
90.0
1001
ACAD
1000
DSTYLE
1002
{
1070
   287
1070
     4
1070
   287
1070
     4
1070
    40
1040
15.0
1070
    75
1070
     1
1070
   143
1040
0.039
1070
   172
1070
     1
1070
   271
1070
     0
1070
   279
1070
     1
1070
   288
1070
     1
1002
}
  0
DIMENSION
  5
7B97
  8
3
  6
CONTINUOUS
  2
*D6
 10
1641.4476070000001
 20
1243.8694069999999
 30
0.0
 11
1641.4476069999989
 21
1132.440835571429
 31
0.0
 70
   128
 13
1395.7823310000001
 23
1295.8694069999999
 33
0.0
 14
1425.7823310000001
 24
1243.8694069999999
 34
0.0
 50
90.0
1001
ACAD
1000
DSTYLE
1002
{
1070
   287
1070
     3
1070
   287
1070
     3
1070
    40
1040
15.0
1070
   143
1040
0.039
1070
   172
1070
     1
1070
   271
1070
     0
1070
   279
1070
     0
1070
   288
1070
     1
1002
}
  0
DIMENSION
  5
7BA4
  8
3
  6
CONTINUOUS
  2
*D7
 10
1739.7730553954621
 20
1243.8694069999999
 30
0.0
 11
1739.7730553954621
 21
1709.830897999999
 31
0.0
 70
   128
 13
1410.7823310000001
 23
2032.3694069999999
 33
0.0
 14
1425.7823310000001
 24
1243.8694069999999
 34
0.0
 50
90.0
1001
ACAD
1000
DSTYLE
1002
{
1070
   287
1070
     3
1070
   287
1070
     3
1070
    40
1040
15.0
1070
   143
1040
0.039
1070
   172
1070
     1
1070
   271
1070
     0
1070
   279
1070
     0
1070
   288
1070
     1
1002
}
  0
DIMENSION
  5
7BD6
  8
3
  6
CONTINUOUS
  2
*D8
 10
1160.7823310000001
 20
2088.9754720000001
 30
0.0
 11
1022.706501
 21
2088.9754720000001
 31
0.0
 70
   128
 13
886.78233100000023
 23
1695.869406999999
 33
0.0
 14
1160.7823310000001
 24
2019.7818729999999
 34
0.0
1001
ACAD
1000
DSTYLE
1002
{
1070
   287
1070
     3
1070
   287
1070
     3
1070
    40
1040
15.0
1070
   143
1040
0.039
1070
   172
1070
     1
1070
   271
1070
     0
1070
   279
1070
     0
1070
   288
1070
     1
1002
}
  0
DIMENSION
  5
7BE2
  8
3
  6
CONTINUOUS
  2
*D9
 10
1410.7823310000001
 20
2088.9754720000001
 30
0.0
 11
1285.7823310000001
 21
2126.4754720000001
 31
0.0
 70
     0
 13
1160.7823310000001
 23
2019.7818729999999
 33
0.0
 14
1410.7823310000001
 24
2032.3694069999999
 34
0.0
1001
ACAD
1000
DSTYLE
1002
{
1070
   287
1070
     4
1070
   287
1070
     4
1070
    40
1040
15.0
1070
    75
1070
     1
1070
   143
1040
0.039
1070
   172
1070
     1
1070
   271
1070
     0
1070
   279
1070
     1
1070
   288
1070
     1
1002
}
  0
DIMENSION
  5
7BEF
  8
3
  6
CONTINUOUS
  2
*D10
 10
1425.7823310000001
 20
2469.6511059720092
 30
0.0
 11
954.39117199999998
 21
2469.6511059720092
 31
0.0
 70
   128
 13
515.782331
 23
2696.0027899720089
 33
0.0
 14
1425.7823310000001
 24
2696.0027899720089
 34
0.0
1001
ACAD
1000
DSTYLE
1002
{
1070
   287
1070
     3
1070
   287
1070
     3
1070
    40
1040
15.0
1070
   143
1040
0.039
1070
   172
1070
     1
1070
   271
1070
     0
1070
   279
1070
     0
1070
   288
1070
     1
1002
}
  0
DIMENSION
  5
7BFC
  8
3
  6
CONTINUOUS
  2
*D11
 10
1554.1462630000001
 20
2696.0027899720089
 30
0.0
 11
1554.1462630000001
 21
2856.6477899720089
 31
0.0
 70
   128
 13
1425.7823310000001
 23
3011.0027899720089
 33
0.0
 14
1425.7823310000001
 24
2696.0027899720089
 34
0.0
 50
90.0
1001
ACAD
1000
DSTYLE
1002
{
1070
   287
1070
     3
1070
   287
1070
     3
1070
    40
1040
15.0
1070
   143
1040
0.039
1070
   172
1070
     1
1070
   271
1070
     0
1070
   279
1070
     0
1070
   288
1070
     1
1002
}
  0
LINE
  5
7BFD
  8
2
  6
CENTER
 10
822.97182300000009
 20
3011.0027899720089
 30
0.0
 11
1460.0597479999999
 21
3011.0027899720089
 31
0.0
  0
LINE
  5
7BFE
  8
2
  6
CENTER
 10
2384.7226558247448
 20
2066.9506570906519
 30
0.0
 11
2384.7226558247448
 21
1216.725901
 31
0.0
  0
DIMENSION
  5
7C0B
  8
3
  6
CONTINUOUS
  2
*D12
 10
2496.7226558247448
 20
2074.5638509999999
 30
0.0
 11
2376.6512278247451
 21
2074.5638509999999
 31
0.0
 70
   128
 13
2272.7226558247448
 23
2010.8694069999999
 33
0.0
 14
2496.7226558247448
 24
2010.8694069999999
 34
0.0
1001
ACAD
1000
DSTYLE
1002
{
1070
   287
1070
     3
1070
   287
1070
     3
1070
    40
1040
15.0
1070
   143
1040
0.039
1070
   172
1070
     1
1070
   271
1070
     0
1070
   279
1070
     0
1070
   288
1070
     1
1002
}
  0
DIMENSION
  5
7C18
  8
3
  6
CONTINUOUS
  2
*D13
 10
2384.7226558247448
 20
2166.889267
 30
0.0
 11
2158.3914768247441
 21
2166.889267
 31
0.0
 70
   128
  1
MAX\P420
 13
1964.7226558247439
 23
1925.8694069999999
 33
0.0
 14
2384.7226558247448
 24
2137.0560347171422
 34
0.0
1001
ACAD
1000
DSTYLE
1002
{
1070
   287
1070
     3
1070
   287
1070
     3
1070
    40
1040
15.0
1070
   143
1040
0.039
1070
   172
1070
     1
1070
   271
1070
     0
1070
   279
1070
     0
1070
   288
1070
     1
1002
}
  0
DIMENSION
  5
7C26
  8
3
  6
CONTINUOUS
  2
*D14
 10
2505.7226558247448
 20
2166.889267
 30
0.0
 11
2429.582005824745
 21
2167.0726030000001
 31
0.0
 70
   128
 13
2384.7226558247448
 23
2137.0560347171422
 33
0.0
 14
2505.7226558247448
 24
1878.3694069999999
 34
0.0
1001
ACAD
1000
DSTYLE
1002
{
1070
   287
1070
     4
1070
   287
1070
     4
1070
    40
1040
15.0
1070
    75
1070
     1
1070
   143
1040
0.039
1070
   172
1070
     1
1070
   271
1070
     0
1070
   279
1070
     1
1070
   288
1070
     1
1002
}
  0
LINE
  5
7C3E
  8
3
  6
CONTINUOUS
 10
2505.7226558247448
 20
1853.3694069999999
 30
0.0
 11
2523.8527228247449
 21
1853.3694069999999
 31
0.0
  0
LINE
  5
7C40
  8
3
  6
CONTINUOUS
 10
2505.7226558247448
 20
1538.3694069999999
 30
0.0
 11
2531.2320628247448
 21
1538.3694069999999
 31
0.0
  0
DIMENSION
  5
7C4D
  8
3
  6
CONTINUOUS
  2
*D15
 10
2625.3185788247451
 20
1538.3694069999999
 30
0.0
 11
2625.3185788247451
 21
1707.6550709999999
 31
0.0
 70
   128
 13
2505.7226558247448
 23
1853.3694069999999
 33
0.0
 14
2505.7226558247448
 24
1538.3694069999999
 34
0.0
 50
90.0
1001
ACAD
1000
DSTYLE
1002
{
1070
   287
1070
     3
1070
   287
1070
     3
1070
     3
1000
φ<>
1070
    40
1040
15.0
1070
   143
1040
0.039
1070
   172
1070
     1
1070
   271
1070
     0
1070
   279
1070
     0
1070
   288
1070
     1
1002
}
  0
DIMENSION
  5
7C5A
  8
3
  6
CONTINUOUS
  2
*D16
 10
2384.7226558247448
 20
1139.280679
 30
0.0
 11
2227.7625798247441
 21
1139.280679
 31
0.0
 70
   128
 13
2069.7226558247439
 23
1243.8694069999999
 33
0.0
 14
2384.7226558247448
 24
1243.8694069999999
 34
0.0
1001
ACAD
1000
DSTYLE
1002
{
1070
   287
1070
     3
1070
   287
1070
     3
1070
    40
1040
15.0
1070
   143
1040
0.039
1070
   172
1070
     1
1070
   271
1070
     0
1070
   279
1070
     0
1070
   288
1070
     1
1002
}
  0
LINE
  5
7C5C
  8
2
  6
CENTER
 10
1160.7823310000001
 20
2503.2058969720092
 30
0.0
 11
1160.7823310000001
 21
3154.342230972009
 31
0.0
  0
LINE
  5
7C5D
  8
2
  6
CENTER
 10
1907.2962958247449
 20
1695.869406999999
 30
0.0
 11
2557.2086048247452
 21
1695.869406999999
 31
0.0
  0
DIMENSION
  5
7CB2
  8
3
  2
*D17
 10
515.782331
 20
2183.4760853859898
 30
0.0
 11
962.76705637436305
 21
2183.4760853859898
 31
0.0
 70
   128
 13
1410.7823310000001
 23
2032.3694069999999
 33
0.0
 14
515.782331
 24
1273.8694069999999
 34
0.0
1001
ACAD
1000
DSTYLE
1002
{
1070
   287
1070
     3
1070
   287
1070
     3
1070
    40
1040
15.0
1070
   143
1040
0.039
1070
   172
1070
     1
1070
   271
1070
     0
1070
   279
1070
     0
1070
   288
1070
     1
1002
}
  0
ENDSEC
  0
EOF
