  0
SECTION
  2
HEADER
  9
$ACADVER
  1
AC1009
  9
$INSBASE
 10
0.0
 20
0.0
 30
0.0
  9
$EXTMIN
 10
375.0
 20
450.0
 30
0.0
  9
$EXTMAX
 10
2775.0
 20
4179.978392
 30
0.0
  9
$LIMMIN
 10
0.0
 20
0.0
  9
$LIMMAX
 10
297.0
 20
210.0
  9
$ORTHOMODE
 70
     0
  9
$REGENMODE
 70
     1
  9
$FILLMODE
 70
     0
  9
$QTEXTMODE
 70
     0
  9
$MIRRTEXT
 70
     1
  9
$DRAGMODE
 70
     2
  9
$LTSCALE
 40
100.0
  9
$OSMODE
 70
    37
  9
$ATTMODE
 70
     1
  9
$TEXTSIZE
 40
180.0
  9
$TRACEWID
 40
0.05
  9
$TEXTSTYLE
  7
STANDARD
  9
$CLAYER
  8
3
  9
$CELTYPE
  6
BYLAYER
  9
$CECOLOR
 62
   256
  9
$DIMSCALE
 40
15.0
  9
$DIMASZ
 40
2.0
  9
$DIMEXO
 40
0.5
  9
$DIMDLI
 40
10.0
  9
$DIMRND
 40
0.0
  9
$DIMDLE
 40
0.0
  9
$DIMEXE
 40
1.0
  9
$DIMTP
 40
1.0
  9
$DIMTM
 40
1.0
  9
$DIMTXT
 40
3.0
  9
$DIMCEN
 40
0.0
  9
$DIMTSZ
 40
0.0
  9
$DIMTOL
 70
     0
  9
$DIMLIM
 70
     0
  9
$DIMTIH
 70
     0
  9
$DIMTOH
 70
     0
  9
$DIMSE1
 70
     0
  9
$DIMSE2
 70
     0
  9
$DIMTAD
 70
     1
  9
$DIMZIN
 70
     8
  9
$DIMBLK
  1

  9
$DIMASO
 70
     1
  9
$DIMSHO
 70
     1
  9
$DIMPOST
  1

  9
$DIMAPOST
  1

  9
$DIMALT
 70
     0
  9
$DIMALTD
 70
     2
  9
$DIMALTF
 40
0.039
  9
$DIMLFAC
 40
1.0
  9
$DIMTOFL
 70
     1
  9
$DIMTVP
 40
0.0
  9
$DIMTIX
 70
     0
  9
$DIMSOXD
 70
     0
  9
$DIMSAH
 70
     1
  9
$DIMBLK1
  1
OPEN
  9
$DIMBLK2
  1
OPEN
  9
$DIMSTYLE
  2
IGA
  9
$DIMCLRD
 70
     0
  9
$DIMCLRE
 70
     0
  9
$DIMCLRT
 70
     0
  9
$DIMTFAC
 40
10.0
  9
$DIMGAP
 40
1.0
  9
$LUNITS
 70
     2
  9
$LUPREC
 70
     3
  9
$SKETCHINC
 40
0.1
  9
$FILLETRAD
 40
50.0
  9
$AUNITS
 70
     0
  9
$AUPREC
 70
     0
  9
$MENU
  1
acad
  9
$ELEVATION
 40
0.0
  9
$PELEVATION
 40
0.0
  9
$THICKNESS
 40
0.0
  9
$LIMCHECK
 70
     0
  9
$BLIPMODE
 70
     0
  9
$CHAMFERA
 40
0.5
  9
$CHAMFERB
 40
0.5
  9
$SKPOLY
 70
     0
  9
$TDCREATE
 40
2450745.6931781252
  9
$TDUPDATE
 40
2454953.857606689
  9
$TDINDWG
 40
0.007327419
  9
$TDUSRTIMER
 40
0.007327419
  9
$USRTIMER
 70
     1
  9
$ANGBASE
 50
0.0
  9
$ANGDIR
 70
     0
  9
$PDMODE
 70
     0
  9
$PDSIZE
 40
0.0
  9
$PLINEWID
 40
0.0
  9
$COORDS
 70
     1
  9
$SPLFRAME
 70
     0
  9
$SPLINETYPE
 70
     6
  9
$SPLINESEGS
 70
     8
  9
$ATTDIA
 70
     0
  9
$ATTREQ
 70
     1
  9
$HANDLING
 70
 10241
  9
$HANDSEED
  5
7ECC
  9
$SURFTAB1
 70
     6
  9
$SURFTAB2
 70
     6
  9
$SURFTYPE
 70
     6
  9
$SURFU
 70
     6
  9
$SURFV
 70
     6
  9
$UCSNAME
  2

  9
$UCSORG
 10
0.0
 20
0.0
 30
0.0
  9
$UCSXDIR
 10
1.0
 20
0.0
 30
0.0
  9
$UCSYDIR
 10
0.0
 20
1.0
 30
0.0
  9
$PUCSNAME
  2

  9
$PUCSORG
 10
0.0
 20
0.0
 30
0.0
  9
$PUCSXDIR
 10
1.0
 20
0.0
 30
0.0
  9
$PUCSYDIR
 10
0.0
 20
1.0
 30
0.0
  9
$USERI1
 70
     0
  9
$USERI2
 70
     0
  9
$USERI3
 70
     0
  9
$USERI4
 70
     0
  9
$USERI5
 70
     0
  9
$USERR1
 40
0.0
  9
$USERR2
 40
0.0
  9
$USERR3
 40
0.0
  9
$USERR4
 40
0.0
  9
$USERR5
 40
0.0
  9
$WORLDVIEW
 70
     1
  9
$SHADEDGE
 70
     3
  9
$SHADEDIF
 70
    70
  9
$TILEMODE
 70
     1
  9
$MAXACTVP
 70
    16
  9
$PLIMCHECK
 70
     0
  9
$PEXTMIN
 10
1.0000000000000000E+020
 20
1.0000000000000000E+020
 30
1.0000000000000000E+020
  9
$PEXTMAX
 10
-1.0000000000000000E+020
 20
-1.0000000000000000E+020
 30
-1.0000000000000000E+020
  9
$PLIMMIN
 10
0.0
 20
0.0
  9
$PLIMMAX
 10
12.0
 20
9.0
  9
$UNITMODE
 70
     0
  9
$VISRETAIN
 70
     0
  9
$PLINEGEN
 70
     0
  9
$PSLTSCALE
 70
     1
  0
ENDSEC
  0
SECTION
  2
TABLES
  0
TABLE
  2
VPORT
 70
     2
  0
VPORT
  2
*ACTIVE
 70
     0
 10
0.0
 20
0.0
 11
1.0
 21
1.0
 12
4339.1427822819978
 22
3057.1997328101929
 13
0.0
 23
0.0
 14
10.0
 24
10.0
 15
10.0
 25
10.0
 16
0.0
 26
0.0
 36
1.0
 17
0.0
 27
0.0
 37
0.0
 40
5790.646336085927
 41
1.5051150895140659
 42
50.0
 43
0.0
 44
0.0
 50
0.0
 51
0.0
 71
     0
 72
   100
 73
     1
 74
     0
 75
     0
 76
     0
 77
     0
 78
     0
  0
ENDTAB
  0
TABLE
  2
LTYPE
 70
     2
  0
LTYPE
  2
CONTINUOUS
 70
     0
  3
Solid line
 72
    65
 73
     0
 40
0.0
  0
LTYPE
  2
CENTER
 70
     0
  3
____ _ ____ _ ____ _ ____ _ ____ _ ____ _ ____ 
 72
    65
 73
     4
 40
2.0
 49
1.25
 49
-0.25
 49
0.25
 49
-0.25
  0
ENDTAB
  0
TABLE
  2
LAYER
 70
     6
  0
LAYER
  2
0
 70
     0
 62
     7
  6
CONTINUOUS
  0
LAYER
  2
3
 70
     0
 62
     2
  6
CONTINUOUS
  0
LAYER
  2
2
 70
     0
 62
     3
  6
CENTER
  0
LAYER
  2
1
 70
     0
 62
     4
  6
CONTINUOUS
  0
LAYER
  2
4
 70
     0
 62
     7
  6
CONTINUOUS
  0
LAYER
  2
DEFPOINTS
 70
     0
 62
     7
  6
CONTINUOUS
  0
ENDTAB
  0
TABLE
  2
STYLE
 70
     1
  0
STYLE
  2
STANDARD
 70
     0
 40
0.0
 41
1.0
 50
0.0
 71
     0
 42
180.0
  3
simplex.shx
  4
extfont.shx
  0
ENDTAB
  0
TABLE
  2
VIEW
 70
     0
  0
ENDTAB
  0
TABLE
  2
UCS
 70
     0
  0
ENDTAB
  0
TABLE
  2
APPID
 70
     1
  0
APPID
  2
ACAD
 70
     0
  0
ENDTAB
  0
TABLE
  2
DIMSTYLE
 70
     1
  0
DIMSTYLE
  2
IGA
 70
     0
  3

  4

  5

  6
OPEN
  7
OPEN
 40
2.0
 41
2.0
 42
0.5
 43
10.0
 44
1.0
 45
0.0
 46
0.0
 47
1.0
 48
1.0
140
3.0
141
0.0
142
0.0
143
0.03937
144
1.0
145
0.0
146
10.0
147
1.0
 71
     0
 72
     0
 73
     0
 74
     0
 75
     0
 76
     0
 77
     1
 78
     8
170
     0
171
     2
172
     0
173
     1
174
     0
175
     0
176
     0
177
     0
178
     0
  0
ENDTAB
  0
ENDSEC
  0
SECTION
  2
BLOCKS
  0
BLOCK
  8
0
  2
$MODEL_SPACE
 70
     0
 10
0.0
 20
0.0
 30
0.0
  3
$MODEL_SPACE
  1

  0
ENDBLK
  5
1B
  8
0
  0
BLOCK
 67
     1
  8
0
  2
$PAPER_SPACE
 70
     0
 10
0.0
 20
0.0
 30
0.0
  3
$PAPER_SPACE
  1

  0
ENDBLK
  5
18
 67
     1
  8
0
  0
BLOCK
  8
0
  2
_OPEN
 70
     0
 10
0.0
 20
0.0
 30
0.0
  3
_OPEN
  1

  0
LINE
  5
7B3F
  8
0
  6
BYBLOCK
 62
     0
 10
-1.0
 20
0.166667
 30
0.0
 11
0.0
 21
0.0
 31
0.0
  0
LINE
  5
7B40
  8
0
  6
BYBLOCK
 62
     0
 10
0.0
 20
0.0
 30
0.0
 11
-1.0
 21
-0.166667
 31
0.0
  0
LINE
  5
7B41
  8
0
  6
BYBLOCK
 62
     0
 10
0.0
 20
0.0
 30
0.0
 11
-1.0
 21
0.0
 31
0.0
  0
ENDBLK
  5
7B42
  8
0
  0
BLOCK
  8
0
  2
*D1
 70
     1
 10
0.0
 20
0.0
 30
0.0
  3
*D1
  1

  0
LINE
  5
7E17
  8
3
  6
CONTINUOUS
 62
     0
 10
526.37941700819636
 20
1233.293845009503
 30
0.0
 11
526.37941700819636
 21
1091.168231009503
 31
0.0
  0
LINE
  5
7E18
  8
3
  6
CONTINUOUS
 62
     0
 10
1171.379417008196
 20
1183.101454009503
 30
0.0
 11
1171.379417008196
 21
1091.168231009503
 31
0.0
  0
LINE
  5
7E19
  8
3
  6
CONTINUOUS
 62
     0
 10
556.37941700819647
 20
1106.168231009503
 30
0.0
 11
1141.379417008196
 21
1106.168231009503
 31
0.0
  0
INSERT
  5
7E1A
  8
3
  6
CONTINUOUS
 62
     0
  2
_OPEN
 10
526.37941700819636
 20
1106.168231009503
 30
0.0
 41
30.0
 42
30.0
 43
30.0
 50
180.0
  0
INSERT
  5
7E1B
  8
3
  6
CONTINUOUS
 62
     0
  2
_OPEN
 10
1171.379417008196
 20
1106.168231009503
 30
0.0
 41
30.0
 42
30.0
 43
30.0
  0
TEXT
  8
3
  40
45
  5
7EB9
  62
0
  72
0
  71
0
 10
782.567
 20
1064.02
 30
0.000000
  1
645
  0
POINT
  5
7E1D
  8
DEFPOINTS
  6
CONTINUOUS
 62
     0
 10
526.37941700819636
 20
1240.793845009503
 30
0.0
  0
POINT
  5
7E1E
  8
DEFPOINTS
  6
CONTINUOUS
 62
     0
 10
1171.379417008196
 20
1190.601454009503
 30
0.0
  0
POINT
  5
7E1F
  8
DEFPOINTS
  6
CONTINUOUS
 62
     0
 10
1171.379417008196
 20
1106.168231009503
 30
0.0
  0
ENDBLK
  5
7B4F
  8
0
  0
BLOCK
  8
0
  2
*D2
 70
     1
 10
0.0
 20
0.0
 30
0.0
  3
*D2
  1

  0
LINE
  5
7E20
  8
3
  6
CONTINUOUS
 62
     0
 10
1436.379417008196
 20
1233.293845009503
 30
0.0
 11
1436.379417008196
 21
1091.168231009503
 31
0.0
  0
LINE
  5
7E21
  8
3
  6
CONTINUOUS
 62
     0
 10
1201.379417008196
 20
1106.168231009503
 30
0.0
 11
1406.379417008196
 21
1106.168231009503
 31
0.0
  0
INSERT
  5
7E22
  8
3
  6
CONTINUOUS
 62
     0
  2
_OPEN
 10
1171.379417008196
 20
1106.168231009503
 30
0.0
 41
30.0
 42
30.0
 43
30.0
 50
180.0
  0
INSERT
  5
7E23
  8
3
  6
CONTINUOUS
 62
     0
  2
_OPEN
 10
1436.379417008196
 20
1106.168231009503
 30
0.0
 41
30.0
 42
30.0
 43
30.0
  0
TEXT
  8
3
  40
45
  5
7EBA
  62
0
  72
0
  71
0
 10
1213.88
 20
1064.02
 30
0.000000
  1
265
  0
POINT
  5
7E25
  8
DEFPOINTS
  6
CONTINUOUS
 62
     0
 10
1171.379417008196
 20
1190.601454009503
 30
0.0
  0
POINT
  5
7E26
  8
DEFPOINTS
  6
CONTINUOUS
 62
     0
 10
1436.379417008196
 20
1240.793845009503
 30
0.0
  0
POINT
  5
7E27
  8
DEFPOINTS
  6
CONTINUOUS
 62
     0
 10
1436.379417008196
 20
1106.168231009503
 30
0.0
  0
ENDBLK
  5
7B5B
  8
0
  0
BLOCK
  8
0
  2
*D3
 70
     1
 10
0.0
 20
0.0
 30
0.0
  3
*D3
  1

  0
LINE
  5
7E28
  8
3
  6
CONTINUOUS
 62
     0
 10
1428.879417008196
 20
1692.793845009503
 30
0.0
 11
1547.3961150081959
 21
1692.793845009503
 31
0.0
  0
LINE
  5
7E29
  8
3
  6
CONTINUOUS
 62
     0
 10
1428.879417008196
 20
1377.793845009503
 30
0.0
 11
1547.3961150081959
 21
1377.793845009503
 31
0.0
  0
LINE
  5
7E2A
  8
3
  6
CONTINUOUS
 62
     0
 10
1532.3961150081971
 20
1662.793845009503
 30
0.0
 11
1532.3961150081959
 21
1407.793845009503
 31
0.0
  0
INSERT
  5
7E2B
  8
3
  6
CONTINUOUS
 62
     0
  2
_OPEN
 10
1532.3961150081971
 20
1692.793845009503
 30
0.0
 41
30.0
 42
30.0
 43
30.0
 50
90.0
  0
INSERT
  5
7E2C
  8
3
  6
CONTINUOUS
 62
     0
  2
_OPEN
 10
1532.3961150081959
 20
1377.793845009503
 30
0.0
 41
30.0
 42
30.0
 43
30.0
 50
270.0
  0
TEXT
  8
3
  40
45
  5
7EBB
  62
0
  72
0
  71
0
 10
1404.90
 20
1459.44
 30
0.000000
  1
315
  0
POINT
  5
7E2E
  8
DEFPOINTS
  6
CONTINUOUS
 62
     0
 10
1421.379417008196
 20
1692.793845009503
 30
0.0
  0
POINT
  5
7E2F
  8
DEFPOINTS
  6
CONTINUOUS
 62
     0
 10
1421.379417008196
 20
1377.793845009503
 30
0.0
  0
POINT
  5
7E30
  8
DEFPOINTS
  6
CONTINUOUS
 62
     0
 10
1532.3961150081959
 20
1377.793845009503
 30
0.0
  0
ENDBLK
  5
7B68
  8
0
  0
BLOCK
  8
0
  2
*D4
 70
     1
 10
0.0
 20
0.0
 30
0.0
  3
*D4
  1

  0
LINE
  5
7E31
  8
3
  6
CONTINUOUS
 62
     0
 10
1178.879417008196
 20
1925.0390310095031
 30
0.0
 11
1730.8208518442771
 21
1925.0390310095031
 31
0.0
  0
LINE
  5
7E32
  8
3
  6
CONTINUOUS
 62
     0
 10
1428.879417008196
 20
1692.793845009503
 30
0.0
 11
1730.8208518442771
 21
1692.793845009503
 31
0.0
  0
LINE
  5
7E33
  8
3
  6
CONTINUOUS
 62
     0
 10
1715.8208518442771
 20
1955.0390310095031
 30
0.0
 11
1715.8208518442771
 21
1985.0390310095031
 31
0.0
  0
LINE
  5
7E34
  8
3
  6
CONTINUOUS
 62
     0
 10
1715.8208518442771
 20
1662.793845009503
 30
0.0
 11
1715.8208518442771
 21
1632.793845009503
 31
0.0
  0
LINE
  5
7E35
  8
3
  6
CONTINUOUS
 62
     0
 10
1715.8208518442771
 20
1925.0390310095031
 30
0.0
 11
1715.8208518442771
 21
1692.793845009503
 31
0.0
  0
INSERT
  5
7E36
  8
3
  6
CONTINUOUS
 62
     0
  2
_OPEN
 10
1715.8208518442771
 20
1925.0390310095031
 30
0.0
 41
30.0
 42
30.0
 43
30.0
 50
270.0
  0
INSERT
  5
7E37
  8
3
  6
CONTINUOUS
 62
     0
  2
_OPEN
 10
1715.8208518442771
 20
1692.793845009503
 30
0.0
 41
30.0
 42
30.0
 43
30.0
 50
90.0
  0
TEXT
  8
3
  40
45
  5
7EBC
  62
0
  72
0
  71
0
 10
1588.32
 20
1716.00
 30
0.000000
  1
232
  0
POINT
  5
7E39
  8
DEFPOINTS
  6
CONTINUOUS
 62
     0
 10
1171.379417008196
 20
1925.0390310095031
 30
0.0
  0
POINT
  5
7E3A
  8
DEFPOINTS
  6
CONTINUOUS
 62
     0
 10
1421.379417008196
 20
1692.793845009503
 30
0.0
  0
POINT
  5
7E3B
  8
DEFPOINTS
  6
CONTINUOUS
 62
     0
 10
1715.8208518442771
 20
1692.793845009503
 30
0.0
  0
ENDBLK
  5
7D00
  8
0
  0
BLOCK
  8
0
  2
*D5
 70
     1
 10
0.0
 20
0.0
 30
0.0
  3
*D5
  1

  0
LINE
  5
7E3C
  8
3
  6
CONTINUOUS
 62
     0
 10
1413.879417008196
 20
1292.793845009503
 30
0.0
 11
1730.8208518442771
 21
1292.793845009503
 31
0.0
  0
LINE
  5
7E3D
  8
3
  6
CONTINUOUS
 62
     0
 10
1715.8208518442771
 20
1662.793845009503
 30
0.0
 11
1715.8208518442759
 21
1322.793845009503
 31
0.0
  0
INSERT
  5
7E3E
  8
3
  6
CONTINUOUS
 62
     0
  2
_OPEN
 10
1715.8208518442771
 20
1692.793845009503
 30
0.0
 41
30.0
 42
30.0
 43
30.0
 50
90.0
  0
INSERT
  5
7E3F
  8
3
  6
CONTINUOUS
 62
     0
  2
_OPEN
 10
1715.8208518442759
 20
1292.793845009503
 30
0.0
 41
30.0
 42
30.0
 43
30.0
 50
270.0
  0
TEXT
  8
3
  40
45
  5
7EBD
  62
0
  72
0
  71
0
 10
1588.32
 20
1413.14
 30
0.000000
  1
400
  0
POINT
  5
7E41
  8
DEFPOINTS
  6
CONTINUOUS
 62
     0
 10
1421.379417008196
 20
1692.793845009503
 30
0.0
  0
POINT
  5
7E42
  8
DEFPOINTS
  6
CONTINUOUS
 62
     0
 10
1406.379417008196
 20
1292.793845009503
 30
0.0
  0
POINT
  5
7E43
  8
DEFPOINTS
  6
CONTINUOUS
 62
     0
 10
1715.8208518442759
 20
1292.793845009503
 30
0.0
  0
ENDBLK
  5
7D0A
  8
0
  0
BLOCK
  8
0
  2
*D6
 70
     1
 10
0.0
 20
0.0
 30
0.0
  3
*D6
  1

  0
LINE
  5
7E44
  8
3
  6
CONTINUOUS
 62
     0
 10
1413.879417008196
 20
1292.793845009503
 30
0.0
 11
1730.8208518442771
 21
1292.793845009503
 31
0.0
  0
LINE
  5
7E45
  8
3
  6
CONTINUOUS
 62
     0
 10
1443.879417008196
 20
1240.793845009503
 30
0.0
 11
1730.8208518442771
 21
1240.793845009503
 31
0.0
  0
LINE
  5
7E46
  8
3
  6
CONTINUOUS
 62
     0
 10
1715.8208518442771
 20
1322.793845009503
 30
0.0
 11
1715.8208518442771
 21
1352.793845009503
 31
0.0
  0
LINE
  5
7E47
  8
3
  6
CONTINUOUS
 62
     0
 10
1715.8208518442771
 20
1210.793845009503
 30
0.0
 11
1715.8208518442771
 21
1077.9367021523601
 31
0.0
  0
LINE
  5
7E48
  8
3
  6
CONTINUOUS
 62
     0
 10
1715.8208518442771
 20
1292.793845009503
 30
0.0
 11
1715.8208518442771
 21
1240.793845009503
 31
0.0
  0
INSERT
  5
7E49
  8
3
  6
CONTINUOUS
 62
     0
  2
_OPEN
 10
1715.8208518442771
 20
1292.793845009503
 30
0.0
 41
30.0
 42
30.0
 43
30.0
 50
270.0
  0
INSERT
  5
7E4A
  8
3
  6
CONTINUOUS
 62
     0
  2
_OPEN
 10
1715.8208518442771
 20
1240.793845009503
 30
0.0
 41
30.0
 42
30.0
 43
30.0
 50
90.0
  0
TEXT
  8
3
  40
45
  5
7EBE
  62
0
  72
0
  71
0
 10
1588.32
 20
1049.72
 30
0.000000
  1
52
  0
POINT
  5
7E4C
  8
DEFPOINTS
  6
CONTINUOUS
 62
     0
 10
1406.379417008196
 20
1292.793845009503
 30
0.0
  0
POINT
  5
7E4D
  8
DEFPOINTS
  6
CONTINUOUS
 62
     0
 10
1436.379417008196
 20
1240.793845009503
 30
0.0
  0
POINT
  5
7E4E
  8
DEFPOINTS
  6
CONTINUOUS
 62
     0
 10
1715.8208518442771
 20
1240.793845009503
 30
0.0
  0
ENDBLK
  5
7D17
  8
0
  0
BLOCK
  8
0
  2
*D7
 70
     1
 10
0.0
 20
0.0
 30
0.0
  3
*D7
  1

  0
LINE
  5
7E4F
  8
3
  6
CONTINUOUS
 62
     0
 10
1178.879417008196
 20
1925.0390310095031
 30
0.0
 11
1828.0946485570969
 21
1925.0390310095031
 31
0.0
  0
LINE
  5
7E50
  8
3
  6
CONTINUOUS
 62
     0
 10
1443.879417008196
 20
1240.793845009503
 30
0.0
 11
1828.0946485570969
 21
1240.793845009503
 31
0.0
  0
LINE
  5
7E51
  8
3
  6
CONTINUOUS
 62
     0
 10
1813.0946485570969
 20
1895.0390310095031
 30
0.0
 11
1813.0946485570969
 21
1270.793845009503
 31
0.0
  0
INSERT
  5
7E52
  8
3
  6
CONTINUOUS
 62
     0
  2
_OPEN
 10
1813.0946485570969
 20
1925.0390310095031
 30
0.0
 41
30.0
 42
30.0
 43
30.0
 50
90.0
  0
INSERT
  5
7E53
  8
3
  6
CONTINUOUS
 62
     0
  2
_OPEN
 10
1813.0946485570969
 20
1240.793845009503
 30
0.0
 41
30.0
 42
30.0
 43
30.0
 50
270.0
  0
TEXT
  8
3
  40
45
  5
7EBF
  62
0
  72
0
  71
0
 10
1685.59
 20
1481.61
 30
0.000000
  1
684
  0
POINT
  5
7E55
  8
DEFPOINTS
  6
CONTINUOUS
 62
     0
 10
1171.379417008196
 20
1925.0390310095031
 30
0.0
  0
POINT
  5
7E56
  8
DEFPOINTS
  6
CONTINUOUS
 62
     0
 10
1436.379417008196
 20
1240.793845009503
 30
0.0
  0
POINT
  5
7E57
  8
DEFPOINTS
  6
CONTINUOUS
 62
     0
 10
1813.0946485570969
 20
1240.793845009503
 30
0.0
  0
ENDBLK
  5
7CF5
  8
0
  0
BLOCK
  8
0
  2
*D8
 70
     1
 10
0.0
 20
0.0
 30
0.0
  3
*D8
  1

  0
LINE
  5
7E58
  8
3
  6
CONTINUOUS
 62
     0
 10
897.37941700819636
 20
1700.293845009503
 30
0.0
 11
897.37941700819636
 21
2023.137748009503
 31
0.0
  0
LINE
  5
7E59
  8
3
  6
CONTINUOUS
 62
     0
 10
1171.379417008196
 20
1932.5390310095031
 30
0.0
 11
1171.379417008196
 21
2023.137748009503
 31
0.0
  0
LINE
  5
7E5A
  8
3
  6
CONTINUOUS
 62
     0
 10
927.37941700819647
 20
2008.137748009503
 30
0.0
 11
1141.379417008196
 21
2008.137748009503
 31
0.0
  0
INSERT
  5
7E5B
  8
3
  6
CONTINUOUS
 62
     0
  2
_OPEN
 10
897.37941700819636
 20
2008.137748009503
 30
0.0
 41
30.0
 42
30.0
 43
30.0
 50
180.0
  0
INSERT
  5
7E5C
  8
3
  6
CONTINUOUS
 62
     0
  2
_OPEN
 10
1171.379417008196
 20
2008.137748009503
 30
0.0
 41
30.0
 42
30.0
 43
30.0
  0
TEXT
  8
3
  40
45
  5
7EC0
  62
0
  72
0
  71
0
 10
941.418
 20
1965.99
 30
0.000000
  1
274
  0
POINT
  5
7E5E
  8
DEFPOINTS
  6
CONTINUOUS
 62
     0
 10
897.37941700819636
 20
1692.793845009503
 30
0.0
  0
POINT
  5
7E5F
  8
DEFPOINTS
  6
CONTINUOUS
 62
     0
 10
1171.379417008196
 20
1925.0390310095031
 30
0.0
  0
POINT
  5
7E60
  8
DEFPOINTS
  6
CONTINUOUS
 62
     0
 10
1171.379417008196
 20
2008.137748009503
 30
0.0
  0
ENDBLK
  5
7D27
  8
0
  0
BLOCK
  8
0
  2
*D9
 70
     1
 10
0.0
 20
0.0
 30
0.0
  3
*D9
  1

  0
LINE
  5
7E61
  8
3
  6
CONTINUOUS
 62
     0
 10
1421.379417008196
 20
1721.793845009503
 30
0.0
 11
1421.379417008196
 21
2023.137748009503
 31
0.0
  0
LINE
  5
7E62
  8
3
  6
CONTINUOUS
 62
     0
 10
1201.379417008196
 20
2008.137748009503
 30
0.0
 11
1391.379417008196
 21
2008.137748009503
 31
0.0
  0
INSERT
  5
7E63
  8
3
  6
CONTINUOUS
 62
     0
  2
_OPEN
 10
1171.379417008196
 20
2008.137748009503
 30
0.0
 41
30.0
 42
30.0
 43
30.0
 50
180.0
  0
INSERT
  5
7E64
  8
3
  6
CONTINUOUS
 62
     0
  2
_OPEN
 10
1421.379417008196
 20
2008.137748009503
 30
0.0
 41
30.0
 42
30.0
 43
30.0
  0
TEXT
  8
3
  40
45
  5
7EC1
  62
0
  72
0
  71
0
 10
1206.38
 20
1965.99
 30
0.000000
  1
250
  0
POINT
  5
7E66
  8
DEFPOINTS
  6
CONTINUOUS
 62
     0
 10
1171.379417008196
 20
1925.0390310095031
 30
0.0
  0
POINT
  5
7E67
  8
DEFPOINTS
  6
CONTINUOUS
 62
     0
 10
1421.379417008196
 20
1714.293845009503
 30
0.0
  0
POINT
  5
7E68
  8
DEFPOINTS
  6
CONTINUOUS
 62
     0
 10
1421.379417008196
 20
2008.137748009503
 30
0.0
  0
ENDBLK
  5
7BD1
  8
0
  0
BLOCK
  8
0
  2
*D10
 70
     1
 10
0.0
 20
0.0
 30
0.0
  3
*D10
  1

  0
LINE
  5
7E69
  8
3
  6
CONTINUOUS
 62
     0
 10
526.37941700819636
 20
2737.5958127128779
 30
0.0
 11
526.37941700819636
 21
2525.2547697128789
 31
0.0
  0
LINE
  5
7E6A
  8
3
  6
CONTINUOUS
 62
     0
 10
1436.379417008196
 20
2737.5958127128779
 30
0.0
 11
1436.379417008196
 21
2525.2547697128789
 31
0.0
  0
LINE
  5
7E6B
  8
3
  6
CONTINUOUS
 62
     0
 10
556.37941700819647
 20
2540.2547697128789
 30
0.0
 11
1406.379417008196
 21
2540.2547697128789
 31
0.0
  0
INSERT
  5
7E6C
  8
3
  6
CONTINUOUS
 62
     0
  2
_OPEN
 10
526.37941700819636
 20
2540.2547697128789
 30
0.0
 41
30.0
 42
30.0
 43
30.0
 50
180.0
  0
INSERT
  5
7E6D
  8
3
  6
CONTINUOUS
 62
     0
  2
_OPEN
 10
1436.379417008196
 20
2540.2547697128789
 30
0.0
 41
30.0
 42
30.0
 43
30.0
  0
TEXT
  8
3
  40
45
  5
7EC2
  62
0
  72
0
  71
0
 10
862.950
 20
2498.10
 30
0.000000
  1
910
  0
POINT
  5
7E6F
  8
DEFPOINTS
  6
CONTINUOUS
 62
     0
 10
526.37941700819636
 20
2745.0958127128788
 30
0.0
  0
POINT
  5
7E70
  8
DEFPOINTS
  6
CONTINUOUS
 62
     0
 10
1436.379417008196
 20
2745.0958127128788
 30
0.0
  0
POINT
  5
7E71
  8
DEFPOINTS
  6
CONTINUOUS
 62
     0
 10
1436.379417008196
 20
2540.2547697128789
 30
0.0
  0
ENDBLK
  5
7BDE
  8
0
  0
BLOCK
  8
0
  2
*D11
 70
     1
 10
0.0
 20
0.0
 30
0.0
  3
*D11
  1

  0
LINE
  5
7E72
  8
3
  6
CONTINUOUS
 62
     0
 10
1443.879417008196
 20
3060.0958127128779
 30
0.0
 11
1590.073729008197
 21
3060.0958127128779
 31
0.0
  0
LINE
  5
7E73
  8
3
  6
CONTINUOUS
 62
     0
 10
1443.879417008196
 20
2745.0958127128788
 30
0.0
 11
1590.073729008197
 21
2745.0958127128788
 31
0.0
  0
LINE
  5
7E74
  8
3
  6
CONTINUOUS
 62
     0
 10
1575.0737290081961
 20
3030.0958127128779
 30
0.0
 11
1575.0737290081961
 21
2775.0958127128788
 31
0.0
  0
INSERT
  5
7E75
  8
3
  6
CONTINUOUS
 62
     0
  2
_OPEN
 10
1575.0737290081961
 20
3060.0958127128779
 30
0.0
 41
30.0
 42
30.0
 43
30.0
 50
90.0
  0
INSERT
  5
7E76
  8
3
  6
CONTINUOUS
 62
     0
  2
_OPEN
 10
1575.0737290081961
 20
2745.0958127128788
 30
0.0
 41
30.0
 42
30.0
 43
30.0
 50
270.0
  0
TEXT
  8
3
  40
45
  5
7EC3
  62
0
  72
0
  71
0
 10
1447.57
 20
2822.86
 30
0.000000
  1
315
  0
POINT
  5
7E78
  8
DEFPOINTS
  6
CONTINUOUS
 62
     0
 10
1436.379417008196
 20
3060.0958127128779
 30
0.0
  0
POINT
  5
7E79
  8
DEFPOINTS
  6
CONTINUOUS
 62
     0
 10
1436.379417008196
 20
2745.0958127128788
 30
0.0
  0
POINT
  5
7E7A
  8
DEFPOINTS
  6
CONTINUOUS
 62
     0
 10
1575.0737290081961
 20
2745.0958127128788
 30
0.0
  0
ENDBLK
  5
7BEB
  8
0
  0
BLOCK
  8
0
  2
*D12
 70
     1
 10
0.0
 20
0.0
 30
0.0
  3
*D12
  1

  0
LINE
  5
7E7B
  8
3
  6
CONTINUOUS
 62
     0
 10
2384.6479780081959
 20
1913.3938450095029
 30
0.0
 11
2384.6479780081959
 21
1998.4734240095031
 31
0.0
  0
LINE
  5
7E7C
  8
3
  6
CONTINUOUS
 62
     0
 10
2608.6479780081959
 20
1913.3938450095029
 30
0.0
 11
2608.6479780081959
 21
1998.4734240095031
 31
0.0
  0
LINE
  5
7E7D
  8
3
  6
CONTINUOUS
 62
     0
 10
2414.6479780081959
 20
1983.4734240095031
 30
0.0
 11
2578.6479780081959
 21
1983.4734240095031
 31
0.0
  0
INSERT
  5
7E7E
  8
3
  6
CONTINUOUS
 62
     0
  2
_OPEN
 10
2384.6479780081959
 20
1983.4734240095031
 30
0.0
 41
30.0
 42
30.0
 43
30.0
 50
180.0
  0
INSERT
  5
7E7F
  8
3
  6
CONTINUOUS
 62
     0
  2
_OPEN
 10
2608.6479780081959
 20
1983.4734240095031
 30
0.0
 41
30.0
 42
30.0
 43
30.0
  0
TEXT
  8
3
  40
45
  5
7EC4
  62
0
  72
0
  71
0
 10
2398.58
 20
1941.32
 30
0.000000
  1
224
  0
POINT
  5
7E81
  8
DEFPOINTS
  6
CONTINUOUS
 62
     0
 10
2384.6479780081959
 20
1905.8938450095029
 30
0.0
  0
POINT
  5
7E82
  8
DEFPOINTS
  6
CONTINUOUS
 62
     0
 10
2608.6479780081959
 20
1905.8938450095029
 30
0.0
  0
POINT
  5
7E83
  8
DEFPOINTS
  6
CONTINUOUS
 62
     0
 10
2608.6479780081959
 20
1983.4734240095031
 30
0.0
  0
ENDBLK
  5
7BFB
  8
0
  0
BLOCK
  8
0
  2
*D13
 70
     1
 10
0.0
 20
0.0
 30
0.0
  3
*D13
  1

  0
LINE
  5
7E84
  8
3
  6
CONTINUOUS
 62
     0
 10
2076.6479780081959
 20
1939.793845009503
 30
0.0
 11
2076.6479780081959
 21
2085.9139440095041
 31
0.0
  0
LINE
  5
7E85
  8
3
  6
CONTINUOUS
 62
     0
 10
2496.6479780081959
 20
2061.630313009503
 30
0.0
 11
2496.6479780081959
 21
2085.9139440095041
 31
0.0
  0
LINE
  5
7E86
  8
3
  6
CONTINUOUS
 62
     0
 10
2106.6479780081959
 20
2070.9139440095032
 30
0.0
 11
2466.6479780081959
 21
2070.9139440095032
 31
0.0
  0
INSERT
  5
7E87
  8
3
  6
CONTINUOUS
 62
     0
  2
_OPEN
 10
2076.6479780081959
 20
2070.9139440095032
 30
0.0
 41
30.0
 42
30.0
 43
30.0
 50
180.0
  0
INSERT
  5
7E88
  8
3
  6
CONTINUOUS
 62
     0
  2
_OPEN
 10
2496.6479780081959
 20
2070.9139440095032
 30
0.0
 41
30.0
 42
30.0
 43
30.0
  0
TEXT
  8
3
  40
45
  5
7EC5
  62
0
  72
0
  71
0
 10
2192.23
 20
2066.26
 30
0.000000
  1
MAX
  0
TEXT
  8
3
  40
45
  5
7EC6
  62
0
  72
0
  71
0
 10
2192.23
 20
2007.76
 30
0.000000
  1
420
  0
POINT
  5
7E8A
  8
DEFPOINTS
  6
CONTINUOUS
 62
     0
 10
2076.6479780081959
 20
1932.293845009503
 30
0.0
  0
POINT
  5
7E8B
  8
DEFPOINTS
  6
CONTINUOUS
 62
     0
 10
2496.6479780081959
 20
2054.130313009503
 30
0.0
  0
POINT
  5
7E8C
  8
DEFPOINTS
  6
CONTINUOUS
 62
     0
 10
2496.6479780081959
 20
2070.9139440095032
 30
0.0
  0
ENDBLK
  5
7CBA
  8
0
  0
BLOCK
  8
0
  2
*D14
 70
     1
 10
0.0
 20
0.0
 30
0.0
  3
*D14
  1

  0
LINE
  5
7E8D
  8
3
  6
CONTINUOUS
 62
     0
 10
2617.6479780081959
 20
1882.793845009503
 30
0.0
 11
2617.6479780081959
 21
2085.9139440095041
 31
0.0
  0
LINE
  5
7E8E
  8
3
  6
CONTINUOUS
 62
     0
 10
2526.6479780081959
 20
2070.9139440095032
 30
0.0
 11
2587.6479780081959
 21
2070.9139440095032
 31
0.0
  0
TEXT
  8
3
  40
45
  5
7EC7
  62
0
  72
0
  71
0
 10
2461.09
 20
2028.76
 30
0.000000
  1
121
  0
INSERT
  5
7E90
  8
3
  6
CONTINUOUS
 62
     0
  2
_OPEN
 10
2496.6479780081959
 20
2070.9139440095032
 30
0.0
 41
30.0
 42
30.0
 43
30.0
 50
180.0
  0
INSERT
  5
7E91
  8
3
  6
CONTINUOUS
 62
     0
  2
_OPEN
 10
2617.6479780081959
 20
2070.9139440095032
 30
0.0
 41
30.0
 42
30.0
 43
30.0
  0
POINT
  5
7E92
  8
DEFPOINTS
  6
CONTINUOUS
 62
     0
 10
2496.6479780081959
 20
2054.130313009503
 30
0.0
  0
POINT
  5
7E93
  8
DEFPOINTS
  6
CONTINUOUS
 62
     0
 10
2617.6479780081959
 20
1875.293845009503
 30
0.0
  0
POINT
  5
7E94
  8
DEFPOINTS
  6
CONTINUOUS
 62
     0
 10
2617.6479780081959
 20
2070.9139440095032
 30
0.0
  0
ENDBLK
  5
7C9A
  8
0
  0
BLOCK
  8
0
  2
*D15
 70
     1
 10
0.0
 20
0.0
 30
0.0
  3
*D15
  1

  0
LINE
  5
7E95
  8
3
  6
CONTINUOUS
 62
     0
 10
2181.6479780081959
 20
1233.293845009503
 30
0.0
 11
2181.6479780081959
 21
1122.174159009503
 31
0.0
  0
LINE
  5
7E96
  8
3
  6
CONTINUOUS
 62
     0
 10
2496.6479780081959
 20
1233.293845009503
 30
0.0
 11
2496.6479780081959
 21
1122.174159009503
 31
0.0
  0
LINE
  5
7E97
  8
3
  6
CONTINUOUS
 62
     0
 10
2211.6479780081959
 20
1137.174159009503
 30
0.0
 11
2466.6479780081959
 21
1137.174159009503
 31
0.0
  0
INSERT
  5
7E98
  8
3
  6
CONTINUOUS
 62
     0
  2
_OPEN
 10
2181.6479780081959
 20
1137.174159009503
 30
0.0
 41
30.0
 42
30.0
 43
30.0
 50
180.0
  0
INSERT
  5
7E99
  8
3
  6
CONTINUOUS
 62
     0
  2
_OPEN
 10
2496.6479780081959
 20
1137.174159009503
 30
0.0
 41
30.0
 42
30.0
 43
30.0
  0
TEXT
  8
3
  40
45
  5
7EC8
  62
0
  72
0
  71
0
 10
2251.63
 20
1095.02
 30
0.000000
  1
315
  0
POINT
  5
7E9B
  8
DEFPOINTS
  6
CONTINUOUS
 62
     0
 10
2181.6479780081959
 20
1240.793845009503
 30
0.0
  0
POINT
  5
7E9C
  8
DEFPOINTS
  6
CONTINUOUS
 62
     0
 10
2496.6479780081959
 20
1240.793845009503
 30
0.0
  0
POINT
  5
7E9D
  8
DEFPOINTS
  6
CONTINUOUS
 62
     0
 10
2496.6479780081959
 20
1137.174159009503
 30
0.0
  0
ENDBLK
  5
7C39
  8
0
  0
BLOCK
  8
0
  2
*D16
 70
     1
 10
0.0
 20
0.0
 30
0.0
  3
*D16
  1

  0
LINE
  5
7E9E
  8
3
  6
CONTINUOUS
 62
     0
 10
2625.1479780081959
 20
1850.293845009503
 30
0.0
 11
2744.535404008197
 21
1850.293845009503
 31
0.0
  0
LINE
  5
7E9F
  8
3
  6
CONTINUOUS
 62
     0
 10
2625.1479780081959
 20
1535.293845009503
 30
0.0
 11
2744.535404008197
 21
1535.293845009503
 31
0.0
  0
LINE
  5
7EA0
  8
3
  6
CONTINUOUS
 62
     0
 10
2729.535404008197
 20
1820.293845009503
 30
0.0
 11
2729.535404008197
 21
1565.293845009503
 31
0.0
  0
INSERT
  5
7EA1
  8
3
  6
CONTINUOUS
 62
     0
  2
_OPEN
 10
2729.535404008197
 20
1850.293845009503
 30
0.0
 41
30.0
 42
30.0
 43
30.0
 50
90.0
  0
INSERT
  5
7EA2
  8
3
  6
CONTINUOUS
 62
     0
  2
_OPEN
 10
2729.535404008197
 20
1535.293845009503
 30
0.0
 41
30.0
 42
30.0
 43
30.0
 50
270.0
  0
TEXT
  8
3
  40
45
  5
7EC9
  62
0
  72
0
  71
0
 10
2602.04
 20
1608.81
 30
0.000000
  1
φ315
  0
POINT
  5
7EA4
  8
DEFPOINTS
  6
CONTINUOUS
 62
     0
 10
2617.6479780081959
 20
1850.293845009503
 30
0.0
  0
POINT
  5
7EA5
  8
DEFPOINTS
  6
CONTINUOUS
 62
     0
 10
2617.6479780081959
 20
1535.293845009503
 30
0.0
  0
POINT
  5
7EA6
  8
DEFPOINTS
  6
CONTINUOUS
 62
     0
 10
2729.535404008197
 20
1535.293845009503
 30
0.0
  0
ENDBLK
  5
7CC5
  8
0
  0
BLOCK
  8
0
  2
*D17
 70
     1
 10
0.0
 20
0.0
 30
0.0
  3
*D17
  1

  0
LINE
  5
7EA7
  8
3
  6
CONTINUOUS
 62
     0
 10
1428.879417008196
 20
1692.793845009503
 30
0.0
 11
1644.932511008197
 21
1692.793845009503
 31
0.0
  0
LINE
  5
7EA8
  8
3
  6
CONTINUOUS
 62
     0
 10
1408.879417008196
 20
1367.793845009503
 30
0.0
 11
1644.9325110081959
 21
1367.793845009503
 31
0.0
  0
LINE
  5
7EA9
  8
3
  6
CONTINUOUS
 62
     0
 10
1629.9325110081959
 20
1662.793845009503
 30
0.0
 11
1629.9325110081959
 21
1397.793845009503
 31
0.0
  0
INSERT
  5
7EAA
  8
3
  6
CONTINUOUS
 62
     0
  2
_OPEN
 10
1629.9325110081959
 20
1692.793845009503
 30
0.0
 41
30.0
 42
30.0
 43
30.0
 50
90.0
  0
INSERT
  5
7EAB
  8
3
  6
CONTINUOUS
 62
     0
  2
_OPEN
 10
1629.9325110081959
 20
1367.793845009503
 30
0.0
 41
30.0
 42
30.0
 43
30.0
 50
270.0
  0
TEXT
  8
3
  40
45
  5
7ECA
  62
0
  72
0
  71
0
 10
1502.43
 20
1441.98
 30
0.000000
  1
325
  0
POINT
  5
7EAD
  8
DEFPOINTS
  6
CONTINUOUS
 62
     0
 10
1421.379417008196
 20
1692.793845009503
 30
0.0
  0
POINT
  5
7EAE
  8
DEFPOINTS
  6
CONTINUOUS
 62
     0
 10
1401.379417008196
 20
1367.793845009503
 30
0.0
  0
POINT
  5
7EAF
  8
DEFPOINTS
  6
CONTINUOUS
 62
     0
 10
1629.9325110081959
 20
1367.793845009503
 30
0.0
  0
ENDBLK
  5
7C8A
  8
0
  0
BLOCK
  8
0
  2
*D18
 70
     1
 10
0.0
 20
0.0
 30
0.0
  3
*D18
  1

  0
LINE
  5
7EB0
  8
3
 62
     0
 10
1421.379417008196
 20
1721.793845009503
 30
0.0
 11
1421.379417008196
 21
2123.4635440876109
 31
0.0
  0
LINE
  5
7EB1
  8
3
 62
     0
 10
526.37941700819636
 20
1278.293845009503
 30
0.0
 11
526.37941700819636
 21
2123.4635440876109
 31
0.0
  0
LINE
  5
7EB2
  8
3
 62
     0
 10
1391.379417008196
 20
2108.4635440876118
 30
0.0
 11
556.37941700819647
 21
2108.4635440876118
 31
0.0
  0
INSERT
  5
7EB3
  8
3
 62
     0
  2
_OPEN
 10
1421.379417008196
 20
2108.4635440876118
 30
0.0
 41
30.0
 42
30.0
 43
30.0
  0
INSERT
  5
7EB4
  8
3
 62
     0
  2
_OPEN
 10
526.37941700819636
 20
2108.4635440876118
 30
0.0
 41
30.0
 42
30.0
 43
30.0
 50
180.0
  0
TEXT
  8
3
  40
45
  5
7ECB
  62
0
  72
0
  71
0
 10
902.304
 20
2066.31
 30
0.000000
  1
895
  0
POINT
  5
7EB6
  8
DEFPOINTS
 62
     0
 10
1421.379417008196
 20
1714.293845009503
 30
0.0
  0
POINT
  5
7EB7
  8
DEFPOINTS
 62
     0
 10
526.37941700819636
 20
1270.793845009503
 30
0.0
  0
POINT
  5
7EB8
  8
DEFPOINTS
 62
     0
 10
526.37941700819636
 20
2108.4635440876118
 30
0.0
  0
ENDBLK
  5
7CDE
  8
0
  0
ENDSEC
  0
SECTION
  2
ENTITIES
  0
LINE
  5
7A8D
  8
1
  6
CONTINUOUS
 10
2608.6479780081959
 20
1376.8938450095029
 30
0.0
 11
2384.6479780081959
 21
1693.8938450095029
 31
0.0
  0
LINE
  5
7A8E
  8
1
  6
CONTINUOUS
 10
2384.6479780081959
 20
1376.8938450095029
 30
0.0
 11
2608.6479780081959
 21
1693.8938450095029
 31
0.0
  0
LINE
  5
7A8F
  8
1
  6
CONTINUOUS
 10
2588.6479780081959
 20
1925.8938450095029
 30
0.0
 11
2404.6479780081959
 21
1925.8938450095029
 31
0.0
  0
LINE
  5
7A90
  8
1
  6
CONTINUOUS
 10
2608.6479780081959
 20
1693.8938450095029
 30
0.0
 11
2384.6479780081959
 21
1693.8938450095029
 31
0.0
  0
LINE
  5
7A91
  8
1
  6
CONTINUOUS
 10
2608.6479780081959
 20
1376.8938450095029
 30
0.0
 11
2384.6479780081959
 21
1376.8938450095029
 31
0.0
  0
CIRCLE
  5
7A92
  8
1
  6
CONTINUOUS
 10
1171.379417008196
 20
1692.793845009503
 30
0.0
 40
157.5
  0
LINE
  5
7A93
  8
1
  6
CONTINUOUS
 10
526.37941700819636
 20
1270.793845009503
 30
0.0
 11
1436.379417008196
 21
1270.793845009503
 31
0.0
  0
LINE
  5
7A94
  8
1
  6
CONTINUOUS
 10
526.37941700819636
 20
1240.793845009503
 30
0.0
 11
1436.379417008196
 21
1240.793845009503
 31
0.0
  0
LINE
  5
7A95
  8
2
  6
CENTER
 10
661.14094900819634
 20
1692.793845009503
 30
0.0
 11
1488.8116790081961
 21
1692.793845009503
 31
0.0
  0
LINE
  5
7A96
  8
1
  6
CONTINUOUS
 10
1079.0794170081961
 20
1872.793845009503
 30
0.0
 11
1263.679417008196
 21
1872.793845009503
 31
0.0
  0
LINE
  5
7A97
  8
1
  6
CONTINUOUS
 10
966.37941700819647
 20
1656.293845009503
 30
0.0
 11
1376.379417008196
 21
1656.293845009503
 31
0.0
  0
LINE
  5
7A98
  8
1
  6
CONTINUOUS
 10
556.37941700819647
 20
1362.793845009503
 30
0.0
 11
1406.379417008196
 21
1362.793845009503
 31
0.0
  0
LINE
  5
7A99
  8
1
  6
CONTINUOUS
 10
556.37941700819647
 20
1292.793845009503
 30
0.0
 11
1406.379417008196
 21
1292.793845009503
 31
0.0
  0
CIRCLE
  5
7A9A
  8
1
  6
CONTINUOUS
 10
1171.379417008196
 20
1692.793845009503
 30
0.0
 40
63.5
  0
LINE
  5
7A9B
  8
1
  6
CONTINUOUS
 10
1315.879417008196
 20
1802.293845009503
 30
0.0
 11
1115.879417008196
 21
1932.293845009503
 31
0.0
  0
CIRCLE
  5
7A9C
  8
1
  6
CONTINUOUS
 10
1171.379417008196
 20
1692.793845009503
 30
0.0
 40
182.5
  0
ARC
  5
7A9D
  8
1
  6
CONTINUOUS
 10
1153.379417008196
 20
1710.793845009503
 30
0.0
 40
215.0
 50
8.5999999999999996
 51
100.59999999999999
  0
ARC
  5
7A9E
  8
1
  6
CONTINUOUS
 10
1196.879417008196
 20
1667.293845009503
 30
0.0
 40
299.5
 50
169.40000000000001
 51
270.0
  0
LINE
  5
7A9F
  8
1
  6
CONTINUOUS
 10
721.87941700819636
 20
1424.293845009503
 30
0.0
 11
1197.0794170081961
 21
1634.6938450095031
 31
0.0
  0
LINE
  5
7AA0
  8
1
  6
CONTINUOUS
 10
586.37941700819636
 20
1382.793845009503
 30
0.0
 11
901.37941700819647
 21
1382.793845009503
 31
0.0
  0
CIRCLE
  5
7AA1
  8
1
  6
CONTINUOUS
 10
700.37941700819636
 20
1472.793845009503
 30
0.0
 40
53.0
  0
ARC
  5
7AA2
  8
1
  6
CONTINUOUS
 10
700.37941700819636
 20
1472.793845009503
 30
0.0
 40
101.0
 50
322.89999999999992
 51
217.09999999999991
  0
LINE
  5
7AA3
  8
2
  6
CENTER
 10
647.37941700819647
 20
1472.793845009503
 30
0.0
 11
753.37941700819636
 21
1472.793845009503
 31
0.0
  0
LINE
  5
7AA4
  8
1
  6
CONTINUOUS
 10
1115.879417008196
 20
1932.293845009503
 30
0.0
 11
585.87941700819647
 21
1582.293845009503
 31
0.0
  0
LINE
  5
7AA5
  8
1
  6
CONTINUOUS
 10
676.97941700819626
 20
1520.3938450095029
 30
0.0
 11
1143.379417008196
 21
1749.793845009503
 31
0.0
  0
LINE
  5
7AA6
  8
1
  6
CONTINUOUS
 10
585.87941700819647
 20
1582.293845009503
 30
0.0
 11
585.87941700819647
 21
1372.293845009503
 31
0.0
  0
LINE
  5
7AA7
  8
1
  6
CONTINUOUS
 10
526.37941700819636
 20
1240.793845009503
 30
0.0
 11
526.37941700819636
 21
1270.793845009503
 31
0.0
  0
LINE
  5
7AA8
  8
1
  6
CONTINUOUS
 10
556.37941700819647
 20
1362.793845009503
 30
0.0
 11
556.37941700819647
 21
1292.793845009503
 31
0.0
  0
LINE
  5
7AA9
  8
1
  6
CONTINUOUS
 10
586.37941700819636
 20
1362.793845009503
 30
0.0
 11
586.37941700819636
 21
1382.793845009503
 31
0.0
  0
LINE
  5
7AAA
  8
1
  6
CONTINUOUS
 10
608.47941700819638
 20
1382.793845009503
 30
0.0
 11
619.87941700819636
 21
1411.793845009503
 31
0.0
  0
LINE
  5
7AAB
  8
2
  6
CENTER
 10
700.37941700819636
 20
1419.793845009503
 30
0.0
 11
700.37941700819636
 21
1525.793845009503
 31
0.0
  0
LINE
  5
7AAC
  8
1
  6
CONTINUOUS
 10
966.37941700819647
 20
1362.793845009503
 30
0.0
 11
966.37941700819647
 21
1778.1938450095031
 31
0.0
  0
LINE
  5
7AAD
  8
1
  6
CONTINUOUS
 10
792.27941700819611
 20
1382.793845009503
 30
0.0
 11
780.87941700819647
 21
1411.793845009503
 31
0.0
  0
LINE
  5
7AAE
  8
1
  6
CONTINUOUS
 10
901.37941700819647
 20
1362.793845009503
 30
0.0
 11
901.37941700819647
 21
1382.793845009503
 31
0.0
  0
LINE
  5
7AAF
  8
1
  6
CONTINUOUS
 10
1079.0794170081961
 20
1872.793845009503
 30
0.0
 11
966.37941700819647
 21
1778.1938450095031
 31
0.0
  0
ARC
  5
7AB0
  8
1
  6
CONTINUOUS
 10
1150.379417008196
 20
1671.793845009503
 30
0.0
 40
253.0
 50
98.200000000000003
 51
168.40000000000001
  0
LINE
  5
7AB1
  8
2
  6
CENTER
 10
1171.379417008196
 20
1190.601454009503
 30
0.0
 11
1171.379417008196
 21
1938.183734009503
 31
0.0
  0
LINE
  5
7AB4
  8
1
  6
CONTINUOUS
 10
1421.379417008196
 20
1714.293845009503
 30
0.0
 11
1421.379417008196
 21
1356.293845009503
 31
0.0
  0
LINE
  5
7AB5
  8
1
  6
CONTINUOUS
 10
1376.379417008196
 20
1362.793845009503
 30
0.0
 11
1376.379417008196
 21
1778.1938450095031
 31
0.0
  0
LINE
  5
7AB6
  8
1
  6
CONTINUOUS
 10
1315.879417008196
 20
1802.293845009503
 30
0.0
 11
1315.879417008196
 21
1362.793845009503
 31
0.0
  0
LINE
  5
7AB7
  8
1
  6
CONTINUOUS
 10
1401.379417008196
 20
1662.793845009503
 30
0.0
 11
1401.379417008196
 21
1407.793845009503
 31
0.0
  0
LINE
  5
7AB8
  8
1
  6
CONTINUOUS
 10
1421.379417008196
 20
1377.793845009503
 30
0.0
 11
1401.379417008196
 21
1377.793845009503
 31
0.0
  0
LINE
  5
7AB9
  8
1
  6
CONTINUOUS
 10
1421.379417008196
 20
1387.793845009503
 30
0.0
 11
1401.379417008196
 21
1407.793845009503
 31
0.0
  0
LINE
  5
7ABA
  8
1
  6
CONTINUOUS
 10
1401.379417008196
 20
1367.793845009503
 30
0.0
 11
1196.879417008196
 21
1367.793845009503
 31
0.0
  0
LINE
  5
7ABB
  8
1
  6
CONTINUOUS
 10
1401.379417008196
 20
1377.793845009503
 30
0.0
 11
1401.379417008196
 21
1367.793845009503
 31
0.0
  0
LINE
  5
7ABC
  8
1
  6
CONTINUOUS
 10
1436.379417008196
 20
1240.793845009503
 30
0.0
 11
1436.379417008196
 21
1270.793845009503
 31
0.0
  0
LINE
  5
7ABD
  8
1
  6
CONTINUOUS
 10
1406.379417008196
 20
1362.793845009503
 30
0.0
 11
1406.379417008196
 21
1292.793845009503
 31
0.0
  0
LINE
  5
7ABF
  8
1
  6
CONTINUOUS
 10
1401.379417008196
 20
1692.793845009503
 30
0.0
 11
1421.379417008196
 21
1692.793845009503
 31
0.0
  0
LINE
  5
7AC0
  8
1
  6
CONTINUOUS
 10
1421.379417008196
 20
1682.793845009503
 30
0.0
 11
1401.379417008196
 21
1662.793845009503
 31
0.0
  0
LINE
  5
7AC1
  8
1
  6
CONTINUOUS
 10
1263.679417008196
 20
1872.793845009503
 30
0.0
 11
1376.379417008196
 21
1778.1938450095031
 31
0.0
  0
ARC
  5
7AC2
  8
1
  6
CONTINUOUS
 10
1439.379417008196
 20
1769.793845009503
 30
0.0
 40
78.0
 50
198.80000000000001
 51
240.80000000000001
  0
LINE
  5
7AC3
  8
1
  6
CONTINUOUS
 10
1401.379417008196
 20
1701.6938450095031
 30
0.0
 11
1401.379417008196
 21
1692.793845009503
 31
0.0
  0
LINE
  5
7AC4
  8
1
  6
CONTINUOUS
 10
2384.6479780081959
 20
1376.8938450095029
 30
0.0
 11
2384.6479780081959
 21
1905.8938450095029
 31
0.0
  0
LINE
  5
7AC5
  8
1
  6
CONTINUOUS
 10
2374.8479780081962
 20
1875.3938450095029
 30
0.0
 11
2374.8479780081962
 21
1362.793845009503
 31
0.0
  0
LINE
  5
7AC6
  8
1
  6
CONTINUOUS
 10
2210.8479780081948
 20
1653.793845009503
 30
0.0
 11
2210.8479780081948
 21
1362.793845009503
 31
0.0
  0
LINE
  5
7AC7
  8
1
  6
CONTINUOUS
 10
2076.6479780081959
 20
1362.8938450095029
 30
0.0
 11
2076.6479780081959
 21
1932.293845009503
 31
0.0
  0
LINE
  5
7AC8
  8
1
  6
CONTINUOUS
 10
2161.6479780081959
 20
1362.8938450095029
 30
0.0
 11
2161.6479780081959
 21
1932.293845009503
 31
0.0
  0
LINE
  5
7AC9
  8
1
  6
CONTINUOUS
 10
2181.6479780081959
 20
1240.793845009503
 30
0.0
 11
2496.6479780081959
 21
1240.793845009503
 31
0.0
  0
LINE
  5
7ACA
  8
1
  6
CONTINUOUS
 10
2181.6479780081959
 20
1270.793845009503
 30
0.0
 11
2496.6479780081959
 21
1270.793845009503
 31
0.0
  0
LINE
  5
7ACB
  8
1
  6
CONTINUOUS
 10
2496.6479780081959
 20
1362.793845009503
 30
0.0
 11
2181.6479780081959
 21
1362.793845009503
 31
0.0
  0
LINE
  5
7ACC
  8
1
  6
CONTINUOUS
 10
2181.6479780081959
 20
1292.793845009503
 30
0.0
 11
2496.6479780081959
 21
1292.793845009503
 31
0.0
  0
LINE
  5
7ACD
  8
1
  6
CONTINUOUS
 10
2181.6479780081959
 20
1270.793845009503
 30
0.0
 11
2181.6479780081959
 21
1240.793845009503
 31
0.0
  0
LINE
  5
7ACE
  8
1
  6
CONTINUOUS
 10
2136.6479780081959
 20
1460.8938450095029
 30
0.0
 11
2210.8479780081948
 21
1460.8938450095029
 31
0.0
  0
LINE
  5
7ACF
  8
1
  6
CONTINUOUS
 10
2136.6479780081959
 20
1484.8938450095029
 30
0.0
 11
2210.8479780081948
 21
1484.8938450095029
 31
0.0
  0
LINE
  5
7AD0
  8
1
  6
CONTINUOUS
 10
2181.6479780081959
 20
1362.793845009503
 30
0.0
 11
2181.6479780081959
 21
1292.793845009503
 31
0.0
  0
LINE
  5
7AD1
  8
1
  6
CONTINUOUS
 10
2076.6479780081959
 20
1362.8938450095029
 30
0.0
 11
2161.6479780081959
 21
1362.8938450095029
 31
0.0
  0
LINE
  5
7AD2
  8
1
  6
CONTINUOUS
 10
2101.6479780081959
 20
1409.3938450095029
 30
0.0
 11
2136.6479780081959
 21
1409.3938450095029
 31
0.0
  0
LINE
  5
7AD3
  8
1
  6
CONTINUOUS
 10
2136.6479780081959
 20
1409.3938450095029
 30
0.0
 11
2136.6479780081959
 21
1536.3938450095029
 31
0.0
  0
LINE
  5
7AD4
  8
1
  6
CONTINUOUS
 10
2136.6479780081959
 20
1536.3938450095029
 30
0.0
 11
2101.6479780081959
 21
1536.3938450095029
 31
0.0
  0
LINE
  5
7AD5
  8
1
  6
CONTINUOUS
 10
2101.6479780081959
 20
1536.3938450095029
 30
0.0
 11
2101.6479780081959
 21
1409.3938450095029
 31
0.0
  0
LINE
  5
7AD6
  8
1
  6
CONTINUOUS
 10
2496.6479780081959
 20
1240.793845009503
 30
0.0
 11
2496.6479780081959
 21
1270.793845009503
 31
0.0
  0
LINE
  5
7AD7
  8
1
  6
CONTINUOUS
 10
2374.8479780081962
 20
1510.293845009503
 30
0.0
 11
2384.8479780081962
 21
1510.293845009503
 31
0.0
  0
LINE
  5
7AD8
  8
1
  6
CONTINUOUS
 10
2496.6479780081959
 20
1292.793845009503
 30
0.0
 11
2496.6479780081959
 21
1362.793845009503
 31
0.0
  0
LINE
  5
7AD9
  8
1
  6
CONTINUOUS
 10
2374.8479780081962
 20
1779.993845009503
 30
0.0
 11
2210.8479780081948
 21
1653.793845009503
 31
0.0
  0
LINE
  5
7ADA
  8
1
  6
CONTINUOUS
 10
2136.6479780081959
 20
1705.3938450095029
 30
0.0
 11
2277.8479780081962
 21
1705.3938450095029
 31
0.0
  0
LINE
  5
7ADB
  8
1
  6
CONTINUOUS
 10
2136.6479780081959
 20
1680.3938450095029
 30
0.0
 11
2245.4479780081961
 21
1680.3938450095029
 31
0.0
  0
LINE
  5
7ADC
  8
1
  6
CONTINUOUS
 10
2101.6479780081959
 20
1756.3938450095029
 30
0.0
 11
2101.6479780081959
 21
1629.3938450095029
 31
0.0
  0
LINE
  5
7ADD
  8
1
  6
CONTINUOUS
 10
2136.6479780081959
 20
1756.3938450095029
 30
0.0
 11
2101.6479780081959
 21
1756.3938450095029
 31
0.0
  0
LINE
  5
7ADE
  8
1
  6
CONTINUOUS
 10
2136.6479780081959
 20
1629.3938450095029
 30
0.0
 11
2136.6479780081959
 21
1756.3938450095029
 31
0.0
  0
LINE
  5
7ADF
  8
1
  6
CONTINUOUS
 10
2101.6479780081959
 20
1629.3938450095029
 30
0.0
 11
2136.6479780081959
 21
1629.3938450095029
 31
0.0
  0
LINE
  5
7AE0
  8
1
  6
CONTINUOUS
 10
2076.6479780081959
 20
1932.293845009503
 30
0.0
 11
2161.6479780081959
 21
1932.293845009503
 31
0.0
  0
LINE
  5
7AE1
  8
1
  6
CONTINUOUS
 10
2384.8479780081962
 20
1910.8938450095029
 30
0.0
 11
2384.8479780081962
 21
1876.8938450095029
 31
0.0
  0
LINE
  5
7AE2
  8
1
  6
CONTINUOUS
 10
2374.8479780081962
 20
1875.293845009503
 30
0.0
 11
2384.8479780081962
 21
1875.293845009503
 31
0.0
  0
LINE
  5
7AE3
  8
1
  6
CONTINUOUS
 10
2374.8479780081962
 20
1873.793845009503
 30
0.0
 11
2374.8479780081962
 21
1711.793845009503
 31
0.0
  0
ARC
  5
7AE4
  8
1
  6
CONTINUOUS
 10
2404.6479780081959
 20
1905.8938450095029
 30
0.0
 40
20.0
 50
90.0
 51
180.0
  0
LINE
  5
7AE5
  8
1
  6
CONTINUOUS
 10
988.87941700819647
 20
3181.0958127128788
 30
0.0
 11
1353.879417008196
 21
3181.0958127128788
 31
0.0
  0
LINE
  5
7AE6
  8
1
  6
CONTINUOUS
 10
966.37941700819636
 20
2938.2958127128782
 30
0.0
 11
1376.379417008196
 21
2938.2958127128782
 31
0.0
  0
LINE
  5
7AE7
  8
1
  6
CONTINUOUS
 10
903.37941700819636
 20
3172.0958127128779
 30
0.0
 11
1421.379417008196
 21
3172.0958127128779
 31
0.0
  0
LINE
  5
7AE8
  8
1
  6
CONTINUOUS
 10
1421.379417008196
 20
2948.0958127128779
 30
0.0
 11
903.37941700819636
 21
2948.0958127128779
 31
0.0
  0
LINE
  5
7AE9
  8
1
  6
CONTINUOUS
 10
1234.879417008196
 20
2701.5958127128779
 30
0.0
 11
1107.879417008196
 21
2701.5958127128779
 31
0.0
  0
LINE
  5
7AEA
  8
1
  6
CONTINUOUS
 10
1107.879417008196
 20
2666.5958127128788
 30
0.0
 11
1234.879417008196
 21
2666.5958127128788
 31
0.0
  0
LINE
  5
7AEB
  8
1
  6
CONTINUOUS
 10
1183.379417008196
 20
2745.0958127128788
 30
0.0
 11
1436.379417008196
 21
2745.0958127128788
 31
0.0
  0
LINE
  5
7AEC
  8
1
  6
CONTINUOUS
 10
585.87941700819647
 20
2640.0958127128779
 30
0.0
 11
1315.879417008196
 21
2640.0958127128779
 31
0.0
  0
LINE
  5
7AED
  8
1
  6
CONTINUOUS
 10
585.87941700819647
 20
2725.0958127128788
 30
0.0
 11
1315.879417008196
 21
2725.0958127128788
 31
0.0
  0
LINE
  5
7AEE
  8
1
  6
CONTINUOUS
 10
1183.379417008196
 20
2775.0958127128788
 30
0.0
 11
1376.379417008196
 21
2775.0958127128788
 31
0.0
  0
LINE
  5
7AEF
  8
1
  6
CONTINUOUS
 10
883.37941700819636
 20
3060.0958127128779
 30
0.0
 11
526.37941700819636
 21
3060.0958127128779
 31
0.0
  0
LINE
  5
7AF0
  8
1
  6
CONTINUOUS
 10
801.37941700819636
 20
2761.5958127128788
 30
0.0
 11
610.37941700819647
 21
2761.5958127128788
 31
0.0
  0
LINE
  5
7AF1
  8
1
  6
CONTINUOUS
 10
801.37941700819636
 20
3033.5958127128779
 30
0.0
 11
610.37941700819647
 21
3033.5958127128779
 31
0.0
  0
LINE
  5
7AF2
  8
1
  6
CONTINUOUS
 10
636.87941700819636
 20
2666.5958127128788
 30
0.0
 11
763.87941700819636
 21
2666.5958127128788
 31
0.0
  0
LINE
  5
7AF3
  8
1
  6
CONTINUOUS
 10
763.87941700819636
 20
2701.5958127128779
 30
0.0
 11
636.87941700819636
 21
2701.5958127128779
 31
0.0
  0
LINE
  5
7AF4
  8
1
  6
CONTINUOUS
 10
712.37941700819636
 20
2745.0958127128788
 30
0.0
 11
1159.379417008196
 21
2745.0958127128788
 31
0.0
  0
LINE
  5
7AF5
  8
1
  6
CONTINUOUS
 10
526.37941700819636
 20
2745.0958127128788
 30
0.0
 11
688.37941700819636
 21
2745.0958127128788
 31
0.0
  0
LINE
  5
7AF6
  8
1
  6
CONTINUOUS
 10
526.37941700819636
 20
2745.0958127128788
 30
0.0
 11
526.37941700819636
 21
3060.0958127128779
 31
0.0
  0
LINE
  5
7AF7
  8
1
  6
CONTINUOUS
 10
610.37941700819647
 20
3033.5958127128779
 30
0.0
 11
610.37941700819647
 21
2761.5958127128788
 31
0.0
  0
LINE
  5
7AF8
  8
1
  6
CONTINUOUS
 10
636.87941700819636
 20
2701.5958127128779
 30
0.0
 11
636.87941700819636
 21
2666.5958127128788
 31
0.0
  0
LINE
  5
7AF9
  8
1
  6
CONTINUOUS
 10
585.87941700819647
 20
2725.0958127128788
 30
0.0
 11
585.87941700819647
 21
2640.0958127128779
 31
0.0
  0
LINE
  5
7AFA
  8
1
  6
CONTINUOUS
 10
712.37941700819636
 20
2701.5958127128779
 30
0.0
 11
712.37941700819636
 21
2761.5958127128788
 31
0.0
  0
LINE
  5
7AFB
  8
1
  6
CONTINUOUS
 10
688.37941700819636
 20
2701.5958127128779
 30
0.0
 11
688.37941700819636
 21
2761.5958127128788
 31
0.0
  0
LINE
  5
7AFC
  8
1
  6
CONTINUOUS
 10
712.37941700819636
 20
2666.5958127128788
 30
0.0
 11
688.37941700819636
 21
2666.5958127128788
 31
0.0
  0
LINE
  5
7AFD
  8
1
  6
CONTINUOUS
 10
883.37941700819636
 20
3152.0958127128788
 30
0.0
 11
883.37941700819636
 21
2968.0958127128788
 31
0.0
  0
LINE
  5
7AFE
  8
1
  6
CONTINUOUS
 10
966.37941700819636
 20
2775.0958127128788
 30
0.0
 11
1159.379417008196
 21
2775.0958127128788
 31
0.0
  0
LINE
  5
7AFF
  8
1
  6
CONTINUOUS
 10
801.37941700819636
 20
2761.5958127128788
 30
0.0
 11
801.37941700819636
 21
3033.5958127128779
 31
0.0
  0
LINE
  5
7B00
  8
1
  6
CONTINUOUS
 10
763.87941700819636
 20
2666.5958127128788
 30
0.0
 11
763.87941700819636
 21
2701.5958127128779
 31
0.0
  0
ARC
  5
7B01
  8
1
  6
CONTINUOUS
 10
903.37941700819636
 20
2968.0958127128788
 30
0.0
 40
20.0
 50
180.0
 51
270.0
  0
LINE
  5
7B02
  8
1
  6
CONTINUOUS
 10
966.37941700819636
 20
2775.0958127128788
 30
0.0
 11
966.37941700819636
 21
2938.2958127128782
 31
0.0
  0
LINE
  5
7B03
  8
1
  6
CONTINUOUS
 10
1159.379417008196
 20
2938.2958127128782
 30
0.0
 11
1159.379417008196
 21
2701.5958127128779
 31
0.0
  0
LINE
  5
7B04
  8
1
  6
CONTINUOUS
 10
1183.379417008196
 20
2938.2958127128782
 30
0.0
 11
1183.379417008196
 21
2701.5958127128779
 31
0.0
  0
LINE
  5
7B05
  8
1
  6
CONTINUOUS
 10
1107.879417008196
 20
2701.5958127128779
 30
0.0
 11
1107.879417008196
 21
2666.5958127128788
 31
0.0
  0
LINE
  5
7B06
  8
1
  6
CONTINUOUS
 10
990.37941700819636
 20
2938.2958127128782
 30
0.0
 11
1152.379417008196
 21
2938.2958127128782
 31
0.0
  0
LINE
  5
7B07
  8
1
  6
CONTINUOUS
 10
988.87941700819647
 20
2938.2958127128782
 30
0.0
 11
988.87941700819647
 21
2948.0958127128779
 31
0.0
  0
ARC
  5
7B08
  8
1
  6
CONTINUOUS
 10
903.37941700819636
 20
3152.0958127128788
 30
0.0
 40
20.0
 50
90.0
 51
180.0
  0
LINE
  5
7B09
  8
1
  6
CONTINUOUS
 10
988.87941700819647
 20
3181.0958127128788
 30
0.0
 11
988.87941700819647
 21
3172.8958127128781
 31
0.0
  0
LINE
  5
7B0A
  8
1
  6
CONTINUOUS
 10
1421.379417008196
 20
3193.0958127128788
 30
0.0
 11
1421.379417008196
 21
2927.0958127128788
 31
0.0
  0
LINE
  5
7B0B
  8
1
  6
CONTINUOUS
 10
1401.379417008196
 20
3143.0958127128779
 30
0.0
 11
1401.379417008196
 21
2977.0958127128779
 31
0.0
  0
LINE
  5
7B0C
  8
1
  6
CONTINUOUS
 10
1421.379417008196
 20
2957.0958127128788
 30
0.0
 11
1401.379417008196
 21
2977.0958127128779
 31
0.0
  0
LINE
  5
7B0D
  8
1
  6
CONTINUOUS
 10
1234.879417008196
 20
2666.5958127128788
 30
0.0
 11
1234.879417008196
 21
2701.5958127128779
 31
0.0
  0
LINE
  5
7B0E
  8
1
  6
CONTINUOUS
 10
1315.879417008196
 20
2725.0958127128788
 30
0.0
 11
1315.879417008196
 21
2640.0958127128779
 31
0.0
  0
LINE
  5
7B0F
  8
1
  6
CONTINUOUS
 10
1376.379417008196
 20
2775.0958127128788
 30
0.0
 11
1376.379417008196
 21
2938.2958127128782
 31
0.0
  0
LINE
  5
7B10
  8
1
  6
CONTINUOUS
 10
1353.879417008196
 20
2938.2958127128782
 30
0.0
 11
1353.879417008196
 21
2948.0958127128779
 31
0.0
  0
LINE
  5
7B11
  8
1
  6
CONTINUOUS
 10
1436.379417008196
 20
2745.0958127128788
 30
0.0
 11
1436.379417008196
 21
3060.0958127128779
 31
0.0
  0
LINE
  5
7B12
  8
1
  6
CONTINUOUS
 10
1436.379417008196
 20
3060.0958127128779
 30
0.0
 11
1421.379417008196
 21
3060.0958127128779
 31
0.0
  0
LINE
  5
7B13
  8
1
  6
CONTINUOUS
 10
1421.379417008196
 20
3163.0958127128779
 30
0.0
 11
1401.379417008196
 21
3143.0958127128779
 31
0.0
  0
LINE
  5
7B14
  8
1
  6
CONTINUOUS
 10
1353.879417008196
 20
3181.0958127128788
 30
0.0
 11
1353.879417008196
 21
3172.8958127128781
 31
0.0
  0
LINE
  5
7B15
  8
1
  6
CONTINUOUS
 10
2608.6479780081959
 20
1905.8938450095029
 30
0.0
 11
2608.6479780081959
 21
1376.8938450095029
 31
0.0
  0
LINE
  5
7B16
  8
1
  6
CONTINUOUS
 10
2617.6479780081959
 20
1875.293845009503
 30
0.0
 11
2617.6479780081959
 21
1510.293845009503
 31
0.0
  0
LINE
  5
7B17
  8
1
  6
CONTINUOUS
 10
2617.6479780081959
 20
1510.293845009503
 30
0.0
 11
2608.447978008197
 21
1510.293845009503
 31
0.0
  0
LINE
  5
7B18
  8
1
  6
CONTINUOUS
 10
2617.6479780081959
 20
1875.293845009503
 30
0.0
 11
2608.6479780081959
 21
1875.293845009503
 31
0.0
  0
ARC
  5
7B19
  8
1
  6
CONTINUOUS
 10
2588.6479780081959
 20
1905.8938450095029
 30
0.0
 40
20.0
 50
0.0
 51
90.0
  0
LINE
  5
7B1E
  8
4
  6
CONTINUOUS
 10
2775.0
 20
750.0
 30
0.0
 11
2775.0
 21
450.0
 31
0.0
  0
LINE
  5
7B1F
  8
4
  6
CONTINUOUS
 10
1725.0
 20
750.0
 30
0.0
 11
1725.0
 21
450.0
 31
0.0
  0
LINE
  5
7B20
  8
4
  6
CONTINUOUS
 10
975.0
 20
750.0
 30
0.0
 11
975.0
 21
450.0
 31
0.0
  0
LINE
  5
7B23
  8
4
  6
CONTINUOUS
 10
975.0
 20
450.0
 30
0.0
 11
2775.0
 21
450.0
 31
0.0
  0
LINE
  5
7B24
  8
4
  6
CONTINUOUS
 10
975.0
 20
600.0
 30
0.0
 11
2775.0
 21
600.0
 31
0.0
  0
TEXT
  5
7B25
  8
4
  6
CONTINUOUS
 10
1032.753121
 20
647.31453899999985
 30
0.0
 40
75.0
  1
機器名称
  0
TEXT
  5
7B26
  8
4
  6
CONTINUOUS
 10
1029.387158999999
 20
482.46773499999989
 30
0.0
 40
75.0
  1
機器型番
  0
TEXT
  5
7B27
  8
4
  6
CONTINUOUS
 10
1766.518118
 20
633.85765300000003
 30
0.0
 40
65.0
  1
ミツヤニューマルチファン
  0
TEXT
  5
7B28
  8
4
  6
CONTINUOUS
 10
1779.9817430000001
 20
475.73937599999999
 30
0.0
 40
75.0
  1
NM#2-1
  0
TEXT
  5
7B2A
  8
4
  6
CONTINUOUS
 10
1131.7443760000001
 20
3575.1432619999991
 30
0.0
 40
81.0
  1
床置防振ベット
  0
TEXT
  5
7B2B
  8
4
  6
CONTINUOUS
 10
474.25139000000001
 20
3800.8214640000001
 30
0.0
 40
108.0
  1
ベルト駆動式片吸込片持多翼ファン
  0
LINE
  5
7B2C
  8
4
  6
CONTINUOUS
 10
375.0
 20
3704.1131310000001
 30
0.0
 11
2775.0
 21
3704.1131310000001
 31
0.0
  0
LINE
  5
7B2D
  8
4
  6
CONTINUOUS
 10
375.0
 20
4004.1131310000001
 30
0.0
 11
2775.0
 21
4004.1131310000001
 31
0.0
  0
LINE
  5
7B2E
  8
4
  6
CONTINUOUS
 10
975.0
 20
750.0
 30
0.0
 11
2775.0
 21
750.0
 31
0.0
  0
LINE
  5
7B2F
  8
4
  6
CONTINUOUS
 10
375.0
 20
4004.1131310000001
 30
0.0
 11
375.0
 21
3704.1131310000001
 31
0.0
  0
TEXT
  5
7B30
  8
4
  6
CONTINUOUS
 10
477.95612799999998
 20
3573.4792159999988
 30
0.0
 40
81.0
  1
左回転右横向
  0
TEXT
  5
7B31
  8
4
  6
CONTINUOUS
 10
2203.454338999999
 20
4059.091621999999
 30
0.0
 40
84.0
  1
No.
  0
TEXT
  5
7B32
  8
4
  6
CONTINUOUS
 10
1966.944094
 20
3575.1432619999991
 30
0.0
 40
81.0
  1
縮尺：1/15
  0
LINE
  5
7B33
  8
4
  6
CONTINUOUS
 10
2775.0
 20
4004.1131310000001
 30
0.0
 11
2775.0
 21
3704.1131310000001
 31
0.0
  0
LINE
  5
7B35
  8
4
  6
CONTINUOUS
 10
2160.9261339999989
 20
4021.8953750000001
 30
0.0
 11
2160.9261339999989
 21
4179.978392
 31
0.0
  0
LINE
  5
7B36
  8
4
  6
CONTINUOUS
 10
2160.9261339999989
 20
4179.978392
 30
0.0
 11
2775.0
 21
4179.978392
 31
0.0
  0
LINE
  5
7B37
  8
4
  6
CONTINUOUS
 10
2775.0
 20
4179.978392
 30
0.0
 11
2775.0
 21
4021.8953750000001
 31
0.0
  0
LINE
  5
7B38
  8
4
  6
CONTINUOUS
 10
2775.0
 20
4021.8953750000001
 30
0.0
 11
2160.9261339999989
 21
4021.8953750000001
 31
0.0
  0
DIMENSION
  5
7B50
  8
3
  6
CONTINUOUS
  2
*D1
 10
1171.379417008196
 20
1106.168231009503
 30
0.0
 11
872.56724700819632
 21
1106.168231009503
 31
0.0
 70
   128
 13
526.37941700819636
 23
1240.793845009503
 33
0.0
 14
1171.379417008196
 24
1190.601454009503
 34
0.0
1001
ACAD
1000
DSTYLE
1002
{
1070
   287
1070
     3
1070
   287
1070
     3
1070
    40
1040
15.0
1070
   143
1040
0.039
1070
   172
1070
     1
1070
   271
1070
     0
1070
   279
1070
     0
1070
   288
1070
     1
1002
}
  0
DIMENSION
  5
7B5C
  8
3
  6
CONTINUOUS
  2
*D2
 10
1436.379417008196
 20
1106.168231009503
 30
0.0
 11
1303.879417008196
 21
1143.668231009503
 31
0.0
 70
     0
 13
1171.379417008196
 23
1190.601454009503
 33
0.0
 14
1436.379417008196
 24
1240.793845009503
 34
0.0
1001
ACAD
1000
DSTYLE
1002
{
1070
   287
1070
     4
1070
   287
1070
     4
1070
    40
1040
15.0
1070
    75
1070
     1
1070
   143
1040
0.039
1070
   172
1070
     1
1070
   271
1070
     0
1070
   279
1070
     1
1070
   288
1070
     1
1002
}
  0
DIMENSION
  5
7B69
  8
3
  6
CONTINUOUS
  2
*D3
 10
1532.3961150081959
 20
1377.793845009503
 30
0.0
 11
1532.3961150081959
 21
1539.086844009503
 31
0.0
 70
   128
 13
1421.379417008196
 23
1692.793845009503
 33
0.0
 14
1421.379417008196
 24
1377.793845009503
 34
0.0
 50
90.0
1001
ACAD
1000
DSTYLE
1002
{
1070
   287
1070
     3
1070
   287
1070
     3
1070
    40
1040
15.0
1070
   143
1040
0.039
1070
   172
1070
     1
1070
   271
1070
     0
1070
   279
1070
     0
1070
   288
1070
     1
1002
}
  0
DIMENSION
  5
7B76
  8
3
  6
CONTINUOUS
  2
*D4
 10
1715.8208518442771
 20
1692.793845009503
 30
0.0
 11
1715.8208518442759
 21
1795.6509878666459
 31
0.0
 70
   128
 13
1171.379417008196
 23
1925.0390310095031
 33
0.0
 14
1421.379417008196
 24
1692.793845009503
 34
0.0
 50
90.0
1001
ACAD
1000
DSTYLE
1002
{
1070
   287
1070
     3
1070
   287
1070
     3
1070
    40
1040
15.0
1070
   143
1040
0.039
1070
   172
1070
     1
1070
   271
1070
     0
1070
   279
1070
     0
1070
   288
1070
     1
1002
}
  0
DIMENSION
  5
7B82
  8
3
  6
CONTINUOUS
  2
*D5
 10
1715.8208518442759
 20
1292.793845009503
 30
0.0
 11
1678.3208518442771
 21
1492.793845009503
 31
0.0
 70
     0
 13
1421.379417008196
 23
1692.793845009503
 33
0.0
 14
1406.379417008196
 24
1292.793845009503
 34
0.0
 50
90.0
1001
ACAD
1000
DSTYLE
1002
{
1070
   287
1070
     4
1070
   287
1070
     4
1070
    40
1040
15.0
1070
    75
1070
     1
1070
   143
1040
0.039
1070
   172
1070
     1
1070
   271
1070
     0
1070
   279
1070
     1
1070
   288
1070
     1
1002
}
  0
DIMENSION
  5
7B92
  8
3
  6
CONTINUOUS
  2
*D6
 10
1715.8208518442771
 20
1240.793845009503
 30
0.0
 11
1715.8208518442759
 21
1129.3652735809319
 31
0.0
 70
   128
 13
1406.379417008196
 23
1292.793845009503
 33
0.0
 14
1436.379417008196
 24
1240.793845009503
 34
0.0
 50
90.0
1001
ACAD
1000
DSTYLE
1002
{
1070
   287
1070
     3
1070
   287
1070
     3
1070
    40
1040
15.0
1070
   143
1040
0.039
1070
   172
1070
     1
1070
   271
1070
     0
1070
   279
1070
     0
1070
   288
1070
     1
1002
}
  0
DIMENSION
  5
7BB9
  8
3
  6
CONTINUOUS
  2
*D7
 10
1813.0946485570969
 20
1240.793845009503
 30
0.0
 11
1813.0946485570969
 21
1561.255851009503
 31
0.0
 70
   128
 13
1171.379417008196
 23
1925.0390310095031
 33
0.0
 14
1436.379417008196
 24
1240.793845009503
 34
0.0
 50
90.0
1001
ACAD
1000
DSTYLE
1002
{
1070
   287
1070
     3
1070
   287
1070
     3
1070
    40
1040
15.0
1070
   143
1040
0.039
1070
   172
1070
     1
1070
   271
1070
     0
1070
   279
1070
     0
1070
   288
1070
     1
1002
}
  0
DIMENSION
  5
7BC6
  8
3
  6
CONTINUOUS
  2
*D8
 10
1171.379417008196
 20
2008.137748009503
 30
0.0
 11
1031.4181440081959
 21
2008.137748009503
 31
0.0
 70
   128
 13
897.37941700819636
 23
1692.793845009503
 33
0.0
 14
1171.379417008196
 24
1925.0390310095031
 34
0.0
1001
ACAD
1000
DSTYLE
1002
{
1070
   287
1070
     3
1070
   287
1070
     3
1070
    40
1040
15.0
1070
   143
1040
0.039
1070
   172
1070
     1
1070
   271
1070
     0
1070
   279
1070
     0
1070
   288
1070
     1
1002
}
  0
DIMENSION
  5
7BD2
  8
3
  6
CONTINUOUS
  2
*D9
 10
1421.379417008196
 20
2008.137748009503
 30
0.0
 11
1296.379417008196
 21
2045.637748009503
 31
0.0
 70
     0
 13
1171.379417008196
 23
1925.0390310095031
 33
0.0
 14
1421.379417008196
 24
1714.293845009503
 34
0.0
1001
ACAD
1000
DSTYLE
1002
{
1070
   287
1070
     4
1070
   287
1070
     4
1070
    40
1040
15.0
1070
    75
1070
     1
1070
   143
1040
0.039
1070
   172
1070
     1
1070
   271
1070
     0
1070
   279
1070
     1
1070
   288
1070
     1
1002
}
  0
DIMENSION
  5
7BDF
  8
3
  6
CONTINUOUS
  2
*D10
 10
1436.379417008196
 20
2540.2547697128789
 30
0.0
 11
952.94970600819624
 21
2540.2547697128789
 31
0.0
 70
   128
 13
526.37941700819636
 23
2745.0958127128788
 33
0.0
 14
1436.379417008196
 24
2745.0958127128788
 34
0.0
1001
ACAD
1000
DSTYLE
1002
{
1070
   287
1070
     3
1070
   287
1070
     3
1070
    40
1040
15.0
1070
   143
1040
0.039
1070
   172
1070
     1
1070
   271
1070
     0
1070
   279
1070
     0
1070
   288
1070
     1
1002
}
  0
DIMENSION
  5
7BEC
  8
3
  6
CONTINUOUS
  2
*D11
 10
1575.0737290081961
 20
2745.0958127128788
 30
0.0
 11
1575.0737290081961
 21
2902.5083247128782
 31
0.0
 70
   128
 13
1436.379417008196
 23
3060.0958127128779
 33
0.0
 14
1436.379417008196
 24
2745.0958127128788
 34
0.0
 50
90.0
1001
ACAD
1000
DSTYLE
1002
{
1070
   287
1070
     3
1070
   287
1070
     3
1070
    40
1040
15.0
1070
   143
1040
0.039
1070
   172
1070
     1
1070
   271
1070
     0
1070
   279
1070
     0
1070
   288
1070
     1
1002
}
  0
LINE
  5
7BED
  8
2
  6
CENTER
 10
820.85438100819624
 20
3060.0958127128779
 30
0.0
 11
1503.1699440081959
 21
3060.0958127128779
 31
0.0
  0
LINE
  5
7BEE
  8
2
  6
CENTER
 10
1171.379417008196
 20
2605.2137707128791
 30
0.0
 11
1171.379417008196
 21
3210.0745137128779
 31
0.0
  0
LINE
  5
7BEF
  8
2
  6
CENTER
 10
2496.6479780081959
 20
1987.6893810095039
 30
0.0
 11
2496.6479780081959
 21
1168.402915009503
 31
0.0
  0
DIMENSION
  5
7BFC
  8
3
  6
CONTINUOUS
  2
*D12
 10
2608.6479780081959
 20
1983.4734240095031
 30
0.0
 11
2488.5765500081961
 21
1983.4734240095031
 31
0.0
 70
   128
 13
2384.6479780081959
 23
1905.8938450095029
 33
0.0
 14
2608.6479780081959
 24
1905.8938450095029
 34
0.0
1001
ACAD
1000
DSTYLE
1002
{
1070
   287
1070
     3
1070
   287
1070
     3
1070
    40
1040
15.0
1070
   143
1040
0.039
1070
   172
1070
     1
1070
   271
1070
     0
1070
   279
1070
     0
1070
   288
1070
     1
1002
}
  0
DIMENSION
  5
7C09
  8
3
  6
CONTINUOUS
  2
*D13
 10
2496.6479780081959
 20
2070.9139440095032
 30
0.0
 11
2282.2308810081959
 21
2070.9139440095032
 31
0.0
 70
   128
  1
MAX\P420
 13
2076.6479780081959
 23
1932.293845009503
 33
0.0
 14
2496.6479780081959
 24
2054.130313009503
 34
0.0
1001
ACAD
1000
DSTYLE
1002
{
1070
   287
1070
     3
1070
   287
1070
     3
1070
    40
1040
15.0
1070
   143
1040
0.039
1070
   172
1070
     1
1070
   271
1070
     0
1070
   279
1070
     0
1070
   288
1070
     1
1002
}
  0
DIMENSION
  5
7C17
  8
3
  6
CONTINUOUS
  2
*D14
 10
2617.6479780081959
 20
2070.9139440095032
 30
0.0
 11
2551.088486008196
 21
2070.9139440095032
 31
0.0
 70
   128
 13
2496.6479780081959
 23
2054.130313009503
 33
0.0
 14
2617.6479780081959
 24
1875.293845009503
 34
0.0
1001
ACAD
1000
DSTYLE
1002
{
1070
   287
1070
     4
1070
   287
1070
     4
1070
    40
1040
15.0
1070
    75
1070
     1
1070
   143
1040
0.039
1070
   172
1070
     1
1070
   271
1070
     0
1070
   279
1070
     1
1070
   288
1070
     1
1002
}
  0
DIMENSION
  5
7C3A
  8
3
  6
CONTINUOUS
  2
*D15
 10
2496.6479780081959
 20
1137.174159009503
 30
0.0
 11
2341.6296550081961
 21
1137.174159009503
 31
0.0
 70
   128
 13
2181.6479780081959
 23
1240.793845009503
 33
0.0
 14
2496.6479780081959
 24
1240.793845009503
 34
0.0
1001
ACAD
1000
DSTYLE
1002
{
1070
   287
1070
     3
1070
   287
1070
     3
1070
    40
1040
15.0
1070
   143
1040
0.039
1070
   172
1070
     1
1070
   271
1070
     0
1070
   279
1070
     0
1070
   288
1070
     1
1002
}
  0
LINE
  5
7C3C
  8
3
  6
CONTINUOUS
 10
2617.6479780081959
 20
1535.293845009503
 30
0.0
 11
2629.6624000081961
 21
1535.293845009503
 31
0.0
  0
LINE
  5
7C3E
  8
3
  6
CONTINUOUS
 10
2617.6479780081959
 20
1850.293845009503
 30
0.0
 11
2627.5145900081961
 21
1850.293845009503
 31
0.0
  0
DIMENSION
  5
7C4B
  8
3
  6
CONTINUOUS
  2
*D16
 10
2729.535404008197
 20
1535.293845009503
 30
0.0
 11
2729.5354040081961
 21
1688.457045009503
 31
0.0
 70
   128
 13
2617.6479780081959
 23
1850.293845009503
 33
0.0
 14
2617.6479780081959
 24
1535.293845009503
 34
0.0
 50
90.0
1001
ACAD
1000
DSTYLE
1002
{
1070
   287
1070
     3
1070
   287
1070
     3
1070
     3
1000
φ<>
1070
    40
1040
15.0
1070
   143
1040
0.039
1070
   172
1070
     1
1070
   271
1070
     0
1070
   279
1070
     0
1070
   288
1070
     1
1002
}
  0
LINE
  5
7C4C
  8
2
  6
CENTER
 10
1973.4953490081959
 20
1692.793845009503
 30
0.0
 11
2654.3451860081959
 21
1692.793845009503
 31
0.0
  0
DIMENSION
  5
7C8B
  8
3
  6
CONTINUOUS
  2
*D17
 10
1629.9325110081959
 20
1367.793845009503
 30
0.0
 11
1629.9325110081959
 21
1521.6298810095029
 31
0.0
 70
   128
 13
1421.379417008196
 23
1692.793845009503
 33
0.0
 14
1401.379417008196
 24
1367.793845009503
 34
0.0
 50
90.0
1001
ACAD
1000
DSTYLE
1002
{
1070
   287
1070
     3
1070
   287
1070
     3
1070
    40
1040
15.0
1070
   143
1040
0.039
1070
   172
1070
     1
1070
   271
1070
     0
1070
   279
1070
     0
1070
   288
1070
     1
1002
}
  0
DIMENSION
  5
7CDF
  8
3
  2
*D18
 10
526.37941700819636
 20
2108.4635440876118
 30
0.0
 11
992.30364399687824
 21
2108.4635440876118
 31
0.0
 70
   128
 13
1421.379417008196
 23
1714.293845009503
 33
0.0
 14
526.37941700819636
 24
1270.793845009503
 34
0.0
1001
ACAD
1000
DSTYLE
1002
{
1070
   287
1070
     3
1070
   287
1070
     3
1070
    40
1040
15.0
1070
   143
1040
0.039
1070
   172
1070
     1
1070
   271
1070
     0
1070
   279
1070
     0
1070
   288
1070
     1
1002
}
  0
ENDSEC
  0
EOF
