  0
SECTION
  2
HEADER
  9
$ACADVER
  1
AC1009
  9
$INSBASE
 10
0.0
 20
0.0
 30
0.0
  9
$EXTMIN
 10
375.0
 20
450.0
 30
0.0
  9
$EXTMAX
 10
2775.0
 20
4179.978392
 30
0.0
  9
$LIMMIN
 10
0.0
 20
0.0
  9
$LIMMAX
 10
297.0
 20
210.0
  9
$ORTHOMODE
 70
     0
  9
$REGENMODE
 70
     1
  9
$FILLMODE
 70
     0
  9
$QTEXTMODE
 70
     0
  9
$MIRRTEXT
 70
     1
  9
$DRAGMODE
 70
     2
  9
$LTSCALE
 40
100.0
  9
$OSMODE
 70
    37
  9
$ATTMODE
 70
     1
  9
$TEXTSIZE
 40
180.0
  9
$TRACEWID
 40
0.05
  9
$TEXTSTYLE
  7
STANDARD
  9
$CLAYER
  8
3
  9
$CELTYPE
  6
BYLAYER
  9
$CECOLOR
 62
   256
  9
$DIMSCALE
 40
15.0
  9
$DIMASZ
 40
2.0
  9
$DIMEXO
 40
0.5
  9
$DIMDLI
 40
10.0
  9
$DIMRND
 40
0.0
  9
$DIMDLE
 40
0.0
  9
$DIMEXE
 40
1.0
  9
$DIMTP
 40
1.0
  9
$DIMTM
 40
1.0
  9
$DIMTXT
 40
3.0
  9
$DIMCEN
 40
0.0
  9
$DIMTSZ
 40
0.0
  9
$DIMTOL
 70
     0
  9
$DIMLIM
 70
     0
  9
$DIMTIH
 70
     0
  9
$DIMTOH
 70
     0
  9
$DIMSE1
 70
     0
  9
$DIMSE2
 70
     0
  9
$DIMTAD
 70
     1
  9
$DIMZIN
 70
     8
  9
$DIMBLK
  1

  9
$DIMASO
 70
     1
  9
$DIMSHO
 70
     1
  9
$DIMPOST
  1

  9
$DIMAPOST
  1

  9
$DIMALT
 70
     0
  9
$DIMALTD
 70
     2
  9
$DIMALTF
 40
0.039
  9
$DIMLFAC
 40
1.0
  9
$DIMTOFL
 70
     1
  9
$DIMTVP
 40
0.0
  9
$DIMTIX
 70
     0
  9
$DIMSOXD
 70
     0
  9
$DIMSAH
 70
     1
  9
$DIMBLK1
  1
OPEN
  9
$DIMBLK2
  1
OPEN
  9
$DIMSTYLE
  2
IGA
  9
$DIMCLRD
 70
     0
  9
$DIMCLRE
 70
     0
  9
$DIMCLRT
 70
     0
  9
$DIMTFAC
 40
10.0
  9
$DIMGAP
 40
1.0
  9
$LUNITS
 70
     2
  9
$LUPREC
 70
     3
  9
$SKETCHINC
 40
0.1
  9
$FILLETRAD
 40
50.0
  9
$AUNITS
 70
     0
  9
$AUPREC
 70
     0
  9
$MENU
  1
acad
  9
$ELEVATION
 40
0.0
  9
$PELEVATION
 40
0.0
  9
$THICKNESS
 40
0.0
  9
$LIMCHECK
 70
     0
  9
$BLIPMODE
 70
     0
  9
$CHAMFERA
 40
0.5
  9
$CHAMFERB
 40
0.5
  9
$SKPOLY
 70
     0
  9
$TDCREATE
 40
2450745.6413491899
  9
$TDUPDATE
 40
2454953.8662299649
  9
$TDINDWG
 40
0.0046577894
  9
$TDUSRTIMER
 40
0.0046577894
  9
$USRTIMER
 70
     1
  9
$ANGBASE
 50
0.0
  9
$ANGDIR
 70
     0
  9
$PDMODE
 70
     0
  9
$PDSIZE
 40
0.0
  9
$PLINEWID
 40
0.0
  9
$COORDS
 70
     1
  9
$SPLFRAME
 70
     0
  9
$SPLINETYPE
 70
     6
  9
$SPLINESEGS
 70
     8
  9
$ATTDIA
 70
     0
  9
$ATTREQ
 70
     1
  9
$HANDLING
 70
 10241
  9
$HANDSEED
  5
7E68
  9
$SURFTAB1
 70
     6
  9
$SURFTAB2
 70
     6
  9
$SURFTYPE
 70
     6
  9
$SURFU
 70
     6
  9
$SURFV
 70
     6
  9
$UCSNAME
  2

  9
$UCSORG
 10
0.0
 20
0.0
 30
0.0
  9
$UCSXDIR
 10
1.0
 20
0.0
 30
0.0
  9
$UCSYDIR
 10
0.0
 20
1.0
 30
0.0
  9
$PUCSNAME
  2

  9
$PUCSORG
 10
0.0
 20
0.0
 30
0.0
  9
$PUCSXDIR
 10
1.0
 20
0.0
 30
0.0
  9
$PUCSYDIR
 10
0.0
 20
1.0
 30
0.0
  9
$USERI1
 70
     0
  9
$USERI2
 70
     0
  9
$USERI3
 70
     0
  9
$USERI4
 70
     0
  9
$USERI5
 70
     0
  9
$USERR1
 40
0.0
  9
$USERR2
 40
0.0
  9
$USERR3
 40
0.0
  9
$USERR4
 40
0.0
  9
$USERR5
 40
0.0
  9
$WORLDVIEW
 70
     1
  9
$SHADEDGE
 70
     3
  9
$SHADEDIF
 70
    70
  9
$TILEMODE
 70
     1
  9
$MAXACTVP
 70
    16
  9
$PLIMCHECK
 70
     0
  9
$PEXTMIN
 10
1.0000000000000000E+020
 20
1.0000000000000000E+020
 30
1.0000000000000000E+020
  9
$PEXTMAX
 10
-1.0000000000000000E+020
 20
-1.0000000000000000E+020
 30
-1.0000000000000000E+020
  9
$PLIMMIN
 10
0.0
 20
0.0
  9
$PLIMMAX
 10
12.0
 20
9.0
  9
$UNITMODE
 70
     0
  9
$VISRETAIN
 70
     0
  9
$PLINEGEN
 70
     0
  9
$PSLTSCALE
 70
     1
  0
ENDSEC
  0
SECTION
  2
TABLES
  0
TABLE
  2
VPORT
 70
     2
  0
VPORT
  2
*ACTIVE
 70
     0
 10
0.0
 20
0.0
 11
1.0
 21
1.0
 12
4339.1427822819978
 22
2988.1380085520968
 13
0.0
 23
0.0
 14
10.0
 24
10.0
 15
10.0
 25
10.0
 16
0.0
 26
0.0
 36
1.0
 17
0.0
 27
0.0
 37
0.0
 40
5790.646336085927
 41
1.5051150895140659
 42
50.0
 43
0.0
 44
0.0
 50
0.0
 51
0.0
 71
     0
 72
   100
 73
     1
 74
     0
 75
     0
 76
     0
 77
     0
 78
     0
  0
ENDTAB
  0
TABLE
  2
LTYPE
 70
     2
  0
LTYPE
  2
CONTINUOUS
 70
     0
  3
Solid line
 72
    65
 73
     0
 40
0.0
  0
LTYPE
  2
CENTER
 70
     0
  3
____ _ ____ _ ____ _ ____ _ ____ _ ____ _ ____ 
 72
    65
 73
     4
 40
2.0
 49
1.25
 49
-0.25
 49
0.25
 49
-0.25
  0
ENDTAB
  0
TABLE
  2
LAYER
 70
     6
  0
LAYER
  2
0
 70
     0
 62
     7
  6
CONTINUOUS
  0
LAYER
  2
3
 70
     0
 62
     2
  6
CONTINUOUS
  0
LAYER
  2
2
 70
     0
 62
     3
  6
CENTER
  0
LAYER
  2
1
 70
     0
 62
     4
  6
CONTINUOUS
  0
LAYER
  2
4
 70
     0
 62
     7
  6
CONTINUOUS
  0
LAYER
  2
DEFPOINTS
 70
     0
 62
     7
  6
CONTINUOUS
  0
ENDTAB
  0
TABLE
  2
STYLE
 70
     1
  0
STYLE
  2
STANDARD
 70
     0
 40
0.0
 41
1.0
 50
0.0
 71
     0
 42
180.0
  3
simplex.shx
  4
extfont.shx
  0
ENDTAB
  0
TABLE
  2
VIEW
 70
     0
  0
ENDTAB
  0
TABLE
  2
UCS
 70
     0
  0
ENDTAB
  0
TABLE
  2
APPID
 70
     1
  0
APPID
  2
ACAD
 70
     0
  0
ENDTAB
  0
TABLE
  2
DIMSTYLE
 70
     1
  0
DIMSTYLE
  2
IGA
 70
     0
  3

  4

  5

  6
OPEN
  7
OPEN
 40
2.0
 41
2.0
 42
0.5
 43
10.0
 44
1.0
 45
0.0
 46
0.0
 47
1.0
 48
1.0
140
3.0
141
0.0
142
0.0
143
0.03937
144
1.0
145
0.0
146
10.0
147
1.0
 71
     0
 72
     0
 73
     0
 74
     0
 75
     0
 76
     0
 77
     1
 78
     8
170
     0
171
     2
172
     0
173
     1
174
     0
175
     0
176
     0
177
     0
178
     0
  0
ENDTAB
  0
ENDSEC
  0
SECTION
  2
BLOCKS
  0
BLOCK
  8
0
  2
$MODEL_SPACE
 70
     0
 10
0.0
 20
0.0
 30
0.0
  3
$MODEL_SPACE
  1

  0
ENDBLK
  5
1B
  8
0
  0
BLOCK
 67
     1
  8
0
  2
$PAPER_SPACE
 70
     0
 10
0.0
 20
0.0
 30
0.0
  3
$PAPER_SPACE
  1

  0
ENDBLK
  5
18
 67
     1
  8
0
  0
BLOCK
  8
0
  2
_OPEN
 70
     0
 10
0.0
 20
0.0
 30
0.0
  3
_OPEN
  1

  0
LINE
  5
7B3B
  8
0
  6
BYBLOCK
 62
     0
 10
-1.0
 20
0.166667
 30
0.0
 11
0.0
 21
0.0
 31
0.0
  0
LINE
  5
7B3C
  8
0
  6
BYBLOCK
 62
     0
 10
0.0
 20
0.0
 30
0.0
 11
-1.0
 21
-0.166667
 31
0.0
  0
LINE
  5
7B3D
  8
0
  6
BYBLOCK
 62
     0
 10
0.0
 20
0.0
 30
0.0
 11
-1.0
 21
0.0
 31
0.0
  0
ENDBLK
  5
7B3E
  8
0
  0
BLOCK
  8
0
  2
*D1
 70
     1
 10
0.0
 20
0.0
 30
0.0
  3
*D1
  1

  0
LINE
  5
7DBB
  8
3
  6
CONTINUOUS
 62
     0
 10
705.03223543813783
 20
1083.522432919998
 30
0.0
 11
705.03223543813783
 21
970.78640491999829
 31
0.0
  0
LINE
  5
7DBC
  8
3
  6
CONTINUOUS
 62
     0
 10
970.03223543813795
 20
1037.432362919998
 30
0.0
 11
970.03223543813795
 21
970.78640491999829
 31
0.0
  0
LINE
  5
7DBD
  8
3
  6
CONTINUOUS
 62
     0
 10
735.03223543813783
 20
985.78640491999829
 30
0.0
 11
940.03223543813783
 21
985.78640491999829
 31
0.0
  0
INSERT
  5
7DBE
  8
3
  6
CONTINUOUS
 62
     0
  2
_OPEN
 10
705.03223543813783
 20
985.78640491999829
 30
0.0
 41
30.0
 42
30.0
 43
30.0
 50
180.0
  0
INSERT
  5
7DBF
  8
3
  6
CONTINUOUS
 62
     0
  2
_OPEN
 10
970.03223543813795
 20
985.78640491999829
 30
0.0
 41
30.0
 42
30.0
 43
30.0
  0
TEXT
  8
3
  40
45
  5
7E56
  62
0
  72
0
  71
0
 10
749.421
 20
943.636
 30
0.000000
  1
265
  0
POINT
  5
7DC1
  8
DEFPOINTS
  6
CONTINUOUS
 62
     0
 10
705.03223543813783
 20
1091.022432919998
 30
0.0
  0
POINT
  5
7DC2
  8
DEFPOINTS
  6
CONTINUOUS
 62
     0
 10
970.03223543813795
 20
1044.932362919998
 30
0.0
  0
POINT
  5
7DC3
  8
DEFPOINTS
  6
CONTINUOUS
 62
     0
 10
970.03223543813795
 20
985.78640491999829
 30
0.0
  0
ENDBLK
  5
7B4B
  8
0
  0
BLOCK
  8
0
  2
*D2
 70
     1
 10
0.0
 20
0.0
 30
0.0
  3
*D2
  1

  0
LINE
  5
7DC4
  8
3
  6
CONTINUOUS
 62
     0
 10
1615.0322354381381
 20
1083.522432919998
 30
0.0
 11
1615.0322354381381
 21
970.78640491999829
 31
0.0
  0
LINE
  5
7DC5
  8
3
  6
CONTINUOUS
 62
     0
 10
1000.032235438137
 20
985.78640491999829
 30
0.0
 11
1585.0322354381381
 21
985.78640491999829
 31
0.0
  0
INSERT
  5
7DC6
  8
3
  6
CONTINUOUS
 62
     0
  2
_OPEN
 10
970.03223543813795
 20
985.78640491999829
 30
0.0
 41
30.0
 42
30.0
 43
30.0
 50
180.0
  0
INSERT
  5
7DC7
  8
3
  6
CONTINUOUS
 62
     0
  2
_OPEN
 10
1615.0322354381381
 20
985.78640491999829
 30
0.0
 41
30.0
 42
30.0
 43
30.0
  0
TEXT
  8
3
  40
45
  5
7E57
  62
0
  72
0
  71
0
 10
1202.53
 20
943.636
 30
0.000000
  1
645
  0
POINT
  5
7DC9
  8
DEFPOINTS
  6
CONTINUOUS
 62
     0
 10
970.03223543813795
 20
1044.932362919998
 30
0.0
  0
POINT
  5
7DCA
  8
DEFPOINTS
  6
CONTINUOUS
 62
     0
 10
1615.0322354381381
 20
1091.022432919998
 30
0.0
  0
POINT
  5
7DCB
  8
DEFPOINTS
  6
CONTINUOUS
 62
     0
 10
1615.0322354381381
 20
985.78640491999829
 30
0.0
  0
ENDBLK
  5
7B57
  8
0
  0
BLOCK
  8
0
  2
*D3
 70
     1
 10
0.0
 20
0.0
 30
0.0
  3
*D3
  1

  0
LINE
  5
7DCC
  8
3
  6
CONTINUOUS
 62
     0
 10
970.03223543813795
 20
1800.522432919998
 30
0.0
 11
970.03223543813795
 21
1869.2920229199981
 31
0.0
  0
LINE
  5
7DCD
  8
3
  6
CONTINUOUS
 62
     0
 10
1285.0322354381381
 20
1800.522432919998
 30
0.0
 11
1285.0322354381381
 21
1869.2920229199981
 31
0.0
  0
LINE
  5
7DCE
  8
3
  6
CONTINUOUS
 62
     0
 10
1000.032235438137
 20
1854.2920229199981
 30
0.0
 11
1255.0322354381381
 21
1854.2920229199981
 31
0.0
  0
INSERT
  5
7DCF
  8
3
  6
CONTINUOUS
 62
     0
  2
_OPEN
 10
970.03223543813795
 20
1854.2920229199981
 30
0.0
 41
30.0
 42
30.0
 43
30.0
 50
180.0
  0
INSERT
  5
7DD0
  8
3
  6
CONTINUOUS
 62
     0
  2
_OPEN
 10
1285.0322354381381
 20
1854.2920229199981
 30
0.0
 41
30.0
 42
30.0
 43
30.0
  0
TEXT
  8
3
  40
45
  5
7E58
  62
0
  72
0
  71
0
 10
1038.18
 20
1812.14
 30
0.000000
  1
315
  0
POINT
  5
7DD2
  8
DEFPOINTS
  6
CONTINUOUS
 62
     0
 10
970.03223543813795
 20
1793.022432919998
 30
0.0
  0
POINT
  5
7DD3
  8
DEFPOINTS
  6
CONTINUOUS
 62
     0
 10
1285.0322354381381
 20
1793.022432919998
 30
0.0
  0
POINT
  5
7DD4
  8
DEFPOINTS
  6
CONTINUOUS
 62
     0
 10
1285.0322354381381
 20
1854.2920229199981
 30
0.0
  0
ENDBLK
  5
7BB4
  8
0
  0
BLOCK
  8
0
  2
*D4
 70
     1
 10
0.0
 20
0.0
 30
0.0
  3
*D4
  1

  0
LINE
  5
7DD5
  8
3
  6
CONTINUOUS
 62
     0
 10
737.78704943813807
 20
1550.522432919998
 30
0.0
 11
737.78704943813807
 21
1958.709891919998
 31
0.0
  0
LINE
  5
7DD6
  8
3
  6
CONTINUOUS
 62
     0
 10
970.03223543813795
 20
1800.522432919998
 30
0.0
 11
970.03223543813795
 21
1958.709891919998
 31
0.0
  0
LINE
  5
7DD7
  8
3
  6
CONTINUOUS
 62
     0
 10
767.78704943813807
 20
1943.709891919998
 30
0.0
 11
940.03223543813783
 21
1943.709891919998
 31
0.0
  0
INSERT
  5
7DD8
  8
3
  6
CONTINUOUS
 62
     0
  2
_OPEN
 10
737.78704943813807
 20
1943.709891919998
 30
0.0
 41
30.0
 42
30.0
 43
30.0
 50
180.0
  0
INSERT
  5
7DD9
  8
3
  6
CONTINUOUS
 62
     0
  2
_OPEN
 10
970.03223543813795
 20
1943.709891919998
 30
0.0
 41
30.0
 42
30.0
 43
30.0
  0
TEXT
  8
3
  40
45
  5
7E59
  62
0
  72
0
  71
0
 10
777.175
 20
1901.56
 30
0.000000
  1
232
  0
POINT
  5
7DDB
  8
DEFPOINTS
  6
CONTINUOUS
 62
     0
 10
737.78704943813807
 20
1543.022432919998
 30
0.0
  0
POINT
  5
7DDC
  8
DEFPOINTS
  6
CONTINUOUS
 62
     0
 10
970.03223543813795
 20
1793.022432919998
 30
0.0
  0
POINT
  5
7DDD
  8
DEFPOINTS
  6
CONTINUOUS
 62
     0
 10
970.03223543813795
 20
1943.709891919998
 30
0.0
  0
ENDBLK
  5
7BC1
  8
0
  0
BLOCK
  8
0
  2
*D5
 70
     1
 10
0.0
 20
0.0
 30
0.0
  3
*D5
  1

  0
LINE
  5
7DDE
  8
3
  6
CONTINUOUS
 62
     0
 10
1295.0322354381381
 20
1780.522432919998
 30
0.0
 11
1295.0322354381381
 21
1958.709891919998
 31
0.0
  0
LINE
  5
7DDF
  8
3
  6
CONTINUOUS
 62
     0
 10
1000.032235438137
 20
1943.709891919998
 30
0.0
 11
1265.0322354381381
 21
1943.709891919998
 31
0.0
  0
INSERT
  5
7DE0
  8
3
  6
CONTINUOUS
 62
     0
  2
_OPEN
 10
970.03223543813795
 20
1943.709891919998
 30
0.0
 41
30.0
 42
30.0
 43
30.0
 50
180.0
  0
INSERT
  5
7DE1
  8
3
  6
CONTINUOUS
 62
     0
  2
_OPEN
 10
1295.0322354381381
 20
1943.709891919998
 30
0.0
 41
30.0
 42
30.0
 43
30.0
  0
TEXT
  8
3
  40
45
  5
7E5A
  62
0
  72
0
  71
0
 10
1042.53
 20
1901.56
 30
0.000000
  1
325
  0
POINT
  5
7DE3
  8
DEFPOINTS
  6
CONTINUOUS
 62
     0
 10
970.03223543813795
 20
1793.022432919998
 30
0.0
  0
POINT
  5
7DE4
  8
DEFPOINTS
  6
CONTINUOUS
 62
     0
 10
1295.0322354381381
 20
1773.022432919998
 30
0.0
  0
POINT
  5
7DE5
  8
DEFPOINTS
  6
CONTINUOUS
 62
     0
 10
1295.0322354381381
 20
1943.709891919998
 30
0.0
  0
ENDBLK
  5
7BCD
  8
0
  0
BLOCK
  8
0
  2
*D6
 70
     1
 10
0.0
 20
0.0
 30
0.0
  3
*D6
  1

  0
LINE
  5
7DE6
  8
3
  6
CONTINUOUS
 62
     0
 10
705.03223543813795
 20
2687.9506687409262
 30
0.0
 11
705.03223543813795
 21
2471.5080997409259
 31
0.0
  0
LINE
  5
7DE7
  8
3
  6
CONTINUOUS
 62
     0
 10
1615.0322354381381
 20
2687.9506687409262
 30
0.0
 11
1615.0322354381381
 21
2471.5080997409259
 31
0.0
  0
LINE
  5
7DE8
  8
3
  6
CONTINUOUS
 62
     0
 10
735.03223543813795
 20
2486.5080997409259
 30
0.0
 11
1585.0322354381381
 21
2486.5080997409259
 31
0.0
  0
INSERT
  5
7DE9
  8
3
  6
CONTINUOUS
 62
     0
  2
_OPEN
 10
705.03223543813795
 20
2486.5080997409259
 30
0.0
 41
30.0
 42
30.0
 43
30.0
 50
180.0
  0
INSERT
  5
7DEA
  8
3
  6
CONTINUOUS
 62
     0
  2
_OPEN
 10
1615.0322354381381
 20
2486.5080997409259
 30
0.0
 41
30.0
 42
30.0
 43
30.0
  0
TEXT
  8
3
  40
45
  5
7E5B
  62
0
  72
0
  71
0
 10
1052.62
 20
2444.36
 30
0.000000
  1
910
  0
POINT
  5
7DEC
  8
DEFPOINTS
  6
CONTINUOUS
 62
     0
 10
705.03223543813795
 20
2695.4506687409262
 30
0.0
  0
POINT
  5
7DED
  8
DEFPOINTS
  6
CONTINUOUS
 62
     0
 10
1615.0322354381381
 20
2695.4506687409262
 30
0.0
  0
POINT
  5
7DEE
  8
DEFPOINTS
  6
CONTINUOUS
 62
     0
 10
1615.0322354381381
 20
2486.5080997409259
 30
0.0
  0
ENDBLK
  5
7BDA
  8
0
  0
BLOCK
  8
0
  2
*D7
 70
     1
 10
0.0
 20
0.0
 30
0.0
  3
*D7
  1

  0
LINE
  5
7DEF
  8
3
  6
CONTINUOUS
 62
     0
 10
1622.5322354381369
 20
3010.4506687409262
 30
0.0
 11
1758.2293064381381
 21
3010.4506687409262
 31
0.0
  0
LINE
  5
7DF0
  8
3
  6
CONTINUOUS
 62
     0
 10
1622.5322354381369
 20
2695.4506687409262
 30
0.0
 11
1758.2293064381381
 21
2695.4506687409262
 31
0.0
  0
LINE
  5
7DF1
  8
3
  6
CONTINUOUS
 62
     0
 10
1743.2293064381381
 20
2980.4506687409262
 30
0.0
 11
1743.2293064381381
 21
2725.4506687409262
 31
0.0
  0
INSERT
  5
7DF2
  8
3
  6
CONTINUOUS
 62
     0
  2
_OPEN
 10
1743.2293064381381
 20
3010.4506687409262
 30
0.0
 41
30.0
 42
30.0
 43
30.0
 50
90.0
  0
INSERT
  5
7DF3
  8
3
  6
CONTINUOUS
 62
     0
  2
_OPEN
 10
1743.2293064381381
 20
2695.4506687409262
 30
0.0
 41
30.0
 42
30.0
 43
30.0
 50
270.0
  0
TEXT
  8
3
  40
45
  5
7E5C
  62
0
  72
0
  71
0
 10
1615.73
 20
2773.18
 30
0.000000
  1
315
  0
POINT
  5
7DF5
  8
DEFPOINTS
  6
CONTINUOUS
 62
     0
 10
1615.0322354381381
 20
3010.4506687409262
 30
0.0
  0
POINT
  5
7DF6
  8
DEFPOINTS
  6
CONTINUOUS
 62
     0
 10
1615.0322354381381
 20
2695.4506687409262
 30
0.0
  0
POINT
  5
7DF7
  8
DEFPOINTS
  6
CONTINUOUS
 62
     0
 10
1743.2293064381381
 20
2695.4506687409262
 30
0.0
  0
ENDBLK
  5
7BE7
  8
0
  0
BLOCK
  8
0
  2
*D8
 70
     1
 10
0.0
 20
0.0
 30
0.0
  3
*D8
  1

  0
LINE
  5
7DF8
  8
3
  6
CONTINUOUS
 62
     0
 10
2320.2073811589271
 20
1800.522432919998
 30
0.0
 11
2320.2073811589271
 21
1857.4672629199979
 31
0.0
  0
LINE
  5
7DF9
  8
3
  6
CONTINUOUS
 62
     0
 10
2544.2073811589271
 20
1800.522432919998
 30
0.0
 11
2544.2073811589271
 21
1857.4672629199979
 31
0.0
  0
LINE
  5
7DFA
  8
3
  6
CONTINUOUS
 62
     0
 10
2290.2073811589271
 20
1842.4672629199979
 30
0.0
 11
2260.2073811589271
 21
1842.4672629199979
 31
0.0
  0
LINE
  5
7DFB
  8
3
  6
CONTINUOUS
 62
     0
 10
2574.2073811589271
 20
1842.4672629199979
 30
0.0
 11
2604.2073811589271
 21
1842.4672629199979
 31
0.0
  0
LINE
  5
7DFC
  8
3
  6
CONTINUOUS
 62
     0
 10
2320.2073811589271
 20
1842.4672629199979
 30
0.0
 11
2544.2073811589271
 21
1842.4672629199979
 31
0.0
  0
INSERT
  5
7DFD
  8
3
  6
CONTINUOUS
 62
     0
  2
_OPEN
 10
2320.2073811589271
 20
1842.4672629199979
 30
0.0
 41
30.0
 42
30.0
 43
30.0
  0
INSERT
  5
7DFE
  8
3
  6
CONTINUOUS
 62
     0
  2
_OPEN
 10
2544.2073811589271
 20
1842.4672629199979
 30
0.0
 41
30.0
 42
30.0
 43
30.0
 50
180.0
  0
TEXT
  8
3
  40
45
  5
7E5D
  62
0
  72
0
  71
0
 10
2334.14
 20
1800.32
 30
0.000000
  1
224
  0
POINT
  5
7E00
  8
DEFPOINTS
  6
CONTINUOUS
 62
     0
 10
2320.2073811589271
 20
1793.022432919998
 30
0.0
  0
POINT
  5
7E01
  8
DEFPOINTS
  6
CONTINUOUS
 62
     0
 10
2544.2073811589271
 20
1793.022432919998
 30
0.0
  0
POINT
  5
7E02
  8
DEFPOINTS
  6
CONTINUOUS
 62
     0
 10
2544.2073811589271
 20
1842.4672629199979
 30
0.0
  0
ENDBLK
  5
7BF6
  8
0
  0
BLOCK
  8
0
  2
*D9
 70
     1
 10
0.0
 20
0.0
 30
0.0
  3
*D9
  1

  0
LINE
  5
7E03
  8
3
  6
CONTINUOUS
 62
     0
 10
2012.2073811589271
 20
1780.522432919998
 30
0.0
 11
2012.2073811589271
 21
1952.940994919998
 31
0.0
  0
LINE
  5
7E04
  8
3
  6
CONTINUOUS
 62
     0
 10
2432.2073811589271
 20
1914.9849101497989
 30
0.0
 11
2432.2073811589271
 21
1952.940994919998
 31
0.0
  0
LINE
  5
7E05
  8
3
  6
CONTINUOUS
 62
     0
 10
2042.2073811589271
 20
1937.940994919998
 30
0.0
 11
2402.2073811589271
 21
1937.940994919998
 31
0.0
  0
INSERT
  5
7E06
  8
3
  6
CONTINUOUS
 62
     0
  2
_OPEN
 10
2012.2073811589271
 20
1937.940994919998
 30
0.0
 41
30.0
 42
30.0
 43
30.0
 50
180.0
  0
INSERT
  5
7E07
  8
3
  6
CONTINUOUS
 62
     0
  2
_OPEN
 10
2432.2073811589271
 20
1937.940994919998
 30
0.0
 41
30.0
 42
30.0
 43
30.0
  0
TEXT
  8
3
  40
45
  5
7E5E
  62
0
  72
0
  71
0
 10
2145.82
 20
1933.29
 30
0.000000
  1
MAX
  0
TEXT
  8
3
  40
45
  5
7E5F
  62
0
  72
0
  71
0
 10
2145.82
 20
1874.79
 30
0.000000
  1
420
  0
POINT
  5
7E09
  8
DEFPOINTS
  6
CONTINUOUS
 62
     0
 10
2012.2073811589271
 20
1773.022432919998
 30
0.0
  0
POINT
  5
7E0A
  8
DEFPOINTS
  6
CONTINUOUS
 62
     0
 10
2432.2073811589271
 20
1907.4849101497989
 30
0.0
  0
POINT
  5
7E0B
  8
DEFPOINTS
  6
CONTINUOUS
 62
     0
 10
2432.2073811589271
 20
1937.940994919998
 30
0.0
  0
ENDBLK
  5
7CCA
  8
0
  0
BLOCK
  8
0
  2
*D10
 70
     1
 10
0.0
 20
0.0
 30
0.0
  3
*D10
  1

  0
LINE
  5
7E0C
  8
3
  6
CONTINUOUS
 62
     0
 10
2553.2073811589271
 20
1733.022432919998
 30
0.0
 11
2553.2073811589271
 21
1952.940994919998
 31
0.0
  0
LINE
  5
7E0D
  8
3
  6
CONTINUOUS
 62
     0
 10
2462.2073811589271
 20
1937.940994919998
 30
0.0
 11
2523.2073811589271
 21
1937.940994919998
 31
0.0
  0
TEXT
  8
3
  40
45
  5
7E60
  62
0
  72
0
  71
0
 10
2399.93
 20
1895.79
 30
0.000000
  1
121
  0
INSERT
  5
7E0F
  8
3
  6
CONTINUOUS
 62
     0
  2
_OPEN
 10
2432.2073811589271
 20
1937.940994919998
 30
0.0
 41
30.0
 42
30.0
 43
30.0
 50
180.0
  0
INSERT
  5
7E10
  8
3
  6
CONTINUOUS
 62
     0
  2
_OPEN
 10
2553.2073811589271
 20
1937.940994919998
 30
0.0
 41
30.0
 42
30.0
 43
30.0
  0
POINT
  5
7E11
  8
DEFPOINTS
  6
CONTINUOUS
 62
     0
 10
2432.2073811589271
 20
1907.4849101497989
 30
0.0
  0
POINT
  5
7E12
  8
DEFPOINTS
  6
CONTINUOUS
 62
     0
 10
2553.2073811589271
 20
1725.522432919998
 30
0.0
  0
POINT
  5
7E13
  8
DEFPOINTS
  6
CONTINUOUS
 62
     0
 10
2553.2073811589271
 20
1937.940994919998
 30
0.0
  0
ENDBLK
  5
7CD4
  8
0
  0
BLOCK
  8
0
  2
*D11
 70
     1
 10
0.0
 20
0.0
 30
0.0
  3
*D11
  1

  0
LINE
  5
7E14
  8
3
  6
CONTINUOUS
 62
     0
 10
2117.2073811589271
 20
1083.522432919998
 30
0.0
 11
2117.2073811589271
 21
976.84226791999822
 31
0.0
  0
LINE
  5
7E15
  8
3
  6
CONTINUOUS
 62
     0
 10
2432.2073811589271
 20
1083.522432919998
 30
0.0
 11
2432.2073811589271
 21
976.84226791999822
 31
0.0
  0
LINE
  5
7E16
  8
3
  6
CONTINUOUS
 62
     0
 10
2147.2073811589271
 20
991.84226791999822
 30
0.0
 11
2402.2073811589271
 21
991.84226791999822
 31
0.0
  0
INSERT
  5
7E17
  8
3
  6
CONTINUOUS
 62
     0
  2
_OPEN
 10
2117.2073811589271
 20
991.84226791999822
 30
0.0
 41
30.0
 42
30.0
 43
30.0
 50
180.0
  0
INSERT
  5
7E18
  8
3
  6
CONTINUOUS
 62
     0
  2
_OPEN
 10
2432.2073811589271
 20
991.84226791999822
 30
0.0
 41
30.0
 42
30.0
 43
30.0
  0
TEXT
  8
3
  40
45
  5
7E61
  62
0
  72
0
  71
0
 10
2189.14
 20
949.692
 30
0.000000
  1
315
  0
POINT
  5
7E1A
  8
DEFPOINTS
  6
CONTINUOUS
 62
     0
 10
2117.2073811589271
 20
1091.022432919998
 30
0.0
  0
POINT
  5
7E1B
  8
DEFPOINTS
  6
CONTINUOUS
 62
     0
 10
2432.2073811589271
 20
1091.022432919998
 30
0.0
  0
POINT
  5
7E1C
  8
DEFPOINTS
  6
CONTINUOUS
 62
     0
 10
2432.2073811589271
 20
991.84226791999822
 30
0.0
  0
ENDBLK
  5
7C34
  8
0
  0
BLOCK
  8
0
  2
*D12
 70
     1
 10
0.0
 20
0.0
 30
0.0
  3
*D12
  1

  0
LINE
  5
7E1D
  8
3
  6
CONTINUOUS
 62
     0
 10
2560.7073811589271
 20
1700.522432919998
 30
0.0
 11
2680.0581081589271
 21
1700.522432919998
 31
0.0
  0
LINE
  5
7E1E
  8
3
  6
CONTINUOUS
 62
     0
 10
2560.7073811589271
 20
1385.522432919998
 30
0.0
 11
2680.0581081589271
 21
1385.522432919998
 31
0.0
  0
LINE
  5
7E1F
  8
3
  6
CONTINUOUS
 62
     0
 10
2665.0581081589271
 20
1670.522432919998
 30
0.0
 11
2665.0581081589271
 21
1415.522432919998
 31
0.0
  0
INSERT
  5
7E20
  8
3
  6
CONTINUOUS
 62
     0
  2
_OPEN
 10
2665.0581081589271
 20
1700.522432919998
 30
0.0
 41
30.0
 42
30.0
 43
30.0
 50
90.0
  0
INSERT
  5
7E21
  8
3
  6
CONTINUOUS
 62
     0
  2
_OPEN
 10
2665.0581081589271
 20
1385.522432919998
 30
0.0
 41
30.0
 42
30.0
 43
30.0
 50
270.0
  0
TEXT
  8
3
  40
45
  5
7E62
  62
0
  72
0
  71
0
 10
2537.56
 20
1459.74
 30
0.000000
  1
φ315
  0
POINT
  5
7E23
  8
DEFPOINTS
  6
CONTINUOUS
 62
     0
 10
2553.2073811589271
 20
1700.522432919998
 30
0.0
  0
POINT
  5
7E24
  8
DEFPOINTS
  6
CONTINUOUS
 62
     0
 10
2553.2073811589271
 20
1385.522432919998
 30
0.0
  0
POINT
  5
7E25
  8
DEFPOINTS
  6
CONTINUOUS
 62
     0
 10
2665.0581081589271
 20
1385.522432919998
 30
0.0
  0
ENDBLK
  5
7CB4
  8
0
  0
BLOCK
  8
0
  2
*D13
 70
     1
 10
0.0
 20
0.0
 30
0.0
  3
*D13
  1

  0
LINE
  5
7E26
  8
3
 62
     0
 10
941.03223543813783
 20
1793.022432919998
 30
0.0
 11
591.63225663485207
 21
1793.022432919998
 31
0.0
  0
LINE
  5
7E27
  8
3
 62
     0
 10
663.37480343813775
 20
1543.022432919998
 30
0.0
 11
591.63225663485196
 21
1543.022432919998
 31
0.0
  0
LINE
  5
7E28
  8
3
 62
     0
 10
606.63225663485196
 20
1823.022432919998
 30
0.0
 11
606.63225663485196
 21
1853.022432919998
 31
0.0
  0
LINE
  5
7E29
  8
3
 62
     0
 10
606.63225663485196
 20
1513.022432919998
 30
0.0
 11
606.63225663485196
 21
1483.022432919998
 31
0.0
  0
LINE
  5
7E2A
  8
3
 62
     0
 10
606.63225663485196
 20
1793.022432919998
 30
0.0
 11
606.63225663485196
 21
1543.022432919998
 31
0.0
  0
INSERT
  5
7E2B
  8
3
 62
     0
  2
_OPEN
 10
606.63225663485196
 20
1793.022432919998
 30
0.0
 41
30.0
 42
30.0
 43
30.0
 50
270.0
  0
INSERT
  5
7E2C
  8
3
 62
     0
  2
_OPEN
 10
606.63225663485196
 20
1543.022432919998
 30
0.0
 41
30.0
 42
30.0
 43
30.0
 50
90.0
  0
TEXT
  8
3
  40
45
  5
7E63
  62
0
  72
0
  71
0
 10
479.132
 20
1566.23
 30
0.000000
  1
250
  0
POINT
  5
7E2E
  8
DEFPOINTS
 62
     0
 10
948.53223543813795
 20
1793.022432919998
 30
0.0
  0
POINT
  5
7E2F
  8
DEFPOINTS
 62
     0
 10
670.87480343813775
 20
1543.022432919998
 30
0.0
  0
POINT
  5
7E30
  8
DEFPOINTS
 62
     0
 10
606.63225663485196
 20
1543.022432919998
 30
0.0
  0
ENDBLK
  5
7C65
  8
0
  0
BLOCK
  8
0
  2
*D14
 70
     1
 10
0.0
 20
0.0
 30
0.0
  3
*D14
  1

  0
LINE
  5
7E31
  8
3
 62
     0
 10
727.53223543813783
 20
1143.022432919998
 30
0.0
 11
591.63225663485173
 21
1143.022432919998
 31
0.0
  0
LINE
  5
7E32
  8
3
 62
     0
 10
606.63225663485184
 20
1513.022432919998
 30
0.0
 11
606.63225663485173
 21
1173.022432919998
 31
0.0
  0
INSERT
  5
7E33
  8
3
 62
     0
  2
_OPEN
 10
606.63225663485184
 20
1543.022432919998
 30
0.0
 41
30.0
 42
30.0
 43
30.0
 50
90.0
  0
INSERT
  5
7E34
  8
3
 62
     0
  2
_OPEN
 10
606.63225663485173
 20
1143.022432919998
 30
0.0
 41
30.0
 42
30.0
 43
30.0
 50
270.0
  0
TEXT
  8
3
  40
45
  5
7E64
  62
0
  72
0
  71
0
 10
479.132
 20
1263.37
 30
0.000000
  1
400
  0
POINT
  5
7E36
  8
DEFPOINTS
 62
     0
 10
670.87480343813775
 20
1543.022432919998
 30
0.0
  0
POINT
  5
7E37
  8
DEFPOINTS
 62
     0
 10
735.03223543813783
 20
1143.022432919998
 30
0.0
  0
POINT
  5
7E38
  8
DEFPOINTS
 62
     0
 10
606.63225663485173
 20
1143.022432919998
 30
0.0
  0
ENDBLK
  5
7C71
  8
0
  0
BLOCK
  8
0
  2
*D15
 70
     1
 10
0.0
 20
0.0
 30
0.0
  3
*D15
  1

  0
LINE
  5
7E39
  8
3
 62
     0
 10
727.53223543813783
 20
1143.022432919998
 30
0.0
 11
591.63225663485173
 21
1143.022432919998
 31
0.0
  0
LINE
  5
7E3A
  8
3
 62
     0
 10
697.53223543813783
 20
1091.022432919998
 30
0.0
 11
591.63225663485173
 21
1091.022432919998
 31
0.0
  0
LINE
  5
7E3B
  8
3
 62
     0
 10
606.63225663485173
 20
1173.022432919998
 30
0.0
 11
606.63225663485173
 21
1203.022432919998
 31
0.0
  0
LINE
  5
7E3C
  8
3
 62
     0
 10
606.63225663485173
 20
1061.022432919998
 30
0.0
 11
606.63225663485173
 21
928.16529006285555
 31
0.0
  0
LINE
  5
7E3D
  8
3
 62
     0
 10
606.63225663485173
 20
1143.022432919998
 30
0.0
 11
606.63225663485173
 21
1091.022432919998
 31
0.0
  0
INSERT
  5
7E3E
  8
3
 62
     0
  2
_OPEN
 10
606.63225663485173
 20
1143.022432919998
 30
0.0
 41
30.0
 42
30.0
 43
30.0
 50
270.0
  0
INSERT
  5
7E3F
  8
3
 62
     0
  2
_OPEN
 10
606.63225663485173
 20
1091.022432919998
 30
0.0
 41
30.0
 42
30.0
 43
30.0
 50
90.0
  0
TEXT
  8
3
  40
45
  5
7E65
  62
0
  72
0
  71
0
 10
479.132
 20
899.944
 30
0.000000
  1
52
  0
POINT
  5
7E41
  8
DEFPOINTS
 62
     0
 10
735.03223543813783
 20
1143.022432919998
 30
0.0
  0
POINT
  5
7E42
  8
DEFPOINTS
 62
     0
 10
705.03223543813783
 20
1091.022432919998
 30
0.0
  0
POINT
  5
7E43
  8
DEFPOINTS
 62
     0
 10
606.63225663485173
 20
1091.022432919998
 30
0.0
  0
ENDBLK
  5
7C8F
  8
0
  0
BLOCK
  8
0
  2
*D16
 70
     1
 10
0.0
 20
0.0
 30
0.0
  3
*D16
  1

  0
LINE
  5
7E44
  8
3
 62
     0
 10
933.53223543813795
 20
1793.022432919998
 30
0.0
 11
484.99349387584169
 21
1793.022432919998
 31
0.0
  0
LINE
  5
7E45
  8
3
 62
     0
 10
697.53223543813783
 20
1091.022432919998
 30
0.0
 11
484.99349387584158
 21
1091.022432919998
 31
0.0
  0
LINE
  5
7E46
  8
3
 62
     0
 10
499.99349387584181
 20
1763.022432919998
 30
0.0
 11
499.99349387584158
 21
1121.022432919998
 31
0.0
  0
INSERT
  5
7E47
  8
3
 62
     0
  2
_OPEN
 10
499.99349387584181
 20
1793.022432919998
 30
0.0
 41
30.0
 42
30.0
 43
30.0
 50
90.0
  0
INSERT
  5
7E48
  8
3
 62
     0
  2
_OPEN
 10
499.99349387584158
 20
1091.022432919998
 30
0.0
 41
30.0
 42
30.0
 43
30.0
 50
270.0
  0
TEXT
  8
3
  40
45
  5
7E66
  62
0
  72
0
  71
0
 10
372.493
 20
1352.98
 30
0.000000
  1
702
  0
POINT
  5
7E4A
  8
DEFPOINTS
 62
     0
 10
941.03223543813783
 20
1793.022432919998
 30
0.0
  0
POINT
  5
7E4B
  8
DEFPOINTS
 62
     0
 10
705.03223543813783
 20
1091.022432919998
 30
0.0
  0
POINT
  5
7E4C
  8
DEFPOINTS
 62
     0
 10
499.99349387584158
 20
1091.022432919998
 30
0.0
  0
ENDBLK
  5
7C9B
  8
0
  0
BLOCK
  8
0
  2
*D17
 70
     1
 10
0.0
 20
0.0
 30
0.0
  3
*D17
  1

  0
LINE
  5
7E4D
  8
3
 62
     0
 10
737.78704943813807
 20
1558.022432919998
 30
0.0
 11
737.78704943813807
 21
2049.3367105853681
 31
0.0
  0
LINE
  5
7E4E
  8
3
 62
     0
 10
1615.0322354381381
 20
1128.522432919998
 30
0.0
 11
1615.0322354381381
 21
2049.3367105853681
 31
0.0
  0
LINE
  5
7E4F
  8
3
 62
     0
 10
767.78704943813807
 20
2034.3367105853681
 30
0.0
 11
1585.0322354381381
 21
2034.3367105853681
 31
0.0
  0
INSERT
  5
7E50
  8
3
 62
     0
  2
_OPEN
 10
737.78704943813807
 20
2034.3367105853681
 30
0.0
 41
30.0
 42
30.0
 43
30.0
 50
180.0
  0
INSERT
  5
7E51
  8
3
 62
     0
  2
_OPEN
 10
1615.0322354381381
 20
2034.3367105853681
 30
0.0
 41
30.0
 42
30.0
 43
30.0
  0
TEXT
  8
3
  40
45
  5
7E67
  62
0
  72
0
  71
0
 10
1075.52
 20
1992.19
 30
0.000000
  1
877
  0
POINT
  5
7E53
  8
DEFPOINTS
 62
     0
 10
737.78704943813807
 20
1550.522432919998
 30
0.0
  0
POINT
  5
7E54
  8
DEFPOINTS
 62
     0
 10
1615.0322354381381
 20
1121.022432919998
 30
0.0
  0
POINT
  5
7E55
  8
DEFPOINTS
 62
     0
 10
1615.0322354381381
 20
2034.3367105853681
 30
0.0
  0
ENDBLK
  5
7CA8
  8
0
  0
ENDSEC
  0
SECTION
  2
ENTITIES
  0
LINE
  5
7A8D
  8
1
  6
CONTINUOUS
 10
1419.5322354381381
 20
1274.522432919998
 30
0.0
 11
944.3322354381379
 21
1484.9224329199981
 31
0.0
  0
LINE
  5
7A8E
  8
1
  6
CONTINUOUS
 10
1464.4322354381379
 20
1370.6224329199979
 30
0.0
 11
998.03223543813783
 21
1600.022432919998
 31
0.0
  0
LINE
  5
7A8F
  8
1
  6
CONTINUOUS
 10
1000.032235438137
 20
1773.022432919998
 30
0.0
 11
1255.0322354381381
 21
1773.022432919998
 31
0.0
  0
ARC
  5
7A90
  8
1
  6
CONTINUOUS
 10
995.53223543813783
 20
1568.522432919998
 30
0.0
 40
299.5
 50
259.39999999999992
 51
0.0
  0
LINE
  5
7A91
  8
1
  6
CONTINUOUS
 10
1000.032235438137
 20
1773.022432919998
 30
0.0
 11
1255.0322354381381
 21
1773.022432919998
 31
0.0
  0
LINE
  5
7A92
  8
1
  6
CONTINUOUS
 10
768.03223543813795
 20
3122.4506687409262
 30
0.0
 11
1285.0322354381381
 21
3122.4506687409262
 31
0.0
  0
LINE
  5
7A93
  8
1
  6
CONTINUOUS
 10
1285.0322354381381
 20
2898.4506687409262
 30
0.0
 11
768.03223543813795
 21
2898.4506687409262
 31
0.0
  0
LINE
  5
7A94
  8
1
  6
CONTINUOUS
 10
1285.0322354381381
 20
2898.4506687409262
 30
0.0
 11
970.03223543813806
 21
3122.4506687409262
 31
0.0
  0
LINE
  5
7A95
  8
1
  6
CONTINUOUS
 10
1285.0322354381381
 20
3122.4506687409262
 30
0.0
 11
970.03223543813806
 21
2898.4506687409262
 31
0.0
  0
LINE
  5
7A96
  8
1
  6
CONTINUOUS
 10
948.53223543813795
 20
1793.022432919998
 30
0.0
 11
1306.5322354381381
 21
1793.022432919998
 31
0.0
  0
LINE
  5
7A97
  8
1
  6
CONTINUOUS
 10
1585.0322354381381
 20
1213.022432919998
 30
0.0
 11
735.03223543813783
 21
1213.022432919998
 31
0.0
  0
LINE
  5
7A98
  8
1
  6
CONTINUOUS
 10
1585.0322354381381
 20
1143.022432919998
 30
0.0
 11
735.03223543813783
 21
1143.022432919998
 31
0.0
  0
LINE
  5
7A99
  8
1
  6
CONTINUOUS
 10
1025.5322354381369
 20
1773.022432919998
 30
0.0
 11
1555.5322354381381
 21
1423.022432919998
 31
0.0
  0
LINE
  5
7A9A
  8
1
  6
CONTINUOUS
 10
1429.0322354381381
 20
2695.4506687409262
 30
0.0
 11
982.03223543813795
 21
2695.4506687409262
 31
0.0
  0
LINE
  5
7A9B
  8
1
  6
CONTINUOUS
 10
1555.5322354381381
 20
2590.4506687409262
 30
0.0
 11
825.53223543813783
 21
2590.4506687409262
 31
0.0
  0
LINE
  5
7A9C
  8
1
  6
CONTINUOUS
 10
1555.5322354381381
 20
2675.4506687409262
 30
0.0
 11
825.53223543813783
 21
2675.4506687409262
 31
0.0
  0
LINE
  5
7A9D
  8
1
  6
CONTINUOUS
 10
1615.0322354381381
 20
1091.022432919998
 30
0.0
 11
705.03223543813783
 21
1091.022432919998
 31
0.0
  0
LINE
  5
7A9E
  8
1
  6
CONTINUOUS
 10
1615.0322354381381
 20
1121.022432919998
 30
0.0
 11
705.03223543813783
 21
1121.022432919998
 31
0.0
  0
ARC
  5
7A9F
  8
1
  6
CONTINUOUS
 10
952.03223543813772
 20
1525.022432919998
 30
0.0
 40
215.0
 50
98.599999999999994
 51
190.59999999999999
  0
ARC
  5
7AA0
  8
1
  6
CONTINUOUS
 10
991.03223543813783
 20
1522.022432919998
 30
0.0
 40
253.0
 50
188.1999999999999
 51
258.39999999999992
  0
LINE
  5
7AA1
  8
1
  6
CONTINUOUS
 10
1175.0322354381369
 20
1506.522432919998
 30
0.0
 11
765.03223543813783
 21
1506.522432919998
 31
0.0
  0
LINE
  5
7AA2
  8
1
  6
CONTINUOUS
 10
877.73223543813799
 20
1723.022432919998
 30
0.0
 11
765.03223543813783
 21
1628.4224329199981
 31
0.0
  0
LINE
  5
7AA3
  8
1
  6
CONTINUOUS
 10
765.03223543813783
 20
1213.022432919998
 30
0.0
 11
765.03223543813783
 21
1628.4224329199981
 31
0.0
  0
LINE
  5
7AA4
  8
1
  6
CONTINUOUS
 10
705.03223543813783
 20
1091.022432919998
 30
0.0
 11
705.03223543813783
 21
1121.022432919998
 31
0.0
  0
LINE
  5
7AA5
  8
1
  6
CONTINUOUS
 10
735.03223543813783
 20
1213.022432919998
 30
0.0
 11
735.03223543813783
 21
1143.022432919998
 31
0.0
  0
CIRCLE
  5
7AA6
  8
1
  6
CONTINUOUS
 10
970.03223543813795
 20
1543.022432919998
 30
0.0
 40
157.5
  0
CIRCLE
  5
7AA7
  8
1
  6
CONTINUOUS
 10
970.03223543813795
 20
1543.022432919998
 30
0.0
 40
182.5
  0
LINE
  5
7AA8
  8
1
  6
CONTINUOUS
 10
1175.0322354381369
 20
1213.022432919998
 30
0.0
 11
1175.0322354381369
 21
1628.4224329199981
 31
0.0
  0
LINE
  5
7AA9
  8
1
  6
CONTINUOUS
 10
825.53223543813783
 20
1643.022432919998
 30
0.0
 11
825.53223543813783
 21
1203.522432919998
 31
0.0
  0
LINE
  5
7AAA
  8
2
  6
CENTER
 10
2578.9206840793941
 20
1543.022432919998
 30
0.0
 11
2015.1119837721801
 21
1543.022432919998
 31
0.0
  0
LINE
  5
7AAB
  8
1
  6
CONTINUOUS
 10
1062.332235438138
 20
1723.022432919998
 30
0.0
 11
877.73223543813799
 21
1723.022432919998
 31
0.0
  0
CIRCLE
  5
7AAC
  8
1
  6
CONTINUOUS
 10
970.03223543813795
 20
1543.022432919998
 30
0.0
 40
63.5
  0
LINE
  5
7AAD
  8
1
  6
CONTINUOUS
 10
825.53223543813783
 20
1643.022432919998
 30
0.0
 11
1025.5322354381369
 21
1773.022432919998
 31
0.0
  0
LINE
  5
7AAE
  8
1
  6
CONTINUOUS
 10
980.03223543813783
 20
1793.022432919998
 30
0.0
 11
1000.032235438137
 21
1773.022432919998
 31
0.0
  0
LINE
  5
7AAF
  8
2
  6
CENTER
 10
970.03223543813795
 20
1044.932362919998
 30
0.0
 11
970.03223543813795
 21
1835.416387919998
 31
0.0
  0
ARC
  5
7AB0
  8
1
  6
CONTINUOUS
 10
893.03223543813772
 20
1811.022432919998
 30
0.0
 40
78.0
 50
288.80000000000001
 51
331.0
  0
LINE
  5
7AB1
  8
1
  6
CONTINUOUS
 10
961.1322354381382
 20
1773.022432919998
 30
0.0
 11
970.03223543813795
 21
1773.022432919998
 31
0.0
  0
LINE
  5
7AB2
  8
1
  6
CONTINUOUS
 10
970.03223543813795
 20
1773.022432919998
 30
0.0
 11
970.03223543813795
 21
1793.022432919998
 31
0.0
  0
LINE
  5
7AB3
  8
1
  6
CONTINUOUS
 10
1062.332235438138
 20
1723.022432919998
 30
0.0
 11
1175.0322354381369
 21
1628.4224329199981
 31
0.0
  0
LINE
  5
7AB4
  8
1
  6
CONTINUOUS
 10
765.03223543813795
 20
2888.6506687409251
 30
0.0
 11
1175.0322354381369
 21
2888.6506687409251
 31
0.0
  0
LINE
  5
7AB5
  8
1
  6
CONTINUOUS
 10
958.03223543813795
 20
2695.4506687409262
 30
0.0
 11
705.03223543813795
 21
2695.4506687409262
 31
0.0
  0
LINE
  5
7AB6
  8
1
  6
CONTINUOUS
 10
958.03223543813795
 20
2725.4506687409262
 30
0.0
 11
765.03223543813795
 21
2725.4506687409262
 31
0.0
  0
LINE
  5
7AB7
  8
1
  6
CONTINUOUS
 10
748.03223543813795
 20
3102.4506687409262
 30
0.0
 11
748.03223543813795
 21
2918.4506687409262
 31
0.0
  0
LINE
  5
7AB8
  8
1
  6
CONTINUOUS
 10
705.03223543813795
 20
2695.4506687409262
 30
0.0
 11
705.03223543813795
 21
3010.4506687409262
 31
0.0
  0
ARC
  5
7AB9
  8
1
  6
CONTINUOUS
 10
768.03223543813795
 20
2918.4506687409262
 30
0.0
 40
20.0
 50
180.0
 51
270.0
  0
LINE
  5
7ABA
  8
1
  6
CONTINUOUS
 10
705.03223543813795
 20
3010.4506687409262
 30
0.0
 11
748.03223543813795
 21
3010.4506687409262
 31
0.0
  0
LINE
  5
7ABB
  8
1
  6
CONTINUOUS
 10
765.03223543813795
 20
2725.4506687409262
 30
0.0
 11
765.03223543813795
 21
2888.6506687409251
 31
0.0
  0
ARC
  5
7ABC
  8
1
  6
CONTINUOUS
 10
768.03223543813795
 20
3102.4506687409262
 30
0.0
 40
20.0
 50
90.0
 51
180.0
  0
LINE
  5
7ABD
  8
1
  6
CONTINUOUS
 10
970.03223543813806
 20
3122.4506687409262
 30
0.0
 11
970.03223543813806
 21
2898.4506687409262
 31
0.0
  0
LINE
  5
7ABE
  8
1
  6
CONTINUOUS
 10
1152.5322354381369
 20
2888.4506687409262
 30
0.0
 11
787.53223543813795
 21
2888.4506687409262
 31
0.0
  0
LINE
  5
7ABF
  8
1
  6
CONTINUOUS
 10
906.53223543813795
 20
2651.9506687409262
 30
0.0
 11
1033.5322354381381
 21
2651.9506687409262
 31
0.0
  0
LINE
  5
7AC0
  8
1
  6
CONTINUOUS
 10
1033.5322354381381
 20
2616.9506687409262
 30
0.0
 11
906.53223543813795
 21
2616.9506687409262
 31
0.0
  0
LINE
  5
7AC1
  8
1
  6
CONTINUOUS
 10
1175.0322354381369
 20
2725.4506687409262
 30
0.0
 11
982.03223543813795
 21
2725.4506687409262
 31
0.0
  0
LINE
  5
7AC2
  8
1
  6
CONTINUOUS
 10
982.03223543813795
 20
2888.6506687409251
 30
0.0
 11
982.03223543813795
 21
2651.9506687409262
 31
0.0
  0
LINE
  5
7AC3
  8
1
  6
CONTINUOUS
 10
958.03223543813795
 20
2888.6506687409251
 30
0.0
 11
958.03223543813795
 21
2651.9506687409262
 31
0.0
  0
LINE
  5
7AC4
  8
1
  6
CONTINUOUS
 10
825.53223543813783
 20
2675.4506687409262
 30
0.0
 11
825.53223543813783
 21
2590.4506687409262
 31
0.0
  0
LINE
  5
7AC5
  8
1
  6
CONTINUOUS
 10
906.53223543813795
 20
2616.9506687409262
 30
0.0
 11
906.53223543813795
 21
2651.9506687409262
 31
0.0
  0
LINE
  5
7AC6
  8
1
  6
CONTINUOUS
 10
787.53223543813795
 20
2888.4506687409262
 30
0.0
 11
787.53223543813795
 21
2898.4506687409262
 31
0.0
  0
LINE
  5
7AC7
  8
1
  6
CONTINUOUS
 10
1033.5322354381381
 20
2651.9506687409262
 30
0.0
 11
1033.5322354381381
 21
2616.9506687409262
 31
0.0
  0
LINE
  5
7AC8
  8
1
  6
CONTINUOUS
 10
1152.5322354381369
 20
2888.4506687409262
 30
0.0
 11
1152.5322354381369
 21
2898.4506687409262
 31
0.0
  0
LINE
  5
7AC9
  8
1
  6
CONTINUOUS
 10
1175.0322354381369
 20
2725.4506687409262
 30
0.0
 11
1175.0322354381369
 21
2888.6506687409251
 31
0.0
  0
LINE
  5
7ACA
  8
1
  6
CONTINUOUS
 10
787.53223543813795
 20
3131.4506687409262
 30
0.0
 11
1152.5322354381369
 21
3131.4506687409262
 31
0.0
  0
LINE
  5
7ACB
  8
1
  6
CONTINUOUS
 10
787.53223543813795
 20
3131.4506687409262
 30
0.0
 11
787.53223543813795
 21
3122.4506687409262
 31
0.0
  0
LINE
  5
7ACC
  8
1
  6
CONTINUOUS
 10
1152.5322354381369
 20
3131.4506687409262
 30
0.0
 11
1152.5322354381369
 21
3122.4506687409262
 31
0.0
  0
ARC
  5
7ACD
  8
1
  6
CONTINUOUS
 10
1441.0322354381381
 20
1323.022432919998
 30
0.0
 40
101.0
 50
322.89999999999992
 51
217.09999999999991
  0
LINE
  5
7ACE
  8
1
  6
CONTINUOUS
 10
1555.5322354381381
 20
1423.022432919998
 30
0.0
 11
1555.5322354381381
 21
1213.022432919998
 31
0.0
  0
LINE
  5
7ACF
  8
1
  6
CONTINUOUS
 10
1555.0322354381381
 20
1233.022432919998
 30
0.0
 11
1240.0322354381381
 21
1233.022432919998
 31
0.0
  0
CIRCLE
  5
7AD0
  8
1
  6
CONTINUOUS
 10
1441.0322354381381
 20
1323.022432919998
 30
0.0
 40
53.0
  0
LINE
  5
7AD1
  8
2
  6
CENTER
 10
1494.0322354381381
 20
1323.022432919998
 30
0.0
 11
1388.0322354381381
 21
1323.022432919998
 31
0.0
  0
LINE
  5
7AD2
  8
1
  6
CONTINUOUS
 10
1240.0322354381381
 20
1213.022432919998
 30
0.0
 11
1240.0322354381381
 21
1233.022432919998
 31
0.0
  0
LINE
  5
7AD3
  8
1
  6
CONTINUOUS
 10
1349.132235438138
 20
1233.022432919998
 30
0.0
 11
1360.5322354381381
 21
1262.022432919998
 31
0.0
  0
LINE
  5
7AD4
  8
1
  6
CONTINUOUS
 10
1615.0322354381381
 20
1091.022432919998
 30
0.0
 11
1615.0322354381381
 21
1121.022432919998
 31
0.0
  0
LINE
  5
7AD5
  8
2
  6
CENTER
 10
1441.0322354381381
 20
1270.022432919998
 30
0.0
 11
1441.0322354381381
 21
1376.022432919998
 31
0.0
  0
LINE
  5
7AD6
  8
1
  6
CONTINUOUS
 10
1532.9322354381379
 20
1233.022432919998
 30
0.0
 11
1521.5322354381381
 21
1262.022432919998
 31
0.0
  0
LINE
  5
7AD7
  8
1
  6
CONTINUOUS
 10
1585.0322354381381
 20
1213.022432919998
 30
0.0
 11
1585.0322354381381
 21
1143.022432919998
 31
0.0
  0
LINE
  5
7AD8
  8
1
  6
CONTINUOUS
 10
1555.0322354381381
 20
1213.022432919998
 30
0.0
 11
1555.0322354381381
 21
1233.022432919998
 31
0.0
  0
LINE
  5
7AD9
  8
1
  6
CONTINUOUS
 10
1295.0322354381381
 20
1773.022432919998
 30
0.0
 11
1295.0322354381381
 21
1568.522432919998
 31
0.0
  0
LINE
  5
7ADA
  8
1
  6
CONTINUOUS
 10
1285.0322354381381
 20
1773.022432919998
 30
0.0
 11
1295.0322354381381
 21
1773.022432919998
 31
0.0
  0
LINE
  5
7ADB
  8
1
  6
CONTINUOUS
 10
1285.0322354381381
 20
1793.022432919998
 30
0.0
 11
1285.0322354381381
 21
1773.022432919998
 31
0.0
  0
LINE
  5
7ADC
  8
1
  6
CONTINUOUS
 10
1275.0322354381381
 20
1793.022432919998
 30
0.0
 11
1255.0322354381381
 21
1773.022432919998
 31
0.0
  0
LINE
  5
7ADD
  8
1
  6
CONTINUOUS
 10
1285.0322354381381
 20
3122.4506687409262
 30
0.0
 11
1285.0322354381381
 21
2898.4506687409262
 31
0.0
  0
LINE
  5
7ADE
  8
1
  6
CONTINUOUS
 10
1285.0322354381381
 20
3010.4506687409262
 30
0.0
 11
1615.0322354381381
 21
3010.4506687409262
 31
0.0
  0
LINE
  5
7ADF
  8
1
  6
CONTINUOUS
 10
1340.0322354381381
 20
2711.9506687409262
 30
0.0
 11
1531.0322354381381
 21
2711.9506687409262
 31
0.0
  0
LINE
  5
7AE0
  8
1
  6
CONTINUOUS
 10
1340.0322354381381
 20
2983.9506687409262
 30
0.0
 11
1531.0322354381381
 21
2983.9506687409262
 31
0.0
  0
LINE
  5
7AE1
  8
1
  6
CONTINUOUS
 10
1504.5322354381381
 20
2616.9506687409262
 30
0.0
 11
1377.5322354381381
 21
2616.9506687409262
 31
0.0
  0
LINE
  5
7AE2
  8
1
  6
CONTINUOUS
 10
1377.5322354381381
 20
2651.9506687409262
 30
0.0
 11
1504.5322354381381
 21
2651.9506687409262
 31
0.0
  0
LINE
  5
7AE3
  8
1
  6
CONTINUOUS
 10
1340.0322354381381
 20
2711.9506687409262
 30
0.0
 11
1340.0322354381381
 21
2983.9506687409262
 31
0.0
  0
LINE
  5
7AE4
  8
1
  6
CONTINUOUS
 10
1377.5322354381381
 20
2616.9506687409262
 30
0.0
 11
1377.5322354381381
 21
2651.9506687409262
 31
0.0
  0
LINE
  5
7AE5
  8
1
  6
CONTINUOUS
 10
1531.0322354381381
 20
2983.9506687409262
 30
0.0
 11
1531.0322354381381
 21
2711.9506687409262
 31
0.0
  0
LINE
  5
7AE6
  8
1
  6
CONTINUOUS
 10
1615.0322354381381
 20
2695.4506687409262
 30
0.0
 11
1615.0322354381381
 21
3010.4506687409262
 31
0.0
  0
LINE
  5
7AE7
  8
1
  6
CONTINUOUS
 10
1615.0322354381381
 20
2695.4506687409262
 30
0.0
 11
1453.0322354381381
 21
2695.4506687409262
 31
0.0
  0
LINE
  5
7AE8
  8
1
  6
CONTINUOUS
 10
1429.0322354381381
 20
2651.9506687409262
 30
0.0
 11
1429.0322354381381
 21
2711.9506687409262
 31
0.0
  0
LINE
  5
7AE9
  8
1
  6
CONTINUOUS
 10
1453.0322354381381
 20
2651.9506687409262
 30
0.0
 11
1453.0322354381381
 21
2711.9506687409262
 31
0.0
  0
LINE
  5
7AEA
  8
1
  6
CONTINUOUS
 10
1429.0322354381381
 20
2616.9506687409262
 30
0.0
 11
1453.0322354381381
 21
2616.9506687409262
 31
0.0
  0
LINE
  5
7AEB
  8
1
  6
CONTINUOUS
 10
1504.5322354381381
 20
2651.9506687409262
 30
0.0
 11
1504.5322354381381
 21
2616.9506687409262
 31
0.0
  0
LINE
  5
7AEC
  8
1
  6
CONTINUOUS
 10
1555.5322354381381
 20
2675.4506687409262
 30
0.0
 11
1555.5322354381381
 21
2590.4506687409262
 31
0.0
  0
LINE
  5
7AED
  8
1
  6
CONTINUOUS
 10
2072.2073811589271
 20
1530.6224329199979
 30
0.0
 11
2180.807381158927
 21
1530.6224329199979
 31
0.0
  0
LINE
  5
7AEE
  8
1
  6
CONTINUOUS
 10
2072.2073811589271
 20
1555.6224329199979
 30
0.0
 11
2213.2073811589271
 21
1555.6224329199979
 31
0.0
  0
LINE
  5
7AEF
  8
1
  6
CONTINUOUS
 10
2072.2073811589271
 20
1335.1224329199979
 30
0.0
 11
2146.2073811589271
 21
1335.1224329199979
 31
0.0
  0
LINE
  5
7AF0
  8
1
  6
CONTINUOUS
 10
2072.2073811589271
 20
1311.1224329199979
 30
0.0
 11
2146.2073811589271
 21
1311.1224329199979
 31
0.0
  0
LINE
  5
7AF1
  8
1
  6
CONTINUOUS
 10
2097.2073811589271
 20
1213.1224329199979
 30
0.0
 11
2097.2073811589271
 21
1773.022432919998
 31
0.0
  0
LINE
  5
7AF2
  8
1
  6
CONTINUOUS
 10
2012.2073811589271
 20
1213.1224329199979
 30
0.0
 11
2012.2073811589271
 21
1773.022432919998
 31
0.0
  0
LINE
  5
7AF6
  8
1
  6
CONTINUOUS
 10
2037.2073811589271
 20
1386.6224329199979
 30
0.0
 11
2037.2073811589271
 21
1259.6224329199979
 31
0.0
  0
LINE
  5
7AF7
  8
1
  6
CONTINUOUS
 10
2072.2073811589271
 20
1386.6224329199979
 30
0.0
 11
2037.2073811589271
 21
1386.6224329199979
 31
0.0
  0
LINE
  5
7AF8
  8
1
  6
CONTINUOUS
 10
2072.2073811589271
 20
1259.6224329199979
 30
0.0
 11
2072.2073811589271
 21
1386.6224329199979
 31
0.0
  0
LINE
  5
7AF9
  8
1
  6
CONTINUOUS
 10
2037.2073811589271
 20
1259.6224329199979
 30
0.0
 11
2072.2073811589271
 21
1259.6224329199979
 31
0.0
  0
LINE
  5
7AFA
  8
1
  6
CONTINUOUS
 10
2012.2073811589271
 20
1213.1224329199979
 30
0.0
 11
2097.2073811589271
 21
1213.1224329199979
 31
0.0
  0
LINE
  5
7AFB
  8
1
  6
CONTINUOUS
 10
2037.2073811589271
 20
1479.6224329199979
 30
0.0
 11
2072.2073811589271
 21
1479.6224329199979
 31
0.0
  0
LINE
  5
7AFC
  8
1
  6
CONTINUOUS
 10
2072.2073811589271
 20
1479.6224329199979
 30
0.0
 11
2072.2073811589271
 21
1606.6224329199979
 31
0.0
  0
LINE
  5
7AFD
  8
1
  6
CONTINUOUS
 10
2072.2073811589271
 20
1606.6224329199979
 30
0.0
 11
2037.2073811589271
 21
1606.6224329199979
 31
0.0
  0
LINE
  5
7AFE
  8
1
  6
CONTINUOUS
 10
2037.2073811589271
 20
1606.6224329199979
 30
0.0
 11
2037.2073811589271
 21
1479.6224329199979
 31
0.0
  0
LINE
  5
7AFF
  8
1
  6
CONTINUOUS
 10
2012.2073811589271
 20
1773.022432919998
 30
0.0
 11
2097.2073811589271
 21
1773.022432919998
 31
0.0
  0
LINE
  5
7B00
  8
1
  6
CONTINUOUS
 10
2299.2073811589271
 20
1793.022432919998
 30
0.0
 11
2565.2073811589271
 21
1793.022432919998
 31
0.0
  0
LINE
  5
7B01
  8
1
  6
CONTINUOUS
 10
2553.2073811589271
 20
1360.522432919998
 30
0.0
 11
2544.2073811589271
 21
1360.522432919998
 31
0.0
  0
ARC
  5
7B02
  8
1
  6
CONTINUOUS
 10
2524.2073811589271
 20
1275.022432919998
 30
0.0
 40
20.0
 50
270.0
 51
0.0
  0
LINE
  5
7B03
  8
1
  6
CONTINUOUS
 10
2553.2073811589271
 20
1725.522432919998
 30
0.0
 11
2545.0073811589268
 21
1725.522432919998
 31
0.0
  0
LINE
  5
7B04
  8
1
  6
CONTINUOUS
 10
2146.2073811589271
 20
1504.022432919998
 30
0.0
 11
2146.2073811589271
 21
1213.022432919998
 31
0.0
  0
LINE
  5
7B05
  8
1
  6
CONTINUOUS
 10
2310.2073811589271
 20
1725.6224329199979
 30
0.0
 11
2310.2073811589271
 21
1213.022432919998
 31
0.0
  0
LINE
  5
7B06
  8
1
  6
CONTINUOUS
 10
2310.2073811589271
 20
1360.522432919998
 30
0.0
 11
2310.2073811589271
 21
1725.522432919998
 31
0.0
  0
LINE
  5
7B07
  8
1
  6
CONTINUOUS
 10
2320.2073811589271
 20
1275.022432919998
 30
0.0
 11
2320.2073811589271
 21
1793.022432919998
 31
0.0
  0
LINE
  5
7B08
  8
1
  6
CONTINUOUS
 10
2544.2073811589271
 20
1793.022432919998
 30
0.0
 11
2544.2073811589271
 21
1275.022432919998
 31
0.0
  0
LINE
  5
7B09
  8
1
  6
CONTINUOUS
 10
2117.2073811589271
 20
1091.022432919998
 30
0.0
 11
2432.2073811589271
 21
1091.022432919998
 31
0.0
  0
LINE
  5
7B0A
  8
1
  6
CONTINUOUS
 10
2117.2073811589271
 20
1121.022432919998
 30
0.0
 11
2432.2073811589271
 21
1121.022432919998
 31
0.0
  0
LINE
  5
7B0B
  8
1
  6
CONTINUOUS
 10
2117.0073811589268
 20
1143.022432919998
 30
0.0
 11
2432.0073811589268
 21
1143.022432919998
 31
0.0
  0
LINE
  5
7B0C
  8
1
  6
CONTINUOUS
 10
2432.0073811589268
 20
1213.022432919998
 30
0.0
 11
2117.0073811589268
 21
1213.022432919998
 31
0.0
  0
ARC
  5
7B0D
  8
1
  6
CONTINUOUS
 10
2340.2073811589271
 20
1275.022432919998
 30
0.0
 40
20.0
 50
180.0
 51
270.0
  0
LINE
  5
7B0E
  8
1
  6
CONTINUOUS
 10
2117.2073811589271
 20
1121.022432919998
 30
0.0
 11
2117.2073811589271
 21
1091.022432919998
 31
0.0
  0
LINE
  5
7B0F
  8
1
  6
CONTINUOUS
 10
2117.0073811589268
 20
1213.022432919998
 30
0.0
 11
2117.0073811589268
 21
1143.022432919998
 31
0.0
  0
LINE
  5
7B10
  8
1
  6
CONTINUOUS
 10
2310.2073811589271
 20
1360.522432919998
 30
0.0
 11
2319.4073811589269
 21
1360.522432919998
 31
0.0
  0
LINE
  5
7B11
  8
1
  6
CONTINUOUS
 10
2432.2073811589271
 20
1091.022432919998
 30
0.0
 11
2432.2073811589271
 21
1121.022432919998
 31
0.0
  0
LINE
  5
7B12
  8
1
  6
CONTINUOUS
 10
2340.2073811589271
 20
1255.022432919998
 30
0.0
 11
2524.2073811589271
 21
1255.022432919998
 31
0.0
  0
LINE
  5
7B13
  8
1
  6
CONTINUOUS
 10
2432.0073811589268
 20
1143.022432919998
 30
0.0
 11
2432.0073811589268
 21
1213.022432919998
 31
0.0
  0
LINE
  5
7B14
  8
1
  6
CONTINUOUS
 10
2310.2073811589271
 20
1630.222432919998
 30
0.0
 11
2146.2073811589271
 21
1504.022432919998
 31
0.0
  0
LINE
  5
7B15
  8
1
  6
CONTINUOUS
 10
2310.2073811589271
 20
1725.522432919998
 30
0.0
 11
2319.4073811589269
 21
1725.522432919998
 31
0.0
  0
LINE
  5
7B16
  8
1
  6
CONTINUOUS
 10
2349.2073811589271
 20
1773.022432919998
 30
0.0
 11
2515.2073811589271
 21
1773.022432919998
 31
0.0
  0
LINE
  5
7B17
  8
1
  6
CONTINUOUS
 10
2329.2073811589271
 20
1793.022432919998
 30
0.0
 11
2349.2073811589271
 21
1773.022432919998
 31
0.0
  0
LINE
  5
7B18
  8
1
  6
CONTINUOUS
 10
2535.2073811589271
 20
1793.022432919998
 30
0.0
 11
2515.2073811589271
 21
1773.022432919998
 31
0.0
  0
LINE
  5
7B19
  8
1
  6
CONTINUOUS
 10
2553.2073811589271
 20
1725.522432919998
 30
0.0
 11
2553.2073811589271
 21
1360.522432919998
 31
0.0
  0
LINE
  5
7B1A
  8
4
  6
CONTINUOUS
 10
2775.0
 20
750.0
 30
0.0
 11
2775.0
 21
450.0
 31
0.0
  0
LINE
  5
7B1B
  8
4
  6
CONTINUOUS
 10
1725.0
 20
750.0
 30
0.0
 11
1725.0
 21
450.0
 31
0.0
  0
LINE
  5
7B1C
  8
4
  6
CONTINUOUS
 10
975.0
 20
750.0
 30
0.0
 11
975.0
 21
450.0
 31
0.0
  0
LINE
  5
7B1F
  8
4
  6
CONTINUOUS
 10
975.0
 20
450.0
 30
0.0
 11
2775.0
 21
450.0
 31
0.0
  0
LINE
  5
7B20
  8
4
  6
CONTINUOUS
 10
975.0
 20
600.0
 30
0.0
 11
2775.0
 21
600.0
 31
0.0
  0
TEXT
  5
7B21
  8
4
  6
CONTINUOUS
 10
1032.753121
 20
647.31453899999985
 30
0.0
 40
75.0
  1
機器名称
  0
TEXT
  5
7B22
  8
4
  6
CONTINUOUS
 10
1029.387158999999
 20
482.46773499999989
 30
0.0
 40
75.0
  1
機器型番
  0
TEXT
  5
7B23
  8
4
  6
CONTINUOUS
 10
1766.518118
 20
633.85765300000003
 30
0.0
 40
65.0
  1
ミツヤニューマルチファン
  0
TEXT
  5
7B24
  8
4
  6
CONTINUOUS
 10
1779.9817430000001
 20
475.73937599999999
 30
0.0
 40
75.0
  1
NM#2-1
  0
TEXT
  5
7B26
  8
4
  6
CONTINUOUS
 10
1131.7443760000001
 20
3575.1432619999991
 30
0.0
 40
81.0
  1
床置防振ベット
  0
TEXT
  5
7B27
  8
4
  6
CONTINUOUS
 10
474.25139000000001
 20
3800.8214640000001
 30
0.0
 40
108.0
  1
ベルト駆動式片吸込片持多翼ファン
  0
LINE
  5
7B28
  8
4
  6
CONTINUOUS
 10
375.0
 20
3704.1131310000001
 30
0.0
 11
2775.0
 21
3704.1131310000001
 31
0.0
  0
LINE
  5
7B29
  8
4
  6
CONTINUOUS
 10
375.0
 20
4004.1131310000001
 30
0.0
 11
2775.0
 21
4004.1131310000001
 31
0.0
  0
LINE
  5
7B2A
  8
4
  6
CONTINUOUS
 10
975.0
 20
750.0
 30
0.0
 11
2775.0
 21
750.0
 31
0.0
  0
LINE
  5
7B2B
  8
4
  6
CONTINUOUS
 10
375.0
 20
4004.1131310000001
 30
0.0
 11
375.0
 21
3704.1131310000001
 31
0.0
  0
TEXT
  5
7B2C
  8
4
  6
CONTINUOUS
 10
477.95612799999998
 20
3573.4792159999988
 30
0.0
 40
81.0
  1
左回転上向
  0
TEXT
  5
7B2D
  8
4
  6
CONTINUOUS
 10
2203.454338999999
 20
4059.091621999999
 30
0.0
 40
84.0
  1
No.
  0
TEXT
  5
7B2E
  8
4
  6
CONTINUOUS
 10
1966.944094
 20
3575.1432619999991
 30
0.0
 40
81.0
  1
縮尺：1/15
  0
LINE
  5
7B2F
  8
4
  6
CONTINUOUS
 10
2775.0
 20
4004.1131310000001
 30
0.0
 11
2775.0
 21
3704.1131310000001
 31
0.0
  0
LINE
  5
7B31
  8
4
  6
CONTINUOUS
 10
2160.9261339999989
 20
4021.8953750000001
 30
0.0
 11
2160.9261339999989
 21
4179.978392
 31
0.0
  0
LINE
  5
7B32
  8
4
  6
CONTINUOUS
 10
2160.9261339999989
 20
4179.978392
 30
0.0
 11
2775.0
 21
4179.978392
 31
0.0
  0
LINE
  5
7B33
  8
4
  6
CONTINUOUS
 10
2775.0
 20
4179.978392
 30
0.0
 11
2775.0
 21
4021.8953750000001
 31
0.0
  0
LINE
  5
7B34
  8
4
  6
CONTINUOUS
 10
2775.0
 20
4021.8953750000001
 30
0.0
 11
2160.9261339999989
 21
4021.8953750000001
 31
0.0
  0
DIMENSION
  5
7B4C
  8
3
  6
CONTINUOUS
  2
*D1
 10
970.03223543813795
 20
985.78640491999829
 30
0.0
 11
839.42132643813773
 21
985.78640491999829
 31
0.0
 70
   128
 13
705.03223543813783
 23
1091.022432919998
 33
0.0
 14
970.03223543813795
 24
1044.932362919998
 34
0.0
1001
ACAD
1000
DSTYLE
1002
{
1070
   287
1070
     3
1070
   287
1070
     3
1070
    40
1040
15.0
1070
   143
1040
0.039
1070
   172
1070
     1
1070
   271
1070
     0
1070
   279
1070
     0
1070
   288
1070
     1
1002
}
  0
DIMENSION
  5
7B58
  8
3
  6
CONTINUOUS
  2
*D2
 10
1615.0322354381381
 20
985.78640491999829
 30
0.0
 11
1292.5322354381369
 21
1023.2864049199979
 31
0.0
 70
     0
 13
970.03223543813795
 23
1044.932362919998
 33
0.0
 14
1615.0322354381381
 24
1091.022432919998
 34
0.0
1001
ACAD
1000
DSTYLE
1002
{
1070
   287
1070
     4
1070
   287
1070
     4
1070
    40
1040
15.0
1070
    75
1070
     1
1070
   143
1040
0.039
1070
   172
1070
     1
1070
   271
1070
     0
1070
   279
1070
     1
1070
   288
1070
     1
1002
}
  0
DIMENSION
  5
7BB5
  8
3
  6
CONTINUOUS
  2
*D3
 10
1285.0322354381381
 20
1854.2920229199981
 30
0.0
 11
1128.177879438138
 21
1854.2920229199981
 31
0.0
 70
   128
 13
970.03223543813795
 23
1793.022432919998
 33
0.0
 14
1285.0322354381381
 24
1793.022432919998
 34
0.0
1001
ACAD
1000
DSTYLE
1002
{
1070
   287
1070
     3
1070
   287
1070
     3
1070
    40
1040
15.0
1070
   143
1040
0.039
1070
   172
1070
     1
1070
   271
1070
     0
1070
   279
1070
     0
1070
   288
1070
     1
1002
}
  0
DIMENSION
  5
7BC2
  8
3
  6
CONTINUOUS
  2
*D4
 10
970.03223543813795
 20
1943.709891919998
 30
0.0
 11
867.17509243813811
 21
1943.709891919998
 31
0.0
 70
   128
 13
737.78704943813807
 23
1543.022432919998
 33
0.0
 14
970.03223543813795
 24
1793.022432919998
 34
0.0
1001
ACAD
1000
DSTYLE
1002
{
1070
   287
1070
     3
1070
   287
1070
     3
1070
    40
1040
15.0
1070
   143
1040
0.039
1070
   172
1070
     1
1070
   271
1070
     0
1070
   279
1070
     0
1070
   288
1070
     1
1002
}
  0
DIMENSION
  5
7BCE
  8
3
  6
CONTINUOUS
  2
*D5
 10
1295.0322354381381
 20
1943.709891919998
 30
0.0
 11
1132.5322354381369
 21
1981.209891919998
 31
0.0
 70
     0
 13
970.03223543813795
 23
1793.022432919998
 33
0.0
 14
1295.0322354381381
 24
1773.022432919998
 34
0.0
1001
ACAD
1000
DSTYLE
1002
{
1070
   287
1070
     4
1070
   287
1070
     4
1070
    40
1040
15.0
1070
    75
1070
     1
1070
   143
1040
0.039
1070
   172
1070
     1
1070
   271
1070
     0
1070
   279
1070
     1
1070
   288
1070
     1
1002
}
  0
DIMENSION
  5
7BDB
  8
3
  6
CONTINUOUS
  2
*D6
 10
1615.0322354381381
 20
2486.5080997409259
 30
0.0
 11
1142.615708438138
 21
2486.5080997409259
 31
0.0
 70
   128
 13
705.03223543813795
 23
2695.4506687409262
 33
0.0
 14
1615.0322354381381
 24
2695.4506687409262
 34
0.0
1001
ACAD
1000
DSTYLE
1002
{
1070
   287
1070
     3
1070
   287
1070
     3
1070
    40
1040
15.0
1070
   143
1040
0.039
1070
   172
1070
     1
1070
   271
1070
     0
1070
   279
1070
     0
1070
   288
1070
     1
1002
}
  0
DIMENSION
  5
7BE8
  8
3
  6
CONTINUOUS
  2
*D7
 10
1743.2293064381381
 20
2695.4506687409262
 30
0.0
 11
1743.2293064381381
 21
2852.8329117409262
 31
0.0
 70
   128
 13
1615.0322354381381
 23
3010.4506687409262
 33
0.0
 14
1615.0322354381381
 24
2695.4506687409262
 34
0.0
 50
90.0
1001
ACAD
1000
DSTYLE
1002
{
1070
   287
1070
     3
1070
   287
1070
     3
1070
    40
1040
15.0
1070
   143
1040
0.039
1070
   172
1070
     1
1070
   271
1070
     0
1070
   279
1070
     0
1070
   288
1070
     1
1002
}
  0
LINE
  5
7BE9
  8
2
  6
CENTER
 10
707.60631643813804
 20
3010.4506687409262
 30
0.0
 11
1341.8577074381369
 21
3010.4506687409262
 31
0.0
  0
LINE
  5
7BEA
  8
2
  6
CENTER
 10
2432.2073811589271
 20
1835.863825287307
 30
0.0
 11
2432.2073811589271
 21
1060.7820409199981
 31
0.0
  0
DIMENSION
  5
7BF7
  8
3
  6
CONTINUOUS
  2
*D8
 10
2544.2073811589271
 20
1842.4672629199979
 30
0.0
 11
2424.135952158927
 21
1842.4672629199979
 31
0.0
 70
   128
 13
2320.2073811589271
 23
1793.022432919998
 33
0.0
 14
2544.2073811589271
 24
1793.022432919998
 34
0.0
1001
ACAD
1000
DSTYLE
1002
{
1070
   287
1070
     3
1070
   287
1070
     3
1070
    40
1040
15.0
1070
   143
1040
0.039
1070
   172
1070
     1
1070
   271
1070
     0
1070
   279
1070
     0
1070
   288
1070
     1
1002
}
  0
DIMENSION
  5
7C04
  8
3
  6
CONTINUOUS
  2
*D9
 10
2432.2073811589271
 20
1937.940994919998
 30
0.0
 11
2235.8248301589269
 21
1937.940994919998
 31
0.0
 70
   128
  1
MAX\P420
 13
2012.2073811589271
 23
1773.022432919998
 33
0.0
 14
2432.2073811589271
 24
1907.4849101497989
 34
0.0
1001
ACAD
1000
DSTYLE
1002
{
1070
   287
1070
     3
1070
   287
1070
     3
1070
    40
1040
15.0
1070
   143
1040
0.039
1070
   172
1070
     1
1070
   271
1070
     0
1070
   279
1070
     0
1070
   288
1070
     1
1002
}
  0
DIMENSION
  5
7C12
  8
3
  6
CONTINUOUS
  2
*D10
 10
2553.2073811589271
 20
1937.940994919998
 30
0.0
 11
2489.9305781589269
 21
1937.940994919998
 31
0.0
 70
   128
 13
2432.2073811589271
 23
1907.4849101497989
 33
0.0
 14
2553.2073811589271
 24
1725.522432919998
 34
0.0
1001
ACAD
1000
DSTYLE
1002
{
1070
   287
1070
     4
1070
   287
1070
     4
1070
    40
1040
15.0
1070
    75
1070
     1
1070
   143
1040
0.039
1070
   172
1070
     1
1070
   271
1070
     0
1070
   279
1070
     1
1070
   288
1070
     1
1002
}
  0
DIMENSION
  5
7C35
  8
3
  6
CONTINUOUS
  2
*D11
 10
2432.2073811589271
 20
991.84226791999822
 30
0.0
 11
2279.1382991589271
 21
991.84226791999822
 31
0.0
 70
   128
 13
2117.2073811589271
 23
1091.022432919998
 33
0.0
 14
2432.2073811589271
 24
1091.022432919998
 34
0.0
1001
ACAD
1000
DSTYLE
1002
{
1070
   287
1070
     3
1070
   287
1070
     3
1070
    40
1040
15.0
1070
   143
1040
0.039
1070
   172
1070
     1
1070
   271
1070
     0
1070
   279
1070
     0
1070
   288
1070
     1
1002
}
  0
LINE
  5
7C37
  8
3
  6
CONTINUOUS
 10
2553.2073811589271
 20
1385.522432919998
 30
0.0
 11
2567.4650141589268
 21
1385.522432919998
 31
0.0
  0
LINE
  5
7C39
  8
3
  6
CONTINUOUS
 10
2553.2073811589271
 20
1700.522432919998
 30
0.0
 11
2566.6200551589268
 21
1700.522432919998
 31
0.0
  0
DIMENSION
  5
7C46
  8
3
  6
CONTINUOUS
  2
*D12
 10
2665.0581081589271
 20
1385.522432919998
 30
0.0
 11
2665.0581081589271
 21
1539.394202919998
 31
0.0
 70
   128
 13
2553.2073811589271
 23
1700.522432919998
 33
0.0
 14
2553.2073811589271
 24
1385.522432919998
 34
0.0
 50
90.0
1001
ACAD
1000
DSTYLE
1002
{
1070
   287
1070
     3
1070
   287
1070
     3
1070
     3
1000
φ<>
1070
    40
1040
15.0
1070
   143
1040
0.039
1070
   172
1070
     1
1070
   271
1070
     0
1070
   279
1070
     0
1070
   288
1070
     1
1002
}
  0
LINE
  5
7C47
  8
2
  6
CENTER
 10
1464.097989438138
 20
1543.022432919998
 30
0.0
 11
670.87480343813775
 21
1543.022432919998
 31
0.0
  0
LINE
  5
7C48
  8
2
  6
CENTER
 10
970.03223543813806
 20
2569.25656626606
 30
0.0
 11
970.03223543813806
 21
3174.1931107409259
 31
0.0
  0
DIMENSION
  5
7C66
  8
3
  2
*D13
 10
606.63225663485196
 20
1543.022432919998
 30
0.0
 11
606.63225663485173
 21
1645.8795757771411
 31
0.0
 70
   128
 13
948.53223543813795
 23
1793.022432919998
 33
0.0
 14
670.87480343813775
 24
1543.022432919998
 34
0.0
 50
90.0
1001
ACAD
1000
DSTYLE
1002
{
1070
   287
1070
     3
1070
   287
1070
     3
1070
    40
1040
15.0
1070
   143
1040
0.039
1070
   172
1070
     1
1070
   271
1070
     0
1070
   279
1070
     0
1070
   288
1070
     1
1002
}
  0
DIMENSION
  5
7C72
  8
3
  2
*D14
 10
606.63225663485173
 20
1143.022432919998
 30
0.0
 11
569.13225663485161
 21
1343.022432919998
 31
0.0
 70
     0
 13
670.87480343813775
 23
1543.022432919998
 33
0.0
 14
735.03223543813783
 24
1143.022432919998
 34
0.0
 50
90.0
1001
ACAD
1000
DSTYLE
1002
{
1070
   287
1070
     4
1070
   287
1070
     4
1070
    40
1040
15.0
1070
    75
1070
     1
1070
   143
1040
0.039
1070
   172
1070
     1
1070
   271
1070
     0
1070
   279
1070
     1
1070
   288
1070
     1
1002
}
  0
DIMENSION
  5
7C82
  8
3
  2
*D15
 10
606.63225663485173
 20
1091.022432919998
 30
0.0
 11
569.13225663485161
 21
979.59386149142711
 31
0.0
 70
     0
 13
735.03223543813783
 23
1143.022432919998
 33
0.0
 14
705.03223543813783
 24
1091.022432919998
 34
0.0
 50
90.0
1001
ACAD
1000
DSTYLE
1002
{
1070
   287
1070
     3
1070
   287
1070
     3
1070
    40
1040
15.0
1070
   143
1040
0.039
1070
   172
1070
     1
1070
   271
1070
     0
1070
   279
1070
     0
1070
   288
1070
     1
1002
}
  0
DIMENSION
  5
7C9C
  8
3
  2
*D16
 10
499.99349387584158
 20
1091.022432919998
 30
0.0
 11
499.99349387584152
 21
1432.632062410197
 31
0.0
 70
   128
 13
941.03223543813783
 23
1793.022432919998
 33
0.0
 14
705.03223543813783
 24
1091.022432919998
 34
0.0
 50
90.0
1001
ACAD
1000
DSTYLE
1002
{
1070
   287
1070
     3
1070
   287
1070
     3
1070
    40
1040
15.0
1070
   143
1040
0.039
1070
   172
1070
     1
1070
   271
1070
     0
1070
   279
1070
     0
1070
   288
1070
     1
1002
}
  0
DIMENSION
  5
7CA9
  8
3
  2
*D17
 10
1615.0322354381381
 20
2034.3367105853681
 30
0.0
 11
1165.5227259901999
 21
2034.3367105853681
 31
0.0
 70
   128
 13
737.78704943813807
 23
1550.522432919998
 33
0.0
 14
1615.0322354381381
 24
1121.022432919998
 34
0.0
1001
ACAD
1000
DSTYLE
1002
{
1070
   287
1070
     3
1070
   287
1070
     3
1070
    40
1040
15.0
1070
   143
1040
0.039
1070
   172
1070
     1
1070
   271
1070
     0
1070
   279
1070
     0
1070
   288
1070
     1
1002
}
  0
ENDSEC
  0
EOF
