  0
SECTION
  2
HEADER
  9
$ACADVER
  1
AC1009
  9
$INSBASE
 10
0.0
 20
0.0
 30
0.0
  9
$EXTMIN
 10
375.0
 20
450.0
 30
0.0
  9
$EXTMAX
 10
2775.0
 20
4179.978392
 30
0.0
  9
$LIMMIN
 10
0.0
 20
0.0
  9
$LIMMAX
 10
297.0
 20
210.0
  9
$ORTHOMODE
 70
     0
  9
$REGENMODE
 70
     1
  9
$FILLMODE
 70
     0
  9
$QTEXTMODE
 70
     0
  9
$MIRRTEXT
 70
     1
  9
$DRAGMODE
 70
     2
  9
$LTSCALE
 40
100.0
  9
$OSMODE
 70
    37
  9
$ATTMODE
 70
     1
  9
$TEXTSIZE
 40
180.0
  9
$TRACEWID
 40
0.05
  9
$TEXTSTYLE
  7
STANDARD
  9
$CLAYER
  8
3
  9
$CELTYPE
  6
BYLAYER
  9
$CECOLOR
 62
   256
  9
$DIMSCALE
 40
15.0
  9
$DIMASZ
 40
2.0
  9
$DIMEXO
 40
0.5
  9
$DIMDLI
 40
10.0
  9
$DIMRND
 40
0.0
  9
$DIMDLE
 40
0.0
  9
$DIMEXE
 40
1.0
  9
$DIMTP
 40
1.0
  9
$DIMTM
 40
1.0
  9
$DIMTXT
 40
3.0
  9
$DIMCEN
 40
0.0
  9
$DIMTSZ
 40
0.0
  9
$DIMTOL
 70
     0
  9
$DIMLIM
 70
     0
  9
$DIMTIH
 70
     0
  9
$DIMTOH
 70
     0
  9
$DIMSE1
 70
     0
  9
$DIMSE2
 70
     0
  9
$DIMTAD
 70
     1
  9
$DIMZIN
 70
     8
  9
$DIMBLK
  1

  9
$DIMASO
 70
     1
  9
$DIMSHO
 70
     1
  9
$DIMPOST
  1

  9
$DIMAPOST
  1

  9
$DIMALT
 70
     0
  9
$DIMALTD
 70
     2
  9
$DIMALTF
 40
0.039
  9
$DIMLFAC
 40
1.0
  9
$DIMTOFL
 70
     1
  9
$DIMTVP
 40
0.0
  9
$DIMTIX
 70
     0
  9
$DIMSOXD
 70
     0
  9
$DIMSAH
 70
     1
  9
$DIMBLK1
  1
OPEN
  9
$DIMBLK2
  1
OPEN
  9
$DIMSTYLE
  2
IGA
  9
$DIMCLRD
 70
     0
  9
$DIMCLRE
 70
     0
  9
$DIMCLRT
 70
     0
  9
$DIMTFAC
 40
10.0
  9
$DIMGAP
 40
1.0
  9
$LUNITS
 70
     2
  9
$LUPREC
 70
     3
  9
$SKETCHINC
 40
0.1
  9
$FILLETRAD
 40
50.0
  9
$AUNITS
 70
     0
  9
$AUPREC
 70
     0
  9
$MENU
  1
acad
  9
$ELEVATION
 40
0.0
  9
$PELEVATION
 40
0.0
  9
$THICKNESS
 40
0.0
  9
$LIMCHECK
 70
     0
  9
$BLIPMODE
 70
     0
  9
$CHAMFERA
 40
0.5
  9
$CHAMFERB
 40
0.5
  9
$SKPOLY
 70
     0
  9
$TDCREATE
 40
2450745.6032814821
  9
$TDUPDATE
 40
2454953.8661694438
  9
$TDINDWG
 40
0.0083099306
  9
$TDUSRTIMER
 40
0.0083099306
  9
$USRTIMER
 70
     1
  9
$ANGBASE
 50
0.0
  9
$ANGDIR
 70
     0
  9
$PDMODE
 70
     0
  9
$PDSIZE
 40
0.0
  9
$PLINEWID
 40
0.0
  9
$COORDS
 70
     1
  9
$SPLFRAME
 70
     0
  9
$SPLINETYPE
 70
     6
  9
$SPLINESEGS
 70
     8
  9
$ATTDIA
 70
     0
  9
$ATTREQ
 70
     1
  9
$HANDLING
 70
 10241
  9
$HANDSEED
  5
8093
  9
$SURFTAB1
 70
     6
  9
$SURFTAB2
 70
     6
  9
$SURFTYPE
 70
     6
  9
$SURFU
 70
     6
  9
$SURFV
 70
     6
  9
$UCSNAME
  2

  9
$UCSORG
 10
0.0
 20
0.0
 30
0.0
  9
$UCSXDIR
 10
1.0
 20
0.0
 30
0.0
  9
$UCSYDIR
 10
0.0
 20
1.0
 30
0.0
  9
$PUCSNAME
  2

  9
$PUCSORG
 10
0.0
 20
0.0
 30
0.0
  9
$PUCSXDIR
 10
1.0
 20
0.0
 30
0.0
  9
$PUCSYDIR
 10
0.0
 20
1.0
 30
0.0
  9
$USERI1
 70
     0
  9
$USERI2
 70
     0
  9
$USERI3
 70
     0
  9
$USERI4
 70
     0
  9
$USERI5
 70
     0
  9
$USERR1
 40
0.0
  9
$USERR2
 40
0.0
  9
$USERR3
 40
0.0
  9
$USERR4
 40
0.0
  9
$USERR5
 40
0.0
  9
$WORLDVIEW
 70
     1
  9
$SHADEDGE
 70
     3
  9
$SHADEDIF
 70
    70
  9
$TILEMODE
 70
     1
  9
$MAXACTVP
 70
    16
  9
$PLIMCHECK
 70
     0
  9
$PEXTMIN
 10
1.0000000000000000E+020
 20
1.0000000000000000E+020
 30
1.0000000000000000E+020
  9
$PEXTMAX
 10
-1.0000000000000000E+020
 20
-1.0000000000000000E+020
 30
-1.0000000000000000E+020
  9
$PLIMMIN
 10
0.0
 20
0.0
  9
$PLIMMAX
 10
12.0
 20
9.0
  9
$UNITMODE
 70
     0
  9
$VISRETAIN
 70
     0
  9
$PLINEGEN
 70
     0
  9
$PSLTSCALE
 70
     1
  0
ENDSEC
  0
SECTION
  2
TABLES
  0
TABLE
  2
VPORT
 70
     2
  0
VPORT
  2
*ACTIVE
 70
     0
 10
0.0
 20
0.0
 11
1.0
 21
1.0
 12
4387.4859962637584
 22
2967.4194961050061
 13
0.0
 23
0.0
 14
10.0
 24
10.0
 15
10.0
 25
10.0
 16
0.0
 26
0.0
 36
1.0
 17
0.0
 27
0.0
 37
0.0
 40
5790.6463360859261
 41
1.5051150895140659
 42
50.0
 43
0.0
 44
0.0
 50
0.0
 51
0.0
 71
     0
 72
   100
 73
     1
 74
     0
 75
     0
 76
     0
 77
     0
 78
     0
  0
ENDTAB
  0
TABLE
  2
LTYPE
 70
     2
  0
LTYPE
  2
CONTINUOUS
 70
     0
  3
Solid line
 72
    65
 73
     0
 40
0.0
  0
LTYPE
  2
CENTER
 70
     0
  3
____ _ ____ _ ____ _ ____ _ ____ _ ____ _ ____ 
 72
    65
 73
     4
 40
2.0
 49
1.25
 49
-0.25
 49
0.25
 49
-0.25
  0
ENDTAB
  0
TABLE
  2
LAYER
 70
     6
  0
LAYER
  2
0
 70
     0
 62
     7
  6
CONTINUOUS
  0
LAYER
  2
3
 70
     0
 62
     2
  6
CONTINUOUS
  0
LAYER
  2
2
 70
     0
 62
     3
  6
CENTER
  0
LAYER
  2
1
 70
     0
 62
     4
  6
CONTINUOUS
  0
LAYER
  2
4
 70
     0
 62
     7
  6
CONTINUOUS
  0
LAYER
  2
DEFPOINTS
 70
     0
 62
     7
  6
CONTINUOUS
  0
ENDTAB
  0
TABLE
  2
STYLE
 70
     1
  0
STYLE
  2
STANDARD
 70
     0
 40
0.0
 41
1.0
 50
0.0
 71
     0
 42
180.0
  3
simplex.shx
  4
extfont.shx
  0
ENDTAB
  0
TABLE
  2
VIEW
 70
     0
  0
ENDTAB
  0
TABLE
  2
UCS
 70
     0
  0
ENDTAB
  0
TABLE
  2
APPID
 70
     1
  0
APPID
  2
ACAD
 70
     0
  0
ENDTAB
  0
TABLE
  2
DIMSTYLE
 70
     1
  0
DIMSTYLE
  2
IGA
 70
     0
  3

  4

  5

  6
OPEN
  7
OPEN
 40
2.0
 41
2.0
 42
0.5
 43
10.0
 44
1.0
 45
0.0
 46
0.0
 47
1.0
 48
1.0
140
3.0
141
0.0
142
0.0
143
0.03937
144
1.0
145
0.0
146
10.0
147
1.0
 71
     0
 72
     0
 73
     0
 74
     0
 75
     0
 76
     0
 77
     1
 78
     8
170
     0
171
     2
172
     0
173
     1
174
     0
175
     0
176
     0
177
     0
178
     0
  0
ENDTAB
  0
ENDSEC
  0
SECTION
  2
BLOCKS
  0
BLOCK
  8
0
  2
$MODEL_SPACE
 70
     0
 10
0.0
 20
0.0
 30
0.0
  3
$MODEL_SPACE
  1

  0
ENDBLK
  5
1B
  8
0
  0
BLOCK
 67
     1
  8
0
  2
$PAPER_SPACE
 70
     0
 10
0.0
 20
0.0
 30
0.0
  3
$PAPER_SPACE
  1

  0
ENDBLK
  5
18
 67
     1
  8
0
  0
BLOCK
  8
0
  2
_OPEN
 70
     0
 10
0.0
 20
0.0
 30
0.0
  3
_OPEN
  1

  0
LINE
  5
7B39
  8
0
  6
BYBLOCK
 62
     0
 10
-1.0
 20
0.166667
 30
0.0
 11
0.0
 21
0.0
 31
0.0
  0
LINE
  5
7B3A
  8
0
  6
BYBLOCK
 62
     0
 10
0.0
 20
0.0
 30
0.0
 11
-1.0
 21
-0.166667
 31
0.0
  0
LINE
  5
7B3B
  8
0
  6
BYBLOCK
 62
     0
 10
0.0
 20
0.0
 30
0.0
 11
-1.0
 21
0.0
 31
0.0
  0
ENDBLK
  5
7B3C
  8
0
  0
BLOCK
  8
0
  2
*D1
 70
     1
 10
0.0
 20
0.0
 30
0.0
  3
*D1
  1

  0
LINE
  5
7FE8
  8
3
  6
CONTINUOUS
 62
     0
 10
722.68249301429285
 20
1305.8033736324321
 30
0.0
 11
722.68249301429285
 21
1177.704440749804
 31
0.0
  0
LINE
  5
7FE9
  8
3
  6
CONTINUOUS
 62
     0
 10
987.68249301429285
 20
1234.9284246324321
 30
0.0
 11
987.68249301429285
 21
1177.704440749804
 31
0.0
  0
LINE
  5
7FEA
  8
3
  6
CONTINUOUS
 62
     0
 10
752.68249301429285
 20
1192.704440749804
 30
0.0
 11
957.68249301429296
 21
1192.704440749804
 31
0.0
  0
INSERT
  5
7FEB
  8
3
  6
CONTINUOUS
 62
     0
  2
_OPEN
 10
722.68249301429285
 20
1192.704440749804
 30
0.0
 41
30.0
 42
30.0
 43
30.0
 50
180.0
  0
INSERT
  5
7FEC
  8
3
  6
CONTINUOUS
 62
     0
  2
_OPEN
 10
987.68249301429285
 20
1192.704440749804
 30
0.0
 41
30.0
 42
30.0
 43
30.0
  0
TEXT
  8
3
  40
45
  5
8081
  62
0
  72
0
  71
0
 10
758.436
 20
1150.55
 30
0.000000
  1
265
  0
POINT
  5
7FEE
  8
DEFPOINTS
  6
CONTINUOUS
 62
     0
 10
722.68249301429285
 20
1313.3033736324321
 30
0.0
  0
POINT
  5
7FEF
  8
DEFPOINTS
  6
CONTINUOUS
 62
     0
 10
987.68249301429285
 20
1242.4284246324321
 30
0.0
  0
POINT
  5
7FF0
  8
DEFPOINTS
  6
CONTINUOUS
 62
     0
 10
987.68249301429285
 20
1192.704440749804
 30
0.0
  0
ENDBLK
  5
7EE7
  8
0
  0
BLOCK
  8
0
  2
*D2
 70
     1
 10
0.0
 20
0.0
 30
0.0
  3
*D2
  1

  0
LINE
  5
7FF1
  8
3
  6
CONTINUOUS
 62
     0
 10
1632.682493014293
 20
1305.8033736324321
 30
0.0
 11
1632.682493014293
 21
1177.704440749804
 31
0.0
  0
LINE
  5
7FF2
  8
3
  6
CONTINUOUS
 62
     0
 10
1017.682493014292
 20
1192.704440749804
 30
0.0
 11
1602.682493014293
 21
1192.704440749804
 31
0.0
  0
INSERT
  5
7FF3
  8
3
  6
CONTINUOUS
 62
     0
  2
_OPEN
 10
987.68249301429285
 20
1192.704440749804
 30
0.0
 41
30.0
 42
30.0
 43
30.0
 50
180.0
  0
INSERT
  5
7FF4
  8
3
  6
CONTINUOUS
 62
     0
  2
_OPEN
 10
1632.682493014293
 20
1192.704440749804
 30
0.0
 41
30.0
 42
30.0
 43
30.0
  0
TEXT
  8
3
  40
45
  5
8082
  62
0
  72
0
  71
0
 10
1220.18
 20
1150.55
 30
0.000000
  1
645
  0
POINT
  5
7FF6
  8
DEFPOINTS
  6
CONTINUOUS
 62
     0
 10
987.68249301429285
 20
1242.4284246324321
 30
0.0
  0
POINT
  5
7FF7
  8
DEFPOINTS
  6
CONTINUOUS
 62
     0
 10
1632.682493014293
 20
1313.3033736324321
 30
0.0
  0
POINT
  5
7FF8
  8
DEFPOINTS
  6
CONTINUOUS
 62
     0
 10
1632.682493014293
 20
1192.704440749804
 30
0.0
  0
ENDBLK
  5
7EDC
  8
0
  0
BLOCK
  8
0
  2
*D3
 70
     1
 10
0.0
 20
0.0
 30
0.0
  3
*D3
  1

  0
LINE
  5
7FF9
  8
3
  6
CONTINUOUS
 62
     0
 10
730.18249301429285
 20
2080.3033736324319
 30
0.0
 11
659.11323401429343
 21
2080.3033736324319
 31
0.0
  0
LINE
  5
7FFA
  8
3
  6
CONTINUOUS
 62
     0
 10
730.18249301429285
 20
1765.3033736324321
 30
0.0
 11
659.11323401429331
 21
1765.3033736324321
 31
0.0
  0
LINE
  5
7FFB
  8
3
  6
CONTINUOUS
 62
     0
 10
674.11323401429343
 20
2050.3033736324319
 30
0.0
 11
674.11323401429343
 21
1795.3033736324321
 31
0.0
  0
INSERT
  5
7FFC
  8
3
  6
CONTINUOUS
 62
     0
  2
_OPEN
 10
674.11323401429343
 20
2080.3033736324319
 30
0.0
 41
30.0
 42
30.0
 43
30.0
 50
90.0
  0
INSERT
  5
7FFD
  8
3
  6
CONTINUOUS
 62
     0
  2
_OPEN
 10
674.1132340142932
 20
1765.3033736324321
 30
0.0
 41
30.0
 42
30.0
 43
30.0
 50
270.0
  0
TEXT
  8
3
  40
45
  5
8083
  62
0
  72
0
  71
0
 10
546.613
 20
1851.54
 30
0.000000
  1
315
  0
POINT
  5
7FFF
  8
DEFPOINTS
  6
CONTINUOUS
 62
     0
 10
737.68249301429285
 20
2080.3033736324319
 30
0.0
  0
POINT
  5
8000
  8
DEFPOINTS
  6
CONTINUOUS
 62
     0
 10
737.68249301429285
 20
1765.3033736324321
 30
0.0
  0
POINT
  5
8001
  8
DEFPOINTS
  6
CONTINUOUS
 62
     0
 10
674.1132340142932
 20
1765.3033736324321
 30
0.0
  0
ENDBLK
  5
7BB2
  8
0
  0
BLOCK
  8
0
  2
*D4
 70
     1
 10
0.0
 20
0.0
 30
0.0
  3
*D4
  1

  0
LINE
  5
8002
  8
3
  6
CONTINUOUS
 62
     0
 10
750.18249301429285
 20
2090.3033736324319
 30
0.0
 11
568.20839701429327
 21
2090.3033736324319
 31
0.0
  0
LINE
  5
8003
  8
3
  6
CONTINUOUS
 62
     0
 10
730.18249301429285
 20
1765.3033736324321
 30
0.0
 11
568.20839701429315
 21
1765.3033736324321
 31
0.0
  0
LINE
  5
8004
  8
3
  6
CONTINUOUS
 62
     0
 10
583.20839701429327
 20
2060.3033736324319
 30
0.0
 11
583.20839701429327
 21
1795.3033736324321
 31
0.0
  0
INSERT
  5
8005
  8
3
  6
CONTINUOUS
 62
     0
  2
_OPEN
 10
583.20839701429327
 20
2090.3033736324319
 30
0.0
 41
30.0
 42
30.0
 43
30.0
 50
90.0
  0
INSERT
  5
8006
  8
3
  6
CONTINUOUS
 62
     0
  2
_OPEN
 10
583.20839701429327
 20
1765.3033736324321
 30
0.0
 41
30.0
 42
30.0
 43
30.0
 50
270.0
  0
TEXT
  8
3
  40
45
  5
8084
  62
0
  72
0
  71
0
 10
455.708
 20
1851.54
 30
0.000000
  1
325
  0
POINT
  5
8008
  8
DEFPOINTS
  6
CONTINUOUS
 62
     0
 10
757.68249301429296
 20
2090.3033736324319
 30
0.0
  0
POINT
  5
8009
  8
DEFPOINTS
  6
CONTINUOUS
 62
     0
 10
737.68249301429285
 20
1765.3033736324321
 30
0.0
  0
POINT
  5
800A
  8
DEFPOINTS
  6
CONTINUOUS
 62
     0
 10
583.20839701429327
 20
1765.3033736324321
 30
0.0
  0
ENDBLK
  5
7BBF
  8
0
  0
BLOCK
  8
0
  2
*D5
 70
     1
 10
0.0
 20
0.0
 30
0.0
  3
*D5
  1

  0
LINE
  5
800B
  8
3
  6
CONTINUOUS
 62
     0
 10
745.18249301429296
 20
1365.3033736324321
 30
0.0
 11
568.20839701429304
 21
1365.3033736324321
 31
0.0
  0
LINE
  5
800C
  8
3
  6
CONTINUOUS
 62
     0
 10
583.20839701429304
 20
1735.3033736324321
 30
0.0
 11
583.20839701429304
 21
1395.3033736324321
 31
0.0
  0
INSERT
  5
800D
  8
3
  6
CONTINUOUS
 62
     0
  2
_OPEN
 10
583.20839701429304
 20
1765.3033736324321
 30
0.0
 41
30.0
 42
30.0
 43
30.0
 50
90.0
  0
INSERT
  5
800E
  8
3
  6
CONTINUOUS
 62
     0
  2
_OPEN
 10
583.20839701429304
 20
1365.3033736324321
 30
0.0
 41
30.0
 42
30.0
 43
30.0
 50
270.0
  0
TEXT
  8
3
  40
45
  5
8085
  62
0
  72
0
  71
0
 10
455.708
 20
1485.65
 30
0.000000
  1
400
  0
POINT
  5
8010
  8
DEFPOINTS
  6
CONTINUOUS
 62
     0
 10
737.68249301429285
 20
1765.3033736324321
 30
0.0
  0
POINT
  5
8011
  8
DEFPOINTS
  6
CONTINUOUS
 62
     0
 10
752.68249301429285
 20
1365.3033736324321
 30
0.0
  0
POINT
  5
8012
  8
DEFPOINTS
  6
CONTINUOUS
 62
     0
 10
583.20839701429304
 20
1365.3033736324321
 30
0.0
  0
ENDBLK
  5
7BCB
  8
0
  0
BLOCK
  8
0
  2
*D6
 70
     1
 10
0.0
 20
0.0
 30
0.0
  3
*D6
  1

  0
LINE
  5
8013
  8
3
  6
CONTINUOUS
 62
     0
 10
730.18249301429285
 20
2101.8033736324319
 30
0.0
 11
469.28254901429352
 21
2101.8033736324319
 31
0.0
  0
LINE
  5
8014
  8
3
  6
CONTINUOUS
 62
     0
 10
715.18249301429285
 20
1313.3033736324321
 30
0.0
 11
469.28254901429329
 21
1313.3033736324321
 31
0.0
  0
LINE
  5
8015
  8
3
  6
CONTINUOUS
 62
     0
 10
484.28254901429352
 20
2071.8033736324319
 30
0.0
 11
484.28254901429329
 21
1343.3033736324321
 31
0.0
  0
INSERT
  5
8016
  8
3
  6
CONTINUOUS
 62
     0
  2
_OPEN
 10
484.28254901429352
 20
2101.8033736324319
 30
0.0
 41
30.0
 42
30.0
 43
30.0
 50
90.0
  0
INSERT
  5
8017
  8
3
  6
CONTINUOUS
 62
     0
  2
_OPEN
 10
484.28254901429329
 20
1313.3033736324321
 30
0.0
 41
30.0
 42
30.0
 43
30.0
 50
270.0
  0
TEXT
  8
3
  40
45
  5
8086
  62
0
  72
0
  71
0
 10
356.783
 20
1616.51
 30
0.000000
  1
789
  0
POINT
  5
8019
  8
DEFPOINTS
  6
CONTINUOUS
 62
     0
 10
737.68249301429285
 20
2101.8033736324319
 30
0.0
  0
POINT
  5
801A
  8
DEFPOINTS
  6
CONTINUOUS
 62
     0
 10
722.68249301429285
 20
1313.3033736324321
 30
0.0
  0
POINT
  5
801B
  8
DEFPOINTS
  6
CONTINUOUS
 62
     0
 10
484.28254901429329
 20
1313.3033736324321
 30
0.0
  0
ENDBLK
  5
7C02
  8
0
  0
BLOCK
  8
0
  2
*D7
 70
     1
 10
0.0
 20
0.0
 30
0.0
  3
*D7
  1

  0
LINE
  5
801C
  8
3
  6
CONTINUOUS
 62
     0
 10
737.68249301429285
 20
2109.3033736324319
 30
0.0
 11
737.68249301429285
 21
2189.4924396324318
 31
0.0
  0
LINE
  5
801D
  8
3
  6
CONTINUOUS
 62
     0
 10
987.68249301429285
 20
2096.7158396324321
 30
0.0
 11
987.68249301429285
 21
2189.4924396324318
 31
0.0
  0
LINE
  5
801E
  8
3
  6
CONTINUOUS
 62
     0
 10
767.68249301429285
 20
2174.4924396324318
 30
0.0
 11
957.68249301429296
 21
2174.4924396324318
 31
0.0
  0
INSERT
  5
801F
  8
3
  6
CONTINUOUS
 62
     0
  2
_OPEN
 10
737.68249301429285
 20
2174.4924396324318
 30
0.0
 41
30.0
 42
30.0
 43
30.0
 50
180.0
  0
INSERT
  5
8020
  8
3
  6
CONTINUOUS
 62
     0
  2
_OPEN
 10
987.68249301429285
 20
2174.4924396324318
 30
0.0
 41
30.0
 42
30.0
 43
30.0
  0
TEXT
  8
3
  40
45
  5
8087
  62
0
  72
0
  71
0
 10
771.270
 20
2132.34
 30
0.000000
  1
250
  0
POINT
  5
8022
  8
DEFPOINTS
  6
CONTINUOUS
 62
     0
 10
737.68249301429285
 20
2101.8033736324319
 30
0.0
  0
POINT
  5
8023
  8
DEFPOINTS
  6
CONTINUOUS
 62
     0
 10
987.68249301429285
 20
2089.2158396324321
 30
0.0
  0
POINT
  5
8024
  8
DEFPOINTS
  6
CONTINUOUS
 62
     0
 10
987.68249301429285
 20
2174.4924396324318
 30
0.0
  0
ENDBLK
  5
7C0F
  8
0
  0
BLOCK
  8
0
  2
*D8
 70
     1
 10
0.0
 20
0.0
 30
0.0
  3
*D8
  1

  0
LINE
  5
8025
  8
3
  6
CONTINUOUS
 62
     0
 10
1261.682493014292
 20
1772.8033736324321
 30
0.0
 11
1261.682493014292
 21
2189.4924396324318
 31
0.0
  0
LINE
  5
8026
  8
3
  6
CONTINUOUS
 62
     0
 10
1017.682493014292
 20
2174.4924396324318
 30
0.0
 11
1231.682493014293
 21
2174.4924396324318
 31
0.0
  0
INSERT
  5
8027
  8
3
  6
CONTINUOUS
 62
     0
  2
_OPEN
 10
987.68249301429285
 20
2174.4924396324318
 30
0.0
 41
30.0
 42
30.0
 43
30.0
 50
180.0
  0
INSERT
  5
8028
  8
3
  6
CONTINUOUS
 62
     0
  2
_OPEN
 10
1261.682493014292
 20
2174.4924396324318
 30
0.0
 41
30.0
 42
30.0
 43
30.0
  0
TEXT
  8
3
  40
45
  5
8088
  62
0
  72
0
  71
0
 10
1034.68
 20
2132.34
 30
0.000000
  1
274
  0
POINT
  5
802A
  8
DEFPOINTS
  6
CONTINUOUS
 62
     0
 10
987.68249301429285
 20
2089.2158396324321
 30
0.0
  0
POINT
  5
802B
  8
DEFPOINTS
  6
CONTINUOUS
 62
     0
 10
1261.682493014292
 20
1765.3033736324321
 30
0.0
  0
POINT
  5
802C
  8
DEFPOINTS
  6
CONTINUOUS
 62
     0
 10
1261.682493014292
 20
2174.4924396324318
 30
0.0
  0
ENDBLK
  5
7F01
  8
0
  0
BLOCK
  8
0
  2
*D9
 70
     1
 10
0.0
 20
0.0
 30
0.0
  3
*D9
  1

  0
LINE
  5
802D
  8
3
  6
CONTINUOUS
 62
     0
 10
722.68249301429285
 20
2743.1338906102301
 30
0.0
 11
722.68249301429285
 21
2499.6073206102301
 31
0.0
  0
LINE
  5
802E
  8
3
  6
CONTINUOUS
 62
     0
 10
1632.682493014293
 20
2743.1338906102301
 30
0.0
 11
1632.682493014293
 21
2499.6073206102301
 31
0.0
  0
LINE
  5
802F
  8
3
  6
CONTINUOUS
 62
     0
 10
752.68249301429285
 20
2514.6073206102301
 30
0.0
 11
1602.682493014293
 21
2514.6073206102301
 31
0.0
  0
INSERT
  5
8030
  8
3
  6
CONTINUOUS
 62
     0
  2
_OPEN
 10
722.68249301429285
 20
2514.6073206102301
 30
0.0
 41
30.0
 42
30.0
 43
30.0
 50
180.0
  0
INSERT
  5
8031
  8
3
  6
CONTINUOUS
 62
     0
  2
_OPEN
 10
1632.682493014293
 20
2514.6073206102301
 30
0.0
 41
30.0
 42
30.0
 43
30.0
  0
TEXT
  8
3
  40
45
  5
8089
  62
0
  72
0
  71
0
 10
1115.76
 20
2472.46
 30
0.000000
  1
910
  0
POINT
  5
8033
  8
DEFPOINTS
  6
CONTINUOUS
 62
     0
 10
722.68249301429285
 20
2750.633890610231
 30
0.0
  0
POINT
  5
8034
  8
DEFPOINTS
  6
CONTINUOUS
 62
     0
 10
1632.682493014293
 20
2750.633890610231
 30
0.0
  0
POINT
  5
8035
  8
DEFPOINTS
  6
CONTINUOUS
 62
     0
 10
1632.682493014293
 20
2514.6073206102301
 30
0.0
  0
ENDBLK
  5
7C28
  8
0
  0
BLOCK
  8
0
  2
*D10
 70
     1
 10
0.0
 20
0.0
 30
0.0
  3
*D10
  1

  0
LINE
  5
8036
  8
3
  6
CONTINUOUS
 62
     0
 10
1640.182493014292
 20
3065.6338906102301
 30
0.0
 11
1795.3040520142929
 21
3065.6338906102301
 31
0.0
  0
LINE
  5
8037
  8
3
  6
CONTINUOUS
 62
     0
 10
1640.182493014292
 20
2750.633890610231
 30
0.0
 11
1795.3040520142929
 21
2750.633890610231
 31
0.0
  0
LINE
  5
8038
  8
3
  6
CONTINUOUS
 62
     0
 10
1780.3040520142929
 20
3035.6338906102301
 30
0.0
 11
1780.3040520142929
 21
2780.6338906102301
 31
0.0
  0
INSERT
  5
8039
  8
3
  6
CONTINUOUS
 62
     0
  2
_OPEN
 10
1780.3040520142929
 20
3065.6338906102301
 30
0.0
 41
30.0
 42
30.0
 43
30.0
 50
90.0
  0
INSERT
  5
803A
  8
3
  6
CONTINUOUS
 62
     0
  2
_OPEN
 10
1780.3040520142929
 20
2750.633890610231
 30
0.0
 41
30.0
 42
30.0
 43
30.0
 50
270.0
  0
TEXT
  8
3
  40
45
  5
808A
  62
0
  72
0
  71
0
 10
1652.80
 20
2825.32
 30
0.000000
  1
315
  0
POINT
  5
803C
  8
DEFPOINTS
  6
CONTINUOUS
 62
     0
 10
1632.682493014293
 20
3065.6338906102301
 30
0.0
  0
POINT
  5
803D
  8
DEFPOINTS
  6
CONTINUOUS
 62
     0
 10
1632.682493014293
 20
2750.633890610231
 30
0.0
  0
POINT
  5
803E
  8
DEFPOINTS
  6
CONTINUOUS
 62
     0
 10
1780.3040520142929
 20
2750.633890610231
 30
0.0
  0
ENDBLK
  5
7C36
  8
0
  0
BLOCK
  8
0
  2
*D11
 70
     1
 10
0.0
 20
0.0
 30
0.0
  3
*D11
  1

  0
LINE
  5
803F
  8
3
  6
CONTINUOUS
 62
     0
 10
2241.8698445618629
 20
2087.8033736324319
 30
0.0
 11
2241.8698445618629
 21
2148.2601626324322
 31
0.0
  0
LINE
  5
8040
  8
3
  6
CONTINUOUS
 62
     0
 10
2465.8698445618638
 20
2087.8033736324319
 30
0.0
 11
2465.8698445618638
 21
2148.2601626324322
 31
0.0
  0
LINE
  5
8041
  8
3
  6
CONTINUOUS
 62
     0
 10
2211.8698445618629
 20
2133.2601626324322
 30
0.0
 11
2181.8698445618638
 21
2133.2601626324322
 31
0.0
  0
LINE
  5
8042
  8
3
  6
CONTINUOUS
 62
     0
 10
2495.8698445618629
 20
2133.2601626324322
 30
0.0
 11
2525.8698445618638
 21
2133.2601626324322
 31
0.0
  0
LINE
  5
8043
  8
3
  6
CONTINUOUS
 62
     0
 10
2241.8698445618629
 20
2133.2601626324322
 30
0.0
 11
2465.8698445618638
 21
2133.2601626324322
 31
0.0
  0
INSERT
  5
8044
  8
3
  6
CONTINUOUS
 62
     0
  2
_OPEN
 10
2241.8698445618629
 20
2133.2601626324322
 30
0.0
 41
30.0
 42
30.0
 43
30.0
  0
INSERT
  5
8045
  8
3
  6
CONTINUOUS
 62
     0
  2
_OPEN
 10
2465.8698445618638
 20
2133.2601626324322
 30
0.0
 41
30.0
 42
30.0
 43
30.0
 50
180.0
  0
TEXT
  8
3
  40
45
  5
808B
  62
0
  72
0
  71
0
 10
2255.80
 20
2091.11
 30
0.000000
  1
224
  0
POINT
  5
8047
  8
DEFPOINTS
  6
CONTINUOUS
 62
     0
 10
2241.8698445618629
 20
2080.3033736324319
 30
0.0
  0
POINT
  5
8048
  8
DEFPOINTS
  6
CONTINUOUS
 62
     0
 10
2465.8698445618638
 20
2080.3033736324319
 30
0.0
  0
POINT
  5
8049
  8
DEFPOINTS
  6
CONTINUOUS
 62
     0
 10
2465.8698445618638
 20
2133.2601626324322
 30
0.0
  0
ENDBLK
  5
7C46
  8
0
  0
BLOCK
  8
0
  2
*D12
 70
     1
 10
0.0
 20
0.0
 30
0.0
  3
*D12
  1

  0
LINE
  5
804A
  8
3
  6
CONTINUOUS
 62
     0
 10
1933.8698445618629
 20
2002.8033736324321
 30
0.0
 11
1933.8698445618629
 21
2244.0524819222792
 31
0.0
  0
LINE
  5
804B
  8
3
  6
CONTINUOUS
 62
     0
 10
2353.8698445618629
 20
2210.275339632432
 30
0.0
 11
2353.8698445618629
 21
2244.0524819222792
 31
0.0
  0
LINE
  5
804C
  8
3
  6
CONTINUOUS
 62
     0
 10
1963.8698445618641
 20
2229.0524819222792
 30
0.0
 11
2323.8698445618629
 21
2229.0524819222792
 31
0.0
  0
INSERT
  5
804D
  8
3
  6
CONTINUOUS
 62
     0
  2
_OPEN
 10
1933.8698445618629
 20
2229.0524819222792
 30
0.0
 41
30.0
 42
30.0
 43
30.0
 50
180.0
  0
INSERT
  5
804E
  8
3
  6
CONTINUOUS
 62
     0
  2
_OPEN
 10
2353.8698445618629
 20
2229.0524819222792
 30
0.0
 41
30.0
 42
30.0
 43
30.0
  0
TEXT
  8
3
  40
45
  5
808C
  62
0
  72
0
  71
0
 10
2060.45
 20
2224.40
 30
0.000000
  1
MAX
  0
TEXT
  8
3
  40
45
  5
808D
  62
0
  72
0
  71
0
 10
2060.45
 20
2165.90
 30
0.000000
  1
420
  0
POINT
  5
8050
  8
DEFPOINTS
  6
CONTINUOUS
 62
     0
 10
1933.8698445618629
 20
1995.3033736324321
 30
0.0
  0
POINT
  5
8051
  8
DEFPOINTS
  6
CONTINUOUS
 62
     0
 10
2353.8698445618629
 20
2202.775339632432
 30
0.0
  0
POINT
  5
8052
  8
DEFPOINTS
  6
CONTINUOUS
 62
     0
 10
2353.8698445618629
 20
2229.0524819222792
 30
0.0
  0
ENDBLK
  5
7EB0
  8
0
  0
BLOCK
  8
0
  2
*D13
 70
     1
 10
0.0
 20
0.0
 30
0.0
  3
*D13
  1

  0
LINE
  5
8053
  8
3
  6
CONTINUOUS
 62
     0
 10
2474.8698445618629
 20
1955.3033736324321
 30
0.0
 11
2474.8698445618629
 21
2244.0524819222792
 31
0.0
  0
LINE
  5
8054
  8
3
  6
CONTINUOUS
 62
     0
 10
2383.8698445618638
 20
2229.0524819222792
 30
0.0
 11
2444.8698445618638
 21
2229.0524819222792
 31
0.0
  0
TEXT
  8
3
  40
45
  5
808E
  62
0
  72
0
  71
0
 10
2316.32
 20
2187.36
 30
0.000000
  1
121
  0
INSERT
  5
8056
  8
3
  6
CONTINUOUS
 62
     0
  2
_OPEN
 10
2353.8698445618629
 20
2229.0524819222792
 30
0.0
 41
30.0
 42
30.0
 43
30.0
 50
180.0
  0
INSERT
  5
8057
  8
3
  6
CONTINUOUS
 62
     0
  2
_OPEN
 10
2474.8698445618629
 20
2229.0524819222792
 30
0.0
 41
30.0
 42
30.0
 43
30.0
  0
POINT
  5
8058
  8
DEFPOINTS
  6
CONTINUOUS
 62
     0
 10
2353.8698445618629
 20
2202.775339632432
 30
0.0
  0
POINT
  5
8059
  8
DEFPOINTS
  6
CONTINUOUS
 62
     0
 10
2474.8698445618629
 20
1947.8033736324321
 30
0.0
  0
POINT
  5
805A
  8
DEFPOINTS
  6
CONTINUOUS
 62
     0
 10
2474.8698445618629
 20
2229.0524819222792
 30
0.0
  0
ENDBLK
  5
7EBA
  8
0
  0
BLOCK
  8
0
  2
*D14
 70
     1
 10
0.0
 20
0.0
 30
0.0
  3
*D14
  1

  0
LINE
  5
805B
  8
3
  6
CONTINUOUS
 62
     0
 10
2482.3698445618638
 20
1922.8033736324321
 30
0.0
 11
2589.206173561864
 21
1922.8033736324321
 31
0.0
  0
LINE
  5
805C
  8
3
  6
CONTINUOUS
 62
     0
 10
2482.3698445618638
 20
1607.8033736324321
 30
0.0
 11
2589.206173561864
 21
1607.8033736324321
 31
0.0
  0
LINE
  5
805D
  8
3
  6
CONTINUOUS
 62
     0
 10
2574.206173561864
 20
1892.8033736324321
 30
0.0
 11
2574.206173561864
 21
1637.8033736324321
 31
0.0
  0
INSERT
  5
805E
  8
3
  6
CONTINUOUS
 62
     0
  2
_OPEN
 10
2574.206173561864
 20
1922.8033736324321
 30
0.0
 41
30.0
 42
30.0
 43
30.0
 50
90.0
  0
INSERT
  5
805F
  8
3
  6
CONTINUOUS
 62
     0
  2
_OPEN
 10
2574.206173561864
 20
1607.8033736324321
 30
0.0
 41
30.0
 42
30.0
 43
30.0
 50
270.0
  0
TEXT
  8
3
  40
45
  5
808F
  62
0
  72
0
  71
0
 10
2446.71
 20
1687.15
 30
0.000000
  1
φ315
  0
POINT
  5
8061
  8
DEFPOINTS
  6
CONTINUOUS
 62
     0
 10
2474.8698445618629
 20
1922.8033736324321
 30
0.0
  0
POINT
  5
8062
  8
DEFPOINTS
  6
CONTINUOUS
 62
     0
 10
2474.8698445618629
 20
1607.8033736324321
 30
0.0
  0
POINT
  5
8063
  8
DEFPOINTS
  6
CONTINUOUS
 62
     0
 10
2574.206173561864
 20
1607.8033736324321
 30
0.0
  0
ENDBLK
  5
7E9A
  8
0
  0
BLOCK
  8
0
  2
*D15
 70
     1
 10
0.0
 20
0.0
 30
0.0
  3
*D15
  1

  0
LINE
  5
8064
  8
3
  6
CONTINUOUS
 62
     0
 10
2038.8698445618641
 20
1305.8033736324321
 30
0.0
 11
2038.8698445618641
 21
1178.0417924534181
 31
0.0
  0
LINE
  5
8065
  8
3
  6
CONTINUOUS
 62
     0
 10
2353.8698445618629
 20
1305.8033736324321
 30
0.0
 11
2353.8698445618629
 21
1178.0417924534181
 31
0.0
  0
LINE
  5
8066
  8
3
  6
CONTINUOUS
 62
     0
 10
2068.8698445618629
 20
1193.0417924534181
 30
0.0
 11
2323.8698445618629
 21
1193.0417924534181
 31
0.0
  0
INSERT
  5
8067
  8
3
  6
CONTINUOUS
 62
     0
  2
_OPEN
 10
2038.8698445618641
 20
1193.0417924534181
 30
0.0
 41
30.0
 42
30.0
 43
30.0
 50
180.0
  0
INSERT
  5
8068
  8
3
  6
CONTINUOUS
 62
     0
  2
_OPEN
 10
2353.8698445618629
 20
1193.0417924534181
 30
0.0
 41
30.0
 42
30.0
 43
30.0
  0
TEXT
  8
3
  40
45
  5
8090
  62
0
  72
0
  71
0
 10
2108.84
 20
1150.89
 30
0.000000
  1
315
  0
POINT
  5
806A
  8
DEFPOINTS
  6
CONTINUOUS
 62
     0
 10
2038.8698445618641
 20
1313.3033736324321
 30
0.0
  0
POINT
  5
806B
  8
DEFPOINTS
  6
CONTINUOUS
 62
     0
 10
2353.8698445618629
 20
1313.3033736324321
 30
0.0
  0
POINT
  5
806C
  8
DEFPOINTS
  6
CONTINUOUS
 62
     0
 10
2353.8698445618629
 20
1193.0417924534181
 30
0.0
  0
ENDBLK
  5
7EF2
  8
0
  0
BLOCK
  8
0
  2
*D16
 70
     1
 10
0.0
 20
0.0
 30
0.0
  3
*D16
  1

  0
LINE
  5
806D
  8
3
  6
CONTINUOUS
 62
     0
 10
745.18249301429296
 20
1365.3033736324321
 30
0.0
 11
568.20839701429315
 21
1365.3033736324321
 31
0.0
  0
LINE
  5
806E
  8
3
  6
CONTINUOUS
 62
     0
 10
715.18249301429285
 20
1313.3033736324321
 30
0.0
 11
568.20839701429315
 21
1313.3033736324321
 31
0.0
  0
LINE
  5
806F
  8
3
  6
CONTINUOUS
 62
     0
 10
583.20839701429327
 20
1395.3033736324321
 30
0.0
 11
583.20839701429327
 21
1425.3033736324321
 31
0.0
  0
LINE
  5
8070
  8
3
  6
CONTINUOUS
 62
     0
 10
583.20839701429327
 20
1283.3033736324321
 30
0.0
 11
583.20839701429315
 21
1150.446230775289
 31
0.0
  0
LINE
  5
8071
  8
3
  6
CONTINUOUS
 62
     0
 10
583.20839701429327
 20
1365.3033736324321
 30
0.0
 11
583.20839701429327
 21
1313.3033736324321
 31
0.0
  0
INSERT
  5
8072
  8
3
  6
CONTINUOUS
 62
     0
  2
_OPEN
 10
583.20839701429327
 20
1365.3033736324321
 30
0.0
 41
30.0
 42
30.0
 43
30.0
 50
270.0
  0
INSERT
  5
8073
  8
3
  6
CONTINUOUS
 62
     0
  2
_OPEN
 10
583.20839701429327
 20
1313.3033736324321
 30
0.0
 41
30.0
 42
30.0
 43
30.0
 50
90.0
  0
TEXT
  8
3
  40
45
  5
8091
  62
0
  72
0
  71
0
 10
455.708
 20
1122.22
 30
0.000000
  1
52
  0
POINT
  5
8075
  8
DEFPOINTS
  6
CONTINUOUS
 62
     0
 10
752.68249301429285
 20
1365.3033736324321
 30
0.0
  0
POINT
  5
8076
  8
DEFPOINTS
  6
CONTINUOUS
 62
     0
 10
722.68249301429285
 20
1313.3033736324321
 30
0.0
  0
POINT
  5
8077
  8
DEFPOINTS
  6
CONTINUOUS
 62
     0
 10
583.20839701429327
 20
1313.3033736324321
 30
0.0
  0
ENDBLK
  5
7E4C
  8
0
  0
BLOCK
  8
0
  2
*D17
 70
     1
 10
0.0
 20
0.0
 30
0.0
  3
*D17
  1

  0
LINE
  5
8078
  8
3
 62
     0
 10
737.68249301429285
 20
2109.3033736324319
 30
0.0
 11
737.68249301429285
 21
2295.4268691087341
 31
0.0
  0
LINE
  5
8079
  8
3
 62
     0
 10
1632.682493014293
 20
1350.8033736324321
 30
0.0
 11
1632.682493014293
 21
2295.4268691087341
 31
0.0
  0
LINE
  5
807A
  8
3
 62
     0
 10
767.68249301429285
 20
2280.4268691087341
 30
0.0
 11
1602.682493014293
 21
2280.4268691087341
 31
0.0
  0
INSERT
  5
807B
  8
3
 62
     0
  2
_OPEN
 10
737.68249301429285
 20
2280.4268691087341
 30
0.0
 41
30.0
 42
30.0
 43
30.0
 50
180.0
  0
INSERT
  5
807C
  8
3
 62
     0
  2
_OPEN
 10
1632.682493014293
 20
2280.4268691087341
 30
0.0
 41
30.0
 42
30.0
 43
30.0
  0
TEXT
  8
3
  40
45
  5
8092
  62
0
  72
0
  71
0
 10
1111.56
 20
2238.28
 30
0.000000
  1
895
  0
POINT
  5
807E
  8
DEFPOINTS
 62
     0
 10
737.68249301429285
 20
2101.8033736324319
 30
0.0
  0
POINT
  5
807F
  8
DEFPOINTS
 62
     0
 10
1632.682493014293
 20
1343.3033736324321
 30
0.0
  0
POINT
  5
8080
  8
DEFPOINTS
 62
     0
 10
1632.682493014293
 20
2280.4268691087341
 30
0.0
  0
ENDBLK
  5
7ED2
  8
0
  0
ENDSEC
  0
SECTION
  2
ENTITIES
  0
CIRCLE
  5
7A8C
  8
1
  6
CONTINUOUS
 10
987.68249301429285
 20
1765.3033736324321
 30
0.0
 40
157.5
  0
ARC
  5
7A8D
  8
1
  6
CONTINUOUS
 10
1005.682493014293
 20
1747.3033736324321
 30
0.0
 40
215.0
 50
188.59999999999991
 51
280.60000000000002
  0
LINE
  5
7A8E
  8
1
  6
CONTINUOUS
 10
757.68249301429296
 20
2090.3033736324319
 30
0.0
 11
962.18249301429285
 21
2090.3033736324319
 31
0.0
  0
CIRCLE
  5
7A8F
  8
1
  6
CONTINUOUS
 10
987.68249301429285
 20
1765.3033736324321
 30
0.0
 40
182.5
  0
LINE
  5
7A90
  8
1
  6
CONTINUOUS
 10
1170.182493014293
 20
3186.6338906102301
 30
0.0
 11
805.18249301429285
 21
3186.6338906102301
 31
0.0
  0
LINE
  5
7A91
  8
1
  6
CONTINUOUS
 10
1192.682493014292
 20
2943.8338906102299
 30
0.0
 11
782.68249301429296
 21
2943.8338906102299
 31
0.0
  0
LINE
  5
7A92
  8
1
  6
CONTINUOUS
 10
1255.682493014293
 20
3177.633890610231
 30
0.0
 11
737.68249301429285
 21
3177.633890610231
 31
0.0
  0
LINE
  5
7A93
  8
1
  6
CONTINUOUS
 10
737.68249301429285
 20
2953.6338906102301
 30
0.0
 11
1255.682493014293
 21
2953.6338906102301
 31
0.0
  0
LINE
  5
7A94
  8
1
  6
CONTINUOUS
 10
975.68249301429285
 20
2750.633890610231
 30
0.0
 11
722.68249301429285
 21
2750.633890610231
 31
0.0
  0
LINE
  5
7A95
  8
1
  6
CONTINUOUS
 10
1573.182493014293
 20
2645.633890610231
 30
0.0
 11
843.18249301429296
 21
2645.633890610231
 31
0.0
  0
LINE
  5
7A96
  8
1
  6
CONTINUOUS
 10
1573.182493014293
 20
2730.6338906102301
 30
0.0
 11
843.18249301429296
 21
2730.6338906102301
 31
0.0
  0
LINE
  5
7A97
  8
1
  6
CONTINUOUS
 10
975.68249301429285
 20
2780.6338906102301
 30
0.0
 11
782.68249301429296
 21
2780.6338906102301
 31
0.0
  0
LINE
  5
7A98
  8
1
  6
CONTINUOUS
 10
1192.682493014292
 20
1728.8033736324321
 30
0.0
 11
782.68249301429296
 21
1728.8033736324321
 31
0.0
  0
LINE
  5
7A99
  8
1
  6
CONTINUOUS
 10
895.38249301429266
 20
1945.3033736324321
 30
0.0
 11
782.68249301429296
 21
1850.703373632432
 31
0.0
  0
LINE
  5
7A9A
  8
1
  6
CONTINUOUS
 10
1602.682493014293
 20
1435.3033736324321
 30
0.0
 11
752.68249301429285
 21
1435.3033736324321
 31
0.0
  0
LINE
  5
7A9B
  8
1
  6
CONTINUOUS
 10
1602.682493014293
 20
1365.3033736324321
 30
0.0
 11
752.68249301429285
 21
1365.3033736324321
 31
0.0
  0
LINE
  5
7A9C
  8
1
  6
CONTINUOUS
 10
843.18249301429296
 20
1865.3033736324321
 30
0.0
 11
1043.182493014292
 21
1995.3033736324321
 31
0.0
  0
LINE
  5
7A9D
  8
1
  6
CONTINUOUS
 10
1632.682493014293
 20
1343.3033736324321
 30
0.0
 11
722.68249301429285
 21
1343.3033736324321
 31
0.0
  0
LINE
  5
7A9E
  8
1
  6
CONTINUOUS
 10
1632.682493014293
 20
1313.3033736324321
 30
0.0
 11
722.68249301429285
 21
1313.3033736324321
 31
0.0
  0
LINE
  5
7A9F
  8
1
  6
CONTINUOUS
 10
782.68249301429296
 20
1435.3033736324321
 30
0.0
 11
782.68249301429296
 21
1850.703373632432
 31
0.0
  0
LINE
  5
7AA0
  8
1
  6
CONTINUOUS
 10
843.18249301429296
 20
1865.3033736324321
 30
0.0
 11
843.18249301429296
 21
1425.8033736324321
 31
0.0
  0
LINE
  5
7AA1
  8
1
  6
CONTINUOUS
 10
722.68249301429285
 20
1313.3033736324321
 30
0.0
 11
722.68249301429285
 21
1343.3033736324321
 31
0.0
  0
LINE
  5
7AA2
  8
1
  6
CONTINUOUS
 10
752.68249301429285
 20
1435.3033736324321
 30
0.0
 11
752.68249301429285
 21
1365.3033736324321
 31
0.0
  0
LINE
  5
7AA3
  8
1
  6
CONTINUOUS
 10
757.68249301429296
 20
1795.3033736324321
 30
0.0
 11
757.68249301429296
 21
2050.3033736324319
 31
0.0
  0
LINE
  5
7AA4
  8
1
  6
CONTINUOUS
 10
737.68249301429285
 20
1743.8033736324321
 30
0.0
 11
737.68249301429285
 21
2101.8033736324319
 31
0.0
  0
ARC
  5
7AA5
  8
1
  6
CONTINUOUS
 10
719.68249301429296
 20
1688.3033736324321
 30
0.0
 40
78.0
 50
18.800000000000001
 51
60.799999999999997
  0
LINE
  5
7AA6
  8
1
  6
CONTINUOUS
 10
757.68249301429296
 20
1756.403373632432
 30
0.0
 11
757.68249301429296
 21
1765.3033736324321
 31
0.0
  0
LINE
  5
7AA7
  8
1
  6
CONTINUOUS
 10
757.68249301429296
 20
1765.3033736324321
 30
0.0
 11
737.68249301429285
 21
1765.3033736324321
 31
0.0
  0
LINE
  5
7AA8
  8
1
  6
CONTINUOUS
 10
737.68249301429285
 20
1775.3033736324321
 30
0.0
 11
757.68249301429296
 21
1795.3033736324321
 31
0.0
  0
LINE
  5
7AA9
  8
1
  6
CONTINUOUS
 10
757.68249301429296
 20
2080.3033736324319
 30
0.0
 11
757.68249301429296
 21
2090.3033736324319
 31
0.0
  0
LINE
  5
7AAA
  8
1
  6
CONTINUOUS
 10
737.68249301429285
 20
2080.3033736324319
 30
0.0
 11
757.68249301429296
 21
2080.3033736324319
 31
0.0
  0
LINE
  5
7AAB
  8
1
  6
CONTINUOUS
 10
737.68249301429285
 20
2070.3033736324319
 30
0.0
 11
757.68249301429296
 21
2050.3033736324319
 31
0.0
  0
LINE
  5
7AAC
  8
1
  6
CONTINUOUS
 10
757.68249301429296
 20
3148.633890610231
 30
0.0
 11
757.68249301429296
 21
2982.6338906102301
 31
0.0
  0
LINE
  5
7AAD
  8
1
  6
CONTINUOUS
 10
737.68249301429285
 20
3198.6338906102301
 30
0.0
 11
737.68249301429285
 21
2932.6338906102301
 31
0.0
  0
LINE
  5
7AAE
  8
1
  6
CONTINUOUS
 10
722.68249301429285
 20
2750.633890610231
 30
0.0
 11
722.68249301429285
 21
3065.6338906102301
 31
0.0
  0
LINE
  5
7AAF
  8
1
  6
CONTINUOUS
 10
843.18249301429296
 20
2730.6338906102301
 30
0.0
 11
843.18249301429296
 21
2645.633890610231
 31
0.0
  0
LINE
  5
7AB0
  8
1
  6
CONTINUOUS
 10
722.68249301429285
 20
3065.6338906102301
 30
0.0
 11
737.68249301429285
 21
3065.6338906102301
 31
0.0
  0
LINE
  5
7AB1
  8
1
  6
CONTINUOUS
 10
782.68249301429296
 20
2780.6338906102301
 30
0.0
 11
782.68249301429296
 21
2943.8338906102299
 31
0.0
  0
LINE
  5
7AB2
  8
1
  6
CONTINUOUS
 10
737.68249301429285
 20
2962.6338906102301
 30
0.0
 11
757.68249301429296
 21
2982.6338906102301
 31
0.0
  0
LINE
  5
7AB3
  8
1
  6
CONTINUOUS
 10
805.18249301429285
 20
2943.8338906102299
 30
0.0
 11
805.18249301429285
 21
2953.6338906102301
 31
0.0
  0
LINE
  5
7AB4
  8
1
  6
CONTINUOUS
 10
737.68249301429285
 20
3168.6338906102301
 30
0.0
 11
757.68249301429296
 21
3148.633890610231
 31
0.0
  0
LINE
  5
7AB5
  8
1
  6
CONTINUOUS
 10
805.18249301429285
 20
3186.6338906102301
 30
0.0
 11
805.18249301429285
 21
3178.4338906102298
 31
0.0
  0
LINE
  5
7AB6
  8
1
  6
CONTINUOUS
 10
1437.182493014293
 20
1496.8033736324321
 30
0.0
 11
961.98249301429314
 21
1707.203373632432
 31
0.0
  0
LINE
  5
7AB7
  8
1
  6
CONTINUOUS
 10
1482.0824930142919
 20
1592.903373632432
 30
0.0
 11
1015.682493014293
 21
1822.3033736324321
 31
0.0
  0
ARC
  5
7AB8
  8
1
  6
CONTINUOUS
 10
962.18249301429285
 20
1790.8033736324321
 30
0.0
 40
299.5
 50
349.39999999999992
 51
90.0
  0
LINE
  5
7AB9
  8
1
  6
CONTINUOUS
 10
1572.682493014293
 20
1455.3033736324321
 30
0.0
 11
1257.682493014293
 21
1455.3033736324321
 31
0.0
  0
LINE
  5
7ABA
  8
1
  6
CONTINUOUS
 10
1043.182493014292
 20
1995.3033736324321
 30
0.0
 11
1573.182493014293
 21
1645.3033736324321
 31
0.0
  0
ARC
  5
7ABB
  8
1
  6
CONTINUOUS
 10
1008.682493014293
 20
1786.3033736324321
 30
0.0
 40
253.0
 50
278.19999999999999
 51
348.39999999999998
  0
LINE
  5
7ABC
  8
1
  6
CONTINUOUS
 10
1192.682493014292
 20
1435.3033736324321
 30
0.0
 11
1192.682493014292
 21
1850.703373632432
 31
0.0
  0
LINE
  5
7ABD
  8
1
  6
CONTINUOUS
 10
1257.682493014293
 20
1435.3033736324321
 30
0.0
 11
1257.682493014293
 21
1455.3033736324321
 31
0.0
  0
LINE
  5
7ABE
  8
1
  6
CONTINUOUS
 10
1079.9824930142929
 20
1945.3033736324321
 30
0.0
 11
1192.682493014292
 21
1850.703373632432
 31
0.0
  0
LINE
  5
7ABF
  8
2
  6
CENTER
 10
2501.0285325618638
 20
1765.3033736324321
 30
0.0
 11
1879.3235095618629
 21
1765.3033736324321
 31
0.0
  0
LINE
  5
7AC0
  8
1
  6
CONTINUOUS
 10
1079.9824930142929
 20
1945.3033736324321
 30
0.0
 11
895.38249301429266
 21
1945.3033736324321
 31
0.0
  0
CIRCLE
  5
7AC1
  8
1
  6
CONTINUOUS
 10
987.68249301429285
 20
1765.3033736324321
 30
0.0
 40
63.5
  0
LINE
  5
7AC2
  8
2
  6
CENTER
 10
987.68249301429285
 20
1242.4284246324321
 30
0.0
 11
987.68249301429285
 21
2106.5329846324321
 31
0.0
  0
ARC
  5
7AC3
  8
1
  6
CONTINUOUS
 10
1458.682493014292
 20
1545.3033736324321
 30
0.0
 40
101.0
 50
322.89999999999992
 51
217.09999999999991
  0
LINE
  5
7AC4
  8
1
  6
CONTINUOUS
 10
1573.182493014293
 20
1645.3033736324321
 30
0.0
 11
1573.182493014293
 21
1435.3033736324321
 31
0.0
  0
LINE
  5
7AC5
  8
1
  6
CONTINUOUS
 10
1550.5824930142919
 20
1455.3033736324321
 30
0.0
 11
1539.182493014292
 21
1484.3033736324321
 31
0.0
  0
CIRCLE
  5
7AC6
  8
1
  6
CONTINUOUS
 10
1458.682493014292
 20
1545.3033736324321
 30
0.0
 40
53.0
  0
LINE
  5
7AC7
  8
2
  6
CENTER
 10
1511.682493014292
 20
1545.3033736324321
 30
0.0
 11
1405.682493014293
 21
1545.3033736324321
 31
0.0
  0
LINE
  5
7AC8
  8
1
  6
CONTINUOUS
 10
1366.7824930142931
 20
1455.3033736324321
 30
0.0
 11
1378.182493014293
 21
1484.3033736324321
 31
0.0
  0
LINE
  5
7AC9
  8
2
  6
CENTER
 10
1458.682493014292
 20
1492.3033736324321
 30
0.0
 11
1458.682493014292
 21
1598.3033736324321
 31
0.0
  0
LINE
  5
7ACA
  8
1
  6
CONTINUOUS
 10
1632.682493014293
 20
1313.3033736324321
 30
0.0
 11
1632.682493014293
 21
1343.3033736324321
 31
0.0
  0
LINE
  5
7ACB
  8
1
  6
CONTINUOUS
 10
1602.682493014293
 20
1435.3033736324321
 30
0.0
 11
1602.682493014293
 21
1365.3033736324321
 31
0.0
  0
LINE
  5
7ACC
  8
1
  6
CONTINUOUS
 10
1572.682493014293
 20
1435.3033736324321
 30
0.0
 11
1572.682493014293
 21
1455.3033736324321
 31
0.0
  0
LINE
  5
7ACD
  8
1
  6
CONTINUOUS
 10
1446.682493014293
 20
2750.633890610231
 30
0.0
 11
999.68249301429285
 21
2750.633890610231
 31
0.0
  0
LINE
  5
7ACE
  8
1
  6
CONTINUOUS
 10
1275.682493014293
 20
3065.6338906102301
 30
0.0
 11
1632.682493014293
 21
3065.6338906102301
 31
0.0
  0
LINE
  5
7ACF
  8
1
  6
CONTINUOUS
 10
1275.682493014293
 20
3157.633890610231
 30
0.0
 11
1275.682493014293
 21
2973.6338906102301
 31
0.0
  0
LINE
  5
7AD0
  8
1
  6
CONTINUOUS
 10
1192.682493014292
 20
2780.6338906102301
 30
0.0
 11
999.68249301429285
 21
2780.6338906102301
 31
0.0
  0
LINE
  5
7AD1
  8
1
  6
CONTINUOUS
 10
999.68249301429285
 20
2943.8338906102299
 30
0.0
 11
999.68249301429285
 21
2707.1338906102301
 31
0.0
  0
LINE
  5
7AD2
  8
1
  6
CONTINUOUS
 10
975.68249301429285
 20
2943.8338906102299
 30
0.0
 11
975.68249301429285
 21
2707.1338906102301
 31
0.0
  0
LINE
  5
7AD3
  8
1
  6
CONTINUOUS
 10
924.18249301429285
 20
2707.1338906102301
 30
0.0
 11
1051.182493014293
 21
2707.1338906102301
 31
0.0
  0
LINE
  5
7AD4
  8
1
  6
CONTINUOUS
 10
1051.182493014293
 20
2672.1338906102301
 30
0.0
 11
924.18249301429285
 21
2672.1338906102301
 31
0.0
  0
LINE
  5
7AD5
  8
1
  6
CONTINUOUS
 10
924.18249301429285
 20
2672.1338906102301
 30
0.0
 11
924.18249301429285
 21
2707.1338906102301
 31
0.0
  0
LINE
  5
7AD6
  8
1
  6
CONTINUOUS
 10
1051.182493014293
 20
2707.1338906102301
 30
0.0
 11
1051.182493014293
 21
2672.1338906102301
 31
0.0
  0
LINE
  5
7AD7
  8
1
  6
CONTINUOUS
 10
1170.182493014293
 20
2943.8338906102299
 30
0.0
 11
1170.182493014293
 21
2953.6338906102301
 31
0.0
  0
LINE
  5
7AD8
  8
1
  6
CONTINUOUS
 10
1192.682493014292
 20
2780.6338906102301
 30
0.0
 11
1192.682493014292
 21
2943.8338906102299
 31
0.0
  0
ARC
  5
7AD9
  8
1
  6
CONTINUOUS
 10
1255.682493014293
 20
2973.6338906102301
 30
0.0
 40
20.0
 50
270.0
 51
0.0
  0
LINE
  5
7ADA
  8
1
  6
CONTINUOUS
 10
1170.182493014293
 20
3186.6338906102301
 30
0.0
 11
1170.182493014293
 21
3178.4338906102298
 31
0.0
  0
ARC
  5
7ADB
  8
1
  6
CONTINUOUS
 10
1255.682493014293
 20
3157.633890610231
 30
0.0
 40
20.0
 50
0.0
 51
90.0
  0
LINE
  5
7ADC
  8
1
  6
CONTINUOUS
 10
1632.682493014293
 20
2750.633890610231
 30
0.0
 11
1470.682493014292
 21
2750.633890610231
 31
0.0
  0
LINE
  5
7ADD
  8
1
  6
CONTINUOUS
 10
1357.682493014293
 20
2767.1338906102301
 30
0.0
 11
1548.682493014293
 21
2767.1338906102301
 31
0.0
  0
LINE
  5
7ADE
  8
1
  6
CONTINUOUS
 10
1357.682493014293
 20
3039.1338906102301
 30
0.0
 11
1548.682493014293
 21
3039.1338906102301
 31
0.0
  0
LINE
  5
7ADF
  8
1
  6
CONTINUOUS
 10
1357.682493014293
 20
2767.1338906102301
 30
0.0
 11
1357.682493014293
 21
3039.1338906102301
 31
0.0
  0
LINE
  5
7AE0
  8
1
  6
CONTINUOUS
 10
1522.182493014293
 20
2672.1338906102301
 30
0.0
 11
1395.182493014293
 21
2672.1338906102301
 31
0.0
  0
LINE
  5
7AE1
  8
1
  6
CONTINUOUS
 10
1395.182493014293
 20
2707.1338906102301
 30
0.0
 11
1522.182493014293
 21
2707.1338906102301
 31
0.0
  0
LINE
  5
7AE2
  8
1
  6
CONTINUOUS
 10
1395.182493014293
 20
2672.1338906102301
 30
0.0
 11
1395.182493014293
 21
2707.1338906102301
 31
0.0
  0
LINE
  5
7AE3
  8
1
  6
CONTINUOUS
 10
1446.682493014293
 20
2707.1338906102301
 30
0.0
 11
1446.682493014293
 21
2767.1338906102301
 31
0.0
  0
LINE
  5
7AE4
  8
1
  6
CONTINUOUS
 10
1470.682493014292
 20
2707.1338906102301
 30
0.0
 11
1470.682493014292
 21
2767.1338906102301
 31
0.0
  0
LINE
  5
7AE5
  8
1
  6
CONTINUOUS
 10
1446.682493014293
 20
2672.1338906102301
 30
0.0
 11
1470.682493014292
 21
2672.1338906102301
 31
0.0
  0
LINE
  5
7AE6
  8
1
  6
CONTINUOUS
 10
1522.182493014293
 20
2707.1338906102301
 30
0.0
 11
1522.182493014293
 21
2672.1338906102301
 31
0.0
  0
LINE
  5
7AE7
  8
1
  6
CONTINUOUS
 10
1548.682493014293
 20
3039.1338906102301
 30
0.0
 11
1548.682493014293
 21
2767.1338906102301
 31
0.0
  0
LINE
  5
7AE8
  8
1
  6
CONTINUOUS
 10
1632.682493014293
 20
2750.633890610231
 30
0.0
 11
1632.682493014293
 21
3065.6338906102301
 31
0.0
  0
LINE
  5
7AE9
  8
1
  6
CONTINUOUS
 10
1573.182493014293
 20
2730.6338906102301
 30
0.0
 11
1573.182493014293
 21
2645.633890610231
 31
0.0
  0
LINE
  5
7AEB
  8
1
  6
CONTINUOUS
 10
2038.8698445618641
 20
1343.3033736324321
 30
0.0
 11
2353.8698445618629
 21
1343.3033736324321
 31
0.0
  0
LINE
  5
7AEC
  8
1
  6
CONTINUOUS
 10
2038.8698445618641
 20
1313.3033736324321
 30
0.0
 11
2353.8698445618629
 21
1313.3033736324321
 31
0.0
  0
LINE
  5
7AED
  8
1
  6
CONTINUOUS
 10
2353.8698445618629
 20
1435.3033736324321
 30
0.0
 11
2038.8698445618641
 21
1435.3033736324321
 31
0.0
  0
LINE
  5
7AEE
  8
1
  6
CONTINUOUS
 10
2038.8698445618641
 20
1365.3033736324321
 30
0.0
 11
2353.8698445618629
 21
1365.3033736324321
 31
0.0
  0
LINE
  5
7AEF
  8
1
  6
CONTINUOUS
 10
2232.0698445618632
 20
1852.5033736324319
 30
0.0
 11
2068.0698445618632
 21
1726.3033736324321
 31
0.0
  0
LINE
  5
7AF0
  8
1
  6
CONTINUOUS
 10
1993.8698445618629
 20
1777.903373632432
 30
0.0
 11
2135.0698445618632
 21
1777.903373632432
 31
0.0
  0
LINE
  5
7AF1
  8
1
  6
CONTINUOUS
 10
2068.0698445618632
 20
1726.3033736324321
 30
0.0
 11
2068.0698445618632
 21
1435.3033736324321
 31
0.0
  0
LINE
  5
7AF2
  8
1
  6
CONTINUOUS
 10
1933.8698445618629
 20
1435.403373632432
 30
0.0
 11
1933.8698445618629
 21
1995.3033736324321
 31
0.0
  0
LINE
  5
7AF3
  8
1
  6
CONTINUOUS
 10
2018.8698445618641
 20
1435.403373632432
 30
0.0
 11
2018.8698445618641
 21
1995.3033736324321
 31
0.0
  0
LINE
  5
7AF7
  8
1
  6
CONTINUOUS
 10
2038.8698445618641
 20
1343.3033736324321
 30
0.0
 11
2038.8698445618641
 21
1313.3033736324321
 31
0.0
  0
LINE
  5
7AF8
  8
1
  6
CONTINUOUS
 10
1993.8698445618629
 20
1533.403373632432
 30
0.0
 11
2068.0698445618632
 21
1533.403373632432
 31
0.0
  0
LINE
  5
7AF9
  8
1
  6
CONTINUOUS
 10
1993.8698445618629
 20
1557.403373632432
 30
0.0
 11
2068.0698445618632
 21
1557.403373632432
 31
0.0
  0
LINE
  5
7AFA
  8
1
  6
CONTINUOUS
 10
1933.8698445618629
 20
1435.403373632432
 30
0.0
 11
2018.8698445618641
 21
1435.403373632432
 31
0.0
  0
LINE
  5
7AFB
  8
1
  6
CONTINUOUS
 10
1958.8698445618629
 20
1481.903373632432
 30
0.0
 11
1993.8698445618629
 21
1481.903373632432
 31
0.0
  0
LINE
  5
7AFC
  8
1
  6
CONTINUOUS
 10
1993.8698445618629
 20
1481.903373632432
 30
0.0
 11
1993.8698445618629
 21
1608.903373632432
 31
0.0
  0
LINE
  5
7AFD
  8
1
  6
CONTINUOUS
 10
1993.8698445618629
 20
1608.903373632432
 30
0.0
 11
1958.8698445618629
 21
1608.903373632432
 31
0.0
  0
LINE
  5
7AFE
  8
1
  6
CONTINUOUS
 10
1958.8698445618629
 20
1608.903373632432
 30
0.0
 11
1958.8698445618629
 21
1481.903373632432
 31
0.0
  0
LINE
  5
7AFF
  8
1
  6
CONTINUOUS
 10
2038.8698445618641
 20
1435.3033736324321
 30
0.0
 11
2038.8698445618641
 21
1365.3033736324321
 31
0.0
  0
LINE
  5
7B00
  8
1
  6
CONTINUOUS
 10
1993.8698445618629
 20
1752.903373632432
 30
0.0
 11
2102.669844561864
 21
1752.903373632432
 31
0.0
  0
LINE
  5
7B01
  8
1
  6
CONTINUOUS
 10
1958.8698445618629
 20
1828.903373632432
 30
0.0
 11
1958.8698445618629
 21
1701.903373632432
 31
0.0
  0
LINE
  5
7B02
  8
1
  6
CONTINUOUS
 10
1993.8698445618629
 20
1828.903373632432
 30
0.0
 11
1958.8698445618629
 21
1828.903373632432
 31
0.0
  0
LINE
  5
7B03
  8
1
  6
CONTINUOUS
 10
1993.8698445618629
 20
1701.903373632432
 30
0.0
 11
1993.8698445618629
 21
1828.903373632432
 31
0.0
  0
LINE
  5
7B04
  8
1
  6
CONTINUOUS
 10
1958.8698445618629
 20
1701.903373632432
 30
0.0
 11
1993.8698445618629
 21
1701.903373632432
 31
0.0
  0
LINE
  5
7B05
  8
1
  6
CONTINUOUS
 10
1933.8698445618629
 20
1995.3033736324321
 30
0.0
 11
2018.8698445618641
 21
1995.3033736324321
 31
0.0
  0
LINE
  5
7B06
  8
1
  6
CONTINUOUS
 10
2241.8698445618629
 20
2080.3033736324319
 30
0.0
 11
2241.8698445618629
 21
1563.3033736324321
 31
0.0
  0
LINE
  5
7B07
  8
1
  6
CONTINUOUS
 10
2465.8698445618638
 20
1563.3033736324321
 30
0.0
 11
2465.8698445618638
 21
2080.3033736324319
 31
0.0
  0
LINE
  5
7B08
  8
1
  6
CONTINUOUS
 10
2232.0698445618632
 20
1947.903373632432
 30
0.0
 11
2232.0698445618632
 21
1435.3033736324321
 31
0.0
  0
LINE
  5
7B09
  8
1
  6
CONTINUOUS
 10
2474.8698445618629
 20
1582.8033736324321
 30
0.0
 11
2474.8698445618629
 21
1947.8033736324321
 31
0.0
  0
LINE
  5
7B0A
  8
1
  6
CONTINUOUS
 10
2445.8698445618638
 20
1543.3033736324321
 30
0.0
 11
2261.8698445618629
 21
1543.3033736324321
 31
0.0
  0
ARC
  5
7B0B
  8
1
  6
CONTINUOUS
 10
2261.8698445618629
 20
1563.3033736324321
 30
0.0
 40
20.0
 50
180.0
 51
270.0
  0
LINE
  5
7B0C
  8
1
  6
CONTINUOUS
 10
2232.0698445618632
 20
1582.8033736324321
 30
0.0
 11
2241.8698445618629
 21
1582.8033736324321
 31
0.0
  0
LINE
  5
7B0D
  8
1
  6
CONTINUOUS
 10
2353.8698445618629
 20
1313.3033736324321
 30
0.0
 11
2353.8698445618629
 21
1343.3033736324321
 31
0.0
  0
ARC
  5
7B0E
  8
1
  6
CONTINUOUS
 10
2445.8698445618638
 20
1563.3033736324321
 30
0.0
 40
20.0
 50
270.0
 51
0.0
  0
LINE
  5
7B0F
  8
1
  6
CONTINUOUS
 10
2353.8698445618629
 20
1365.3033736324321
 30
0.0
 11
2353.8698445618629
 21
1435.3033736324321
 31
0.0
  0
LINE
  5
7B10
  8
1
  6
CONTINUOUS
 10
2474.8698445618629
 20
1582.8033736324321
 30
0.0
 11
2465.8698445618638
 21
1582.8033736324321
 31
0.0
  0
LINE
  5
7B11
  8
1
  6
CONTINUOUS
 10
2465.8698445618638
 20
2080.3033736324319
 30
0.0
 11
2241.8698445618629
 21
2080.3033736324319
 31
0.0
  0
LINE
  5
7B12
  8
1
  6
CONTINUOUS
 10
2241.8698445618629
 20
1765.3033736324321
 30
0.0
 11
2465.8698445618638
 21
1765.3033736324321
 31
0.0
  0
LINE
  5
7B13
  8
1
  6
CONTINUOUS
 10
2241.8698445618629
 20
2080.3033736324319
 30
0.0
 11
2465.8698445618638
 21
1765.3033736324321
 31
0.0
  0
LINE
  5
7B14
  8
1
  6
CONTINUOUS
 10
2241.8698445618629
 20
1765.3033736324321
 30
0.0
 11
2465.8698445618638
 21
2080.3033736324319
 31
0.0
  0
LINE
  5
7B15
  8
1
  6
CONTINUOUS
 10
2232.0698445618632
 20
1947.8033736324321
 30
0.0
 11
2242.0698445618632
 21
1947.8033736324321
 31
0.0
  0
LINE
  5
7B16
  8
1
  6
CONTINUOUS
 10
2474.8698445618629
 20
1947.8033736324321
 30
0.0
 11
2465.669844561864
 21
1947.8033736324321
 31
0.0
  0
LINE
  5
7B17
  8
1
  6
CONTINUOUS
 10
2353.8698445618629
 20
2080.3033736324319
 30
0.0
 11
2465.8698445618638
 21
2080.3033736324319
 31
0.0
  0
LINE
  5
7B18
  8
4
  6
CONTINUOUS
 10
2775.0
 20
750.0
 30
0.0
 11
2775.0
 21
450.0
 31
0.0
  0
LINE
  5
7B19
  8
4
  6
CONTINUOUS
 10
1725.0
 20
750.0
 30
0.0
 11
1725.0
 21
450.0
 31
0.0
  0
LINE
  5
7B1A
  8
4
  6
CONTINUOUS
 10
975.0
 20
750.0
 30
0.0
 11
975.0
 21
450.0
 31
0.0
  0
LINE
  5
7B1D
  8
4
  6
CONTINUOUS
 10
975.0
 20
450.0
 30
0.0
 11
2775.0
 21
450.0
 31
0.0
  0
LINE
  5
7B1E
  8
4
  6
CONTINUOUS
 10
975.0
 20
600.0
 30
0.0
 11
2775.0
 21
600.0
 31
0.0
  0
TEXT
  5
7B1F
  8
4
  6
CONTINUOUS
 10
1032.753121
 20
647.31453899999985
 30
0.0
 40
75.0
  1
機器名称
  0
TEXT
  5
7B20
  8
4
  6
CONTINUOUS
 10
1029.387158999999
 20
482.46773499999989
 30
0.0
 40
75.0
  1
機器型番
  0
TEXT
  5
7B21
  8
4
  6
CONTINUOUS
 10
1766.518118
 20
633.85765300000003
 30
0.0
 40
65.0
  1
ミツヤニューマルチファン
  0
TEXT
  5
7B22
  8
4
  6
CONTINUOUS
 10
1779.9817430000001
 20
475.73937599999999
 30
0.0
 40
75.0
  1
NM#2-1
  0
TEXT
  5
7B24
  8
4
  6
CONTINUOUS
 10
1086.0107029999999
 20
3575.1432619999991
 30
0.0
 40
81.0
  1
床置防振ベット
  0
TEXT
  5
7B25
  8
4
  6
CONTINUOUS
 10
474.25139000000001
 20
3800.8214640000001
 30
0.0
 40
108.0
  1
ベルト駆動式片吸込片持多翼ファン
  0
LINE
  5
7B26
  8
4
  6
CONTINUOUS
 10
375.0
 20
3704.1131310000001
 30
0.0
 11
2775.0
 21
3704.1131310000001
 31
0.0
  0
LINE
  5
7B27
  8
4
  6
CONTINUOUS
 10
375.0
 20
4004.1131310000001
 30
0.0
 11
2775.0
 21
4004.1131310000001
 31
0.0
  0
LINE
  5
7B28
  8
4
  6
CONTINUOUS
 10
975.0
 20
750.0
 30
0.0
 11
2775.0
 21
750.0
 31
0.0
  0
LINE
  5
7B29
  8
4
  6
CONTINUOUS
 10
375.0
 20
4004.1131310000001
 30
0.0
 11
375.0
 21
3704.1131310000001
 31
0.0
  0
TEXT
  5
7B2A
  8
4
  6
CONTINUOUS
 10
432.22245499999991
 20
3573.4792159999988
 30
0.0
 40
81.0
  1
左回転左横向
  0
TEXT
  5
7B2B
  8
4
  6
CONTINUOUS
 10
2203.454338999999
 20
4059.091621999999
 30
0.0
 40
84.0
  1
No.
  0
TEXT
  5
7B2C
  8
4
  6
CONTINUOUS
 10
1966.944094
 20
3575.1432619999991
 30
0.0
 40
81.0
  1
縮尺：1/15
  0
LINE
  5
7B2D
  8
4
  6
CONTINUOUS
 10
2775.0
 20
4004.1131310000001
 30
0.0
 11
2775.0
 21
3704.1131310000001
 31
0.0
  0
LINE
  5
7B2F
  8
4
  6
CONTINUOUS
 10
2160.9261339999989
 20
4021.8953750000001
 30
0.0
 11
2160.9261339999989
 21
4179.978392
 31
0.0
  0
LINE
  5
7B30
  8
4
  6
CONTINUOUS
 10
2160.9261339999989
 20
4179.978392
 30
0.0
 11
2775.0
 21
4179.978392
 31
0.0
  0
LINE
  5
7B31
  8
4
  6
CONTINUOUS
 10
2775.0
 20
4179.978392
 30
0.0
 11
2775.0
 21
4021.8953750000001
 31
0.0
  0
LINE
  5
7B32
  8
4
  6
CONTINUOUS
 10
2775.0
 20
4021.8953750000001
 30
0.0
 11
2160.9261339999989
 21
4021.8953750000001
 31
0.0
  0
DIMENSION
  5
7B4A
  8
3
  6
CONTINUOUS
  2
*D1
 10
987.68249301429285
 20
1192.704440749804
 30
0.0
 11
848.43582901429261
 21
1192.704440749804
 31
0.0
 70
   128
 13
722.68249301429285
 23
1313.3033736324321
 33
0.0
 14
987.68249301429285
 24
1242.4284246324321
 34
0.0
1001
ACAD
1000
DSTYLE
1002
{
1070
   287
1070
     3
1070
   287
1070
     3
1070
    40
1040
15.0
1070
   143
1040
0.039
1070
   172
1070
     1
1070
   271
1070
     0
1070
   279
1070
     0
1070
   288
1070
     1
1002
}
  0
DIMENSION
  5
7B56
  8
3
  6
CONTINUOUS
  2
*D2
 10
1632.682493014293
 20
1192.704440749804
 30
0.0
 11
1310.182493014293
 21
1230.204440749804
 31
0.0
 70
     0
 13
987.68249301429285
 23
1242.4284246324321
 33
0.0
 14
1632.682493014293
 24
1313.3033736324321
 34
0.0
1001
ACAD
1000
DSTYLE
1002
{
1070
   287
1070
     4
1070
   287
1070
     4
1070
    40
1040
15.0
1070
    75
1070
     1
1070
   143
1040
0.039
1070
   172
1070
     1
1070
   271
1070
     0
1070
   279
1070
     1
1070
   288
1070
     1
1002
}
  0
DIMENSION
  5
7BB3
  8
3
  6
CONTINUOUS
  2
*D3
 10
674.1132340142932
 20
1765.3033736324321
 30
0.0
 11
674.11323401429308
 21
1931.1853276324321
 31
0.0
 70
   128
 13
737.68249301429285
 23
2080.3033736324319
 33
0.0
 14
737.68249301429285
 24
1765.3033736324321
 34
0.0
 50
90.0
1001
ACAD
1000
DSTYLE
1002
{
1070
   287
1070
     3
1070
   287
1070
     3
1070
    40
1040
15.0
1070
   143
1040
0.039
1070
   172
1070
     1
1070
   271
1070
     0
1070
   279
1070
     0
1070
   288
1070
     1
1002
}
  0
DIMENSION
  5
7BC0
  8
3
  6
CONTINUOUS
  2
*D4
 10
583.20839701429327
 20
1765.3033736324321
 30
0.0
 11
583.20839701429304
 21
1931.1853276324321
 31
0.0
 70
   128
 13
757.68249301429296
 23
2090.3033736324319
 33
0.0
 14
737.68249301429285
 24
1765.3033736324321
 34
0.0
 50
90.0
1001
ACAD
1000
DSTYLE
1002
{
1070
   287
1070
     3
1070
   287
1070
     3
1070
    40
1040
15.0
1070
   143
1040
0.039
1070
   172
1070
     1
1070
   271
1070
     0
1070
   279
1070
     0
1070
   288
1070
     1
1002
}
  0
DIMENSION
  5
7BCC
  8
3
  6
CONTINUOUS
  2
*D5
 10
583.20839701429304
 20
1365.3033736324321
 30
0.0
 11
545.70839701429281
 21
1565.3033736324321
 31
0.0
 70
     0
 13
737.68249301429285
 23
1765.3033736324321
 33
0.0
 14
752.68249301429285
 24
1365.3033736324321
 34
0.0
 50
90.0
1001
ACAD
1000
DSTYLE
1002
{
1070
   287
1070
     4
1070
   287
1070
     4
1070
    40
1040
15.0
1070
    75
1070
     1
1070
   143
1040
0.039
1070
   172
1070
     1
1070
   271
1070
     0
1070
   279
1070
     1
1070
   288
1070
     1
1002
}
  0
DIMENSION
  5
7C03
  8
3
  6
CONTINUOUS
  2
*D6
 10
484.28254901429329
 20
1313.3033736324321
 30
0.0
 11
484.28254901429312
 21
1696.1562786324321
 31
0.0
 70
   128
 13
737.68249301429285
 23
2101.8033736324319
 33
0.0
 14
722.68249301429285
 24
1313.3033736324321
 34
0.0
 50
90.0
1001
ACAD
1000
DSTYLE
1002
{
1070
   287
1070
     3
1070
   287
1070
     3
1070
    40
1040
15.0
1070
   143
1040
0.039
1070
   172
1070
     1
1070
   271
1070
     0
1070
   279
1070
     0
1070
   288
1070
     1
1002
}
  0
DIMENSION
  5
7C10
  8
3
  6
CONTINUOUS
  2
*D7
 10
987.68249301429285
 20
2174.4924396324318
 30
0.0
 11
861.27026701429304
 21
2174.4924396324318
 31
0.0
 70
   128
 13
737.68249301429285
 23
2101.8033736324319
 33
0.0
 14
987.68249301429285
 24
2089.2158396324321
 34
0.0
1001
ACAD
1000
DSTYLE
1002
{
1070
   287
1070
     3
1070
   287
1070
     3
1070
    40
1040
15.0
1070
   143
1040
0.039
1070
   172
1070
     1
1070
   271
1070
     0
1070
   279
1070
     0
1070
   288
1070
     1
1002
}
  0
DIMENSION
  5
7C1C
  8
3
  6
CONTINUOUS
  2
*D8
 10
1261.682493014292
 20
2174.4924396324318
 30
0.0
 11
1124.682493014293
 21
2211.9924396324318
 31
0.0
 70
     0
 13
987.68249301429285
 23
2089.2158396324321
 33
0.0
 14
1261.682493014292
 24
1765.3033736324321
 34
0.0
1001
ACAD
1000
DSTYLE
1002
{
1070
   287
1070
     4
1070
   287
1070
     4
1070
    40
1040
15.0
1070
    75
1070
     1
1070
   143
1040
0.039
1070
   172
1070
     1
1070
   271
1070
     0
1070
   279
1070
     1
1070
   288
1070
     1
1002
}
  0
DIMENSION
  5
7C29
  8
3
  6
CONTINUOUS
  2
*D9
 10
1632.682493014293
 20
2514.6073206102301
 30
0.0
 11
1205.7587330142931
 21
2514.6073206102301
 31
0.0
 70
   128
 13
722.68249301429285
 23
2750.633890610231
 33
0.0
 14
1632.682493014293
 24
2750.633890610231
 34
0.0
1001
ACAD
1000
DSTYLE
1002
{
1070
   287
1070
     3
1070
   287
1070
     3
1070
    40
1040
15.0
1070
   143
1040
0.039
1070
   172
1070
     1
1070
   271
1070
     0
1070
   279
1070
     0
1070
   288
1070
     1
1002
}
  0
DIMENSION
  5
7C37
  8
3
  6
CONTINUOUS
  2
*D10
 10
1780.3040520142929
 20
2750.633890610231
 30
0.0
 11
1780.304052014292
 21
2904.9691856102299
 31
0.0
 70
   128
 13
1632.682493014293
 23
3065.6338906102301
 33
0.0
 14
1632.682493014293
 24
2750.633890610231
 34
0.0
 50
90.0
1001
ACAD
1000
DSTYLE
1002
{
1070
   287
1070
     3
1070
   287
1070
     3
1070
    40
1040
15.0
1070
   143
1040
0.039
1070
   172
1070
     1
1070
   271
1070
     0
1070
   279
1070
     0
1070
   288
1070
     1
1002
}
  0
LINE
  5
7C38
  8
2
  6
CENTER
 10
1308.2478120142921
 20
3065.6338906102301
 30
0.0
 11
682.38750001429298
 21
3065.6338906102301
 31
0.0
  0
LINE
  5
7C3A
  8
2
  6
CENTER
 10
2353.8698445618629
 20
2139.9064585370288
 30
0.0
 11
2353.8698445618629
 21
1274.419186537029
 31
0.0
  0
DIMENSION
  5
7C47
  8
3
  6
CONTINUOUS
  2
*D11
 10
2465.8698445618638
 20
2133.2601626324322
 30
0.0
 11
2345.7984155618628
 21
2133.2601626324322
 31
0.0
 70
   128
 13
2241.8698445618629
 23
2080.3033736324319
 33
0.0
 14
2465.8698445618638
 24
2080.3033736324319
 34
0.0
1001
ACAD
1000
DSTYLE
1002
{
1070
   287
1070
     3
1070
   287
1070
     3
1070
    40
1040
15.0
1070
   143
1040
0.039
1070
   172
1070
     1
1070
   271
1070
     0
1070
   279
1070
     0
1070
   288
1070
     1
1002
}
  0
DIMENSION
  5
7C54
  8
3
  6
CONTINUOUS
  2
*D12
 10
2353.8698445618629
 20
2229.0524819222792
 30
0.0
 11
2150.4457135618641
 21
2229.0524819222792
 31
0.0
 70
   128
  1
MAX\P420
 13
1933.8698445618629
 23
1995.3033736324321
 33
0.0
 14
2353.8698445618629
 24
2202.775339632432
 34
0.0
1001
ACAD
1000
DSTYLE
1002
{
1070
   287
1070
     3
1070
   287
1070
     3
1070
    40
1040
15.0
1070
   143
1040
0.039
1070
   172
1070
     1
1070
   271
1070
     0
1070
   279
1070
     0
1070
   288
1070
     1
1002
}
  0
DIMENSION
  5
7C62
  8
3
  6
CONTINUOUS
  2
*D13
 10
2474.8698445618629
 20
2229.0524819222792
 30
0.0
 11
2406.316112561864
 21
2229.5148219222792
 31
0.0
 70
   128
 13
2353.8698445618629
 23
2202.775339632432
 33
0.0
 14
2474.8698445618629
 24
1947.8033736324321
 34
0.0
1001
ACAD
1000
DSTYLE
1002
{
1070
   287
1070
     4
1070
   287
1070
     4
1070
    40
1040
15.0
1070
    75
1070
     1
1070
   143
1040
0.039
1070
   172
1070
     1
1070
   271
1070
     0
1070
   279
1070
     1
1070
   288
1070
     1
1002
}
  0
LINE
  5
7C7A
  8
3
  6
CONTINUOUS
 10
2474.8698445618629
 20
1922.8033736324321
 30
0.0
 11
2488.7858255618639
 21
1922.8033736324321
 31
0.0
  0
LINE
  5
7C7C
  8
3
  6
CONTINUOUS
 10
2474.8698445618629
 20
1607.8033736324321
 30
0.0
 11
2492.6685825618629
 21
1607.8033736324321
 31
0.0
  0
DIMENSION
  5
7C89
  8
3
  6
CONTINUOUS
  2
*D14
 10
2574.206173561864
 20
1607.8033736324321
 30
0.0
 11
2574.2061735618631
 21
1766.7974526324319
 31
0.0
 70
   128
 13
2474.8698445618629
 23
1922.8033736324321
 33
0.0
 14
2474.8698445618629
 24
1607.8033736324321
 34
0.0
 50
90.0
1001
ACAD
1000
DSTYLE
1002
{
1070
   287
1070
     3
1070
   287
1070
     3
1070
     3
1000
φ<>
1070
    40
1040
15.0
1070
   143
1040
0.039
1070
   172
1070
     1
1070
   271
1070
     0
1070
   279
1070
     0
1070
   288
1070
     1
1002
}
  0
DIMENSION
  5
7C96
  8
3
  6
CONTINUOUS
  2
*D15
 10
2353.8698445618629
 20
1193.0417924534181
 30
0.0
 11
2198.8402195618628
 21
1193.0417924534181
 31
0.0
 70
   128
 13
2038.8698445618641
 23
1313.3033736324321
 33
0.0
 14
2353.8698445618629
 24
1313.3033736324321
 34
0.0
1001
ACAD
1000
DSTYLE
1002
{
1070
   287
1070
     3
1070
   287
1070
     3
1070
    40
1040
15.0
1070
   143
1040
0.039
1070
   172
1070
     1
1070
   271
1070
     0
1070
   279
1070
     0
1070
   288
1070
     1
1002
}
  0
LINE
  5
7C97
  8
2
  6
CENTER
 10
1493.573403014293
 20
1765.3033736324321
 30
0.0
 11
715.63611701429272
 21
1765.3033736324321
 31
0.0
  0
ARC
  5
7CB5
  8
1
  6
CONTINUOUS
 10
1005.682493014293
 20
1747.3033736324321
 30
0.0
 40
215.0
 50
188.59999999999991
 51
280.60000000000002
  0
LINE
  5
7CB6
  8
1
  6
CONTINUOUS
 10
757.68249301429296
 20
2090.3033736324319
 30
0.0
 11
962.18249301429285
 21
2090.3033736324319
 31
0.0
  0
ARC
  5
7CCD
  8
1
  6
CONTINUOUS
 10
719.68249301429296
 20
1688.3033736324321
 30
0.0
 40
78.0
 50
18.800000000000001
 51
60.799999999999997
  0
LINE
  5
7CCE
  8
1
  6
CONTINUOUS
 10
757.68249301429296
 20
1756.403373632432
 30
0.0
 11
757.68249301429296
 21
1765.3033736324321
 31
0.0
  0
LINE
  5
7CCF
  8
1
  6
CONTINUOUS
 10
757.68249301429296
 20
1765.3033736324321
 30
0.0
 11
737.68249301429285
 21
1765.3033736324321
 31
0.0
  0
LINE
  5
7CD1
  8
1
  6
CONTINUOUS
 10
757.68249301429296
 20
2080.3033736324319
 30
0.0
 11
757.68249301429296
 21
2090.3033736324319
 31
0.0
  0
LINE
  5
7CD2
  8
1
  6
CONTINUOUS
 10
737.68249301429285
 20
2080.3033736324319
 30
0.0
 11
757.68249301429296
 21
2080.3033736324319
 31
0.0
  0
LINE
  5
7CD8
  8
1
  6
CONTINUOUS
 10
722.68249301429285
 20
3065.6338906102301
 30
0.0
 11
737.68249301429285
 21
3065.6338906102301
 31
0.0
  0
ARC
  5
7CE0
  8
1
  6
CONTINUOUS
 10
962.18249301429285
 20
1790.8033736324321
 30
0.0
 40
299.5
 50
349.39999999999992
 51
90.0
  0
ARC
  5
7CE3
  8
1
  6
CONTINUOUS
 10
1008.682493014293
 20
1786.3033736324321
 30
0.0
 40
253.0
 50
278.19999999999999
 51
348.39999999999998
  0
LINE
  5
7CED
  8
1
  6
CONTINUOUS
 10
1550.5824930142919
 20
1455.3033736324321
 30
0.0
 11
1539.182493014292
 21
1484.3033736324321
 31
0.0
  0
CIRCLE
  5
7CEE
  8
1
  6
CONTINUOUS
 10
1458.682493014292
 20
1545.3033736324321
 30
0.0
 40
53.0
  0
LINE
  5
7CEF
  8
2
  6
CENTER
 10
1511.682493014292
 20
1545.3033736324321
 30
0.0
 11
1405.682493014293
 21
1545.3033736324321
 31
0.0
  0
LINE
  5
7CF1
  8
2
  6
CENTER
 10
1458.682493014292
 20
1492.3033736324321
 30
0.0
 11
1458.682493014292
 21
1598.3033736324321
 31
0.0
  0
LINE
  5
7D30
  8
1
  6
CONTINUOUS
 10
2232.0698445618632
 20
1582.8033736324321
 30
0.0
 11
2241.8698445618629
 21
1582.8033736324321
 31
0.0
  0
LINE
  5
7D34
  8
1
  6
CONTINUOUS
 10
2474.8698445618629
 20
1582.8033736324321
 30
0.0
 11
2465.8698445618638
 21
1582.8033736324321
 31
0.0
  0
LINE
  5
7D36
  8
1
  6
CONTINUOUS
 10
2241.8698445618629
 20
1765.3033736324321
 30
0.0
 11
2465.8698445618638
 21
1765.3033736324321
 31
0.0
  0
LINE
  5
7D37
  8
1
  6
CONTINUOUS
 10
2241.8698445618629
 20
2080.3033736324319
 30
0.0
 11
2465.8698445618638
 21
1765.3033736324321
 31
0.0
  0
LINE
  5
7D38
  8
1
  6
CONTINUOUS
 10
2241.8698445618629
 20
1765.3033736324321
 30
0.0
 11
2465.8698445618638
 21
2080.3033736324319
 31
0.0
  0
LINE
  5
7D39
  8
1
  6
CONTINUOUS
 10
2232.0698445618632
 20
1947.8033736324321
 30
0.0
 11
2242.0698445618632
 21
1947.8033736324321
 31
0.0
  0
LINE
  5
7D3A
  8
1
  6
CONTINUOUS
 10
2474.8698445618629
 20
1947.8033736324321
 30
0.0
 11
2465.669844561864
 21
1947.8033736324321
 31
0.0
  0
LINE
  5
7D3B
  8
1
  6
CONTINUOUS
 10
2353.8698445618629
 20
2080.3033736324319
 30
0.0
 11
2465.8698445618638
 21
2080.3033736324319
 31
0.0
  0
DIMENSION
  5
7DA3
  8
3
  6
CONTINUOUS
  2
*D16
 10
583.20839701429327
 20
1313.3033736324321
 30
0.0
 11
583.20839701429304
 21
1201.874802203861
 31
0.0
 70
   128
 13
752.68249301429285
 23
1365.3033736324321
 33
0.0
 14
722.68249301429285
 24
1313.3033736324321
 34
0.0
 50
90.0
1001
ACAD
1000
DSTYLE
1002
{
1070
   287
1070
     3
1070
   287
1070
     3
1070
    40
1040
15.0
1070
   143
1040
0.039
1070
   172
1070
     1
1070
   271
1070
     0
1070
   279
1070
     0
1070
   288
1070
     1
1002
}
  0
LINE
  5
7E0D
  8
3
  6
CONTINUOUS
 10
2474.8698445618629
 20
1922.8033736324321
 30
0.0
 11
2488.7858255618639
 21
1922.8033736324321
 31
0.0
  0
LINE
  5
7E0E
  8
3
  6
CONTINUOUS
 10
2474.8698445618629
 20
1607.8033736324321
 30
0.0
 11
2492.6685825618629
 21
1607.8033736324321
 31
0.0
  0
LINE
  5
7E3A
  8
2
  6
CENTER
 10
987.68249301429285
 20
3226.0786276508989
 30
0.0
 11
987.68249301429285
 21
2629.719255436712
 31
0.0
  0
DIMENSION
  5
7EC7
  8
3
  2
*D17
 10
1632.682493014293
 20
2280.4268691087341
 30
0.0
 11
1201.559958972708
 21
2280.4268691087341
 31
0.0
 70
   128
 13
737.68249301429285
 23
2101.8033736324319
 33
0.0
 14
1632.682493014293
 24
1343.3033736324321
 34
0.0
1001
ACAD
1000
DSTYLE
1002
{
1070
   287
1070
     3
1070
   287
1070
     3
1070
    40
1040
15.0
1070
   143
1040
0.039
1070
   172
1070
     1
1070
   271
1070
     0
1070
   279
1070
     0
1070
   288
1070
     1
1002
}
  0
ENDSEC
  0
EOF
