  0
SECTION
  2
HEADER
  9
$ACADVER
  1
AC1009
  9
$INSBASE
 10
0.0
 20
0.0
 30
0.0
  9
$EXTMIN
 10
375.0
 20
450.0
 30
0.0
  9
$EXTMAX
 10
2775.0
 20
4179.978392
 30
0.0
  9
$LIMMIN
 10
0.0
 20
0.0
  9
$LIMMAX
 10
297.0
 20
210.0
  9
$ORTHOMODE
 70
     0
  9
$REGENMODE
 70
     1
  9
$FILLMODE
 70
     0
  9
$QTEXTMODE
 70
     0
  9
$MIRRTEXT
 70
     1
  9
$DRAGMODE
 70
     2
  9
$LTSCALE
 40
100.0
  9
$OSMODE
 70
    37
  9
$ATTMODE
 70
     1
  9
$TEXTSIZE
 40
180.0
  9
$TRACEWID
 40
0.05
  9
$TEXTSTYLE
  7
STANDARD
  9
$CLAYER
  8
3
  9
$CELTYPE
  6
BYLAYER
  9
$CECOLOR
 62
   256
  9
$DIMSCALE
 40
15.0
  9
$DIMASZ
 40
2.0
  9
$DIMEXO
 40
0.5
  9
$DIMDLI
 40
10.0
  9
$DIMRND
 40
0.0
  9
$DIMDLE
 40
0.0
  9
$DIMEXE
 40
1.0
  9
$DIMTP
 40
1.0
  9
$DIMTM
 40
1.0
  9
$DIMTXT
 40
3.0
  9
$DIMCEN
 40
0.0
  9
$DIMTSZ
 40
0.0
  9
$DIMTOL
 70
     0
  9
$DIMLIM
 70
     0
  9
$DIMTIH
 70
     0
  9
$DIMTOH
 70
     0
  9
$DIMSE1
 70
     0
  9
$DIMSE2
 70
     0
  9
$DIMTAD
 70
     1
  9
$DIMZIN
 70
     8
  9
$DIMBLK
  1

  9
$DIMASO
 70
     1
  9
$DIMSHO
 70
     1
  9
$DIMPOST
  1

  9
$DIMAPOST
  1

  9
$DIMALT
 70
     0
  9
$DIMALTD
 70
     2
  9
$DIMALTF
 40
0.039
  9
$DIMLFAC
 40
1.0
  9
$DIMTOFL
 70
     1
  9
$DIMTVP
 40
0.0
  9
$DIMTIX
 70
     0
  9
$DIMSOXD
 70
     0
  9
$DIMSAH
 70
     1
  9
$DIMBLK1
  1
OPEN
  9
$DIMBLK2
  1
OPEN
  9
$DIMSTYLE
  2
IGA
  9
$DIMCLRD
 70
     0
  9
$DIMCLRE
 70
     0
  9
$DIMCLRT
 70
     0
  9
$DIMTFAC
 40
10.0
  9
$DIMGAP
 40
1.0
  9
$LUNITS
 70
     2
  9
$LUPREC
 70
     3
  9
$SKETCHINC
 40
0.1
  9
$FILLETRAD
 40
50.0
  9
$AUNITS
 70
     0
  9
$AUPREC
 70
     0
  9
$MENU
  1
acad
  9
$ELEVATION
 40
0.0
  9
$PELEVATION
 40
0.0
  9
$THICKNESS
 40
0.0
  9
$LIMCHECK
 70
     0
  9
$BLIPMODE
 70
     0
  9
$CHAMFERA
 40
0.5
  9
$CHAMFERB
 40
0.5
  9
$SKPOLY
 70
     0
  9
$TDCREATE
 40
2450745.5757634249
  9
$TDUPDATE
 40
2454953.866108912
  9
$TDINDWG
 40
0.0039810417
  9
$TDUSRTIMER
 40
0.0039810417
  9
$USRTIMER
 70
     1
  9
$ANGBASE
 50
0.0
  9
$ANGDIR
 70
     0
  9
$PDMODE
 70
     0
  9
$PDSIZE
 40
0.0
  9
$PLINEWID
 40
0.0
  9
$COORDS
 70
     1
  9
$SPLFRAME
 70
     0
  9
$SPLINETYPE
 70
     6
  9
$SPLINESEGS
 70
     8
  9
$ATTDIA
 70
     0
  9
$ATTREQ
 70
     1
  9
$HANDLING
 70
 10241
  9
$HANDSEED
  5
7E56
  9
$SURFTAB1
 70
     6
  9
$SURFTAB2
 70
     6
  9
$SURFTYPE
 70
     6
  9
$SURFU
 70
     6
  9
$SURFV
 70
     6
  9
$UCSNAME
  2

  9
$UCSORG
 10
0.0
 20
0.0
 30
0.0
  9
$UCSXDIR
 10
1.0
 20
0.0
 30
0.0
  9
$UCSYDIR
 10
0.0
 20
1.0
 30
0.0
  9
$PUCSNAME
  2

  9
$PUCSORG
 10
0.0
 20
0.0
 30
0.0
  9
$PUCSXDIR
 10
1.0
 20
0.0
 30
0.0
  9
$PUCSYDIR
 10
0.0
 20
1.0
 30
0.0
  9
$USERI1
 70
     0
  9
$USERI2
 70
     0
  9
$USERI3
 70
     0
  9
$USERI4
 70
     0
  9
$USERI5
 70
     0
  9
$USERR1
 40
0.0
  9
$USERR2
 40
0.0
  9
$USERR3
 40
0.0
  9
$USERR4
 40
0.0
  9
$USERR5
 40
0.0
  9
$WORLDVIEW
 70
     1
  9
$SHADEDGE
 70
     3
  9
$SHADEDIF
 70
    70
  9
$TILEMODE
 70
     1
  9
$MAXACTVP
 70
    16
  9
$PLIMCHECK
 70
     0
  9
$PEXTMIN
 10
1.0000000000000000E+020
 20
1.0000000000000000E+020
 30
1.0000000000000000E+020
  9
$PEXTMAX
 10
-1.0000000000000000E+020
 20
-1.0000000000000000E+020
 30
-1.0000000000000000E+020
  9
$PLIMMIN
 10
0.0
 20
0.0
  9
$PLIMMAX
 10
12.0
 20
9.0
  9
$UNITMODE
 70
     0
  9
$VISRETAIN
 70
     0
  9
$PLINEGEN
 70
     0
  9
$PSLTSCALE
 70
     1
  0
ENDSEC
  0
SECTION
  2
TABLES
  0
TABLE
  2
VPORT
 70
     2
  0
VPORT
  2
*ACTIVE
 70
     0
 10
0.0
 20
0.0
 11
1.0
 21
1.0
 12
4359.8613038784306
 22
2953.6071402908019
 13
0.0
 23
0.0
 14
10.0
 24
10.0
 15
10.0
 25
10.0
 16
0.0
 26
0.0
 36
1.0
 17
0.0
 27
0.0
 37
0.0
 40
5790.646323821431
 41
1.5051150895140659
 42
50.0
 43
0.0
 44
0.0
 50
0.0
 51
0.0
 71
     0
 72
   100
 73
     1
 74
     0
 75
     0
 76
     0
 77
     0
 78
     0
  0
ENDTAB
  0
TABLE
  2
LTYPE
 70
     2
  0
LTYPE
  2
CONTINUOUS
 70
     0
  3
Solid line
 72
    65
 73
     0
 40
0.0
  0
LTYPE
  2
CENTER
 70
     0
  3
____ _ ____ _ ____ _ ____ _ ____ _ ____ _ ____ 
 72
    65
 73
     4
 40
2.0
 49
1.25
 49
-0.25
 49
0.25
 49
-0.25
  0
ENDTAB
  0
TABLE
  2
LAYER
 70
     6
  0
LAYER
  2
0
 70
     0
 62
     7
  6
CONTINUOUS
  0
LAYER
  2
3
 70
     0
 62
     2
  6
CONTINUOUS
  0
LAYER
  2
2
 70
     0
 62
     3
  6
CENTER
  0
LAYER
  2
1
 70
     0
 62
     4
  6
CONTINUOUS
  0
LAYER
  2
4
 70
     0
 62
     7
  6
CONTINUOUS
  0
LAYER
  2
DEFPOINTS
 70
     0
 62
     7
  6
CONTINUOUS
  0
ENDTAB
  0
TABLE
  2
STYLE
 70
     1
  0
STYLE
  2
STANDARD
 70
     0
 40
0.0
 41
1.0
 50
0.0
 71
     0
 42
180.0
  3
simplex.shx
  4
extfont.shx
  0
ENDTAB
  0
TABLE
  2
VIEW
 70
     0
  0
ENDTAB
  0
TABLE
  2
UCS
 70
     0
  0
ENDTAB
  0
TABLE
  2
APPID
 70
     1
  0
APPID
  2
ACAD
 70
     0
  0
ENDTAB
  0
TABLE
  2
DIMSTYLE
 70
     1
  0
DIMSTYLE
  2
IGA
 70
     0
  3

  4

  5

  6
OPEN
  7
OPEN
 40
2.0
 41
2.0
 42
0.5
 43
10.0
 44
1.0
 45
0.0
 46
0.0
 47
1.0
 48
1.0
140
3.0
141
0.0
142
0.0
143
0.03937
144
1.0
145
0.0
146
10.0
147
1.0
 71
     0
 72
     0
 73
     0
 74
     0
 75
     0
 76
     0
 77
     1
 78
     8
170
     0
171
     2
172
     0
173
     1
174
     0
175
     0
176
     0
177
     0
178
     0
  0
ENDTAB
  0
ENDSEC
  0
SECTION
  2
BLOCKS
  0
BLOCK
  8
0
  2
$MODEL_SPACE
 70
     0
 10
0.0
 20
0.0
 30
0.0
  3
$MODEL_SPACE
  1

  0
ENDBLK
  5
1B
  8
0
  0
BLOCK
 67
     1
  8
0
  2
$PAPER_SPACE
 70
     0
 10
0.0
 20
0.0
 30
0.0
  3
$PAPER_SPACE
  1

  0
ENDBLK
  5
18
 67
     1
  8
0
  0
BLOCK
  8
0
  2
_OPEN
 70
     0
 10
0.0
 20
0.0
 30
0.0
  3
_OPEN
  1

  0
LINE
  5
7B23
  8
0
  6
BYBLOCK
 62
     0
 10
-1.0
 20
0.166667
 30
0.0
 11
0.0
 21
0.0
 31
0.0
  0
LINE
  5
7B24
  8
0
  6
BYBLOCK
 62
     0
 10
0.0
 20
0.0
 30
0.0
 11
-1.0
 21
-0.166667
 31
0.0
  0
LINE
  5
7B25
  8
0
  6
BYBLOCK
 62
     0
 10
0.0
 20
0.0
 30
0.0
 11
-1.0
 21
0.0
 31
0.0
  0
ENDBLK
  5
7B26
  8
0
  0
BLOCK
  8
0
  2
*D1
 70
     1
 10
0.0
 20
0.0
 30
0.0
  3
*D1
  1

  0
LINE
  5
7DAF
  8
3
  6
CONTINUOUS
 62
     0
 10
867.78126799999995
 20
1335.1095712030919
 30
0.0
 11
867.78126799999995
 21
1213.860688203092
 31
0.0
  0
LINE
  5
7DB0
  8
3
  6
CONTINUOUS
 62
     0
 10
1102.781267999999
 20
1310.1455882030921
 30
0.0
 11
1102.781267999999
 21
1213.860688203092
 31
0.0
  0
LINE
  5
7DB1
  8
3
  6
CONTINUOUS
 62
     0
 10
897.78126799999995
 20
1228.860688203092
 30
0.0
 11
1072.781267999999
 21
1228.860688203092
 31
0.0
  0
INSERT
  5
7DB2
  8
3
  6
CONTINUOUS
 62
     0
  2
_OPEN
 10
867.78126799999995
 20
1228.860688203092
 30
0.0
 41
30.0
 42
30.0
 43
30.0
 50
180.0
  0
INSERT
  5
7DB3
  8
3
  6
CONTINUOUS
 62
     0
  2
_OPEN
 10
1102.781267999999
 20
1228.860688203092
 30
0.0
 41
30.0
 42
30.0
 43
30.0
  0
TEXT
  8
3
  40
45
  5
7E44
  62
0
  72
0
  71
0
 10
909.924
 20
1186.71
 30
0.000000
  1
235
  0
POINT
  5
7DB5
  8
DEFPOINTS
  6
CONTINUOUS
 62
     0
 10
867.78126799999995
 20
1342.6095712030919
 30
0.0
  0
POINT
  5
7DB6
  8
DEFPOINTS
  6
CONTINUOUS
 62
     0
 10
1102.781267999999
 20
1317.6455882030921
 30
0.0
  0
POINT
  5
7DB7
  8
DEFPOINTS
  6
CONTINUOUS
 62
     0
 10
1102.781267999999
 20
1228.860688203092
 30
0.0
  0
ENDBLK
  5
7B33
  8
0
  0
BLOCK
  8
0
  2
*D2
 70
     1
 10
0.0
 20
0.0
 30
0.0
  3
*D2
  1

  0
LINE
  5
7DB8
  8
3
  6
CONTINUOUS
 62
     0
 10
1717.781267999999
 20
1335.1095712030919
 30
0.0
 11
1717.781267999999
 21
1213.860688203092
 31
0.0
  0
LINE
  5
7DB9
  8
3
  6
CONTINUOUS
 62
     0
 10
1132.781268
 20
1228.860688203092
 30
0.0
 11
1687.781267999999
 21
1228.860688203092
 31
0.0
  0
INSERT
  5
7DBA
  8
3
  6
CONTINUOUS
 62
     0
  2
_OPEN
 10
1102.781267999999
 20
1228.860688203092
 30
0.0
 41
30.0
 42
30.0
 43
30.0
 50
180.0
  0
INSERT
  5
7DBB
  8
3
  6
CONTINUOUS
 62
     0
  2
_OPEN
 10
1717.781267999999
 20
1228.860688203092
 30
0.0
 41
30.0
 42
30.0
 43
30.0
  0
TEXT
  8
3
  40
45
  5
7E45
  62
0
  72
0
  71
0
 10
1320.28
 20
1186.71
 30
0.000000
  1
615
  0
POINT
  5
7DBD
  8
DEFPOINTS
  6
CONTINUOUS
 62
     0
 10
1102.781267999999
 20
1317.6455882030921
 30
0.0
  0
POINT
  5
7DBE
  8
DEFPOINTS
  6
CONTINUOUS
 62
     0
 10
1717.781267999999
 20
1342.6095712030919
 30
0.0
  0
POINT
  5
7DBF
  8
DEFPOINTS
  6
CONTINUOUS
 62
     0
 10
1717.781267999999
 20
1228.860688203092
 30
0.0
  0
ENDBLK
  5
7B3F
  8
0
  0
BLOCK
  8
0
  2
*D3
 70
     1
 10
0.0
 20
0.0
 30
0.0
  3
*D3
  1

  0
LINE
  5
7DC0
  8
3
  6
CONTINUOUS
 62
     0
 10
852.78126799999995
 20
1771.6095712030919
 30
0.0
 11
852.78126799999995
 21
2037.288393203092
 31
0.0
  0
LINE
  5
7DC1
  8
3
  6
CONTINUOUS
 62
     0
 10
1102.781267999999
 20
1982.3547582030919
 30
0.0
 11
1102.781267999999
 21
2037.288393203092
 31
0.0
  0
LINE
  5
7DC2
  8
3
  6
CONTINUOUS
 62
     0
 10
882.78126799999995
 20
2022.288393203092
 30
0.0
 11
1072.781267999999
 21
2022.288393203092
 31
0.0
  0
INSERT
  5
7DC3
  8
3
  6
CONTINUOUS
 62
     0
  2
_OPEN
 10
852.78126799999995
 20
2022.288393203092
 30
0.0
 41
30.0
 42
30.0
 43
30.0
 50
180.0
  0
INSERT
  5
7DC4
  8
3
  6
CONTINUOUS
 62
     0
  2
_OPEN
 10
1102.781267999999
 20
2022.288393203092
 30
0.0
 41
30.0
 42
30.0
 43
30.0
  0
TEXT
  8
3
  40
45
  5
7E46
  62
0
  72
0
  71
0
 10
893.900
 20
1980.14
 30
0.000000
  1
250
  0
POINT
  5
7DC6
  8
DEFPOINTS
  6
CONTINUOUS
 62
     0
 10
852.78126799999995
 20
1764.1095712030919
 30
0.0
  0
POINT
  5
7DC7
  8
DEFPOINTS
  6
CONTINUOUS
 62
     0
 10
1102.781267999999
 20
1974.8547582030919
 30
0.0
  0
POINT
  5
7DC8
  8
DEFPOINTS
  6
CONTINUOUS
 62
     0
 10
1102.781267999999
 20
2022.288393203092
 30
0.0
  0
ENDBLK
  5
7B4C
  8
0
  0
BLOCK
  8
0
  2
*D4
 70
     1
 10
0.0
 20
0.0
 30
0.0
  3
*D4
  1

  0
LINE
  5
7DC9
  8
3
  6
CONTINUOUS
 62
     0
 10
1376.781268
 20
1724.6095712030919
 30
0.0
 11
1376.781268
 21
2037.288393203092
 31
0.0
  0
LINE
  5
7DCA
  8
3
  6
CONTINUOUS
 62
     0
 10
1132.781268
 20
2022.288393203092
 30
0.0
 11
1346.781267999999
 21
2022.288393203092
 31
0.0
  0
INSERT
  5
7DCB
  8
3
  6
CONTINUOUS
 62
     0
  2
_OPEN
 10
1102.781267999999
 20
2022.288393203092
 30
0.0
 41
30.0
 42
30.0
 43
30.0
 50
180.0
  0
INSERT
  5
7DCC
  8
3
  6
CONTINUOUS
 62
     0
  2
_OPEN
 10
1376.781268
 20
2022.288393203092
 30
0.0
 41
30.0
 42
30.0
 43
30.0
  0
TEXT
  8
3
  40
45
  5
7E47
  62
0
  72
0
  71
0
 10
1149.78
 20
1980.14
 30
0.000000
  1
274
  0
POINT
  5
7DCE
  8
DEFPOINTS
  6
CONTINUOUS
 62
     0
 10
1102.781267999999
 20
1974.8547582030919
 30
0.0
  0
POINT
  5
7DCF
  8
DEFPOINTS
  6
CONTINUOUS
 62
     0
 10
1376.781268
 20
1717.1095712030919
 30
0.0
  0
POINT
  5
7DD0
  8
DEFPOINTS
  6
CONTINUOUS
 62
     0
 10
1376.781268
 20
2022.288393203092
 30
0.0
  0
ENDBLK
  5
7CCA
  8
0
  0
BLOCK
  8
0
  2
*D5
 70
     1
 10
0.0
 20
0.0
 30
0.0
  3
*D5
  1

  0
LINE
  5
7DD1
  8
3
  6
CONTINUOUS
 62
     0
 10
845.28126799999995
 20
1742.6095712030919
 30
0.0
 11
770.84071300000016
 21
1742.6095712030919
 31
0.0
  0
LINE
  5
7DD2
  8
3
  6
CONTINUOUS
 62
     0
 10
845.28126799999995
 20
1427.6095712030919
 30
0.0
 11
770.84071300000016
 21
1427.6095712030919
 31
0.0
  0
LINE
  5
7DD3
  8
3
  6
CONTINUOUS
 62
     0
 10
785.84071300000028
 20
1712.6095712030919
 30
0.0
 11
785.84071300000028
 21
1457.6095712030919
 31
0.0
  0
INSERT
  5
7DD4
  8
3
  6
CONTINUOUS
 62
     0
  2
_OPEN
 10
785.84071300000028
 20
1742.6095712030919
 30
0.0
 41
30.0
 42
30.0
 43
30.0
 50
90.0
  0
INSERT
  5
7DD5
  8
3
  6
CONTINUOUS
 62
     0
  2
_OPEN
 10
785.84071300000028
 20
1427.6095712030919
 30
0.0
 41
30.0
 42
30.0
 43
30.0
 50
270.0
  0
TEXT
  8
3
  40
45
  5
7E48
  62
0
  72
0
  71
0
 10
658.341
 20
1509.24
 30
0.000000
  1
315
  0
POINT
  5
7DD7
  8
DEFPOINTS
  6
CONTINUOUS
 62
     0
 10
852.78126799999995
 20
1742.6095712030919
 30
0.0
  0
POINT
  5
7DD8
  8
DEFPOINTS
  6
CONTINUOUS
 62
     0
 10
852.78126799999995
 20
1427.6095712030919
 30
0.0
  0
POINT
  5
7DD9
  8
DEFPOINTS
  6
CONTINUOUS
 62
     0
 10
785.84071300000028
 20
1427.6095712030919
 30
0.0
  0
ENDBLK
  5
7C83
  8
0
  0
BLOCK
  8
0
  2
*D6
 70
     1
 10
0.0
 20
0.0
 30
0.0
  3
*D6
  1

  0
LINE
  5
7DDA
  8
3
  6
CONTINUOUS
 62
     0
 10
1095.281267999999
 20
1974.8547582030919
 30
0.0
 11
587.71238100000005
 21
1974.8547582030919
 31
0.0
  0
LINE
  5
7DDB
  8
3
  6
CONTINUOUS
 62
     0
 10
845.28126799999995
 20
1742.6095712030919
 30
0.0
 11
587.71238100000005
 21
1742.6095712030919
 31
0.0
  0
LINE
  5
7DDC
  8
3
  6
CONTINUOUS
 62
     0
 10
602.71238100000005
 20
1944.8547582030919
 30
0.0
 11
602.71238100000005
 21
1772.6095712030919
 31
0.0
  0
INSERT
  5
7DDD
  8
3
  6
CONTINUOUS
 62
     0
  2
_OPEN
 10
602.71238100000005
 20
1974.8547582030919
 30
0.0
 41
30.0
 42
30.0
 43
30.0
 50
90.0
  0
INSERT
  5
7DDE
  8
3
  6
CONTINUOUS
 62
     0
  2
_OPEN
 10
602.71238100000005
 20
1742.6095712030919
 30
0.0
 41
30.0
 42
30.0
 43
30.0
 50
270.0
  0
TEXT
  8
3
  40
45
  5
7E49
  62
0
  72
0
  71
0
 10
475.212
 20
1765.82
 30
0.000000
  1
232
  0
POINT
  5
7DE0
  8
DEFPOINTS
  6
CONTINUOUS
 62
     0
 10
1102.781267999999
 20
1974.8547582030919
 30
0.0
  0
POINT
  5
7DE1
  8
DEFPOINTS
  6
CONTINUOUS
 62
     0
 10
852.78126799999995
 20
1742.6095712030919
 30
0.0
  0
POINT
  5
7DE2
  8
DEFPOINTS
  6
CONTINUOUS
 62
     0
 10
602.71238100000005
 20
1742.6095712030919
 30
0.0
  0
ENDBLK
  5
7C63
  8
0
  0
BLOCK
  8
0
  2
*D7
 70
     1
 10
0.0
 20
0.0
 30
0.0
  3
*D7
  1

  0
LINE
  5
7DE3
  8
3
  6
CONTINUOUS
 62
     0
 10
860.28126799999995
 20
1342.6095712030919
 30
0.0
 11
587.71238099999982
 21
1342.6095712030919
 31
0.0
  0
LINE
  5
7DE4
  8
3
  6
CONTINUOUS
 62
     0
 10
602.71238099999982
 20
1712.6095712030919
 30
0.0
 11
602.71238099999982
 21
1372.6095712030919
 31
0.0
  0
INSERT
  5
7DE5
  8
3
  6
CONTINUOUS
 62
     0
  2
_OPEN
 10
602.71238099999982
 20
1742.6095712030919
 30
0.0
 41
30.0
 42
30.0
 43
30.0
 50
90.0
  0
INSERT
  5
7DE6
  8
3
  6
CONTINUOUS
 62
     0
  2
_OPEN
 10
602.71238099999982
 20
1342.6095712030919
 30
0.0
 41
30.0
 42
30.0
 43
30.0
 50
270.0
  0
TEXT
  8
3
  40
45
  5
7E4A
  62
0
  72
0
  71
0
 10
475.212
 20
1462.96
 30
0.000000
  1
400
  0
POINT
  5
7DE8
  8
DEFPOINTS
  6
CONTINUOUS
 62
     0
 10
852.78126799999995
 20
1742.6095712030919
 30
0.0
  0
POINT
  5
7DE9
  8
DEFPOINTS
  6
CONTINUOUS
 62
     0
 10
867.78126799999995
 20
1342.6095712030919
 30
0.0
  0
POINT
  5
7DEA
  8
DEFPOINTS
  6
CONTINUOUS
 62
     0
 10
602.71238099999982
 20
1342.6095712030919
 30
0.0
  0
ENDBLK
  5
7C6D
  8
0
  0
BLOCK
  8
0
  2
*D8
 70
     1
 10
0.0
 20
0.0
 30
0.0
  3
*D8
  1

  0
LINE
  5
7DEB
  8
3
  6
CONTINUOUS
 62
     0
 10
1095.281267999999
 20
1974.8547582030919
 30
0.0
 11
484.7091770000003
 21
1974.8547582030919
 31
0.0
  0
LINE
  5
7DEC
  8
3
  6
CONTINUOUS
 62
     0
 10
860.28126799999995
 20
1342.6095712030919
 30
0.0
 11
484.70917700000012
 21
1342.6095712030919
 31
0.0
  0
LINE
  5
7DED
  8
3
  6
CONTINUOUS
 62
     0
 10
499.7091770000003
 20
1944.8547582030919
 30
0.0
 11
499.70917700000012
 21
1372.6095712030919
 31
0.0
  0
INSERT
  5
7DEE
  8
3
  6
CONTINUOUS
 62
     0
  2
_OPEN
 10
499.7091770000003
 20
1974.8547582030919
 30
0.0
 41
30.0
 42
30.0
 43
30.0
 50
90.0
  0
INSERT
  5
7DEF
  8
3
  6
CONTINUOUS
 62
     0
  2
_OPEN
 10
499.70917700000012
 20
1342.6095712030919
 30
0.0
 41
30.0
 42
30.0
 43
30.0
 50
270.0
  0
TEXT
  8
3
  40
45
  5
7E4B
  62
0
  72
0
  71
0
 10
372.209
 20
1606.23
 30
0.000000
  1
632
  0
POINT
  5
7DF1
  8
DEFPOINTS
  6
CONTINUOUS
 62
     0
 10
1102.781267999999
 20
1974.8547582030919
 30
0.0
  0
POINT
  5
7DF2
  8
DEFPOINTS
  6
CONTINUOUS
 62
     0
 10
867.78126799999995
 20
1342.6095712030919
 30
0.0
  0
POINT
  5
7DF3
  8
DEFPOINTS
  6
CONTINUOUS
 62
     0
 10
499.70917700000012
 20
1342.6095712030919
 30
0.0
  0
ENDBLK
  5
7C78
  8
0
  0
BLOCK
  8
0
  2
*D9
 70
     1
 10
0.0
 20
0.0
 30
0.0
  3
*D9
  1

  0
LINE
  5
7DF4
  8
3
  6
CONTINUOUS
 62
     0
 10
867.78126799999995
 20
2717.2934500000001
 30
0.0
 11
867.78126799999995
 21
2490.0591659999991
 31
0.0
  0
LINE
  5
7DF5
  8
3
  6
CONTINUOUS
 62
     0
 10
1717.781267999999
 20
2717.2934500000001
 30
0.0
 11
1717.781267999999
 21
2490.0591659999991
 31
0.0
  0
LINE
  5
7DF6
  8
3
  6
CONTINUOUS
 62
     0
 10
897.78126799999995
 20
2505.059166
 30
0.0
 11
1687.781267999999
 21
2505.059166
 31
0.0
  0
INSERT
  5
7DF7
  8
3
  6
CONTINUOUS
 62
     0
  2
_OPEN
 10
867.78126799999995
 20
2505.059166
 30
0.0
 41
30.0
 42
30.0
 43
30.0
 50
180.0
  0
INSERT
  5
7DF8
  8
3
  6
CONTINUOUS
 62
     0
  2
_OPEN
 10
1717.781267999999
 20
2505.059166
 30
0.0
 41
30.0
 42
30.0
 43
30.0
  0
TEXT
  8
3
  40
45
  5
7E4C
  62
0
  72
0
  71
0
 10
1184.64
 20
2462.91
 30
0.000000
  1
850
  0
POINT
  5
7DFA
  8
DEFPOINTS
  6
CONTINUOUS
 62
     0
 10
867.78126799999995
 20
2724.7934500000001
 30
0.0
  0
POINT
  5
7DFB
  8
DEFPOINTS
  6
CONTINUOUS
 62
     0
 10
1717.781267999999
 20
2724.7934500000001
 30
0.0
  0
POINT
  5
7DFC
  8
DEFPOINTS
  6
CONTINUOUS
 62
     0
 10
1717.781267999999
 20
2505.059166
 30
0.0
  0
ENDBLK
  5
7B99
  8
0
  0
BLOCK
  8
0
  2
*D10
 70
     1
 10
0.0
 20
0.0
 30
0.0
  3
*D10
  1

  0
LINE
  5
7DFD
  8
3
  6
CONTINUOUS
 62
     0
 10
1725.281268
 20
3039.7934500000001
 30
0.0
 11
1884.3696379999999
 21
3039.7934500000001
 31
0.0
  0
LINE
  5
7DFE
  8
3
  6
CONTINUOUS
 62
     0
 10
1725.281268
 20
2724.7934500000001
 30
0.0
 11
1884.3696379999999
 21
2724.7934500000001
 31
0.0
  0
LINE
  5
7DFF
  8
3
  6
CONTINUOUS
 62
     0
 10
1869.3696379999999
 20
3009.7934500000001
 30
0.0
 11
1869.3696379999999
 21
2754.7934500000001
 31
0.0
  0
INSERT
  5
7E00
  8
3
  6
CONTINUOUS
 62
     0
  2
_OPEN
 10
1869.3696379999999
 20
3039.7934500000001
 30
0.0
 41
30.0
 42
30.0
 43
30.0
 50
90.0
  0
INSERT
  5
7E01
  8
3
  6
CONTINUOUS
 62
     0
  2
_OPEN
 10
1869.3696379999999
 20
2724.7934500000001
 30
0.0
 41
30.0
 42
30.0
 43
30.0
 50
270.0
  0
TEXT
  8
3
  40
45
  5
7E4D
  62
0
  72
0
  71
0
 10
1741.87
 20
2790.45
 30
0.000000
  1
315
  0
POINT
  5
7E03
  8
DEFPOINTS
  6
CONTINUOUS
 62
     0
 10
1717.781267999999
 20
3039.7934500000001
 30
0.0
  0
POINT
  5
7E04
  8
DEFPOINTS
  6
CONTINUOUS
 62
     0
 10
1717.781267999999
 20
2724.7934500000001
 30
0.0
  0
POINT
  5
7E05
  8
DEFPOINTS
  6
CONTINUOUS
 62
     0
 10
1869.3696379999999
 20
2724.7934500000001
 30
0.0
  0
ENDBLK
  5
7BA6
  8
0
  0
BLOCK
  8
0
  2
*D11
 70
     1
 10
0.0
 20
0.0
 30
0.0
  3
*D11
  1

  0
LINE
  5
7E06
  8
3
  6
CONTINUOUS
 62
     0
 10
2300.7519024743742
 20
1966.030918203091
 30
0.0
 11
2300.7519024743742
 21
2052.9789442030919
 31
0.0
  0
LINE
  5
7E07
  8
3
  6
CONTINUOUS
 62
     0
 10
2524.5519024743739
 20
1963.2095712030921
 30
0.0
 11
2524.5519024743739
 21
2052.9789442030919
 31
0.0
  0
LINE
  5
7E08
  8
3
  6
CONTINUOUS
 62
     0
 10
2330.7519024743751
 20
2037.9789442030919
 30
0.0
 11
2494.5519024743749
 21
2037.9789442030919
 31
0.0
  0
INSERT
  5
7E09
  8
3
  6
CONTINUOUS
 62
     0
  2
_OPEN
 10
2300.7519024743742
 20
2037.9789442030919
 30
0.0
 41
30.0
 42
30.0
 43
30.0
 50
180.0
  0
INSERT
  5
7E0A
  8
3
  6
CONTINUOUS
 62
     0
  2
_OPEN
 10
2524.5519024743739
 20
2037.9789442030919
 30
0.0
 41
30.0
 42
30.0
 43
30.0
  0
TEXT
  8
3
  40
45
  5
7E4E
  62
0
  72
0
  71
0
 10
2314.68
 20
1995.83
 30
0.000000
  1
224
  0
POINT
  5
7E0C
  8
DEFPOINTS
  6
CONTINUOUS
 62
     0
 10
2300.7519024743742
 20
1958.530918203091
 30
0.0
  0
POINT
  5
7E0D
  8
DEFPOINTS
  6
CONTINUOUS
 62
     0
 10
2524.5519024743739
 20
1955.7095712030921
 30
0.0
  0
POINT
  5
7E0E
  8
DEFPOINTS
  6
CONTINUOUS
 62
     0
 10
2524.5519024743739
 20
2037.9789442030919
 30
0.0
  0
ENDBLK
  5
7BB5
  8
0
  0
BLOCK
  8
0
  2
*D12
 70
     1
 10
0.0
 20
0.0
 30
0.0
  3
*D12
  1

  0
LINE
  5
7E0F
  8
3
  6
CONTINUOUS
 62
     0
 10
1992.5519024743739
 20
1989.6095712030919
 30
0.0
 11
1992.5519024743739
 21
2159.0149502030922
 31
0.0
  0
LINE
  5
7E10
  8
3
  6
CONTINUOUS
 62
     0
 10
2412.5519024743739
 20
2118.603702203091
 30
0.0
 11
2412.5519024743739
 21
2159.0149502030922
 31
0.0
  0
LINE
  5
7E11
  8
3
  6
CONTINUOUS
 62
     0
 10
2022.5519024743751
 20
2144.0149502030922
 30
0.0
 11
2382.5519024743749
 21
2144.0149502030922
 31
0.0
  0
INSERT
  5
7E12
  8
3
  6
CONTINUOUS
 62
     0
  2
_OPEN
 10
1992.5519024743739
 20
2144.0149502030922
 30
0.0
 41
30.0
 42
30.0
 43
30.0
 50
180.0
  0
INSERT
  5
7E13
  8
3
  6
CONTINUOUS
 62
     0
  2
_OPEN
 10
2412.5519024743739
 20
2144.0149502030922
 30
0.0
 41
30.0
 42
30.0
 43
30.0
  0
TEXT
  8
3
  40
45
  5
7E4F
  62
0
  72
0
  71
0
 10
2106.87
 20
2139.36
 30
0.000000
  1
MAX
  0
TEXT
  8
3
  40
45
  5
7E50
  62
0
  72
0
  71
0
 10
2106.87
 20
2080.86
 30
0.000000
  1
420
  0
POINT
  5
7E15
  8
DEFPOINTS
  6
CONTINUOUS
 62
     0
 10
1992.5519024743739
 20
1982.1095712030919
 30
0.0
  0
POINT
  5
7E16
  8
DEFPOINTS
  6
CONTINUOUS
 62
     0
 10
2412.5519024743739
 20
2111.1037022030919
 30
0.0
  0
POINT
  5
7E17
  8
DEFPOINTS
  6
CONTINUOUS
 62
     0
 10
2412.5519024743739
 20
2144.0149502030922
 30
0.0
  0
ENDBLK
  5
7CAE
  8
0
  0
BLOCK
  8
0
  2
*D13
 70
     1
 10
0.0
 20
0.0
 30
0.0
  3
*D13
  1

  0
LINE
  5
7E18
  8
3
  6
CONTINUOUS
 62
     0
 10
2533.5519024743749
 20
1932.6095712030919
 30
0.0
 11
2533.5519024743749
 21
2159.0149502030922
 31
0.0
  0
LINE
  5
7E19
  8
3
  6
CONTINUOUS
 62
     0
 10
2442.5519024743749
 20
2144.0149502030922
 30
0.0
 11
2503.5519024743749
 21
2144.0149502030922
 31
0.0
  0
TEXT
  8
3
  40
45
  5
7E51
  62
0
  72
0
  71
0
 10
2373.54
 20
2101.86
 30
0.000000
  1
121
  0
INSERT
  5
7E1B
  8
3
  6
CONTINUOUS
 62
     0
  2
_OPEN
 10
2412.5519024743739
 20
2144.0149502030922
 30
0.0
 41
30.0
 42
30.0
 43
30.0
 50
180.0
  0
INSERT
  5
7E1C
  8
3
  6
CONTINUOUS
 62
     0
  2
_OPEN
 10
2533.5519024743749
 20
2144.0149502030922
 30
0.0
 41
30.0
 42
30.0
 43
30.0
  0
POINT
  5
7E1D
  8
DEFPOINTS
  6
CONTINUOUS
 62
     0
 10
2412.5519024743739
 20
2111.1037022030919
 30
0.0
  0
POINT
  5
7E1E
  8
DEFPOINTS
  6
CONTINUOUS
 62
     0
 10
2533.5519024743749
 20
1925.1095712030919
 30
0.0
  0
POINT
  5
7E1F
  8
DEFPOINTS
  6
CONTINUOUS
 62
     0
 10
2533.5519024743749
 20
2144.0149502030922
 30
0.0
  0
ENDBLK
  5
7C53
  8
0
  0
BLOCK
  8
0
  2
*D14
 70
     1
 10
0.0
 20
0.0
 30
0.0
  3
*D14
  1

  0
LINE
  5
7E20
  8
3
  6
CONTINUOUS
 62
     0
 10
2097.5519024743739
 20
1335.1095712030919
 30
0.0
 11
2097.5519024743739
 21
1223.8295522030919
 31
0.0
  0
LINE
  5
7E21
  8
3
  6
CONTINUOUS
 62
     0
 10
2412.5519024743739
 20
1335.1095712030919
 30
0.0
 11
2412.5519024743739
 21
1223.8295522030919
 31
0.0
  0
LINE
  5
7E22
  8
3
  6
CONTINUOUS
 62
     0
 10
2127.5519024743739
 20
1238.8295522030919
 30
0.0
 11
2382.5519024743749
 21
1238.8295522030919
 31
0.0
  0
INSERT
  5
7E23
  8
3
  6
CONTINUOUS
 62
     0
  2
_OPEN
 10
2097.5519024743739
 20
1238.8295522030919
 30
0.0
 41
30.0
 42
30.0
 43
30.0
 50
180.0
  0
INSERT
  5
7E24
  8
3
  6
CONTINUOUS
 62
     0
  2
_OPEN
 10
2412.5519024743739
 20
1238.8295522030919
 30
0.0
 41
30.0
 42
30.0
 43
30.0
  0
TEXT
  8
3
  40
45
  5
7E52
  62
0
  72
0
  71
0
 10
2158.65
 20
1196.68
 30
0.000000
  1
315
  0
POINT
  5
7E26
  8
DEFPOINTS
  6
CONTINUOUS
 62
     0
 10
2097.5519024743739
 20
1342.6095712030919
 30
0.0
  0
POINT
  5
7E27
  8
DEFPOINTS
  6
CONTINUOUS
 62
     0
 10
2412.5519024743739
 20
1342.6095712030919
 30
0.0
  0
POINT
  5
7E28
  8
DEFPOINTS
  6
CONTINUOUS
 62
     0
 10
2412.5519024743739
 20
1238.8295522030919
 30
0.0
  0
ENDBLK
  5
7BF3
  8
0
  0
BLOCK
  8
0
  2
*D15
 70
     1
 10
0.0
 20
0.0
 30
0.0
  3
*D15
  1

  0
LINE
  5
7E29
  8
3
  6
CONTINUOUS
 62
     0
 10
2541.0519024743749
 20
1900.1095712030919
 30
0.0
 11
2657.978331474375
 21
1900.1095712030919
 31
0.0
  0
LINE
  5
7E2A
  8
3
  6
CONTINUOUS
 62
     0
 10
2541.0519024743749
 20
1585.1095712030919
 30
0.0
 11
2657.978331474375
 21
1585.1095712030919
 31
0.0
  0
LINE
  5
7E2B
  8
3
  6
CONTINUOUS
 62
     0
 10
2642.978331474375
 20
1870.1095712030919
 30
0.0
 11
2642.978331474375
 21
1615.1095712030919
 31
0.0
  0
INSERT
  5
7E2C
  8
3
  6
CONTINUOUS
 62
     0
  2
_OPEN
 10
2642.978331474375
 20
1900.1095712030919
 30
0.0
 41
30.0
 42
30.0
 43
30.0
 50
90.0
  0
INSERT
  5
7E2D
  8
3
  6
CONTINUOUS
 62
     0
  2
_OPEN
 10
2642.978331474375
 20
1585.1095712030919
 30
0.0
 41
30.0
 42
30.0
 43
30.0
 50
270.0
  0
TEXT
  8
3
  40
45
  5
7E53
  62
0
  72
0
  71
0
 10
2515.48
 20
1674.16
 30
0.000000
  1
φ315
  0
POINT
  5
7E2F
  8
DEFPOINTS
  6
CONTINUOUS
 62
     0
 10
2533.5519024743749
 20
1900.1095712030919
 30
0.0
  0
POINT
  5
7E30
  8
DEFPOINTS
  6
CONTINUOUS
 62
     0
 10
2533.5519024743749
 20
1585.1095712030919
 30
0.0
  0
POINT
  5
7E31
  8
DEFPOINTS
  6
CONTINUOUS
 62
     0
 10
2642.978331474375
 20
1585.1095712030919
 30
0.0
  0
ENDBLK
  5
7CA3
  8
0
  0
BLOCK
  8
0
  2
*D16
 70
     1
 10
0.0
 20
0.0
 30
0.0
  3
*D16
  1

  0
LINE
  5
7E32
  8
3
  6
CONTINUOUS
 62
     0
 10
845.28126799999995
 20
1742.6095712030919
 30
0.0
 11
678.08442500000024
 21
1742.6095712030919
 31
0.0
  0
LINE
  5
7E33
  8
3
  6
CONTINUOUS
 62
     0
 10
865.28126799999995
 20
1417.6095712030919
 30
0.0
 11
678.08442500000024
 21
1417.6095712030919
 31
0.0
  0
LINE
  5
7E34
  8
3
  6
CONTINUOUS
 62
     0
 10
693.08442500000024
 20
1712.6095712030919
 30
0.0
 11
693.08442500000024
 21
1447.6095712030919
 31
0.0
  0
INSERT
  5
7E35
  8
3
  6
CONTINUOUS
 62
     0
  2
_OPEN
 10
693.08442500000024
 20
1742.6095712030919
 30
0.0
 41
30.0
 42
30.0
 43
30.0
 50
90.0
  0
INSERT
  5
7E36
  8
3
  6
CONTINUOUS
 62
     0
  2
_OPEN
 10
693.08442500000024
 20
1417.6095712030919
 30
0.0
 41
30.0
 42
30.0
 43
30.0
 50
270.0
  0
TEXT
  8
3
  40
45
  5
7E54
  62
0
  72
0
  71
0
 10
565.584
 20
1521.78
 30
0.000000
  1
325
  0
POINT
  5
7E38
  8
DEFPOINTS
  6
CONTINUOUS
 62
     0
 10
852.78126799999995
 20
1742.6095712030919
 30
0.0
  0
POINT
  5
7E39
  8
DEFPOINTS
  6
CONTINUOUS
 62
     0
 10
872.78126799999995
 20
1417.6095712030919
 30
0.0
  0
POINT
  5
7E3A
  8
DEFPOINTS
  6
CONTINUOUS
 62
     0
 10
693.08442500000024
 20
1417.6095712030919
 30
0.0
  0
ENDBLK
  5
7C8E
  8
0
  0
BLOCK
  8
0
  2
*D17
 70
     1
 10
0.0
 20
0.0
 30
0.0
  3
*D17
  1

  0
LINE
  5
7E3B
  8
3
 62
     0
 10
852.78126799999995
 20
1771.6095712030919
 30
0.0
 11
852.78126799999995
 21
2139.5403366596888
 31
0.0
  0
LINE
  5
7E3C
  8
3
 62
     0
 10
1717.781267999999
 20
1420.1095712030919
 30
0.0
 11
1717.781267999999
 21
2139.5403366596888
 31
0.0
  0
LINE
  5
7E3D
  8
3
 62
     0
 10
882.78126799999995
 20
2124.5403366596888
 30
0.0
 11
1687.781267999999
 21
2124.5403366596888
 31
0.0
  0
INSERT
  5
7E3E
  8
3
 62
     0
  2
_OPEN
 10
852.78126799999995
 20
2124.5403366596888
 30
0.0
 41
30.0
 42
30.0
 43
30.0
 50
180.0
  0
INSERT
  5
7E3F
  8
3
 62
     0
  2
_OPEN
 10
1717.781267999999
 20
2124.5403366596888
 30
0.0
 41
30.0
 42
30.0
 43
30.0
  0
TEXT
  8
3
  40
45
  5
7E55
  62
0
  72
0
  71
0
 10
1194.94
 20
2082.39
 30
0.000000
  1
865
  0
POINT
  5
7E41
  8
DEFPOINTS
 62
     0
 10
852.78126799999995
 20
1764.1095712030919
 30
0.0
  0
POINT
  5
7E42
  8
DEFPOINTS
 62
     0
 10
1717.781267999999
 20
1412.6095712030919
 30
0.0
  0
POINT
  5
7E43
  8
DEFPOINTS
 62
     0
 10
1717.781267999999
 20
2124.5403366596888
 30
0.0
  0
ENDBLK
  5
7CBA
  8
0
  0
ENDSEC
  0
SECTION
  2
ENTITIES
  0
LINE
  5
7A81
  8
1
  6
CONTINUOUS
 10
1717.781267999999
 20
1412.6095712030919
 30
0.0
 11
867.78126799999995
 21
1412.6095712030919
 31
0.0
  0
LINE
  5
7A82
  8
1
  6
CONTINUOUS
 10
1717.781267999999
 20
1342.6095712030919
 30
0.0
 11
867.78126799999995
 21
1342.6095712030919
 31
0.0
  0
LINE
  5
7A83
  8
1
  6
CONTINUOUS
 10
1687.781267999999
 20
1432.6095712030919
 30
0.0
 11
1372.781267999999
 21
1432.6095712030919
 31
0.0
  0
LINE
  5
7A84
  8
1
  6
CONTINUOUS
 10
1717.781267999999
 20
2724.7934500000001
 30
0.0
 11
1585.781268
 21
2724.7934500000001
 31
0.0
  0
LINE
  5
7A85
  8
1
  6
CONTINUOUS
 10
1390.781268
 20
3039.7934500000001
 30
0.0
 11
1717.781267999999
 21
3039.7934500000001
 31
0.0
  0
LINE
  5
7A86
  8
1
  6
CONTINUOUS
 10
1158.281268
 20
1982.1095712030919
 30
0.0
 11
1688.281268
 21
1632.1095712030919
 31
0.0
  0
LINE
  5
7A87
  8
1
  6
CONTINUOUS
 10
1688.281268
 20
2619.7934500000001
 30
0.0
 11
958.28126799999995
 21
2619.7934500000001
 31
0.0
  0
LINE
  5
7A88
  8
1
  6
CONTINUOUS
 10
1688.281268
 20
2704.7934500000001
 30
0.0
 11
958.28126799999995
 21
2704.7934500000001
 31
0.0
  0
CIRCLE
  5
7A89
  8
1
  6
CONTINUOUS
 10
1102.781267999999
 20
1742.6095712030919
 30
0.0
 40
157.5
  0
LINE
  5
7A8A
  8
1
  6
CONTINUOUS
 10
1307.781268
 20
1706.1095712030919
 30
0.0
 11
897.78126799999995
 21
1706.1095712030919
 31
0.0
  0
LINE
  5
7A8B
  8
1
  6
CONTINUOUS
 10
1195.081267999999
 20
1922.6095712030919
 30
0.0
 11
1307.781268
 21
1828.009571203092
 31
0.0
  0
CIRCLE
  5
7A8C
  8
1
  6
CONTINUOUS
 10
1102.781267999999
 20
1742.6095712030919
 30
0.0
 40
182.5
  0
ARC
  5
7A8D
  8
1
  6
CONTINUOUS
 10
1123.781267999999
 20
1721.6095712030919
 30
0.0
 40
253.0
 50
11.599999999999991
 51
81.799999999999983
  0
ARC
  5
7A8E
  8
1
  6
CONTINUOUS
 10
1077.281267999999
 20
1717.1095712030919
 30
0.0
 40
299.5
 50
270.0
 51
10.6
  0
LINE
  5
7A8F
  8
1
  6
CONTINUOUS
 10
1597.181268
 20
1570.2095712030921
 30
0.0
 11
1130.781268
 21
1799.6095712030919
 31
0.0
  0
LINE
  5
7A90
  8
1
  6
CONTINUOUS
 10
1552.281267999999
 20
1474.1095712030919
 30
0.0
 11
1077.081267999999
 21
1684.509571203092
 31
0.0
  0
LINE
  5
7A91
  8
1
  6
CONTINUOUS
 10
852.78126799999995
 20
1764.1095712030919
 30
0.0
 11
852.78126799999995
 21
1406.1095712030919
 31
0.0
  0
LINE
  5
7A92
  8
1
  6
CONTINUOUS
 10
897.78126799999995
 20
1412.6095712030919
 30
0.0
 11
897.78126799999995
 21
1828.009571203092
 31
0.0
  0
LINE
  5
7A93
  8
1
  6
CONTINUOUS
 10
958.28126799999995
 20
1852.1095712030919
 30
0.0
 11
958.28126799999995
 21
1412.6095712030919
 31
0.0
  0
LINE
  5
7A94
  8
1
  6
CONTINUOUS
 10
872.78126799999995
 20
1712.6095712030919
 30
0.0
 11
872.78126799999995
 21
1457.6095712030919
 31
0.0
  0
LINE
  5
7A95
  8
1
  6
CONTINUOUS
 10
872.78126799999995
 20
1417.6095712030919
 30
0.0
 11
1077.281267999999
 21
1417.6095712030919
 31
0.0
  0
LINE
  5
7A96
  8
1
  6
CONTINUOUS
 10
852.78126799999995
 20
1427.6095712030919
 30
0.0
 11
872.78126799999995
 21
1427.6095712030919
 31
0.0
  0
LINE
  5
7A97
  8
1
  6
CONTINUOUS
 10
867.78126799999995
 20
1412.6095712030919
 30
0.0
 11
867.78126799999995
 21
1342.6095712030919
 31
0.0
  0
LINE
  5
7A98
  8
1
  6
CONTINUOUS
 10
852.78126799999995
 20
1437.6095712030919
 30
0.0
 11
872.78126799999995
 21
1457.6095712030919
 31
0.0
  0
LINE
  5
7A99
  8
1
  6
CONTINUOUS
 10
872.78126799999995
 20
1427.6095712030919
 30
0.0
 11
872.78126799999995
 21
1417.6095712030919
 31
0.0
  0
LINE
  5
7A9A
  8
1
  6
CONTINUOUS
 10
1195.081267999999
 20
1922.6095712030919
 30
0.0
 11
1010.481268
 21
1922.6095712030919
 31
0.0
  0
LINE
  5
7A9B
  8
1
  6
CONTINUOUS
 10
958.28126799999995
 20
1852.1095712030919
 30
0.0
 11
1158.281268
 21
1982.1095712030919
 31
0.0
  0
ARC
  5
7A9C
  8
1
  6
CONTINUOUS
 10
1120.781267999999
 20
1760.6095712030919
 30
0.0
 40
215.0
 50
79.400000000000006
 51
171.40000000000001
  0
LINE
  5
7A9D
  8
1
  6
CONTINUOUS
 10
1010.481268
 20
1922.6095712030919
 30
0.0
 11
897.78126799999995
 21
1828.009571203092
 31
0.0
  0
LINE
  5
7A9E
  8
1
  6
CONTINUOUS
 10
872.78126799999995
 20
1742.6095712030919
 30
0.0
 11
852.78126799999995
 21
1742.6095712030919
 31
0.0
  0
LINE
  5
7A9F
  8
1
  6
CONTINUOUS
 10
852.78126799999995
 20
1732.6095712030919
 30
0.0
 11
872.78126799999995
 21
1712.6095712030919
 31
0.0
  0
ARC
  5
7AA0
  8
1
  6
CONTINUOUS
 10
834.78126799999995
 20
1819.6095712030919
 30
0.0
 40
78.0
 50
299.19999999999987
 51
341.19999999999987
  0
LINE
  5
7AA1
  8
1
  6
CONTINUOUS
 10
872.78126799999995
 20
1751.509571203092
 30
0.0
 11
872.78126799999995
 21
1742.6095712030919
 31
0.0
  0
LINE
  5
7AA2
  8
2
  6
CENTER
 10
2576.2596874743749
 20
1742.6095712030919
 30
0.0
 11
1910.5311564743749
 21
1742.6095712030919
 31
0.0
  0
CIRCLE
  5
7AA3
  8
1
  6
CONTINUOUS
 10
1102.781267999999
 20
1742.6095712030919
 30
0.0
 40
63.5
  0
LINE
  5
7AA4
  8
2
  6
CENTER
 10
1102.781267999999
 20
1317.6455882030921
 30
0.0
 11
1102.781267999999
 21
2002.4176632030919
 31
0.0
  0
LINE
  5
7AA5
  8
1
  6
CONTINUOUS
 10
1307.781268
 20
1412.6095712030919
 30
0.0
 11
1307.781268
 21
1828.009571203092
 31
0.0
  0
LINE
  5
7AA6
  8
1
  6
CONTINUOUS
 10
1372.781267999999
 20
1412.6095712030919
 30
0.0
 11
1372.781267999999
 21
1432.6095712030919
 31
0.0
  0
CIRCLE
  5
7AA7
  8
1
  6
CONTINUOUS
 10
1573.781268
 20
1522.6095712030919
 30
0.0
 40
53.0
  0
ARC
  5
7AA8
  8
1
  6
CONTINUOUS
 10
1573.781268
 20
1522.6095712030919
 30
0.0
 40
101.0
 50
322.89999999999992
 51
217.09999999999991
  0
LINE
  5
7AA9
  8
2
  6
CENTER
 10
1626.781268
 20
1522.6095712030919
 30
0.0
 11
1520.781268
 21
1522.6095712030919
 31
0.0
  0
LINE
  5
7AAA
  8
1
  6
CONTINUOUS
 10
1481.881267999999
 20
1432.6095712030919
 30
0.0
 11
1493.281268
 21
1461.6095712030919
 31
0.0
  0
LINE
  5
7AAB
  8
2
  6
CENTER
 10
1573.781268
 20
1469.6095712030919
 30
0.0
 11
1573.781268
 21
1575.6095712030919
 31
0.0
  0
LINE
  5
7AAC
  8
1
  6
CONTINUOUS
 10
1665.681268
 20
1432.6095712030919
 30
0.0
 11
1654.281268
 21
1461.6095712030919
 31
0.0
  0
LINE
  5
7AAD
  8
1
  6
CONTINUOUS
 10
1283.781268
 20
2917.9934499999999
 30
0.0
 11
1121.781268
 21
2917.9934499999999
 31
0.0
  0
LINE
  5
7AAE
  8
1
  6
CONTINUOUS
 10
1285.281268
 20
3160.7934500000001
 30
0.0
 11
920.28126799999995
 21
3160.7934500000001
 31
0.0
  0
LINE
  5
7AAF
  8
1
  6
CONTINUOUS
 10
1307.781268
 20
2917.9934499999999
 30
0.0
 11
897.78126799999995
 21
2917.9934499999999
 31
0.0
  0
LINE
  5
7AB0
  8
1
  6
CONTINUOUS
 10
1370.781267999999
 20
3151.7934500000001
 30
0.0
 11
852.78126799999995
 21
3151.7934500000001
 31
0.0
  0
LINE
  5
7AB1
  8
1
  6
CONTINUOUS
 10
852.78126799999995
 20
2927.7934500000001
 30
0.0
 11
1370.781267999999
 21
2927.7934500000001
 31
0.0
  0
LINE
  5
7AB2
  8
1
  6
CONTINUOUS
 10
1307.781268
 20
2754.7934500000001
 30
0.0
 11
1114.781267999999
 21
2754.7934500000001
 31
0.0
  0
LINE
  5
7AB3
  8
1
  6
CONTINUOUS
 10
1561.781268
 20
2724.7934500000001
 30
0.0
 11
1114.781267999999
 21
2724.7934500000001
 31
0.0
  0
LINE
  5
7AB4
  8
1
  6
CONTINUOUS
 10
852.78126799999995
 20
3172.7934500000001
 30
0.0
 11
852.78126799999995
 21
2906.7934500000001
 31
0.0
  0
LINE
  5
7AB5
  8
1
  6
CONTINUOUS
 10
872.78126799999995
 20
3122.7934500000001
 30
0.0
 11
872.78126799999995
 21
2956.7934500000001
 31
0.0
  0
LINE
  5
7AB6
  8
1
  6
CONTINUOUS
 10
1090.781267999999
 20
2724.7934500000001
 30
0.0
 11
867.78126799999995
 21
2724.7934500000001
 31
0.0
  0
LINE
  5
7AB7
  8
1
  6
CONTINUOUS
 10
1090.781267999999
 20
2754.7934500000001
 30
0.0
 11
897.78126799999995
 21
2754.7934500000001
 31
0.0
  0
LINE
  5
7AB8
  8
1
  6
CONTINUOUS
 10
867.78126799999995
 20
2724.7934500000001
 30
0.0
 11
867.78126799999995
 21
2927.7934500000001
 31
0.0
  0
LINE
  5
7AB9
  8
1
  6
CONTINUOUS
 10
897.78126799999995
 20
2754.7934500000001
 30
0.0
 11
897.78126799999995
 21
2917.9934499999999
 31
0.0
  0
LINE
  5
7ABA
  8
1
  6
CONTINUOUS
 10
958.28126799999995
 20
2704.7934500000001
 30
0.0
 11
958.28126799999995
 21
2619.7934500000001
 31
0.0
  0
LINE
  5
7ABB
  8
1
  6
CONTINUOUS
 10
852.78126799999995
 20
2936.7934500000001
 30
0.0
 11
872.78126799999995
 21
2956.7934500000001
 31
0.0
  0
LINE
  5
7ABC
  8
1
  6
CONTINUOUS
 10
920.28126799999995
 20
2917.9934499999999
 30
0.0
 11
920.28126799999995
 21
2927.7934500000001
 31
0.0
  0
LINE
  5
7ABD
  8
1
  6
CONTINUOUS
 10
1114.781267999999
 20
2917.9934499999999
 30
0.0
 11
1114.781267999999
 21
2681.2934500000001
 31
0.0
  0
LINE
  5
7ABE
  8
1
  6
CONTINUOUS
 10
1090.781267999999
 20
2917.9934499999999
 30
0.0
 11
1090.781267999999
 21
2681.2934500000001
 31
0.0
  0
LINE
  5
7ABF
  8
1
  6
CONTINUOUS
 10
1039.281268
 20
2681.2934500000001
 30
0.0
 11
1166.281268
 21
2681.2934500000001
 31
0.0
  0
LINE
  5
7AC0
  8
1
  6
CONTINUOUS
 10
1166.281268
 20
2646.2934500000001
 30
0.0
 11
1039.281268
 21
2646.2934500000001
 31
0.0
  0
LINE
  5
7AC1
  8
1
  6
CONTINUOUS
 10
1039.281268
 20
2646.2934500000001
 30
0.0
 11
1039.281268
 21
2681.2934500000001
 31
0.0
  0
LINE
  5
7AC2
  8
1
  6
CONTINUOUS
 10
1166.281268
 20
2681.2934500000001
 30
0.0
 11
1166.281268
 21
2646.2934500000001
 31
0.0
  0
LINE
  5
7AC3
  8
1
  6
CONTINUOUS
 10
852.78126799999995
 20
3142.7934500000001
 30
0.0
 11
872.78126799999995
 21
3122.7934500000001
 31
0.0
  0
LINE
  5
7AC4
  8
1
  6
CONTINUOUS
 10
920.28126799999995
 20
3160.7934500000001
 30
0.0
 11
920.28126799999995
 21
3152.5934499999989
 31
0.0
  0
LINE
  5
7AC5
  8
1
  6
CONTINUOUS
 10
1390.781268
 20
3131.7934500000001
 30
0.0
 11
1390.781268
 21
2947.7934500000001
 31
0.0
  0
LINE
  5
7AC6
  8
1
  6
CONTINUOUS
 10
1307.781268
 20
2754.7934500000001
 30
0.0
 11
1307.781268
 21
2917.9934499999999
 31
0.0
  0
LINE
  5
7AC7
  8
1
  6
CONTINUOUS
 10
1285.281268
 20
2917.9934499999999
 30
0.0
 11
1285.281268
 21
2927.7934500000001
 31
0.0
  0
ARC
  5
7AC8
  8
1
  6
CONTINUOUS
 10
1370.781267999999
 20
2947.7934500000001
 30
0.0
 40
20.0
 50
270.0
 51
0.0
  0
LINE
  5
7AC9
  8
1
  6
CONTINUOUS
 10
1663.781268
 20
3013.2934500000001
 30
0.0
 11
1663.781268
 21
2741.2934500000001
 31
0.0
  0
LINE
  5
7ACA
  8
1
  6
CONTINUOUS
 10
1472.781268
 20
2741.2934500000001
 30
0.0
 11
1472.781268
 21
3013.2934500000001
 31
0.0
  0
LINE
  5
7ACB
  8
1
  6
CONTINUOUS
 10
1472.781268
 20
2741.2934500000001
 30
0.0
 11
1663.781268
 21
2741.2934500000001
 31
0.0
  0
LINE
  5
7ACC
  8
1
  6
CONTINUOUS
 10
1561.781268
 20
2646.2934500000001
 30
0.0
 11
1585.781268
 21
2646.2934500000001
 31
0.0
  0
LINE
  5
7ACD
  8
1
  6
CONTINUOUS
 10
1637.281267999999
 20
2646.2934500000001
 30
0.0
 11
1510.281267999999
 21
2646.2934500000001
 31
0.0
  0
LINE
  5
7ACE
  8
1
  6
CONTINUOUS
 10
1510.281267999999
 20
2681.2934500000001
 30
0.0
 11
1637.281267999999
 21
2681.2934500000001
 31
0.0
  0
LINE
  5
7ACF
  8
1
  6
CONTINUOUS
 10
1561.781268
 20
2681.2934500000001
 30
0.0
 11
1561.781268
 21
2741.2934500000001
 31
0.0
  0
LINE
  5
7AD0
  8
1
  6
CONTINUOUS
 10
1510.281267999999
 20
2646.2934500000001
 30
0.0
 11
1510.281267999999
 21
2681.2934500000001
 31
0.0
  0
LINE
  5
7AD1
  8
1
  6
CONTINUOUS
 10
1585.781268
 20
2681.2934500000001
 30
0.0
 11
1585.781268
 21
2741.2934500000001
 31
0.0
  0
LINE
  5
7AD2
  8
1
  6
CONTINUOUS
 10
1637.281267999999
 20
2681.2934500000001
 30
0.0
 11
1637.281267999999
 21
2646.2934500000001
 31
0.0
  0
LINE
  5
7AD3
  8
1
  6
CONTINUOUS
 10
1472.781268
 20
3013.2934500000001
 30
0.0
 11
1663.781268
 21
3013.2934500000001
 31
0.0
  0
LINE
  5
7AD4
  8
1
  6
CONTINUOUS
 10
1285.281268
 20
3160.7934500000001
 30
0.0
 11
1285.281268
 21
3152.5934499999989
 31
0.0
  0
ARC
  5
7AD5
  8
1
  6
CONTINUOUS
 10
1370.781267999999
 20
3131.7934500000001
 30
0.0
 40
20.0
 50
0.0
 51
90.0
  0
LINE
  5
7AD6
  8
1
  6
CONTINUOUS
 10
1717.781267999999
 20
1412.6095712030919
 30
0.0
 11
1717.781267999999
 21
1342.6095712030919
 31
0.0
  0
LINE
  5
7AD7
  8
1
  6
CONTINUOUS
 10
1687.781267999999
 20
1412.6095712030919
 30
0.0
 11
1687.781267999999
 21
1432.6095712030919
 31
0.0
  0
LINE
  5
7AD8
  8
1
  6
CONTINUOUS
 10
1688.281268
 20
1632.1095712030919
 30
0.0
 11
1688.281268
 21
1422.1095712030919
 31
0.0
  0
LINE
  5
7AD9
  8
1
  6
CONTINUOUS
 10
1717.781267999999
 20
3039.7934500000001
 30
0.0
 11
1717.781267999999
 21
2724.7934500000001
 31
0.0
  0
LINE
  5
7ADA
  8
1
  6
CONTINUOUS
 10
1688.281268
 20
2704.7934500000001
 30
0.0
 11
1688.281268
 21
2619.7934500000001
 31
0.0
  0
LINE
  5
7ADB
  8
1
  6
CONTINUOUS
 10
2524.5519024743739
 20
1426.7095712030921
 30
0.0
 11
2300.5519024743739
 21
1426.7095712030921
 31
0.0
  0
LINE
  5
7ADC
  8
1
  6
CONTINUOUS
 10
2524.5519024743739
 20
1743.7095712030921
 30
0.0
 11
2300.5519024743739
 21
1743.7095712030921
 31
0.0
  0
LINE
  5
7ADD
  8
1
  6
CONTINUOUS
 10
2504.5519024743749
 20
1975.7095712030921
 30
0.0
 11
2320.5519024743739
 21
1975.7095712030921
 31
0.0
  0
LINE
  5
7ADE
  8
1
  6
CONTINUOUS
 10
2300.5519024743739
 20
1426.7095712030921
 30
0.0
 11
2524.5519024743739
 21
1743.7095712030921
 31
0.0
  0
LINE
  5
7ADF
  8
1
  6
CONTINUOUS
 10
2524.5519024743739
 20
1426.7095712030921
 30
0.0
 11
2300.5519024743739
 21
1743.7095712030921
 31
0.0
  0
LINE
  5
7AE0
  8
1
  6
CONTINUOUS
 10
2077.5519024743739
 20
1412.7095712030921
 30
0.0
 11
2077.5519024743739
 21
1982.1095712030919
 31
0.0
  0
LINE
  5
7AE1
  8
1
  6
CONTINUOUS
 10
1992.5519024743739
 20
1412.7095712030921
 30
0.0
 11
1992.5519024743739
 21
1982.1095712030919
 31
0.0
  0
LINE
  5
7AE2
  8
1
  6
CONTINUOUS
 10
2126.7519024743742
 20
1703.6095712030919
 30
0.0
 11
2126.7519024743742
 21
1412.6095712030919
 31
0.0
  0
LINE
  5
7AE3
  8
1
  6
CONTINUOUS
 10
2290.7519024743742
 20
1925.2095712030921
 30
0.0
 11
2290.7519024743742
 21
1412.6095712030919
 31
0.0
  0
LINE
  5
7AE4
  8
1
  6
CONTINUOUS
 10
2300.5519024743739
 20
1426.7095712030921
 30
0.0
 11
2300.5519024743739
 21
1955.7095712030921
 31
0.0
  0
LINE
  5
7AE5
  8
1
  6
CONTINUOUS
 10
2097.5519024743739
 20
1342.6095712030919
 30
0.0
 11
2412.5519024743739
 21
1342.6095712030919
 31
0.0
  0
LINE
  5
7AE6
  8
1
  6
CONTINUOUS
 10
2412.5519024743739
 20
1412.6095712030919
 30
0.0
 11
2097.5519024743739
 21
1412.6095712030919
 31
0.0
  0
LINE
  5
7AE7
  8
1
  6
CONTINUOUS
 10
2052.5519024743749
 20
1534.7095712030921
 30
0.0
 11
2126.7519024743742
 21
1534.7095712030921
 31
0.0
  0
LINE
  5
7AE8
  8
1
  6
CONTINUOUS
 10
2052.5519024743749
 20
1510.7095712030921
 30
0.0
 11
2126.7519024743742
 21
1510.7095712030921
 31
0.0
  0
LINE
  5
7AE9
  8
1
  6
CONTINUOUS
 10
2017.5519024743739
 20
1586.2095712030921
 30
0.0
 11
2017.5519024743739
 21
1459.2095712030921
 31
0.0
  0
LINE
  5
7AEA
  8
1
  6
CONTINUOUS
 10
2052.5519024743749
 20
1586.2095712030921
 30
0.0
 11
2017.5519024743739
 21
1586.2095712030921
 31
0.0
  0
LINE
  5
7AEB
  8
1
  6
CONTINUOUS
 10
2052.5519024743749
 20
1459.2095712030921
 30
0.0
 11
2052.5519024743749
 21
1586.2095712030921
 31
0.0
  0
LINE
  5
7AEC
  8
1
  6
CONTINUOUS
 10
2017.5519024743739
 20
1459.2095712030921
 30
0.0
 11
2052.5519024743749
 21
1459.2095712030921
 31
0.0
  0
LINE
  5
7AED
  8
1
  6
CONTINUOUS
 10
1992.5519024743739
 20
1412.7095712030921
 30
0.0
 11
2077.5519024743739
 21
1412.7095712030921
 31
0.0
  0
LINE
  5
7AEE
  8
1
  6
CONTINUOUS
 10
2097.5519024743739
 20
1412.6095712030919
 30
0.0
 11
2097.5519024743739
 21
1342.6095712030919
 31
0.0
  0
LINE
  5
7AEF
  8
1
  6
CONTINUOUS
 10
2290.7519024743742
 20
1560.1095712030919
 30
0.0
 11
2300.7519024743742
 21
1560.1095712030919
 31
0.0
  0
LINE
  5
7AF0
  8
1
  6
CONTINUOUS
 10
2412.5519024743739
 20
1342.6095712030919
 30
0.0
 11
2412.5519024743739
 21
1412.6095712030919
 31
0.0
  0
LINE
  5
7AF1
  8
1
  6
CONTINUOUS
 10
2290.7519024743742
 20
1829.809571203092
 30
0.0
 11
2126.7519024743742
 21
1703.6095712030919
 31
0.0
  0
LINE
  5
7AF2
  8
1
  6
CONTINUOUS
 10
2052.5519024743749
 20
1730.2095712030921
 30
0.0
 11
2161.3519024743741
 21
1730.2095712030921
 31
0.0
  0
LINE
  5
7AF3
  8
1
  6
CONTINUOUS
 10
2052.5519024743749
 20
1755.2095712030921
 30
0.0
 11
2193.7519024743742
 21
1755.2095712030921
 31
0.0
  0
LINE
  5
7AF4
  8
1
  6
CONTINUOUS
 10
2017.5519024743739
 20
1679.2095712030921
 30
0.0
 11
2052.5519024743749
 21
1679.2095712030921
 31
0.0
  0
LINE
  5
7AF5
  8
1
  6
CONTINUOUS
 10
2052.5519024743749
 20
1679.2095712030921
 30
0.0
 11
2052.5519024743749
 21
1806.2095712030921
 31
0.0
  0
LINE
  5
7AF6
  8
1
  6
CONTINUOUS
 10
2052.5519024743749
 20
1806.2095712030921
 30
0.0
 11
2017.5519024743739
 21
1806.2095712030921
 31
0.0
  0
LINE
  5
7AF7
  8
1
  6
CONTINUOUS
 10
2017.5519024743739
 20
1806.2095712030921
 30
0.0
 11
2017.5519024743739
 21
1679.2095712030921
 31
0.0
  0
LINE
  5
7AF8
  8
1
  6
CONTINUOUS
 10
1992.5519024743739
 20
1982.1095712030919
 30
0.0
 11
2077.5519024743739
 21
1982.1095712030919
 31
0.0
  0
LINE
  5
7AF9
  8
1
  6
CONTINUOUS
 10
2300.7519024743742
 20
1960.7095712030921
 30
0.0
 11
2300.7519024743742
 21
1926.7095712030921
 31
0.0
  0
LINE
  5
7AFA
  8
1
  6
CONTINUOUS
 10
2290.7519024743742
 20
1923.6095712030919
 30
0.0
 11
2290.7519024743742
 21
1761.6095712030919
 31
0.0
  0
LINE
  5
7AFB
  8
1
  6
CONTINUOUS
 10
2290.7519024743742
 20
1925.1095712030919
 30
0.0
 11
2300.7519024743742
 21
1925.1095712030919
 31
0.0
  0
ARC
  5
7AFC
  8
1
  6
CONTINUOUS
 10
2320.5519024743739
 20
1955.7095712030921
 30
0.0
 40
20.0
 50
90.0
 51
180.0
  0
LINE
  5
7AFD
  8
1
  6
CONTINUOUS
 10
2533.5519024743749
 20
1925.1095712030919
 30
0.0
 11
2533.5519024743749
 21
1560.1095712030919
 31
0.0
  0
LINE
  5
7AFE
  8
1
  6
CONTINUOUS
 10
2524.5519024743739
 20
1955.7095712030921
 30
0.0
 11
2524.5519024743739
 21
1426.7095712030921
 31
0.0
  0
LINE
  5
7AFF
  8
1
  6
CONTINUOUS
 10
2533.5519024743749
 20
1560.1095712030919
 30
0.0
 11
2524.351902474375
 21
1560.1095712030919
 31
0.0
  0
LINE
  5
7B00
  8
1
  6
CONTINUOUS
 10
2533.5519024743749
 20
1925.1095712030919
 30
0.0
 11
2524.5519024743739
 21
1925.1095712030919
 31
0.0
  0
ARC
  5
7B01
  8
1
  6
CONTINUOUS
 10
2504.5519024743749
 20
1955.7095712030921
 30
0.0
 40
20.0
 50
0.0
 51
90.0
  0
LINE
  5
7B02
  8
4
  6
CONTINUOUS
 10
2775.0
 20
750.0
 30
0.0
 11
2775.0
 21
450.0
 31
0.0
  0
LINE
  5
7B03
  8
4
  6
CONTINUOUS
 10
1725.0
 20
750.0
 30
0.0
 11
1725.0
 21
450.0
 31
0.0
  0
LINE
  5
7B04
  8
4
  6
CONTINUOUS
 10
975.0
 20
750.0
 30
0.0
 11
975.0
 21
450.0
 31
0.0
  0
LINE
  5
7B07
  8
4
  6
CONTINUOUS
 10
975.0
 20
450.0
 30
0.0
 11
2775.0
 21
450.0
 31
0.0
  0
LINE
  5
7B08
  8
4
  6
CONTINUOUS
 10
975.0
 20
600.0
 30
0.0
 11
2775.0
 21
600.0
 31
0.0
  0
TEXT
  5
7B09
  8
4
  6
CONTINUOUS
 10
1032.753121
 20
647.31453899999985
 30
0.0
 40
75.0
  1
機器名称
  0
TEXT
  5
7B0A
  8
4
  6
CONTINUOUS
 10
1029.387158999999
 20
482.46773499999989
 30
0.0
 40
75.0
  1
機器型番
  0
TEXT
  5
7B0B
  8
4
  6
CONTINUOUS
 10
1766.518118
 20
633.85765300000003
 30
0.0
 40
65.0
  1
ミツヤニューマルチファン
  0
TEXT
  5
7B0C
  8
4
  6
CONTINUOUS
 10
1779.9817430000001
 20
475.73937599999999
 30
0.0
 40
75.0
  1
NM#2-1
  0
TEXT
  5
7B0E
  8
4
  6
CONTINUOUS
 10
1357.1786480000001
 20
3575.1432619999991
 30
0.0
 40
81.0
  1
床置ベット
  0
TEXT
  5
7B0F
  8
4
  6
CONTINUOUS
 10
474.25139000000001
 20
3800.8214640000001
 30
0.0
 40
108.0
  1
ベルト駆動式片吸込片持多翼ファン
  0
LINE
  5
7B10
  8
4
  6
CONTINUOUS
 10
375.0
 20
3704.1131310000001
 30
0.0
 11
2775.0
 21
3704.1131310000001
 31
0.0
  0
LINE
  5
7B11
  8
4
  6
CONTINUOUS
 10
375.0
 20
4004.1131310000001
 30
0.0
 11
2775.0
 21
4004.1131310000001
 31
0.0
  0
LINE
  5
7B12
  8
4
  6
CONTINUOUS
 10
975.0
 20
750.0
 30
0.0
 11
2775.0
 21
750.0
 31
0.0
  0
LINE
  5
7B13
  8
4
  6
CONTINUOUS
 10
375.0
 20
4004.1131310000001
 30
0.0
 11
375.0
 21
3704.1131310000001
 31
0.0
  0
TEXT
  5
7B14
  8
4
  6
CONTINUOUS
 10
703.39039999999989
 20
3573.4792159999988
 30
0.0
 40
81.0
  1
右回転左横向
  0
TEXT
  5
7B15
  8
4
  6
CONTINUOUS
 10
2203.454338999999
 20
4059.091621999999
 30
0.0
 40
84.0
  1
No.
  0
TEXT
  5
7B16
  8
4
  6
CONTINUOUS
 10
1966.944094
 20
3575.1432619999991
 30
0.0
 40
81.0
  1
縮尺：1/15
  0
LINE
  5
7B17
  8
4
  6
CONTINUOUS
 10
2775.0
 20
4004.1131310000001
 30
0.0
 11
2775.0
 21
3704.1131310000001
 31
0.0
  0
LINE
  5
7B19
  8
4
  6
CONTINUOUS
 10
2160.9261339999989
 20
4021.8953750000001
 30
0.0
 11
2160.9261339999989
 21
4179.978392
 31
0.0
  0
LINE
  5
7B1A
  8
4
  6
CONTINUOUS
 10
2160.9261339999989
 20
4179.978392
 30
0.0
 11
2775.0
 21
4179.978392
 31
0.0
  0
LINE
  5
7B1B
  8
4
  6
CONTINUOUS
 10
2775.0
 20
4179.978392
 30
0.0
 11
2775.0
 21
4021.8953750000001
 31
0.0
  0
LINE
  5
7B1C
  8
4
  6
CONTINUOUS
 10
2775.0
 20
4021.8953750000001
 30
0.0
 11
2160.9261339999989
 21
4021.8953750000001
 31
0.0
  0
DIMENSION
  5
7B34
  8
3
  6
CONTINUOUS
  2
*D1
 10
1102.781267999999
 20
1228.860688203092
 30
0.0
 11
999.924125
 21
1228.860688203092
 31
0.0
 70
   128
 13
867.78126799999995
 23
1342.6095712030919
 33
0.0
 14
1102.781267999999
 24
1317.6455882030921
 34
0.0
1001
ACAD
1000
DSTYLE
1002
{
1070
   287
1070
     3
1070
   287
1070
     3
1070
    40
1040
15.0
1070
   143
1040
0.039
1070
   172
1070
     1
1070
   271
1070
     0
1070
   279
1070
     0
1070
   288
1070
     1
1002
}
  0
DIMENSION
  5
7B40
  8
3
  6
CONTINUOUS
  2
*D2
 10
1717.781267999999
 20
1228.860688203092
 30
0.0
 11
1410.281268
 21
1266.360688203092
 31
0.0
 70
     0
 13
1102.781267999999
 23
1317.6455882030921
 33
0.0
 14
1717.781267999999
 24
1342.6095712030919
 34
0.0
1001
ACAD
1000
DSTYLE
1002
{
1070
   287
1070
     4
1070
   287
1070
     4
1070
    40
1040
15.0
1070
    75
1070
     1
1070
   143
1040
0.039
1070
   172
1070
     1
1070
   271
1070
     0
1070
   279
1070
     1
1070
   288
1070
     1
1002
}
  0
DIMENSION
  5
7B4D
  8
3
  6
CONTINUOUS
  2
*D3
 10
1102.781267999999
 20
2022.288393203092
 30
0.0
 11
983.89973499999985
 21
2022.288393203092
 31
0.0
 70
   128
 13
852.78126799999995
 23
1764.1095712030919
 33
0.0
 14
1102.781267999999
 24
1974.8547582030919
 34
0.0
1001
ACAD
1000
DSTYLE
1002
{
1070
   287
1070
     3
1070
   287
1070
     3
1070
    40
1040
15.0
1070
   143
1040
0.039
1070
   172
1070
     1
1070
   271
1070
     0
1070
   279
1070
     0
1070
   288
1070
     1
1002
}
  0
DIMENSION
  5
7B59
  8
3
  6
CONTINUOUS
  2
*D4
 10
1376.781268
 20
2022.288393203092
 30
0.0
 11
1239.781267999999
 21
2059.7883932030918
 31
0.0
 70
     0
 13
1102.781267999999
 23
1974.8547582030919
 33
0.0
 14
1376.781268
 24
1717.1095712030919
 34
0.0
1001
ACAD
1000
DSTYLE
1002
{
1070
   287
1070
     4
1070
   287
1070
     4
1070
    40
1040
15.0
1070
    75
1070
     1
1070
   143
1040
0.039
1070
   172
1070
     1
1070
   271
1070
     0
1070
   279
1070
     1
1070
   288
1070
     1
1002
}
  0
DIMENSION
  5
7B66
  8
3
  6
CONTINUOUS
  2
*D5
 10
785.84071300000028
 20
1427.6095712030919
 30
0.0
 11
785.84071300000005
 21
1588.8913202030919
 31
0.0
 70
   128
 13
852.78126799999995
 23
1742.6095712030919
 33
0.0
 14
852.78126799999995
 24
1427.6095712030919
 34
0.0
 50
90.0
1001
ACAD
1000
DSTYLE
1002
{
1070
   287
1070
     3
1070
   287
1070
     3
1070
    40
1040
15.0
1070
   143
1040
0.039
1070
   172
1070
     1
1070
   271
1070
     0
1070
   279
1070
     0
1070
   288
1070
     1
1002
}
  0
DIMENSION
  5
7B73
  8
3
  6
CONTINUOUS
  2
*D6
 10
602.71238100000005
 20
1742.6095712030919
 30
0.0
 11
602.71238099999982
 21
1845.4667142030919
 31
0.0
 70
   128
 13
1102.781267999999
 23
1974.8547582030919
 33
0.0
 14
852.78126799999995
 24
1742.6095712030919
 34
0.0
 50
90.0
1001
ACAD
1000
DSTYLE
1002
{
1070
   287
1070
     3
1070
   287
1070
     3
1070
    40
1040
15.0
1070
   143
1040
0.039
1070
   172
1070
     1
1070
   271
1070
     0
1070
   279
1070
     0
1070
   288
1070
     1
1002
}
  0
DIMENSION
  5
7B7F
  8
3
  6
CONTINUOUS
  2
*D7
 10
602.71238099999982
 20
1342.6095712030919
 30
0.0
 11
565.2123809999996
 21
1542.6095712030919
 31
0.0
 70
     0
 13
852.78126799999995
 23
1742.6095712030919
 33
0.0
 14
867.78126799999995
 24
1342.6095712030919
 34
0.0
 50
90.0
1001
ACAD
1000
DSTYLE
1002
{
1070
   287
1070
     4
1070
   287
1070
     4
1070
    40
1040
15.0
1070
    75
1070
     1
1070
   143
1040
0.039
1070
   172
1070
     1
1070
   271
1070
     0
1070
   279
1070
     1
1070
   288
1070
     1
1002
}
  0
DIMENSION
  5
7B8C
  8
3
  6
CONTINUOUS
  2
*D8
 10
499.70917700000012
 20
1342.6095712030919
 30
0.0
 11
499.7091769999999
 21
1685.8763652030921
 31
0.0
 70
   128
 13
1102.781267999999
 23
1974.8547582030919
 33
0.0
 14
867.78126799999995
 24
1342.6095712030919
 34
0.0
 50
90.0
1001
ACAD
1000
DSTYLE
1002
{
1070
   287
1070
     3
1070
   287
1070
     3
1070
    40
1040
15.0
1070
   143
1040
0.039
1070
   172
1070
     1
1070
   271
1070
     0
1070
   279
1070
     0
1070
   288
1070
     1
1002
}
  0
DIMENSION
  5
7B9A
  8
3
  6
CONTINUOUS
  2
*D9
 10
1717.781267999999
 20
2505.059166
 30
0.0
 11
1274.6380569999999
 21
2505.059166
 31
0.0
 70
   128
 13
867.78126799999995
 23
2724.7934500000001
 33
0.0
 14
1717.781267999999
 24
2724.7934500000001
 34
0.0
1001
ACAD
1000
DSTYLE
1002
{
1070
   287
1070
     3
1070
   287
1070
     3
1070
    40
1040
15.0
1070
   143
1040
0.039
1070
   172
1070
     1
1070
   271
1070
     0
1070
   279
1070
     0
1070
   288
1070
     1
1002
}
  0
DIMENSION
  5
7BA7
  8
3
  6
CONTINUOUS
  2
*D10
 10
1869.3696379999999
 20
2724.7934500000001
 30
0.0
 11
1869.3696379999999
 21
2870.1020279999998
 31
0.0
 70
   128
 13
1717.781267999999
 23
3039.7934500000001
 33
0.0
 14
1717.781267999999
 24
2724.7934500000001
 34
0.0
 50
90.0
1001
ACAD
1000
DSTYLE
1002
{
1070
   287
1070
     3
1070
   287
1070
     3
1070
    40
1040
15.0
1070
   143
1040
0.039
1070
   172
1070
     1
1070
   271
1070
     0
1070
   279
1070
     0
1070
   288
1070
     1
1002
}
  0
LINE
  5
7BA8
  8
2
  6
CENTER
 10
1451.6874989999999
 20
3039.7934500000001
 30
0.0
 11
762.30902100000003
 21
3039.7934500000001
 31
0.0
  0
LINE
  5
7BA9
  8
2
  6
CENTER
 10
2412.5519024743739
 20
2044.371701203092
 30
0.0
 11
2412.5519024743739
 21
1277.8964082030921
 31
0.0
  0
DIMENSION
  5
7BB6
  8
3
  6
CONTINUOUS
  2
*D11
 10
2524.5519024743739
 20
2037.9789442030919
 30
0.0
 11
2404.6804744743749
 21
2037.9789442030919
 31
0.0
 70
   128
 13
2300.7519024743742
 23
1958.530918203091
 33
0.0
 14
2524.5519024743739
 24
1955.7095712030921
 34
0.0
1001
ACAD
1000
DSTYLE
1002
{
1070
   287
1070
     3
1070
   287
1070
     3
1070
    40
1040
15.0
1070
   143
1040
0.039
1070
   172
1070
     1
1070
   271
1070
     0
1070
   279
1070
     0
1070
   288
1070
     1
1002
}
  0
DIMENSION
  5
7BC3
  8
3
  6
CONTINUOUS
  2
*D12
 10
2412.5519024743739
 20
2144.0149502030922
 30
0.0
 11
2196.872948474374
 21
2144.0149502030922
 31
0.0
 70
   128
  1
MAX\P420
 13
1992.5519024743739
 23
1982.1095712030919
 33
0.0
 14
2412.5519024743739
 24
2111.1037022030919
 34
0.0
1001
ACAD
1000
DSTYLE
1002
{
1070
   287
1070
     3
1070
   287
1070
     3
1070
    40
1040
15.0
1070
   143
1040
0.039
1070
   172
1070
     1
1070
   271
1070
     0
1070
   279
1070
     0
1070
   288
1070
     1
1002
}
  0
DIMENSION
  5
7BD1
  8
3
  6
CONTINUOUS
  2
*D13
 10
2533.5519024743749
 20
2144.0149502030922
 30
0.0
 11
2463.5440474743741
 21
2144.0149502030922
 31
0.0
 70
   128
 13
2412.5519024743739
 23
2111.1037022030919
 33
0.0
 14
2533.5519024743749
 24
1925.1095712030919
 34
0.0
1001
ACAD
1000
DSTYLE
1002
{
1070
   287
1070
     4
1070
   287
1070
     4
1070
    40
1040
15.0
1070
    75
1070
     1
1070
   143
1040
0.039
1070
   172
1070
     1
1070
   271
1070
     0
1070
   279
1070
     1
1070
   288
1070
     1
1002
}
  0
DIMENSION
  5
7BF4
  8
3
  6
CONTINUOUS
  2
*D14
 10
2412.5519024743739
 20
1238.8295522030919
 30
0.0
 11
2248.6537474743741
 21
1238.8295522030919
 31
0.0
 70
   128
 13
2097.5519024743739
 23
1342.6095712030919
 33
0.0
 14
2412.5519024743739
 24
1342.6095712030919
 34
0.0
1001
ACAD
1000
DSTYLE
1002
{
1070
   287
1070
     3
1070
   287
1070
     3
1070
    40
1040
15.0
1070
   143
1040
0.039
1070
   172
1070
     1
1070
   271
1070
     0
1070
   279
1070
     0
1070
   288
1070
     1
1002
}
  0
LINE
  5
7BF6
  8
3
  6
CONTINUOUS
 10
2533.5519024743749
 20
1900.1095712030919
 30
0.0
 11
2555.7283604743752
 21
1900.1095712030919
 31
0.0
  0
LINE
  5
7BF8
  8
3
  6
CONTINUOUS
 10
2533.5519024743749
 20
1585.1095712030919
 30
0.0
 11
2554.5952294743752
 21
1585.1095712030919
 31
0.0
  0
DIMENSION
  5
7C05
  8
3
  6
CONTINUOUS
  2
*D15
 10
2642.978331474375
 20
1585.1095712030919
 30
0.0
 11
2642.978331474375
 21
1753.814562203092
 31
0.0
 70
   128
 13
2533.5519024743749
 23
1900.1095712030919
 33
0.0
 14
2533.5519024743749
 24
1585.1095712030919
 34
0.0
 50
90.0
1001
ACAD
1000
DSTYLE
1002
{
1070
   287
1070
     3
1070
   287
1070
     3
1070
     3
1000
φ<>
1070
    40
1040
15.0
1070
   143
1040
0.039
1070
   172
1070
     1
1070
   271
1070
     0
1070
   279
1070
     0
1070
   288
1070
     1
1002
}
  0
LINE
  5
7C06
  8
2
  6
CENTER
 10
1102.781267999999
 20
2545.9755890000001
 30
0.0
 11
1102.781267999999
 21
3222.9604909999998
 31
0.0
  0
LINE
  5
7C07
  8
2
  6
CENTER
 10
1588.6625610000001
 20
1742.6095712030919
 30
0.0
 11
795.298587
 21
1742.6095712030919
 31
0.0
  0
DIMENSION
  5
7C39
  8
3
  6
CONTINUOUS
  2
*D16
 10
693.08442500000024
 20
1417.6095712030919
 30
0.0
 11
693.0844249999999
 21
1601.432937203092
 31
0.0
 70
   128
 13
852.78126799999995
 23
1742.6095712030919
 33
0.0
 14
872.78126799999995
 24
1417.6095712030919
 34
0.0
 50
90.0
1001
ACAD
1000
DSTYLE
1002
{
1070
   287
1070
     3
1070
   287
1070
     3
1070
    40
1040
15.0
1070
   143
1040
0.039
1070
   172
1070
     1
1070
   271
1070
     0
1070
   279
1070
     0
1070
   288
1070
     1
1002
}
  0
DIMENSION
  5
7CBB
  8
3
  2
*D17
 10
1717.781267999999
 20
2124.5403366596888
 30
0.0
 11
1284.9418312747241
 21
2124.5403366596888
 31
0.0
 70
   128
 13
852.78126799999995
 23
1764.1095712030919
 33
0.0
 14
1717.781267999999
 24
1412.6095712030919
 34
0.0
1001
ACAD
1000
DSTYLE
1002
{
1070
   287
1070
     3
1070
   287
1070
     3
1070
    40
1040
15.0
1070
   143
1040
0.039
1070
   172
1070
     1
1070
   271
1070
     0
1070
   279
1070
     0
1070
   288
1070
     1
1002
}
  0
ENDSEC
  0
EOF
