  0
SECTION
  2
HEADER
  9
$ACADVER
  1
AC1009
  9
$INSBASE
 10
0.0
 20
0.0
 30
0.0
  9
$EXTMIN
 10
375.0
 20
450.0
 30
0.0
  9
$EXTMAX
 10
2775.0
 20
4179.978392
 30
0.0
  9
$LIMMIN
 10
0.0
 20
0.0
  9
$LIMMAX
 10
297.0
 20
210.0
  9
$ORTHOMODE
 70
     0
  9
$REGENMODE
 70
     1
  9
$FILLMODE
 70
     0
  9
$QTEXTMODE
 70
     0
  9
$MIRRTEXT
 70
     1
  9
$DRAGMODE
 70
     2
  9
$LTSCALE
 40
100.0
  9
$OSMODE
 70
    37
  9
$ATTMODE
 70
     1
  9
$TEXTSIZE
 40
180.0
  9
$TRACEWID
 40
0.05
  9
$TEXTSTYLE
  7
STANDARD
  9
$CLAYER
  8
3
  9
$CELTYPE
  6
BYLAYER
  9
$CECOLOR
 62
   256
  9
$DIMSCALE
 40
15.0
  9
$DIMASZ
 40
2.0
  9
$DIMEXO
 40
0.5
  9
$DIMDLI
 40
10.0
  9
$DIMRND
 40
0.0
  9
$DIMDLE
 40
0.0
  9
$DIMEXE
 40
1.0
  9
$DIMTP
 40
1.0
  9
$DIMTM
 40
1.0
  9
$DIMTXT
 40
3.0
  9
$DIMCEN
 40
0.0
  9
$DIMTSZ
 40
0.0
  9
$DIMTOL
 70
     0
  9
$DIMLIM
 70
     0
  9
$DIMTIH
 70
     0
  9
$DIMTOH
 70
     0
  9
$DIMSE1
 70
     0
  9
$DIMSE2
 70
     0
  9
$DIMTAD
 70
     1
  9
$DIMZIN
 70
     8
  9
$DIMBLK
  1

  9
$DIMASO
 70
     1
  9
$DIMSHO
 70
     1
  9
$DIMPOST
  1

  9
$DIMAPOST
  1

  9
$DIMALT
 70
     0
  9
$DIMALTD
 70
     2
  9
$DIMALTF
 40
0.039
  9
$DIMLFAC
 40
1.0
  9
$DIMTOFL
 70
     1
  9
$DIMTVP
 40
0.0
  9
$DIMTIX
 70
     0
  9
$DIMSOXD
 70
     0
  9
$DIMSAH
 70
     1
  9
$DIMBLK1
  1
OPEN
  9
$DIMBLK2
  1
OPEN
  9
$DIMSTYLE
  2
IGA
  9
$DIMCLRD
 70
     0
  9
$DIMCLRE
 70
     0
  9
$DIMCLRT
 70
     0
  9
$DIMTFAC
 40
10.0
  9
$DIMGAP
 40
1.0
  9
$LUNITS
 70
     2
  9
$LUPREC
 70
     3
  9
$SKETCHINC
 40
0.1
  9
$FILLETRAD
 40
50.0
  9
$AUNITS
 70
     0
  9
$AUPREC
 70
     0
  9
$MENU
  1
acad
  9
$ELEVATION
 40
0.0
  9
$PELEVATION
 40
0.0
  9
$THICKNESS
 40
0.0
  9
$LIMCHECK
 70
     0
  9
$BLIPMODE
 70
     0
  9
$CHAMFERA
 40
0.5
  9
$CHAMFERB
 40
0.5
  9
$SKPOLY
 70
     0
  9
$TDCREATE
 40
2450745.4728061338
  9
$TDUPDATE
 40
2454953.8659896641
  9
$TDINDWG
 40
0.007635544
  9
$TDUSRTIMER
 40
0.007635544
  9
$USRTIMER
 70
     1
  9
$ANGBASE
 50
0.0
  9
$ANGDIR
 70
     0
  9
$PDMODE
 70
     0
  9
$PDSIZE
 40
0.0
  9
$PLINEWID
 40
0.0
  9
$COORDS
 70
     1
  9
$SPLFRAME
 70
     0
  9
$SPLINETYPE
 70
     6
  9
$SPLINESEGS
 70
     8
  9
$ATTDIA
 70
     0
  9
$ATTREQ
 70
     1
  9
$HANDLING
 70
 10241
  9
$HANDSEED
  5
80C7
  9
$SURFTAB1
 70
     6
  9
$SURFTAB2
 70
     6
  9
$SURFTYPE
 70
     6
  9
$SURFU
 70
     6
  9
$SURFV
 70
     6
  9
$UCSNAME
  2

  9
$UCSORG
 10
0.0
 20
0.0
 30
0.0
  9
$UCSXDIR
 10
1.0
 20
0.0
 30
0.0
  9
$UCSYDIR
 10
0.0
 20
1.0
 30
0.0
  9
$PUCSNAME
  2

  9
$PUCSORG
 10
0.0
 20
0.0
 30
0.0
  9
$PUCSXDIR
 10
1.0
 20
0.0
 30
0.0
  9
$PUCSYDIR
 10
0.0
 20
1.0
 30
0.0
  9
$USERI1
 70
     0
  9
$USERI2
 70
     0
  9
$USERI3
 70
     0
  9
$USERI4
 70
     0
  9
$USERI5
 70
     0
  9
$USERR1
 40
0.0
  9
$USERR2
 40
0.0
  9
$USERR3
 40
0.0
  9
$USERR4
 40
0.0
  9
$USERR5
 40
0.0
  9
$WORLDVIEW
 70
     1
  9
$SHADEDGE
 70
     3
  9
$SHADEDIF
 70
    70
  9
$TILEMODE
 70
     1
  9
$MAXACTVP
 70
    16
  9
$PLIMCHECK
 70
     0
  9
$PEXTMIN
 10
1.0000000000000000E+020
 20
1.0000000000000000E+020
 30
1.0000000000000000E+020
  9
$PEXTMAX
 10
-1.0000000000000000E+020
 20
-1.0000000000000000E+020
 30
-1.0000000000000000E+020
  9
$PLIMMIN
 10
0.0
 20
0.0
  9
$PLIMMAX
 10
12.0
 20
9.0
  9
$UNITMODE
 70
     0
  9
$VISRETAIN
 70
     0
  9
$PLINEGEN
 70
     0
  9
$PSLTSCALE
 70
     1
  0
ENDSEC
  0
SECTION
  2
TABLES
  0
TABLE
  2
VPORT
 70
     2
  0
VPORT
  2
*ACTIVE
 70
     0
 10
0.0
 20
0.0
 11
1.0
 21
1.0
 12
4290.7995867597137
 22
2974.3256709459852
 13
0.0
 23
0.0
 14
10.0
 24
10.0
 15
10.0
 25
10.0
 16
0.0
 26
0.0
 36
1.0
 17
0.0
 27
0.0
 37
0.0
 40
5790.6463360859261
 41
1.5051150895140659
 42
50.0
 43
0.0
 44
0.0
 50
0.0
 51
0.0
 71
     0
 72
   100
 73
     1
 74
     0
 75
     0
 76
     0
 77
     0
 78
     0
  0
ENDTAB
  0
TABLE
  2
LTYPE
 70
     2
  0
LTYPE
  2
CONTINUOUS
 70
     0
  3
Solid line
 72
    65
 73
     0
 40
0.0
  0
LTYPE
  2
CENTER
 70
     0
  3
____ _ ____ _ ____ _ ____ _ ____ _ ____ _ ____ 
 72
    65
 73
     4
 40
2.0
 49
1.25
 49
-0.25
 49
0.25
 49
-0.25
  0
ENDTAB
  0
TABLE
  2
LAYER
 70
     6
  0
LAYER
  2
0
 70
     0
 62
     7
  6
CONTINUOUS
  0
LAYER
  2
3
 70
     0
 62
     2
  6
CONTINUOUS
  0
LAYER
  2
2
 70
     0
 62
     3
  6
CENTER
  0
LAYER
  2
1
 70
     0
 62
     4
  6
CONTINUOUS
  0
LAYER
  2
4
 70
     0
 62
     7
  6
CONTINUOUS
  0
LAYER
  2
DEFPOINTS
 70
     0
 62
     7
  6
CONTINUOUS
  0
ENDTAB
  0
TABLE
  2
STYLE
 70
     1
  0
STYLE
  2
STANDARD
 70
     0
 40
0.0
 41
1.0
 50
0.0
 71
     0
 42
180.0
  3
simplex.shx
  4
extfont.shx
  0
ENDTAB
  0
TABLE
  2
VIEW
 70
     0
  0
ENDTAB
  0
TABLE
  2
UCS
 70
     0
  0
ENDTAB
  0
TABLE
  2
APPID
 70
     1
  0
APPID
  2
ACAD
 70
     0
  0
ENDTAB
  0
TABLE
  2
DIMSTYLE
 70
     1
  0
DIMSTYLE
  2
IGA
 70
     0
  3

  4

  5

  6
OPEN
  7
OPEN
 40
2.0
 41
2.0
 42
0.5
 43
10.0
 44
1.0
 45
0.0
 46
0.0
 47
1.0
 48
1.0
140
3.0
141
0.0
142
0.0
143
0.03937
144
1.0
145
0.0
146
10.0
147
1.0
 71
     0
 72
     0
 73
     0
 74
     0
 75
     0
 76
     0
 77
     1
 78
     8
170
     0
171
     2
172
     0
173
     1
174
     0
175
     0
176
     0
177
     0
178
     0
  0
ENDTAB
  0
ENDSEC
  0
SECTION
  2
BLOCKS
  0
BLOCK
  8
0
  2
$MODEL_SPACE
 70
     0
 10
0.0
 20
0.0
 30
0.0
  3
$MODEL_SPACE
  1

  0
ENDBLK
  5
1B
  8
0
  0
BLOCK
 67
     1
  8
0
  2
$PAPER_SPACE
 70
     0
 10
0.0
 20
0.0
 30
0.0
  3
$PAPER_SPACE
  1

  0
ENDBLK
  5
18
 67
     1
  8
0
  0
BLOCK
  8
0
  2
_OPEN
 70
     0
 10
0.0
 20
0.0
 30
0.0
  3
_OPEN
  1

  0
LINE
  5
7B20
  8
0
  6
BYBLOCK
 62
     0
 10
-1.0
 20
0.166667
 30
0.0
 11
0.0
 21
0.0
 31
0.0
  0
LINE
  5
7B21
  8
0
  6
BYBLOCK
 62
     0
 10
0.0
 20
0.0
 30
0.0
 11
-1.0
 21
-0.166667
 31
0.0
  0
LINE
  5
7B22
  8
0
  6
BYBLOCK
 62
     0
 10
0.0
 20
0.0
 30
0.0
 11
-1.0
 21
0.0
 31
0.0
  0
ENDBLK
  5
7B23
  8
0
  0
BLOCK
  8
0
  2
*D1
 70
     1
 10
0.0
 20
0.0
 30
0.0
  3
*D1
  1

  0
LINE
  5
8030
  8
3
  6
CONTINUOUS
 62
     0
 10
547.26619200000005
 20
1179.3001331885191
 30
0.0
 11
547.26619200000005
 21
1059.526708188519
 31
0.0
  0
LINE
  5
8031
  8
3
  6
CONTINUOUS
 62
     0
 10
1162.266192
 20
1157.535166188519
 30
0.0
 11
1162.266192
 21
1059.526708188519
 31
0.0
  0
LINE
  5
8032
  8
3
  6
CONTINUOUS
 62
     0
 10
577.26619200000005
 20
1074.526708188519
 30
0.0
 11
1132.266192
 21
1074.526708188519
 31
0.0
  0
INSERT
  5
8033
  8
3
  6
CONTINUOUS
 62
     0
  2
_OPEN
 10
547.26619200000005
 20
1074.526708188519
 30
0.0
 41
30.0
 42
30.0
 43
30.0
 50
180.0
  0
INSERT
  5
8034
  8
3
  6
CONTINUOUS
 62
     0
  2
_OPEN
 10
1162.266192
 20
1074.526708188519
 30
0.0
 41
30.0
 42
30.0
 43
30.0
  0
TEXT
  8
3
  40
45
  5
80B7
  62
0
  72
0
  71
0
 10
764.972
 20
1032.38
 30
0.000000
  1
615
  0
POINT
  5
8036
  8
DEFPOINTS
  6
CONTINUOUS
 62
     0
 10
547.26619200000005
 20
1186.8001331885191
 30
0.0
  0
POINT
  5
8037
  8
DEFPOINTS
  6
CONTINUOUS
 62
     0
 10
1162.266192
 20
1165.035166188519
 30
0.0
  0
POINT
  5
8038
  8
DEFPOINTS
  6
CONTINUOUS
 62
     0
 10
1162.266192
 20
1074.526708188519
 30
0.0
  0
ENDBLK
  5
7E6D
  8
0
  0
BLOCK
  8
0
  2
*D2
 70
     1
 10
0.0
 20
0.0
 30
0.0
  3
*D2
  1

  0
LINE
  5
8039
  8
3
  6
CONTINUOUS
 62
     0
 10
1162.266192
 20
1157.535166188519
 30
0.0
 11
1162.266192
 21
1059.526708188519
 31
0.0
  0
LINE
  5
803A
  8
3
  6
CONTINUOUS
 62
     0
 10
1397.266192
 20
1179.3001331885191
 30
0.0
 11
1397.266192
 21
1059.526708188519
 31
0.0
  0
LINE
  5
803B
  8
3
  6
CONTINUOUS
 62
     0
 10
1192.266192
 20
1074.526708188519
 30
0.0
 11
1367.266192
 21
1074.526708188519
 31
0.0
  0
INSERT
  5
803C
  8
3
  6
CONTINUOUS
 62
     0
  2
_OPEN
 10
1162.266192
 20
1074.526708188519
 30
0.0
 41
30.0
 42
30.0
 43
30.0
 50
180.0
  0
INSERT
  5
803D
  8
3
  6
CONTINUOUS
 62
     0
  2
_OPEN
 10
1397.266192
 20
1074.526708188519
 30
0.0
 41
30.0
 42
30.0
 43
30.0
  0
TEXT
  8
3
  40
45
  5
80B8
  62
0
  72
0
  71
0
 10
1189.77
 20
1032.38
 30
0.000000
  1
235
  0
POINT
  5
803F
  8
DEFPOINTS
  6
CONTINUOUS
 62
     0
 10
1162.266192
 20
1165.035166188519
 30
0.0
  0
POINT
  5
8040
  8
DEFPOINTS
  6
CONTINUOUS
 62
     0
 10
1397.266192
 20
1186.8001331885191
 30
0.0
  0
POINT
  5
8041
  8
DEFPOINTS
  6
CONTINUOUS
 62
     0
 10
1397.266192
 20
1074.526708188519
 30
0.0
  0
ENDBLK
  5
7E62
  8
0
  0
BLOCK
  8
0
  2
*D3
 70
     1
 10
0.0
 20
0.0
 30
0.0
  3
*D3
  1

  0
LINE
  5
8042
  8
3
  6
CONTINUOUS
 62
     0
 10
888.26619200000005
 20
1594.3001331885191
 30
0.0
 11
888.26619200000005
 21
1998.3402601885191
 31
0.0
  0
LINE
  5
8043
  8
3
  6
CONTINUOUS
 62
     0
 10
1162.266192
 20
1918.2125991885191
 30
0.0
 11
1162.266192
 21
1998.3402601885191
 31
0.0
  0
LINE
  5
8044
  8
3
  6
CONTINUOUS
 62
     0
 10
918.26619200000005
 20
1983.3402601885191
 30
0.0
 11
1132.266192
 21
1983.3402601885191
 31
0.0
  0
INSERT
  5
8045
  8
3
  6
CONTINUOUS
 62
     0
  2
_OPEN
 10
888.26619200000005
 20
1983.3402601885191
 30
0.0
 41
30.0
 42
30.0
 43
30.0
 50
180.0
  0
INSERT
  5
8046
  8
3
  6
CONTINUOUS
 62
     0
  2
_OPEN
 10
1162.266192
 20
1983.3402601885191
 30
0.0
 41
30.0
 42
30.0
 43
30.0
  0
TEXT
  8
3
  40
45
  5
80B9
  62
0
  72
0
  71
0
 10
941.522
 20
1941.19
 30
0.000000
  1
274
  0
POINT
  5
8048
  8
DEFPOINTS
  6
CONTINUOUS
 62
     0
 10
888.26619200000005
 20
1586.8001331885191
 30
0.0
  0
POINT
  5
8049
  8
DEFPOINTS
  6
CONTINUOUS
 62
     0
 10
1162.266192
 20
1910.7125991885191
 30
0.0
  0
POINT
  5
804A
  8
DEFPOINTS
  6
CONTINUOUS
 62
     0
 10
1162.266192
 20
1983.3402601885191
 30
0.0
  0
ENDBLK
  5
7F59
  8
0
  0
BLOCK
  8
0
  2
*D4
 70
     1
 10
0.0
 20
0.0
 30
0.0
  3
*D4
  1

  0
LINE
  5
804B
  8
3
  6
CONTINUOUS
 62
     0
 10
1162.266192
 20
1918.2125991885191
 30
0.0
 11
1162.266192
 21
1998.3402601885191
 31
0.0
  0
LINE
  5
804C
  8
3
  6
CONTINUOUS
 62
     0
 10
1412.266192
 20
1930.8001331885191
 30
0.0
 11
1412.266192
 21
1998.3402601885191
 31
0.0
  0
LINE
  5
804D
  8
3
  6
CONTINUOUS
 62
     0
 10
1192.266192
 20
1983.3402601885191
 30
0.0
 11
1382.266192
 21
1983.3402601885191
 31
0.0
  0
INSERT
  5
804E
  8
3
  6
CONTINUOUS
 62
     0
  2
_OPEN
 10
1162.266192
 20
1983.3402601885191
 30
0.0
 41
30.0
 42
30.0
 43
30.0
 50
180.0
  0
INSERT
  5
804F
  8
3
  6
CONTINUOUS
 62
     0
  2
_OPEN
 10
1412.266192
 20
1983.3402601885191
 30
0.0
 41
30.0
 42
30.0
 43
30.0
  0
TEXT
  8
3
  40
45
  5
80BA
  62
0
  72
0
  71
0
 10
1197.27
 20
1941.19
 30
0.000000
  1
250
  0
POINT
  5
8051
  8
DEFPOINTS
  6
CONTINUOUS
 62
     0
 10
1162.266192
 20
1910.7125991885191
 30
0.0
  0
POINT
  5
8052
  8
DEFPOINTS
  6
CONTINUOUS
 62
     0
 10
1412.266192
 20
1923.3001331885191
 30
0.0
  0
POINT
  5
8053
  8
DEFPOINTS
  6
CONTINUOUS
 62
     0
 10
1412.266192
 20
1983.3402601885191
 30
0.0
  0
ENDBLK
  5
7E4C
  8
0
  0
BLOCK
  8
0
  2
*D5
 70
     1
 10
0.0
 20
0.0
 30
0.0
  3
*D5
  1

  0
LINE
  5
8054
  8
3
  6
CONTINUOUS
 62
     0
 10
1419.766192
 20
1901.8001331885191
 30
0.0
 11
1507.3007425196799
 21
1901.8001331885191
 31
0.0
  0
LINE
  5
8055
  8
3
  6
CONTINUOUS
 62
     0
 10
1419.766192
 20
1586.8001331885191
 30
0.0
 11
1507.3007425196799
 21
1586.8001331885191
 31
0.0
  0
LINE
  5
8056
  8
3
  6
CONTINUOUS
 62
     0
 10
1492.3007425196799
 20
1871.8001331885191
 30
0.0
 11
1492.3007425196799
 21
1616.8001331885191
 31
0.0
  0
INSERT
  5
8057
  8
3
  6
CONTINUOUS
 62
     0
  2
_OPEN
 10
1492.3007425196799
 20
1901.8001331885191
 30
0.0
 41
30.0
 42
30.0
 43
30.0
 50
90.0
  0
INSERT
  5
8058
  8
3
  6
CONTINUOUS
 62
     0
  2
_OPEN
 10
1492.3007425196799
 20
1586.8001331885191
 30
0.0
 41
30.0
 42
30.0
 43
30.0
 50
270.0
  0
TEXT
  8
3
  40
45
  5
80BB
  62
0
  72
0
  71
0
 10
1364.80
 20
1671.05
 30
0.000000
  1
315
  0
POINT
  5
805A
  8
DEFPOINTS
  6
CONTINUOUS
 62
     0
 10
1412.266192
 20
1901.8001331885191
 30
0.0
  0
POINT
  5
805B
  8
DEFPOINTS
  6
CONTINUOUS
 62
     0
 10
1412.266192
 20
1586.8001331885191
 30
0.0
  0
POINT
  5
805C
  8
DEFPOINTS
  6
CONTINUOUS
 62
     0
 10
1492.3007425196799
 20
1586.8001331885191
 30
0.0
  0
ENDBLK
  5
7F3E
  8
0
  0
BLOCK
  8
0
  2
*D6
 70
     1
 10
0.0
 20
0.0
 30
0.0
  3
*D6
  1

  0
LINE
  5
805D
  8
3
  6
CONTINUOUS
 62
     0
 10
1399.766192
 20
1911.8001331885191
 30
0.0
 11
1601.191350078715
 21
1911.8001331885191
 31
0.0
  0
LINE
  5
805E
  8
3
  6
CONTINUOUS
 62
     0
 10
1419.766192
 20
1586.8001331885191
 30
0.0
 11
1601.191350078715
 21
1586.8001331885191
 31
0.0
  0
LINE
  5
805F
  8
3
  6
CONTINUOUS
 62
     0
 10
1586.191350078715
 20
1881.8001331885191
 30
0.0
 11
1586.191350078715
 21
1616.8001331885191
 31
0.0
  0
INSERT
  5
8060
  8
3
  6
CONTINUOUS
 62
     0
  2
_OPEN
 10
1586.191350078715
 20
1911.8001331885191
 30
0.0
 41
30.0
 42
30.0
 43
30.0
 50
90.0
  0
INSERT
  5
8061
  8
3
  6
CONTINUOUS
 62
     0
  2
_OPEN
 10
1586.191350078715
 20
1586.8001331885191
 30
0.0
 41
30.0
 42
30.0
 43
30.0
 50
270.0
  0
TEXT
  8
3
  40
45
  5
80BC
  62
0
  72
0
  71
0
 10
1458.69
 20
1665.42
 30
0.000000
  1
325
  0
POINT
  5
8063
  8
DEFPOINTS
  6
CONTINUOUS
 62
     0
 10
1392.266192
 20
1911.8001331885191
 30
0.0
  0
POINT
  5
8064
  8
DEFPOINTS
  6
CONTINUOUS
 62
     0
 10
1412.266192
 20
1586.8001331885191
 30
0.0
  0
POINT
  5
8065
  8
DEFPOINTS
  6
CONTINUOUS
 62
     0
 10
1586.191350078715
 20
1586.8001331885191
 30
0.0
  0
ENDBLK
  5
7F33
  8
0
  0
BLOCK
  8
0
  2
*D7
 70
     1
 10
0.0
 20
0.0
 30
0.0
  3
*D7
  1

  0
LINE
  5
8066
  8
3
  6
CONTINUOUS
 62
     0
 10
1419.766192
 20
1586.8001331885191
 30
0.0
 11
1601.191350078715
 21
1586.8001331885191
 31
0.0
  0
LINE
  5
8067
  8
3
  6
CONTINUOUS
 62
     0
 10
1404.766192
 20
1186.8001331885191
 30
0.0
 11
1601.191350078715
 21
1186.800133188518
 31
0.0
  0
LINE
  5
8068
  8
3
  6
CONTINUOUS
 62
     0
 10
1586.191350078715
 20
1556.8001331885191
 30
0.0
 11
1586.1913500787141
 21
1216.800133188518
 31
0.0
  0
INSERT
  5
8069
  8
3
  6
CONTINUOUS
 62
     0
  2
_OPEN
 10
1586.191350078715
 20
1586.8001331885191
 30
0.0
 41
30.0
 42
30.0
 43
30.0
 50
90.0
  0
INSERT
  5
806A
  8
3
  6
CONTINUOUS
 62
     0
  2
_OPEN
 10
1586.1913500787141
 20
1186.800133188518
 30
0.0
 41
30.0
 42
30.0
 43
30.0
 50
270.0
  0
TEXT
  8
3
  40
45
  5
80BD
  62
0
  72
0
  71
0
 10
1458.69
 20
1307.15
 30
0.000000
  1
400
  0
POINT
  5
806C
  8
DEFPOINTS
  6
CONTINUOUS
 62
     0
 10
1412.266192
 20
1586.8001331885191
 30
0.0
  0
POINT
  5
806D
  8
DEFPOINTS
  6
CONTINUOUS
 62
     0
 10
1397.266192
 20
1186.8001331885191
 30
0.0
  0
POINT
  5
806E
  8
DEFPOINTS
  6
CONTINUOUS
 62
     0
 10
1586.1913500787141
 20
1186.800133188518
 30
0.0
  0
ENDBLK
  5
7F1D
  8
0
  0
BLOCK
  8
0
  2
*D8
 70
     1
 10
0.0
 20
0.0
 30
0.0
  3
*D8
  1

  0
LINE
  5
806F
  8
3
  6
CONTINUOUS
 62
     0
 10
547.26619200000005
 20
2746.3150879999998
 30
0.0
 11
547.26619200000005
 21
2539.0923339999999
 31
0.0
  0
LINE
  5
8070
  8
3
  6
CONTINUOUS
 62
     0
 10
1397.266192
 20
2746.3150879999998
 30
0.0
 11
1397.266192
 21
2539.0923339999999
 31
0.0
  0
LINE
  5
8071
  8
3
  6
CONTINUOUS
 62
     0
 10
577.26619200000005
 20
2554.092333999999
 30
0.0
 11
1367.266192
 21
2554.092333999999
 31
0.0
  0
INSERT
  5
8072
  8
3
  6
CONTINUOUS
 62
     0
  2
_OPEN
 10
547.26619200000005
 20
2554.092333999999
 30
0.0
 41
30.0
 42
30.0
 43
30.0
 50
180.0
  0
INSERT
  5
8073
  8
3
  6
CONTINUOUS
 62
     0
  2
_OPEN
 10
1397.266192
 20
2554.092333999999
 30
0.0
 41
30.0
 42
30.0
 43
30.0
  0
TEXT
  8
3
  40
45
  5
80BE
  62
0
  72
0
  71
0
 10
855.125
 20
2511.94
 30
0.000000
  1
850
  0
POINT
  5
8075
  8
DEFPOINTS
  6
CONTINUOUS
 62
     0
 10
547.26619200000005
 20
2753.8150879999998
 30
0.0
  0
POINT
  5
8076
  8
DEFPOINTS
  6
CONTINUOUS
 62
     0
 10
1397.266192
 20
2753.8150879999998
 30
0.0
  0
POINT
  5
8077
  8
DEFPOINTS
  6
CONTINUOUS
 62
     0
 10
1397.266192
 20
2554.092333999999
 30
0.0
  0
ENDBLK
  5
7E20
  8
0
  0
BLOCK
  8
0
  2
*D9
 70
     1
 10
0.0
 20
0.0
 30
0.0
  3
*D9
  1

  0
LINE
  5
8078
  8
3
  6
CONTINUOUS
 62
     0
 10
2062.6727040000001
 20
1179.3001331885191
 30
0.0
 11
2062.6727040000001
 21
1066.5485830990119
 31
0.0
  0
LINE
  5
8079
  8
3
  6
CONTINUOUS
 62
     0
 10
2377.6727040000001
 20
1179.3001331885191
 30
0.0
 11
2377.6727040000001
 21
1066.5485830990119
 31
0.0
  0
LINE
  5
807A
  8
3
  6
CONTINUOUS
 62
     0
 10
2092.6727039999992
 20
1081.5485830990119
 30
0.0
 11
2347.6727040000001
 21
1081.5485830990119
 31
0.0
  0
INSERT
  5
807B
  8
3
  6
CONTINUOUS
 62
     0
  2
_OPEN
 10
2062.6727040000001
 20
1081.5485830990119
 30
0.0
 41
30.0
 42
30.0
 43
30.0
 50
180.0
  0
INSERT
  5
807C
  8
3
  6
CONTINUOUS
 62
     0
  2
_OPEN
 10
2377.6727040000001
 20
1081.5485830990119
 30
0.0
 41
30.0
 42
30.0
 43
30.0
  0
TEXT
  8
3
  40
45
  5
80BF
  62
0
  72
0
  71
0
 10
2132.59
 20
1039.40
 30
0.000000
  1
315
  0
POINT
  5
807E
  8
DEFPOINTS
  6
CONTINUOUS
 62
     0
 10
2062.6727040000001
 20
1186.8001331885191
 30
0.0
  0
POINT
  5
807F
  8
DEFPOINTS
  6
CONTINUOUS
 62
     0
 10
2377.6727040000001
 20
1186.8001331885191
 30
0.0
  0
POINT
  5
8080
  8
DEFPOINTS
  6
CONTINUOUS
 62
     0
 10
2377.6727040000001
 20
1081.5485830990119
 30
0.0
  0
ENDBLK
  5
7F49
  8
0
  0
BLOCK
  8
0
  2
*D10
 70
     1
 10
0.0
 20
0.0
 30
0.0
  3
*D10
  1

  0
LINE
  5
8081
  8
3
  6
CONTINUOUS
 62
     0
 10
2265.6727039999992
 20
1909.3001331885191
 30
0.0
 11
2265.6727039999992
 21
1955.123795056486
 31
0.0
  0
LINE
  5
8082
  8
3
  6
CONTINUOUS
 62
     0
 10
2489.6727040000001
 20
1909.3001331885191
 30
0.0
 11
2489.6727040000001
 21
1955.123795056486
 31
0.0
  0
LINE
  5
8083
  8
3
  6
CONTINUOUS
 62
     0
 10
2295.6727040000001
 20
1940.123795056486
 30
0.0
 11
2459.6727040000001
 21
1940.123795056486
 31
0.0
  0
INSERT
  5
8084
  8
3
  6
CONTINUOUS
 62
     0
  2
_OPEN
 10
2265.6727039999992
 20
1940.123795056486
 30
0.0
 41
30.0
 42
30.0
 43
30.0
 50
180.0
  0
INSERT
  5
8085
  8
3
  6
CONTINUOUS
 62
     0
  2
_OPEN
 10
2489.6727040000001
 20
1940.123795056486
 30
0.0
 41
30.0
 42
30.0
 43
30.0
  0
TEXT
  8
3
  40
45
  5
80C0
  62
0
  72
0
  71
0
 10
2279.60
 20
1897.97
 30
0.000000
  1
224
  0
POINT
  5
8087
  8
DEFPOINTS
  6
CONTINUOUS
 62
     0
 10
2265.6727039999992
 20
1901.8001331885191
 30
0.0
  0
POINT
  5
8088
  8
DEFPOINTS
  6
CONTINUOUS
 62
     0
 10
2489.6727040000001
 20
1901.8001331885191
 30
0.0
  0
POINT
  5
8089
  8
DEFPOINTS
  6
CONTINUOUS
 62
     0
 10
2489.6727040000001
 20
1940.123795056486
 30
0.0
  0
ENDBLK
  5
7EAF
  8
0
  0
BLOCK
  8
0
  2
*D11
 70
     1
 10
0.0
 20
0.0
 30
0.0
  3
*D11
  1

  0
LINE
  5
808A
  8
3
  6
CONTINUOUS
 62
     0
 10
1957.6727039999989
 20
1824.3001331885191
 30
0.0
 11
1957.6727039999989
 21
2071.4369182136538
 31
0.0
  0
LINE
  5
808B
  8
3
  6
CONTINUOUS
 62
     0
 10
2377.6727040000001
 20
2010.7667558844
 30
0.0
 11
2377.6727040000001
 21
2071.4369182136538
 31
0.0
  0
LINE
  5
808C
  8
3
  6
CONTINUOUS
 62
     0
 10
1987.6727039999989
 20
2056.4369182136529
 30
0.0
 11
2347.6727040000001
 21
2056.4369182136529
 31
0.0
  0
INSERT
  5
808D
  8
3
  6
CONTINUOUS
 62
     0
  2
_OPEN
 10
1957.6727039999989
 20
2056.4369182136529
 30
0.0
 41
30.0
 42
30.0
 43
30.0
 50
180.0
  0
INSERT
  5
808E
  8
3
  6
CONTINUOUS
 62
     0
  2
_OPEN
 10
2377.6727040000001
 20
2056.4369182136529
 30
0.0
 41
30.0
 42
30.0
 43
30.0
  0
TEXT
  8
3
  40
45
  5
80C1
  62
0
  72
0
  71
0
 10
2068.73
 20
2051.79
 30
0.000000
  1
MAX
  0
TEXT
  8
3
  40
45
  5
80C2
  62
0
  72
0
  71
0
 10
2068.73
 20
1993.29
 30
0.000000
  1
420
  0
POINT
  5
8090
  8
DEFPOINTS
  6
CONTINUOUS
 62
     0
 10
1957.6727039999989
 20
1816.8001331885191
 30
0.0
  0
POINT
  5
8091
  8
DEFPOINTS
  6
CONTINUOUS
 62
     0
 10
2377.6727040000001
 20
2003.2667558843989
 30
0.0
  0
POINT
  5
8092
  8
DEFPOINTS
  6
CONTINUOUS
 62
     0
 10
2377.6727040000001
 20
2056.4369182136529
 30
0.0
  0
ENDBLK
  5
7EDB
  8
0
  0
BLOCK
  8
0
  2
*D12
 70
     1
 10
0.0
 20
0.0
 30
0.0
  3
*D12
  1

  0
LINE
  5
7EC7
  8
0
  6
BYBLOCK
 62
     0
 10
2377.6727040000001
 20
2010.7667558844
 30
0.0
 11
2377.6727040000001
 21
2071.4369182136538
 31
0.0
  0
LINE
  5
7EC8
  8
0
  6
BYBLOCK
 62
     0
 10
2498.6727040000001
 20
1776.8001331885191
 30
0.0
 11
2498.6727040000001
 21
2071.4369182136538
 31
0.0
  0
LINE
  5
7EC9
  8
0
  6
BYBLOCK
 62
     0
 10
2407.6727040000001
 20
2056.4369182136529
 30
0.0
 11
2468.6727040000001
 21
2056.4369182136529
 31
0.0
  0
TEXT
  5
7ECA
  8
3
 62
     0
 10
2394.2441325714281
 20
2075.9431593453551
 30
0.0
 40
45.0
  1
121
  0
INSERT
  5
7ECB
  8
0
  6
BYBLOCK
 62
     0
  2
_OPEN
 10
2377.6727040000001
 20
2056.4369182136529
 30
0.0
 41
30.0
 42
30.0
 43
30.0
 50
180.0
  0
INSERT
  5
7ECC
  8
0
  6
BYBLOCK
 62
     0
  2
_OPEN
 10
2498.6727040000001
 20
2056.4369182136529
 30
0.0
 41
30.0
 42
30.0
 43
30.0
  0
POINT
  5
7ECD
  8
DEFPOINTS
  6
BYBLOCK
 62
     0
 10
2377.6727040000001
 20
2003.2667558843989
 30
0.0
  0
POINT
  5
7ECE
  8
DEFPOINTS
  6
BYBLOCK
 62
     0
 10
2498.6727040000001
 20
1769.3001331885191
 30
0.0
  0
POINT
  5
7ECF
  8
DEFPOINTS
  6
BYBLOCK
 62
     0
 10
2498.6727040000001
 20
2056.4369182136529
 30
0.0
  0
ENDBLK
  5
7ED0
  8
0
  0
BLOCK
  8
0
  2
*D13
 70
     1
 10
0.0
 20
0.0
 30
0.0
  3
*D13
  1

  0
LINE
  5
8093
  8
3
  6
CONTINUOUS
 62
     0
 10
2506.1727040000001
 20
1744.3001331885191
 30
0.0
 11
2601.7584630000001
 21
1744.3001331885191
 31
0.0
  0
LINE
  5
8094
  8
3
  6
CONTINUOUS
 62
     0
 10
2506.1727040000001
 20
1429.3001331885191
 30
0.0
 11
2601.7584630000001
 21
1429.3001331885191
 31
0.0
  0
LINE
  5
8095
  8
3
  6
CONTINUOUS
 62
     0
 10
2586.7584630000001
 20
1714.3001331885191
 30
0.0
 11
2586.7584630000001
 21
1459.300133188518
 31
0.0
  0
INSERT
  5
8096
  8
3
  6
CONTINUOUS
 62
     0
  2
_OPEN
 10
2586.7584630000001
 20
1744.3001331885191
 30
0.0
 41
30.0
 42
30.0
 43
30.0
 50
90.0
  0
INSERT
  5
8097
  8
3
  6
CONTINUOUS
 62
     0
  2
_OPEN
 10
2586.7584630000001
 20
1429.3001331885191
 30
0.0
 41
30.0
 42
30.0
 43
30.0
 50
270.0
  0
TEXT
  8
3
  40
45
  5
80C3
  62
0
  72
0
  71
0
 10
2459.26
 20
1513.07
 30
0.000000
  1
φ315
  0
POINT
  5
8099
  8
DEFPOINTS
  6
CONTINUOUS
 62
     0
 10
2498.6727040000001
 20
1744.3001331885191
 30
0.0
  0
POINT
  5
809A
  8
DEFPOINTS
  6
CONTINUOUS
 62
     0
 10
2498.6727040000001
 20
1429.3001331885191
 30
0.0
  0
POINT
  5
809B
  8
DEFPOINTS
  6
CONTINUOUS
 62
     0
 10
2586.7584630000001
 20
1429.3001331885191
 30
0.0
  0
ENDBLK
  5
7E78
  8
0
  0
BLOCK
  8
0
  2
*D14
 70
     1
 10
0.0
 20
0.0
 30
0.0
  3
*D14
  1

  0
LINE
  5
809C
  8
3
  6
CONTINUOUS
 62
     0
 10
539.76619200000005
 20
2753.8150879999998
 30
0.0
 11
453.46817600000043
 21
2753.8150879999998
 31
0.0
  0
LINE
  5
809D
  8
3
  6
CONTINUOUS
 62
     0
 10
539.76619200000005
 20
3068.8150879999998
 30
0.0
 11
453.46817600000048
 21
3068.8150879999998
 31
0.0
  0
LINE
  5
809E
  8
3
  6
CONTINUOUS
 62
     0
 10
468.46817600000043
 20
2783.8150879999998
 30
0.0
 11
468.46817600000043
 21
3038.8150879999989
 31
0.0
  0
INSERT
  5
809F
  8
3
  6
CONTINUOUS
 62
     0
  2
_OPEN
 10
468.46817600000043
 20
2753.8150879999998
 30
0.0
 41
30.0
 42
30.0
 43
30.0
 50
270.0
  0
INSERT
  5
80A0
  8
3
  6
CONTINUOUS
 62
     0
  2
_OPEN
 10
468.46817600000043
 20
3068.8150879999998
 30
0.0
 41
30.0
 42
30.0
 43
30.0
 50
90.0
  0
TEXT
  8
3
  40
45
  5
80C4
  62
0
  72
0
  71
0
 10
340.968
 20
2835.35
 30
0.000000
  1
315
  0
POINT
  5
80A2
  8
DEFPOINTS
  6
CONTINUOUS
 62
     0
 10
547.26619200000005
 20
2753.8150879999998
 30
0.0
  0
POINT
  5
80A3
  8
DEFPOINTS
  6
CONTINUOUS
 62
     0
 10
547.26619200000005
 20
3068.8150879999998
 30
0.0
  0
POINT
  5
80A4
  8
DEFPOINTS
  6
CONTINUOUS
 62
     0
 10
468.46817600000043
 20
3068.8150879999998
 30
0.0
  0
ENDBLK
  5
7DDC
  8
0
  0
BLOCK
  8
0
  2
*D15
 70
     1
 10
0.0
 20
0.0
 30
0.0
  3
*D15
  1

  0
LINE
  5
80A5
  8
3
 62
     0
 10
1412.266192
 20
1930.8001331885191
 30
0.0
 11
1412.266192
 21
2091.6316518019748
 31
0.0
  0
LINE
  5
80A6
  8
3
 62
     0
 10
547.26619200000005
 20
1264.3001331885191
 30
0.0
 11
547.26619200000005
 21
2091.6316518019748
 31
0.0
  0
LINE
  5
80A7
  8
3
 62
     0
 10
1382.266192
 20
2076.6316518019748
 30
0.0
 11
577.26619200000005
 21
2076.6316518019748
 31
0.0
  0
INSERT
  5
80A8
  8
3
 62
     0
  2
_OPEN
 10
1412.266192
 20
2076.6316518019748
 30
0.0
 41
30.0
 42
30.0
 43
30.0
  0
INSERT
  5
80A9
  8
3
 62
     0
  2
_OPEN
 10
547.26619200000005
 20
2076.6316518019748
 30
0.0
 41
30.0
 42
30.0
 43
30.0
 50
180.0
  0
TEXT
  8
3
  40
45
  5
80C5
  62
0
  72
0
  71
0
 10
898.742
 20
2034.48
 30
0.000000
  1
865
  0
POINT
  5
80AB
  8
DEFPOINTS
 62
     0
 10
1412.266192
 20
1923.3001331885191
 30
0.0
  0
POINT
  5
80AC
  8
DEFPOINTS
 62
     0
 10
547.26619200000005
 20
1256.8001331885191
 30
0.0
  0
POINT
  5
80AD
  8
DEFPOINTS
 62
     0
 10
547.26619200000005
 20
2076.6316518019748
 30
0.0
  0
ENDBLK
  5
7EE6
  8
0
  0
BLOCK
  8
0
  2
*D16
 70
     1
 10
0.0
 20
0.0
 30
0.0
  3
*D16
  1

  0
LINE
  5
80AE
  8
3
 62
     0
 10
1419.766192
 20
1923.3001331885191
 30
0.0
 11
1697.378923562577
 21
1923.3001331885191
 31
0.0
  0
LINE
  5
80AF
  8
3
 62
     0
 10
1404.766192
 20
1186.8001331885191
 30
0.0
 11
1697.378923562577
 21
1186.800133188518
 31
0.0
  0
LINE
  5
80B0
  8
3
 62
     0
 10
1682.378923562577
 20
1893.3001331885191
 30
0.0
 11
1682.378923562577
 21
1216.800133188518
 31
0.0
  0
INSERT
  5
80B1
  8
3
 62
     0
  2
_OPEN
 10
1682.378923562577
 20
1923.3001331885191
 30
0.0
 41
30.0
 42
30.0
 43
30.0
 50
90.0
  0
INSERT
  5
80B2
  8
3
 62
     0
  2
_OPEN
 10
1682.378923562577
 20
1186.800133188518
 30
0.0
 41
30.0
 42
30.0
 43
30.0
 50
270.0
  0
TEXT
  8
3
  40
45
  5
80C6
  62
0
  72
0
  71
0
 10
1554.88
 20
1484.31
 30
0.000000
  1
737
  0
POINT
  5
80B4
  8
DEFPOINTS
 62
     0
 10
1412.266192
 20
1923.3001331885191
 30
0.0
  0
POINT
  5
80B5
  8
DEFPOINTS
 62
     0
 10
1397.266192
 20
1186.8001331885191
 30
0.0
  0
POINT
  5
80B6
  8
DEFPOINTS
 62
     0
 10
1682.378923562577
 20
1186.800133188518
 30
0.0
  0
ENDBLK
  5
7F28
  8
0
  0
ENDSEC
  0
SECTION
  2
ENTITIES
  0
CIRCLE
  5
7A7F
  8
1
  6
CONTINUOUS
 10
1162.266192
 20
1586.8001331885191
 30
0.0
 40
157.5
  0
LINE
  5
7A80
  8
1
  6
CONTINUOUS
 10
2265.6727039999992
 20
1586.8001331885191
 30
0.0
 11
2489.6727040000001
 21
1901.8001331885191
 31
0.0
  0
LINE
  5
7A81
  8
1
  6
CONTINUOUS
 10
2265.6727039999992
 20
1901.8001331885191
 30
0.0
 11
2489.6727040000001
 21
1586.8001331885191
 31
0.0
  0
LINE
  5
7A82
  8
1
  6
CONTINUOUS
 10
2265.6727039999992
 20
1586.8001331885191
 30
0.0
 11
2489.6727040000001
 21
1586.8001331885191
 31
0.0
  0
LINE
  5
7A83
  8
1
  6
CONTINUOUS
 10
2377.6727040000001
 20
1901.8001331885191
 30
0.0
 11
2489.6727040000001
 21
1901.8001331885191
 31
0.0
  0
LINE
  5
7A84
  8
1
  6
CONTINUOUS
 10
712.76619200000005
 20
1318.3001331885191
 30
0.0
 11
1187.966191999999
 21
1528.700133188519
 31
0.0
  0
LINE
  5
7A85
  8
1
  6
CONTINUOUS
 10
667.86619199999996
 20
1414.400133188519
 30
0.0
 11
1134.266192
 21
1643.8001331885191
 31
0.0
  0
LINE
  5
7A86
  8
1
  6
CONTINUOUS
 10
1392.266192
 20
1616.8001331885191
 30
0.0
 11
1392.266192
 21
1871.8001331885191
 31
0.0
  0
LINE
  5
7A87
  8
1
  6
CONTINUOUS
 10
1392.266192
 20
3151.8150879999998
 30
0.0
 11
1392.266192
 21
2985.8150879999998
 31
0.0
  0
LINE
  5
7A88
  8
1
  6
CONTINUOUS
 10
1392.266192
 20
1901.8001331885191
 30
0.0
 11
1392.266192
 21
1911.8001331885191
 31
0.0
  0
ARC
  5
7A89
  8
1
  6
CONTINUOUS
 10
1430.266192
 20
1509.8001331885191
 30
0.0
 40
78.0
 50
119.2
 51
161.1999999999999
  0
ARC
  5
7A8A
  8
1
  6
CONTINUOUS
 10
1144.266192
 20
1568.8001331885191
 30
0.0
 40
215.0
 50
259.39999999999992
 51
351.39999999999992
  0
ARC
  5
7A8B
  8
1
  6
CONTINUOUS
 10
1141.266192
 20
1607.8001331885191
 30
0.0
 40
253.0
 50
191.59999999999991
 51
261.80000000000001
  0
ARC
  5
7A8C
  8
1
  6
CONTINUOUS
 10
1187.766192
 20
1612.3001331885191
 30
0.0
 40
299.5
 50
90.0
 51
190.59999999999999
  0
LINE
  5
7A8D
  8
1
  6
CONTINUOUS
 10
1392.266192
 20
1911.8001331885191
 30
0.0
 11
1187.766192
 21
1911.8001331885191
 31
0.0
  0
LINE
  5
7A8E
  8
1
  6
CONTINUOUS
 10
1392.266192
 20
1577.900133188519
 30
0.0
 11
1392.266192
 21
1586.8001331885191
 31
0.0
  0
CIRCLE
  5
7A8F
  8
1
  6
CONTINUOUS
 10
1162.266192
 20
1586.8001331885191
 30
0.0
 40
182.5
  0
LINE
  5
7A90
  8
1
  6
CONTINUOUS
 10
547.26619200000005
 20
2753.8150879999998
 30
0.0
 11
679.26619200000005
 21
2753.8150879999998
 31
0.0
  0
LINE
  5
7A91
  8
1
  6
CONTINUOUS
 10
1397.266192
 20
2753.8150879999998
 30
0.0
 11
1397.266192
 21
2956.8150879999989
 31
0.0
  0
LINE
  5
7A92
  8
1
  6
CONTINUOUS
 10
547.26619200000005
 20
3068.8150879999998
 30
0.0
 11
547.26619200000005
 21
2753.8150879999998
 31
0.0
  0
LINE
  5
7A93
  8
1
  6
CONTINUOUS
 10
1032.367532
 20
3189.8150879999998
 30
0.0
 11
1397.367532
 21
3189.8150879999998
 31
0.0
  0
LINE
  5
7A94
  8
1
  6
CONTINUOUS
 10
979.76619200000005
 20
3189.8150879999998
 30
0.0
 11
979.76619200000005
 21
3181.615088
 31
0.0
  0
LINE
  5
7A95
  8
1
  6
CONTINUOUS
 10
957.26619199999993
 20
2947.0150880000001
 30
0.0
 11
1367.266192
 21
2947.0150880000001
 31
0.0
  0
LINE
  5
7A96
  8
1
  6
CONTINUOUS
 10
894.26619200000005
 20
3180.8150879999998
 30
0.0
 11
1412.266192
 21
3180.8150879999998
 31
0.0
  0
LINE
  5
7A97
  8
1
  6
CONTINUOUS
 10
1412.266192
 20
3201.8150879999998
 30
0.0
 11
1412.266192
 21
2935.8150879999998
 31
0.0
  0
LINE
  5
7A98
  8
1
  6
CONTINUOUS
 10
1412.266192
 20
2956.8150879999989
 30
0.0
 11
894.26619200000005
 21
2956.8150879999989
 31
0.0
  0
LINE
  5
7A99
  8
1
  6
CONTINUOUS
 10
874.26619200000005
 20
3160.8150879999998
 30
0.0
 11
874.26619200000005
 21
2976.8150879999998
 31
0.0
  0
LINE
  5
7A9A
  8
1
  6
CONTINUOUS
 10
979.76619200000005
 20
2947.0150880000001
 30
0.0
 11
979.76619200000005
 21
2956.8150879999989
 31
0.0
  0
LINE
  5
7A9B
  8
1
  6
CONTINUOUS
 10
1344.766192
 20
3189.8150879999998
 30
0.0
 11
1344.766192
 21
3181.615088
 31
0.0
  0
ARC
  5
7A9C
  8
1
  6
CONTINUOUS
 10
894.26619200000005
 20
3160.8150879999998
 30
0.0
 40
20.0
 50
90.0
 51
180.0
  0
ARC
  5
7A9D
  8
1
  6
CONTINUOUS
 10
894.26619200000005
 20
2976.8150879999998
 30
0.0
 40
20.0
 50
180.0
 51
270.0
  0
LINE
  5
7A9E
  8
1
  6
CONTINUOUS
 10
1225.766192
 20
2675.3150879999998
 30
0.0
 11
1225.766192
 21
2710.3150879999989
 31
0.0
  0
LINE
  5
7A9F
  8
1
  6
CONTINUOUS
 10
1225.766192
 20
2710.3150879999989
 30
0.0
 11
1098.766192
 21
2710.3150879999989
 31
0.0
  0
LINE
  5
7AA0
  8
1
  6
CONTINUOUS
 10
1098.766192
 20
2710.3150879999989
 30
0.0
 11
1098.766192
 21
2675.3150879999998
 31
0.0
  0
LINE
  5
7AA1
  8
1
  6
CONTINUOUS
 10
1098.766192
 20
2675.3150879999998
 30
0.0
 11
1225.766192
 21
2675.3150879999998
 31
0.0
  0
LINE
  5
7AA2
  8
1
  6
CONTINUOUS
 10
874.26619200000005
 20
3068.8150879999998
 30
0.0
 11
547.26619200000005
 21
3068.8150879999998
 31
0.0
  0
LINE
  5
7AA3
  8
1
  6
CONTINUOUS
 10
957.26619199999993
 20
2783.8150879999998
 30
0.0
 11
957.26619199999993
 21
2947.0150880000001
 31
0.0
  0
LINE
  5
7AA4
  8
1
  6
CONTINUOUS
 10
1367.266192
 20
2783.8150879999998
 30
0.0
 11
1367.266192
 21
2947.0150880000001
 31
0.0
  0
LINE
  5
7AA5
  8
1
  6
CONTINUOUS
 10
957.26619199999993
 20
2783.8150879999998
 30
0.0
 11
1150.266192
 21
2783.8150879999998
 31
0.0
  0
LINE
  5
7AA6
  8
1
  6
CONTINUOUS
 10
703.26619200000005
 20
2710.3150879999989
 30
0.0
 11
703.26619200000005
 21
2770.3150879999998
 31
0.0
  0
LINE
  5
7AA7
  8
1
  6
CONTINUOUS
 10
679.26619200000005
 20
2710.3150879999989
 30
0.0
 11
679.26619200000005
 21
2770.3150879999998
 31
0.0
  0
LINE
  5
7AA8
  8
1
  6
CONTINUOUS
 10
792.26619200000005
 20
2770.3150879999998
 30
0.0
 11
601.26619200000005
 21
2770.3150879999998
 31
0.0
  0
LINE
  5
7AA9
  8
1
  6
CONTINUOUS
 10
792.26619200000005
 20
3042.3150879999998
 30
0.0
 11
601.26619200000005
 21
3042.3150879999998
 31
0.0
  0
LINE
  5
7AAA
  8
1
  6
CONTINUOUS
 10
703.26619200000005
 20
2675.3150879999998
 30
0.0
 11
679.26619200000005
 21
2675.3150879999998
 31
0.0
  0
LINE
  5
7AAB
  8
1
  6
CONTINUOUS
 10
601.26619200000005
 20
3042.3150879999998
 30
0.0
 11
601.26619200000005
 21
2770.3150879999998
 31
0.0
  0
LINE
  5
7AAC
  8
1
  6
CONTINUOUS
 10
792.26619200000005
 20
2770.3150879999998
 30
0.0
 11
792.26619200000005
 21
3042.3150879999998
 31
0.0
  0
LINE
  5
7AAD
  8
1
  6
CONTINUOUS
 10
627.76619200000005
 20
2675.3150879999998
 30
0.0
 11
754.76619200000005
 21
2675.3150879999998
 31
0.0
  0
LINE
  5
7AAE
  8
1
  6
CONTINUOUS
 10
627.76619200000005
 20
2710.3150879999989
 30
0.0
 11
627.76619200000005
 21
2675.3150879999998
 31
0.0
  0
LINE
  5
7AAF
  8
1
  6
CONTINUOUS
 10
754.76619200000005
 20
2710.3150879999989
 30
0.0
 11
627.76619200000005
 21
2710.3150879999989
 31
0.0
  0
LINE
  5
7AB0
  8
1
  6
CONTINUOUS
 10
754.76619200000005
 20
2675.3150879999998
 30
0.0
 11
754.76619200000005
 21
2710.3150879999989
 31
0.0
  0
LINE
  5
7AB1
  8
1
  6
CONTINUOUS
 10
1174.266192
 20
2753.8150879999998
 30
0.0
 11
1397.266192
 21
2753.8150879999998
 31
0.0
  0
LINE
  5
7AB2
  8
1
  6
CONTINUOUS
 10
703.26619200000005
 20
2753.8150879999998
 30
0.0
 11
1150.266192
 21
2753.8150879999998
 31
0.0
  0
LINE
  5
7AB3
  8
1
  6
CONTINUOUS
 10
576.76619200000005
 20
2648.8150879999998
 30
0.0
 11
1306.766192
 21
2648.8150879999998
 31
0.0
  0
LINE
  5
7AB4
  8
1
  6
CONTINUOUS
 10
576.76619200000005
 20
2733.8150879999998
 30
0.0
 11
1306.766192
 21
2733.8150879999998
 31
0.0
  0
LINE
  5
7AB5
  8
1
  6
CONTINUOUS
 10
1306.766192
 20
2733.8150879999998
 30
0.0
 11
1306.766192
 21
2648.8150879999998
 31
0.0
  0
LINE
  5
7AB6
  8
1
  6
CONTINUOUS
 10
576.76619200000005
 20
2733.8150879999998
 30
0.0
 11
576.76619200000005
 21
2648.8150879999998
 31
0.0
  0
LINE
  5
7AB7
  8
1
  6
CONTINUOUS
 10
1150.266192
 20
2947.0150880000001
 30
0.0
 11
1150.266192
 21
2710.3150879999989
 31
0.0
  0
LINE
  5
7AB8
  8
1
  6
CONTINUOUS
 10
1174.266192
 20
2947.0150880000001
 30
0.0
 11
1174.266192
 21
2710.3150879999989
 31
0.0
  0
LINE
  5
7AB9
  8
1
  6
CONTINUOUS
 10
1174.266192
 20
2783.8150879999998
 30
0.0
 11
1367.266192
 21
2783.8150879999998
 31
0.0
  0
LINE
  5
7ABA
  8
1
  6
CONTINUOUS
 10
1412.266192
 20
2965.8150879999989
 30
0.0
 11
1392.266192
 21
2985.8150879999998
 31
0.0
  0
LINE
  5
7ABB
  8
1
  6
CONTINUOUS
 10
1412.266192
 20
3171.8150879999998
 30
0.0
 11
1392.266192
 21
3151.8150879999998
 31
0.0
  0
LINE
  5
7ABC
  8
1
  6
CONTINUOUS
 10
1344.766192
 20
2947.0150880000001
 30
0.0
 11
1344.766192
 21
2956.8150879999989
 31
0.0
  0
LINE
  5
7ABD
  8
2
  6
CENTER
 10
753.26792000000023
 20
1586.8001331885191
 30
0.0
 11
1444.287343
 21
1586.8001331885191
 31
0.0
  0
LINE
  5
7ABE
  8
2
  6
CENTER
 10
1162.266192
 20
1165.035166188519
 30
0.0
 11
1162.266192
 21
1940.619539188519
 31
0.0
  0
LINE
  5
7ABF
  8
1
  6
CONTINUOUS
 10
1412.266192
 20
1565.3001331885191
 30
0.0
 11
1412.266192
 21
1923.3001331885191
 31
0.0
  0
LINE
  5
7AC0
  8
1
  6
CONTINUOUS
 10
1412.266192
 20
1901.8001331885191
 30
0.0
 11
1392.266192
 21
1901.8001331885191
 31
0.0
  0
LINE
  5
7AC1
  8
1
  6
CONTINUOUS
 10
1069.966191999999
 20
1766.8001331885191
 30
0.0
 11
1254.566192
 21
1766.8001331885191
 31
0.0
  0
LINE
  5
7AC2
  8
1
  6
CONTINUOUS
 10
957.26619199999993
 20
1256.8001331885191
 30
0.0
 11
957.26619199999993
 21
1672.200133188519
 31
0.0
  0
LINE
  5
7AC3
  8
1
  6
CONTINUOUS
 10
957.26619199999993
 20
1550.3001331885191
 30
0.0
 11
1367.266192
 21
1550.3001331885191
 31
0.0
  0
LINE
  5
7AC4
  8
1
  6
CONTINUOUS
 10
1069.966191999999
 20
1766.8001331885191
 30
0.0
 11
957.26619199999993
 21
1672.200133188519
 31
0.0
  0
LINE
  5
7AC5
  8
1
  6
CONTINUOUS
 10
1254.566192
 20
1766.8001331885191
 30
0.0
 11
1367.266192
 21
1672.200133188519
 31
0.0
  0
LINE
  5
7AC6
  8
1
  6
CONTINUOUS
 10
1367.266192
 20
1256.8001331885191
 30
0.0
 11
1367.266192
 21
1672.200133188519
 31
0.0
  0
LINE
  5
7AC7
  8
1
  6
CONTINUOUS
 10
547.26619200000005
 20
1256.8001331885191
 30
0.0
 11
1397.266192
 21
1256.8001331885191
 31
0.0
  0
LINE
  5
7AC8
  8
1
  6
CONTINUOUS
 10
1397.266192
 20
1256.8001331885191
 30
0.0
 11
1397.266192
 21
1186.8001331885191
 31
0.0
  0
LINE
  5
7AC9
  8
1
  6
CONTINUOUS
 10
547.26619200000005
 20
1256.8001331885191
 30
0.0
 11
547.26619200000005
 21
1186.8001331885191
 31
0.0
  0
LINE
  5
7ACA
  8
1
  6
CONTINUOUS
 10
547.26619200000005
 20
1186.8001331885191
 30
0.0
 11
1397.266192
 21
1186.8001331885191
 31
0.0
  0
LINE
  5
7ACB
  8
1
  6
CONTINUOUS
 10
577.26619200000005
 20
1276.8001331885191
 30
0.0
 11
892.26619200000005
 21
1276.8001331885191
 31
0.0
  0
LINE
  5
7ACC
  8
1
  6
CONTINUOUS
 10
577.26619200000005
 20
1256.8001331885191
 30
0.0
 11
577.26619200000005
 21
1276.8001331885191
 31
0.0
  0
LINE
  5
7ACD
  8
1
  6
CONTINUOUS
 10
892.26619200000005
 20
1256.8001331885191
 30
0.0
 11
892.26619200000005
 21
1276.8001331885191
 31
0.0
  0
LINE
  5
7ACE
  8
2
  6
CENTER
 10
691.26619200000005
 20
1313.8001331885191
 30
0.0
 11
691.26619200000005
 21
1419.8001331885191
 31
0.0
  0
CIRCLE
  5
7ACF
  8
1
  6
CONTINUOUS
 10
1162.266192
 20
1586.8001331885191
 30
0.0
 40
63.5
  0
CIRCLE
  5
7AD0
  8
1
  6
CONTINUOUS
 10
691.26619200000005
 20
1366.8001331885191
 30
0.0
 40
53.0
  0
ARC
  5
7AD1
  8
1
  6
CONTINUOUS
 10
691.26619200000005
 20
1366.8001331885191
 30
0.0
 40
101.0
 50
322.89999999999992
 51
217.09999999999991
  0
LINE
  5
7AD2
  8
1
  6
CONTINUOUS
 10
599.36619199999996
 20
1276.8001331885191
 30
0.0
 11
610.76619200000005
 21
1305.8001331885191
 31
0.0
  0
LINE
  5
7AD3
  8
1
  6
CONTINUOUS
 10
783.16619200000014
 20
1276.8001331885191
 30
0.0
 11
771.76619200000005
 21
1305.8001331885191
 31
0.0
  0
LINE
  5
7AD4
  8
2
  6
CENTER
 10
638.26619200000005
 20
1366.8001331885191
 30
0.0
 11
744.26619200000005
 21
1366.8001331885191
 31
0.0
  0
LINE
  5
7AD5
  8
1
  6
CONTINUOUS
 10
1306.766192
 20
1686.8001331885191
 30
0.0
 11
1306.766192
 21
1247.3001331885191
 31
0.0
  0
LINE
  5
7AD6
  8
1
  6
CONTINUOUS
 10
576.76619200000005
 20
1466.8001331885191
 30
0.0
 11
576.76619200000005
 21
1256.8001331885191
 31
0.0
  0
LINE
  5
7AD7
  8
1
  6
CONTINUOUS
 10
1392.266192
 20
1586.8001331885191
 30
0.0
 11
1412.266192
 21
1586.8001331885191
 31
0.0
  0
LINE
  5
7AD8
  8
1
  6
CONTINUOUS
 10
1306.766192
 20
1686.8001331885191
 30
0.0
 11
1106.766192
 21
1816.8001331885191
 31
0.0
  0
LINE
  5
7AD9
  8
1
  6
CONTINUOUS
 10
1106.766192
 20
1816.8001331885191
 30
0.0
 11
576.76619200000005
 21
1466.8001331885191
 31
0.0
  0
LINE
  5
7ADA
  8
1
  6
CONTINUOUS
 10
1412.266192
 20
1891.8001331885191
 30
0.0
 11
1392.266192
 21
1871.8001331885191
 31
0.0
  0
LINE
  5
7ADB
  8
1
  6
CONTINUOUS
 10
1412.266192
 20
1596.8001331885191
 30
0.0
 11
1392.266192
 21
1616.8001331885191
 31
0.0
  0
LINE
  5
7ADC
  8
1
  6
CONTINUOUS
 10
2042.6727040000001
 20
1256.900133188519
 30
0.0
 11
2042.6727040000001
 21
1816.8001331885191
 31
0.0
  0
LINE
  5
7ADD
  8
1
  6
CONTINUOUS
 10
1957.6727039999989
 20
1256.900133188519
 30
0.0
 11
1957.6727039999989
 21
1816.8001331885191
 31
0.0
  0
LINE
  5
7ADE
  8
1
  6
CONTINUOUS
 10
1982.6727039999989
 20
1430.400133188519
 30
0.0
 11
1982.6727039999989
 21
1303.400133188519
 31
0.0
  0
LINE
  5
7ADF
  8
1
  6
CONTINUOUS
 10
2017.6727040000001
 20
1430.400133188519
 30
0.0
 11
1982.6727039999989
 21
1430.400133188519
 31
0.0
  0
LINE
  5
7AE0
  8
1
  6
CONTINUOUS
 10
2017.6727040000001
 20
1303.400133188519
 30
0.0
 11
2017.6727040000001
 21
1430.400133188519
 31
0.0
  0
LINE
  5
7AE1
  8
1
  6
CONTINUOUS
 10
1982.6727039999989
 20
1303.400133188519
 30
0.0
 11
2017.6727040000001
 21
1303.400133188519
 31
0.0
  0
LINE
  5
7AE2
  8
1
  6
CONTINUOUS
 10
1957.6727039999989
 20
1256.900133188519
 30
0.0
 11
2042.6727040000001
 21
1256.900133188519
 31
0.0
  0
LINE
  5
7AE3
  8
1
  6
CONTINUOUS
 10
1957.6727039999989
 20
1816.8001331885191
 30
0.0
 11
2042.6727040000001
 21
1816.8001331885191
 31
0.0
  0
LINE
  5
7AE4
  8
1
  6
CONTINUOUS
 10
2017.6727040000001
 20
1574.400133188519
 30
0.0
 11
2126.4727039999989
 21
1574.400133188519
 31
0.0
  0
LINE
  5
7AE5
  8
1
  6
CONTINUOUS
 10
2017.6727040000001
 20
1599.400133188519
 30
0.0
 11
2158.872703999999
 21
1599.400133188519
 31
0.0
  0
LINE
  5
7AE6
  8
1
  6
CONTINUOUS
 10
2255.8727039999999
 20
1674.0001331885189
 30
0.0
 11
2091.8727039999999
 21
1547.8001331885191
 31
0.0
  0
LINE
  5
7AE7
  8
1
  6
CONTINUOUS
 10
2091.8727039999999
 20
1547.8001331885191
 30
0.0
 11
2091.8727039999999
 21
1256.8001331885191
 31
0.0
  0
LINE
  5
7AE8
  8
1
  6
CONTINUOUS
 10
2498.6727040000001
 20
1404.3001331885191
 30
0.0
 11
2498.6727040000001
 21
1769.3001331885191
 31
0.0
  0
LINE
  5
7AE9
  8
1
  6
CONTINUOUS
 10
2498.6727040000001
 20
1404.3001331885191
 30
0.0
 11
2489.6727040000001
 21
1404.3001331885191
 31
0.0
  0
LINE
  5
7AEA
  8
1
  6
CONTINUOUS
 10
2255.8727039999999
 20
1769.400133188519
 30
0.0
 11
2255.8727039999999
 21
1256.8001331885191
 31
0.0
  0
LINE
  5
7AEB
  8
1
  6
CONTINUOUS
 10
2489.6727040000001
 20
1384.8001331885191
 30
0.0
 11
2489.6727040000001
 21
1901.8001331885191
 31
0.0
  0
LINE
  5
7AEC
  8
1
  6
CONTINUOUS
 10
2489.6727040000001
 20
1901.8001331885191
 30
0.0
 11
2265.6727039999992
 21
1901.8001331885191
 31
0.0
  0
LINE
  5
7AED
  8
1
  6
CONTINUOUS
 10
2265.6727039999992
 20
1901.8001331885191
 30
0.0
 11
2265.6727039999992
 21
1384.8001331885191
 31
0.0
  0
LINE
  5
7AEE
  8
1
  6
CONTINUOUS
 10
2469.6727040000001
 20
1364.8001331885191
 30
0.0
 11
2285.6727040000001
 21
1364.8001331885191
 31
0.0
  0
LINE
  5
7AEF
  8
1
  6
CONTINUOUS
 10
1982.6727039999989
 20
1523.400133188519
 30
0.0
 11
2017.6727040000001
 21
1523.400133188519
 31
0.0
  0
LINE
  5
7AF0
  8
1
  6
CONTINUOUS
 10
2017.6727040000001
 20
1523.400133188519
 30
0.0
 11
2017.6727040000001
 21
1650.400133188519
 31
0.0
  0
LINE
  5
7AF1
  8
1
  6
CONTINUOUS
 10
2017.6727040000001
 20
1650.400133188519
 30
0.0
 11
1982.6727039999989
 21
1650.400133188519
 31
0.0
  0
LINE
  5
7AF2
  8
1
  6
CONTINUOUS
 10
1982.6727039999989
 20
1650.400133188519
 30
0.0
 11
1982.6727039999989
 21
1523.400133188519
 31
0.0
  0
LINE
  5
7AF3
  8
1
  6
CONTINUOUS
 10
2062.6727040000001
 20
1186.8001331885191
 30
0.0
 11
2377.6727040000001
 21
1186.8001331885191
 31
0.0
  0
LINE
  5
7AF4
  8
1
  6
CONTINUOUS
 10
2377.6727040000001
 20
1186.8001331885191
 30
0.0
 11
2377.6727040000001
 21
1256.8001331885191
 31
0.0
  0
LINE
  5
7AF5
  8
1
  6
CONTINUOUS
 10
2377.6727040000001
 20
1256.8001331885191
 30
0.0
 11
2062.6727040000001
 21
1256.8001331885191
 31
0.0
  0
LINE
  5
7AF6
  8
1
  6
CONTINUOUS
 10
2062.6727040000001
 20
1256.8001331885191
 30
0.0
 11
2062.6727040000001
 21
1186.8001331885191
 31
0.0
  0
LINE
  5
7AF7
  8
1
  6
CONTINUOUS
 10
2255.8727039999999
 20
1404.3001331885191
 30
0.0
 11
2265.6727039999992
 21
1404.3001331885191
 31
0.0
  0
LINE
  5
7AF8
  8
1
  6
CONTINUOUS
 10
2017.6727040000001
 20
1378.900133188519
 30
0.0
 11
2091.8727039999999
 21
1378.900133188519
 31
0.0
  0
LINE
  5
7AF9
  8
1
  6
CONTINUOUS
 10
2017.6727040000001
 20
1354.900133188519
 30
0.0
 11
2091.8727039999999
 21
1354.900133188519
 31
0.0
  0
LINE
  5
7AFA
  8
1
  6
CONTINUOUS
 10
2255.8727039999999
 20
1769.3001331885191
 30
0.0
 11
2265.872703999999
 21
1769.3001331885191
 31
0.0
  0
LINE
  5
7AFB
  8
1
  6
CONTINUOUS
 10
2498.6727040000001
 20
1769.3001331885191
 30
0.0
 11
2489.4727039999998
 21
1769.3001331885191
 31
0.0
  0
ARC
  5
7AFC
  8
1
  6
CONTINUOUS
 10
2469.6727040000001
 20
1384.8001331885191
 30
0.0
 40
20.0
 50
270.0
 51
0.0
  0
ARC
  5
7AFD
  8
1
  6
CONTINUOUS
 10
2285.6727040000001
 20
1384.8001331885191
 30
0.0
 40
20.0
 50
180.0
 51
270.0
  0
LINE
  5
7AFF
  8
4
  6
CONTINUOUS
 10
2775.0
 20
750.0
 30
0.0
 11
2775.0
 21
450.0
 31
0.0
  0
LINE
  5
7B00
  8
4
  6
CONTINUOUS
 10
1725.0
 20
750.0
 30
0.0
 11
1725.0
 21
450.0
 31
0.0
  0
LINE
  5
7B01
  8
4
  6
CONTINUOUS
 10
975.0
 20
750.0
 30
0.0
 11
975.0
 21
450.0
 31
0.0
  0
LINE
  5
7B04
  8
4
  6
CONTINUOUS
 10
975.0
 20
450.0
 30
0.0
 11
2775.0
 21
450.0
 31
0.0
  0
LINE
  5
7B05
  8
4
  6
CONTINUOUS
 10
975.0
 20
600.0
 30
0.0
 11
2775.0
 21
600.0
 31
0.0
  0
TEXT
  5
7B06
  8
4
  6
CONTINUOUS
 10
1032.753121
 20
647.31453899999985
 30
0.0
 40
75.0
  1
機器名称
  0
TEXT
  5
7B07
  8
4
  6
CONTINUOUS
 10
1029.387158999999
 20
482.46773499999989
 30
0.0
 40
75.0
  1
機器型番
  0
TEXT
  5
7B08
  8
4
  6
CONTINUOUS
 10
1766.518118
 20
633.85765300000003
 30
0.0
 40
67.5
  1
ミツヤニューマルチファン
  0
TEXT
  5
7B09
  8
4
  6
CONTINUOUS
 10
1779.9817430000001
 20
475.73937599999999
 30
0.0
 40
75.0
  1
NM#2-1
  0
TEXT
  5
7B0B
  8
4
  6
CONTINUOUS
 10
1357.1786480000001
 20
3575.1432619999991
 30
0.0
 40
81.0
  1
床置ベット
  0
TEXT
  5
7B0C
  8
4
  6
CONTINUOUS
 10
474.25139000000001
 20
3800.8214640000001
 30
0.0
 40
108.0
  1
ベルト駆動式片吸込片持多翼ファン
  0
LINE
  5
7B0D
  8
4
  6
CONTINUOUS
 10
375.0
 20
3704.1131310000001
 30
0.0
 11
2775.0
 21
3704.1131310000001
 31
0.0
  0
LINE
  5
7B0E
  8
4
  6
CONTINUOUS
 10
375.0
 20
4004.1131310000001
 30
0.0
 11
2775.0
 21
4004.1131310000001
 31
0.0
  0
LINE
  5
7B0F
  8
4
  6
CONTINUOUS
 10
975.0
 20
750.0
 30
0.0
 11
2775.0
 21
750.0
 31
0.0
  0
LINE
  5
7B10
  8
4
  6
CONTINUOUS
 10
375.0
 20
4004.1131310000001
 30
0.0
 11
375.0
 21
3704.1131310000001
 31
0.0
  0
TEXT
  5
7B11
  8
4
  6
CONTINUOUS
 10
703.39039999999989
 20
3573.4792159999988
 30
0.0
 40
81.0
  1
右回転右横向
  0
TEXT
  5
7B12
  8
4
  6
CONTINUOUS
 10
2203.454338999999
 20
4059.091621999999
 30
0.0
 40
84.0
  1
No.
  0
TEXT
  5
7B13
  8
4
  6
CONTINUOUS
 10
1966.944094
 20
3575.1432619999991
 30
0.0
 40
81.0
  1
縮尺：1/15
  0
LINE
  5
7B14
  8
4
  6
CONTINUOUS
 10
2775.0
 20
4004.1131310000001
 30
0.0
 11
2775.0
 21
3704.1131310000001
 31
0.0
  0
LINE
  5
7B16
  8
4
  6
CONTINUOUS
 10
2160.9261339999989
 20
4021.8953750000001
 30
0.0
 11
2160.9261339999989
 21
4179.978392
 31
0.0
  0
LINE
  5
7B17
  8
4
  6
CONTINUOUS
 10
2160.9261339999989
 20
4179.978392
 30
0.0
 11
2775.0
 21
4179.978392
 31
0.0
  0
LINE
  5
7B18
  8
4
  6
CONTINUOUS
 10
2775.0
 20
4179.978392
 30
0.0
 11
2775.0
 21
4021.8953750000001
 31
0.0
  0
LINE
  5
7B19
  8
4
  6
CONTINUOUS
 10
2775.0
 20
4021.8953750000001
 30
0.0
 11
2160.9261339999989
 21
4021.8953750000001
 31
0.0
  0
DIMENSION
  5
7B31
  8
3
  6
CONTINUOUS
  2
*D1
 10
1162.266192
 20
1074.526708188519
 30
0.0
 11
854.97152699999958
 21
1074.526708188519
 31
0.0
 70
   128
 13
547.26619200000005
 23
1186.8001331885191
 33
0.0
 14
1162.266192
 24
1165.035166188519
 34
0.0
1001
ACAD
1000
DSTYLE
1002
{
1070
   287
1070
     3
1070
   287
1070
     3
1070
    40
1040
15.0
1070
   143
1040
0.039
1070
   172
1070
     1
1070
   271
1070
     0
1070
   279
1070
     0
1070
   288
1070
     1
1002
}
  0
DIMENSION
  5
7B3D
  8
3
  6
CONTINUOUS
  2
*D2
 10
1397.266192
 20
1074.526708188519
 30
0.0
 11
1279.766192
 21
1112.026708188519
 31
0.0
 70
     0
 13
1162.266192
 23
1165.035166188519
 33
0.0
 14
1397.266192
 24
1186.8001331885191
 34
0.0
1001
ACAD
1000
DSTYLE
1002
{
1070
   287
1070
     3
1070
   287
1070
     3
1070
    40
1040
15.0
1070
   143
1040
0.039
1070
   172
1070
     1
1070
   271
1070
     0
1070
   279
1070
     0
1070
   288
1070
     1
1002
}
  0
DIMENSION
  5
7B4A
  8
3
  6
CONTINUOUS
  2
*D3
 10
1162.266192
 20
1983.3402601885191
 30
0.0
 11
1031.5222719999999
 21
1983.3402601885191
 31
0.0
 70
   128
 13
888.26619200000005
 23
1586.8001331885191
 33
0.0
 14
1162.266192
 24
1910.7125991885191
 34
0.0
1001
ACAD
1000
DSTYLE
1002
{
1070
   287
1070
     3
1070
   287
1070
     3
1070
    40
1040
15.0
1070
   143
1040
0.039
1070
   172
1070
     1
1070
   271
1070
     0
1070
   279
1070
     0
1070
   288
1070
     1
1002
}
  0
DIMENSION
  5
7B56
  8
3
  6
CONTINUOUS
  2
*D4
 10
1412.266192
 20
1983.3402601885191
 30
0.0
 11
1287.266192
 21
2020.8402601885191
 31
0.0
 70
     0
 13
1162.266192
 23
1910.7125991885191
 33
0.0
 14
1412.266192
 24
1923.3001331885191
 34
0.0
1001
ACAD
1000
DSTYLE
1002
{
1070
   287
1070
     3
1070
   287
1070
     3
1070
    40
1040
15.0
1070
   143
1040
0.039
1070
   172
1070
     1
1070
   271
1070
     0
1070
   279
1070
     0
1070
   288
1070
     1
1002
}
  0
DIMENSION
  5
7B63
  8
3
  6
CONTINUOUS
  2
*D5
 10
1492.3007425196799
 20
1586.8001331885191
 30
0.0
 11
1492.3007425196799
 21
1750.6950201885179
 31
0.0
 70
   128
 13
1412.266192
 23
1901.8001331885191
 33
0.0
 14
1412.266192
 24
1586.8001331885191
 34
0.0
 50
90.0
1001
ACAD
1000
DSTYLE
1002
{
1070
   287
1070
     3
1070
   287
1070
     3
1070
    40
1040
15.0
1070
   143
1040
0.039
1070
   172
1070
     1
1070
   271
1070
     0
1070
   279
1070
     0
1070
   288
1070
     1
1002
}
  0
DIMENSION
  5
7B70
  8
3
  6
CONTINUOUS
  2
*D6
 10
1586.191350078715
 20
1586.8001331885191
 30
0.0
 11
1586.1913500787141
 21
1745.066506188519
 31
0.0
 70
   128
 13
1392.266192
 23
1911.8001331885191
 33
0.0
 14
1412.266192
 24
1586.8001331885191
 34
0.0
 50
90.0
1001
ACAD
1000
DSTYLE
1002
{
1070
   287
1070
     3
1070
   287
1070
     3
1070
    40
1040
15.0
1070
   143
1040
0.039
1070
   172
1070
     1
1070
   271
1070
     0
1070
   279
1070
     0
1070
   288
1070
     1
1002
}
  0
DIMENSION
  5
7B7C
  8
3
  6
CONTINUOUS
  2
*D7
 10
1586.1913500787141
 20
1186.800133188518
 30
0.0
 11
1548.6913500787141
 21
1386.8001331885191
 31
0.0
 70
     0
 13
1412.266192
 23
1586.8001331885191
 33
0.0
 14
1397.266192
 24
1186.8001331885191
 34
0.0
 50
90.0
1001
ACAD
1000
DSTYLE
1002
{
1070
   287
1070
     3
1070
   287
1070
     3
1070
    40
1040
15.0
1070
   143
1040
0.039
1070
   172
1070
     1
1070
   271
1070
     0
1070
   279
1070
     0
1070
   288
1070
     1
1002
}
  0
DIMENSION
  5
7BB6
  8
3
  6
CONTINUOUS
  2
*D8
 10
1397.266192
 20
2554.092333999999
 30
0.0
 11
945.12510700000007
 21
2554.092333999999
 31
0.0
 70
   128
 13
547.26619200000005
 23
2753.8150879999998
 33
0.0
 14
1397.266192
 24
2753.8150879999998
 34
0.0
1001
ACAD
1000
DSTYLE
1002
{
1070
   287
1070
     3
1070
   287
1070
     3
1070
    40
1040
15.0
1070
   143
1040
0.039
1070
   172
1070
     1
1070
   271
1070
     0
1070
   279
1070
     0
1070
   288
1070
     1
1002
}
  0
LINE
  5
7BC4
  8
2
  6
CENTER
 10
812.28560700000003
 20
3068.8150879999998
 30
0.0
 11
1493.559344
 21
3068.8150879999998
 31
0.0
  0
LINE
  5
7BC6
  8
2
  6
CENTER
 10
2377.6727040000001
 20
1944.6961810564851
 30
0.0
 11
2377.6727040000001
 21
1160.6440401885191
 31
0.0
  0
DIMENSION
  5
7BD4
  8
3
  6
CONTINUOUS
  2
*D9
 10
2377.6727040000001
 20
1081.5485830990119
 30
0.0
 11
2222.588463
 21
1081.5485830990119
 31
0.0
 70
   128
 13
2062.6727040000001
 23
1186.8001331885191
 33
0.0
 14
2377.6727040000001
 24
1186.8001331885191
 34
0.0
1001
ACAD
1000
DSTYLE
1002
{
1070
   287
1070
     3
1070
   287
1070
     3
1070
    40
1040
15.0
1070
   143
1040
0.039
1070
   172
1070
     1
1070
   271
1070
     0
1070
   279
1070
     0
1070
   288
1070
     1
1002
}
  0
DIMENSION
  5
7BE1
  8
3
  6
CONTINUOUS
  2
*D10
 10
2489.6727040000001
 20
1940.123795056486
 30
0.0
 11
2369.6012754285712
 21
1940.123795056486
 31
0.0
 70
   128
 13
2265.6727039999992
 23
1901.8001331885191
 33
0.0
 14
2489.6727040000001
 24
1901.8001331885191
 34
0.0
1001
ACAD
1000
DSTYLE
1002
{
1070
   287
1070
     3
1070
   287
1070
     3
1070
    40
1040
15.0
1070
   143
1040
0.039
1070
   172
1070
     1
1070
   271
1070
     0
1070
   279
1070
     0
1070
   288
1070
     1
1002
}
  0
DIMENSION
  5
7BEE
  8
3
  6
CONTINUOUS
  2
*D11
 10
2377.6727040000001
 20
2056.4369182136529
 30
0.0
 11
2158.729695999999
 21
2056.4369182136529
 31
0.0
 70
   128
  1
MAX\P420
 13
1957.6727039999989
 23
1816.8001331885191
 33
0.0
 14
2377.6727040000001
 24
2003.2667558843989
 34
0.0
1001
ACAD
1000
DSTYLE
1002
{
1070
   287
1070
     3
1070
   287
1070
     3
1070
    40
1040
15.0
1070
   143
1040
0.039
1070
   172
1070
     1
1070
   271
1070
     0
1070
   279
1070
     0
1070
   288
1070
     1
1002
}
  0
DIMENSION
  5
7BFA
  8
3
  6
CONTINUOUS
  2
*D12
 10
2498.6727040000001
 20
2056.4369182136529
 30
0.0
 11
2438.1727040000001
 21
2098.4431593453551
 31
0.0
 70
   128
 13
2377.6727040000001
 23
2003.2667558843989
 33
0.0
 14
2498.6727040000001
 24
1769.3001331885191
 34
0.0
1001
ACAD
1000
DSTYLE
1002
{
1070
   288
1070
     1
1070
   172
1070
     1
1070
    40
1040
15.0
1070
   271
1070
     0
1070
   143
1040
0.039
1002
}
  0
LINE
  5
7BFC
  8
3
  6
CONTINUOUS
 10
2498.6727040000001
 20
1744.3001331885191
 30
0.0
 11
2519.1623960000002
 21
1744.3001331885191
 31
0.0
  0
LINE
  5
7BFE
  8
3
  6
CONTINUOUS
 10
2498.6727040000001
 20
1429.3001331885191
 30
0.0
 11
2512.2039669999999
 21
1429.3001331885191
 31
0.0
  0
DIMENSION
  5
7C0B
  8
3
  6
CONTINUOUS
  2
*D13
 10
2586.7584630000001
 20
1429.3001331885191
 30
0.0
 11
2586.7584630000001
 21
1592.718659188519
 31
0.0
 70
   128
 13
2498.6727040000001
 23
1744.3001331885191
 33
0.0
 14
2498.6727040000001
 24
1429.3001331885191
 34
0.0
 50
90.0
1001
ACAD
1000
DSTYLE
1002
{
1070
   287
1070
     3
1070
   287
1070
     3
1070
     3
1000
φ<>
1070
    40
1040
15.0
1070
   143
1040
0.039
1070
   172
1070
     1
1070
   271
1070
     0
1070
   279
1070
     0
1070
   288
1070
     1
1002
}
  0
LINE
  5
7C0C
  8
2
  6
CENTER
 10
1162.266192
 20
2612.234234
 30
0.0
 11
1162.266192
 21
3233.520986
 31
0.0
  0
LINE
  5
7C0D
  8
2
  6
CENTER
 10
1915.3956599999999
 20
1586.8001331885191
 30
0.0
 11
2520.4227169999999
 21
1586.8001331885191
 31
0.0
  0
DIMENSION
  5
7C1A
  8
3
  6
CONTINUOUS
  2
*D14
 10
468.46817600000043
 20
3068.8150879999998
 30
0.0
 11
468.46817600000003
 21
2914.9976099999999
 31
0.0
 70
   128
 13
547.26619200000005
 23
2753.8150879999998
 33
0.0
 14
547.26619200000005
 24
3068.8150879999998
 34
0.0
 50
90.0
1001
ACAD
1000
DSTYLE
1002
{
1070
   287
1070
     3
1070
   287
1070
     3
1070
    40
1040
15.0
1070
   143
1040
0.039
1070
   172
1070
     1
1070
   271
1070
     0
1070
   279
1070
     0
1070
   288
1070
     1
1002
}
  0
DIMENSION
  5
7D74
  8
3
  2
*D15
 10
547.26619200000005
 20
2076.6316518019748
 30
0.0
 11
988.74226974975124
 21
2076.6316518019748
 31
0.0
 70
   128
 13
1412.266192
 23
1923.3001331885191
 33
0.0
 14
547.26619200000005
 24
1256.8001331885191
 34
0.0
1001
ACAD
1000
DSTYLE
1002
{
1070
   287
1070
     3
1070
   287
1070
     3
1070
    40
1040
15.0
1070
   143
1040
0.039
1070
   172
1070
     1
1070
   271
1070
     0
1070
   279
1070
     0
1070
   288
1070
     1
1002
}
  0
DIMENSION
  5
7D81
  8
3
  2
*D16
 10
1682.378923562577
 20
1186.800133188518
 30
0.0
 11
1682.378923562577
 21
1563.9625079161449
 31
0.0
 70
   128
 13
1412.266192
 23
1923.3001331885191
 33
0.0
 14
1397.266192
 24
1186.8001331885191
 34
0.0
 50
90.0
1001
ACAD
1000
DSTYLE
1002
{
1070
   287
1070
     3
1070
   287
1070
     3
1070
    40
1040
15.0
1070
   143
1040
0.039
1070
   172
1070
     1
1070
   271
1070
     0
1070
   279
1070
     0
1070
   288
1070
     1
1002
}
  0
ENDSEC
  0
EOF
