  0
SECTION
  2
HEADER
  9
$ACADVER
  1
AC1009
  9
$INSBASE
 10
0.0
 20
0.0
 30
0.0
  9
$EXTMIN
 10
375.0
 20
450.0
 30
0.0
  9
$EXTMAX
 10
2775.0
 20
4179.978392
 30
0.0
  9
$LIMMIN
 10
0.0
 20
0.0
  9
$LIMMAX
 10
297.0
 20
210.0
  9
$ORTHOMODE
 70
     0
  9
$REGENMODE
 70
     1
  9
$FILLMODE
 70
     0
  9
$QTEXTMODE
 70
     0
  9
$MIRRTEXT
 70
     1
  9
$DRAGMODE
 70
     2
  9
$LTSCALE
 40
100.0
  9
$OSMODE
 70
    37
  9
$ATTMODE
 70
     1
  9
$TEXTSIZE
 40
180.0
  9
$TRACEWID
 40
0.05
  9
$TEXTSTYLE
  7
STANDARD
  9
$CLAYER
  8
3
  9
$CELTYPE
  6
BYLAYER
  9
$CECOLOR
 62
   256
  9
$DIMSCALE
 40
15.0
  9
$DIMASZ
 40
2.0
  9
$DIMEXO
 40
0.5
  9
$DIMDLI
 40
10.0
  9
$DIMRND
 40
0.0
  9
$DIMDLE
 40
0.0
  9
$DIMEXE
 40
1.0
  9
$DIMTP
 40
1.0
  9
$DIMTM
 40
1.0
  9
$DIMTXT
 40
3.0
  9
$DIMCEN
 40
0.0
  9
$DIMTSZ
 40
0.0
  9
$DIMTOL
 70
     0
  9
$DIMLIM
 70
     0
  9
$DIMTIH
 70
     0
  9
$DIMTOH
 70
     0
  9
$DIMSE1
 70
     0
  9
$DIMSE2
 70
     0
  9
$DIMTAD
 70
     1
  9
$DIMZIN
 70
     8
  9
$DIMBLK
  1

  9
$DIMASO
 70
     1
  9
$DIMSHO
 70
     1
  9
$DIMPOST
  1

  9
$DIMAPOST
  1

  9
$DIMALT
 70
     0
  9
$DIMALTD
 70
     2
  9
$DIMALTF
 40
0.039
  9
$DIMLFAC
 40
1.0
  9
$DIMTOFL
 70
     1
  9
$DIMTVP
 40
0.0
  9
$DIMTIX
 70
     0
  9
$DIMSOXD
 70
     0
  9
$DIMSAH
 70
     1
  9
$DIMBLK1
  1
OPEN
  9
$DIMBLK2
  1
OPEN
  9
$DIMSTYLE
  2
IGA
  9
$DIMCLRD
 70
     0
  9
$DIMCLRE
 70
     0
  9
$DIMCLRT
 70
     0
  9
$DIMTFAC
 40
10.0
  9
$DIMGAP
 40
1.0
  9
$LUNITS
 70
     2
  9
$LUPREC
 70
     3
  9
$SKETCHINC
 40
0.1
  9
$FILLETRAD
 40
50.0
  9
$AUNITS
 70
     0
  9
$AUPREC
 70
     0
  9
$MENU
  1
acad
  9
$ELEVATION
 40
0.0
  9
$PELEVATION
 40
0.0
  9
$THICKNESS
 40
0.0
  9
$LIMCHECK
 70
     0
  9
$BLIPMODE
 70
     0
  9
$CHAMFERA
 40
0.5
  9
$CHAMFERB
 40
0.5
  9
$SKPOLY
 70
     0
  9
$TDCREATE
 40
2450745.591483912
  9
$TDUPDATE
 40
2454953.865929143
  9
$TDINDWG
 40
0.0037420139
  9
$TDUSRTIMER
 40
0.0037420139
  9
$USRTIMER
 70
     1
  9
$ANGBASE
 50
0.0
  9
$ANGDIR
 70
     0
  9
$PDMODE
 70
     0
  9
$PDSIZE
 40
0.0
  9
$PLINEWID
 40
0.0
  9
$COORDS
 70
     1
  9
$SPLFRAME
 70
     0
  9
$SPLINETYPE
 70
     6
  9
$SPLINESEGS
 70
     8
  9
$ATTDIA
 70
     0
  9
$ATTREQ
 70
     1
  9
$HANDLING
 70
 10241
  9
$HANDSEED
  5
7E2F
  9
$SURFTAB1
 70
     6
  9
$SURFTAB2
 70
     6
  9
$SURFTYPE
 70
     6
  9
$SURFU
 70
     6
  9
$SURFV
 70
     6
  9
$UCSNAME
  2

  9
$UCSORG
 10
0.0
 20
0.0
 30
0.0
  9
$UCSXDIR
 10
1.0
 20
0.0
 30
0.0
  9
$UCSYDIR
 10
0.0
 20
1.0
 30
0.0
  9
$PUCSNAME
  2

  9
$PUCSORG
 10
0.0
 20
0.0
 30
0.0
  9
$PUCSXDIR
 10
1.0
 20
0.0
 30
0.0
  9
$PUCSYDIR
 10
0.0
 20
1.0
 30
0.0
  9
$USERI1
 70
     0
  9
$USERI2
 70
     0
  9
$USERI3
 70
     0
  9
$USERI4
 70
     0
  9
$USERI5
 70
     0
  9
$USERR1
 40
0.0
  9
$USERR2
 40
0.0
  9
$USERR3
 40
0.0
  9
$USERR4
 40
0.0
  9
$USERR5
 40
0.0
  9
$WORLDVIEW
 70
     1
  9
$SHADEDGE
 70
     3
  9
$SHADEDIF
 70
    70
  9
$TILEMODE
 70
     1
  9
$MAXACTVP
 70
    16
  9
$PLIMCHECK
 70
     0
  9
$PEXTMIN
 10
1.0000000000000000E+020
 20
1.0000000000000000E+020
 30
1.0000000000000000E+020
  9
$PEXTMAX
 10
-1.0000000000000000E+020
 20
-1.0000000000000000E+020
 30
-1.0000000000000000E+020
  9
$PLIMMIN
 10
0.0
 20
0.0
  9
$PLIMMAX
 10
12.0
 20
9.0
  9
$UNITMODE
 70
     0
  9
$VISRETAIN
 70
     0
  9
$PLINEGEN
 70
     0
  9
$PSLTSCALE
 70
     1
  0
ENDSEC
  0
SECTION
  2
TABLES
  0
TABLE
  2
VPORT
 70
     2
  0
VPORT
  2
*ACTIVE
 70
     0
 10
0.0
 20
0.0
 11
1.0
 21
1.0
 12
4339.1427822819978
 22
2967.4194961050071
 13
0.0
 23
0.0
 14
10.0
 24
10.0
 15
10.0
 25
10.0
 16
0.0
 26
0.0
 36
1.0
 17
0.0
 27
0.0
 37
0.0
 40
5790.646336085927
 41
1.5051150895140659
 42
50.0
 43
0.0
 44
0.0
 50
0.0
 51
0.0
 71
     0
 72
   100
 73
     1
 74
     0
 75
     0
 76
     0
 77
     0
 78
     0
  0
ENDTAB
  0
TABLE
  2
LTYPE
 70
     2
  0
LTYPE
  2
CONTINUOUS
 70
     0
  3
Solid line
 72
    65
 73
     0
 40
0.0
  0
LTYPE
  2
CENTER
 70
     0
  3
____ _ ____ _ ____ _ ____ _ ____ _ ____ _ ____ 
 72
    65
 73
     4
 40
2.0
 49
1.25
 49
-0.25
 49
0.25
 49
-0.25
  0
ENDTAB
  0
TABLE
  2
LAYER
 70
     6
  0
LAYER
  2
0
 70
     0
 62
     7
  6
CONTINUOUS
  0
LAYER
  2
3
 70
     0
 62
     2
  6
CONTINUOUS
  0
LAYER
  2
2
 70
     0
 62
     3
  6
CENTER
  0
LAYER
  2
1
 70
     0
 62
     4
  6
CONTINUOUS
  0
LAYER
  2
4
 70
     0
 62
     7
  6
CONTINUOUS
  0
LAYER
  2
DEFPOINTS
 70
     0
 62
     7
  6
CONTINUOUS
  0
ENDTAB
  0
TABLE
  2
STYLE
 70
     1
  0
STYLE
  2
STANDARD
 70
     0
 40
0.0
 41
1.0
 50
0.0
 71
     0
 42
180.0
  3
simplex.shx
  4
extfont.shx
  0
ENDTAB
  0
TABLE
  2
VIEW
 70
     0
  0
ENDTAB
  0
TABLE
  2
UCS
 70
     0
  0
ENDTAB
  0
TABLE
  2
APPID
 70
     1
  0
APPID
  2
ACAD
 70
     0
  0
ENDTAB
  0
TABLE
  2
DIMSTYLE
 70
     1
  0
DIMSTYLE
  2
IGA
 70
     0
  3

  4

  5

  6
OPEN
  7
OPEN
 40
2.0
 41
2.0
 42
0.5
 43
10.0
 44
1.0
 45
0.0
 46
0.0
 47
1.0
 48
1.0
140
3.0
141
0.0
142
0.0
143
0.03937
144
1.0
145
0.0
146
10.0
147
1.0
 71
     0
 72
     0
 73
     0
 74
     0
 75
     0
 76
     0
 77
     1
 78
     8
170
     0
171
     2
172
     0
173
     1
174
     0
175
     0
176
     0
177
     0
178
     0
  0
ENDTAB
  0
ENDSEC
  0
SECTION
  2
BLOCKS
  0
BLOCK
  8
0
  2
$MODEL_SPACE
 70
     0
 10
0.0
 20
0.0
 30
0.0
  3
$MODEL_SPACE
  1

  0
ENDBLK
  5
1B
  8
0
  0
BLOCK
 67
     1
  8
0
  2
$PAPER_SPACE
 70
     0
 10
0.0
 20
0.0
 30
0.0
  3
$PAPER_SPACE
  1

  0
ENDBLK
  5
18
 67
     1
  8
0
  0
BLOCK
  8
0
  2
_OPEN
 70
     0
 10
0.0
 20
0.0
 30
0.0
  3
_OPEN
  1

  0
LINE
  5
7B04
  8
0
  6
BYBLOCK
 62
     0
 10
-1.0
 20
0.166667
 30
0.0
 11
0.0
 21
0.0
 31
0.0
  0
LINE
  5
7B05
  8
0
  6
BYBLOCK
 62
     0
 10
0.0
 20
0.0
 30
0.0
 11
-1.0
 21
-0.166667
 31
0.0
  0
LINE
  5
7B06
  8
0
  6
BYBLOCK
 62
     0
 10
0.0
 20
0.0
 30
0.0
 11
-1.0
 21
0.0
 31
0.0
  0
ENDBLK
  5
7B07
  8
0
  0
BLOCK
  8
0
  2
*D1
 70
     1
 10
0.0
 20
0.0
 30
0.0
  3
*D1
  1

  0
LINE
  5
7D86
  8
3
  6
CONTINUOUS
 62
     0
 10
544.58654800000011
 20
1145.468577099012
 30
0.0
 11
544.58654800000011
 21
1029.7573840990119
 31
0.0
  0
LINE
  5
7D87
  8
3
  6
CONTINUOUS
 62
     0
 10
1159.586548
 20
1084.962281099012
 30
0.0
 11
1159.586548
 21
1029.7573840990119
 31
0.0
  0
LINE
  5
7D88
  8
3
  6
CONTINUOUS
 62
     0
 10
574.58654800000022
 20
1044.7573840990119
 30
0.0
 11
1129.586548
 21
1044.7573840990119
 31
0.0
  0
INSERT
  5
7D89
  8
3
  6
CONTINUOUS
 62
     0
  2
_OPEN
 10
544.58654800000011
 20
1044.7573840990119
 30
0.0
 41
30.0
 42
30.0
 43
30.0
 50
180.0
  0
INSERT
  5
7D8A
  8
3
  6
CONTINUOUS
 62
     0
  2
_OPEN
 10
1159.586548
 20
1044.7573840990119
 30
0.0
 41
30.0
 42
30.0
 43
30.0
  0
TEXT
  8
3
  40
45
  5
7E1D
  62
0
  72
0
  71
0
 10
755.026
 20
1002.61
 30
0.000000
  1
615
  0
POINT
  5
7D8C
  8
DEFPOINTS
  6
CONTINUOUS
 62
     0
 10
544.58654800000011
 20
1152.968577099012
 30
0.0
  0
POINT
  5
7D8D
  8
DEFPOINTS
  6
CONTINUOUS
 62
     0
 10
1159.586548
 20
1092.462281099012
 30
0.0
  0
POINT
  5
7D8E
  8
DEFPOINTS
  6
CONTINUOUS
 62
     0
 10
1159.586548
 20
1044.7573840990119
 30
0.0
  0
ENDBLK
  5
7B21
  8
0
  0
BLOCK
  8
0
  2
*D2
 70
     1
 10
0.0
 20
0.0
 30
0.0
  3
*D2
  1

  0
LINE
  5
7D8F
  8
3
  6
CONTINUOUS
 62
     0
 10
1394.586548
 20
1145.468577099012
 30
0.0
 11
1394.586548
 21
1029.7573840990119
 31
0.0
  0
LINE
  5
7D90
  8
3
  6
CONTINUOUS
 62
     0
 10
1189.586548
 20
1044.7573840990119
 30
0.0
 11
1364.586548
 21
1044.7573840990119
 31
0.0
  0
INSERT
  5
7D91
  8
3
  6
CONTINUOUS
 62
     0
  2
_OPEN
 10
1159.586548
 20
1044.7573840990119
 30
0.0
 41
30.0
 42
30.0
 43
30.0
 50
180.0
  0
INSERT
  5
7D92
  8
3
  6
CONTINUOUS
 62
     0
  2
_OPEN
 10
1394.586548
 20
1044.7573840990119
 30
0.0
 41
30.0
 42
30.0
 43
30.0
  0
TEXT
  8
3
  40
45
  5
7E1E
  62
0
  72
0
  71
0
 10
1187.09
 20
1002.61
 30
0.000000
  1
235
  0
POINT
  5
7D94
  8
DEFPOINTS
  6
CONTINUOUS
 62
     0
 10
1159.586548
 20
1092.462281099012
 30
0.0
  0
POINT
  5
7D95
  8
DEFPOINTS
  6
CONTINUOUS
 62
     0
 10
1394.586548
 20
1152.968577099012
 30
0.0
  0
POINT
  5
7D96
  8
DEFPOINTS
  6
CONTINUOUS
 62
     0
 10
1394.586548
 20
1044.7573840990119
 30
0.0
  0
ENDBLK
  5
7B2D
  8
0
  0
BLOCK
  8
0
  2
*D3
 70
     1
 10
0.0
 20
0.0
 30
0.0
  3
*D3
  1

  0
LINE
  5
7D97
  8
3
  6
CONTINUOUS
 62
     0
 10
1417.086548
 20
1552.968577099012
 30
0.0
 11
1529.5315310000001
 21
1552.968577099012
 31
0.0
  0
LINE
  5
7D98
  8
3
  6
CONTINUOUS
 62
     0
 10
1417.086548
 20
1237.968577099012
 30
0.0
 11
1529.5315310000001
 21
1237.968577099012
 31
0.0
  0
LINE
  5
7D99
  8
3
  6
CONTINUOUS
 62
     0
 10
1514.5315310000001
 20
1522.968577099012
 30
0.0
 11
1514.5315310000001
 21
1267.968577099012
 31
0.0
  0
INSERT
  5
7D9A
  8
3
  6
CONTINUOUS
 62
     0
  2
_OPEN
 10
1514.5315310000001
 20
1552.968577099012
 30
0.0
 41
30.0
 42
30.0
 43
30.0
 50
90.0
  0
INSERT
  5
7D9B
  8
3
  6
CONTINUOUS
 62
     0
  2
_OPEN
 10
1514.5315310000001
 20
1237.968577099012
 30
0.0
 41
30.0
 42
30.0
 43
30.0
 50
270.0
  0
TEXT
  8
3
  40
45
  5
7E1F
  62
0
  72
0
  71
0
 10
1387.03
 20
1316.82
 30
0.000000
  1
315
  0
POINT
  5
7D9D
  8
DEFPOINTS
  6
CONTINUOUS
 62
     0
 10
1409.586548
 20
1552.968577099012
 30
0.0
  0
POINT
  5
7D9E
  8
DEFPOINTS
  6
CONTINUOUS
 62
     0
 10
1409.586548
 20
1237.968577099012
 30
0.0
  0
POINT
  5
7D9F
  8
DEFPOINTS
  6
CONTINUOUS
 62
     0
 10
1514.5315310000001
 20
1237.968577099012
 30
0.0
  0
ENDBLK
  5
7B3A
  8
0
  0
BLOCK
  8
0
  2
*D4
 70
     1
 10
0.0
 20
0.0
 30
0.0
  3
*D4
  1

  0
LINE
  5
7DA0
  8
3
  6
CONTINUOUS
 62
     0
 10
1167.086548
 20
1785.213764099012
 30
0.0
 11
1731.8184679999999
 21
1785.213764099012
 31
0.0
  0
LINE
  5
7DA1
  8
3
  6
CONTINUOUS
 62
     0
 10
1417.086548
 20
1552.968577099012
 30
0.0
 11
1731.8184679999999
 21
1552.968577099012
 31
0.0
  0
LINE
  5
7DA2
  8
3
  6
CONTINUOUS
 62
     0
 10
1716.8184679999999
 20
1755.213764099012
 30
0.0
 11
1716.8184679999999
 21
1582.968577099012
 31
0.0
  0
INSERT
  5
7DA3
  8
3
  6
CONTINUOUS
 62
     0
  2
_OPEN
 10
1716.8184679999999
 20
1785.213764099012
 30
0.0
 41
30.0
 42
30.0
 43
30.0
 50
90.0
  0
INSERT
  5
7DA4
  8
3
  6
CONTINUOUS
 62
     0
  2
_OPEN
 10
1716.8184679999999
 20
1552.968577099012
 30
0.0
 41
30.0
 42
30.0
 43
30.0
 50
270.0
  0
TEXT
  8
3
  40
45
  5
7E20
  62
0
  72
0
  71
0
 10
1589.32
 20
1576.18
 30
0.000000
  1
232
  0
POINT
  5
7DA6
  8
DEFPOINTS
  6
CONTINUOUS
 62
     0
 10
1159.586548
 20
1785.213764099012
 30
0.0
  0
POINT
  5
7DA7
  8
DEFPOINTS
  6
CONTINUOUS
 62
     0
 10
1409.586548
 20
1552.968577099012
 30
0.0
  0
POINT
  5
7DA8
  8
DEFPOINTS
  6
CONTINUOUS
 62
     0
 10
1716.8184679999999
 20
1552.968577099012
 30
0.0
  0
ENDBLK
  5
7C38
  8
0
  0
BLOCK
  8
0
  2
*D5
 70
     1
 10
0.0
 20
0.0
 30
0.0
  3
*D5
  1

  0
LINE
  5
7DA9
  8
3
  6
CONTINUOUS
 62
     0
 10
1402.086548
 20
1152.968577099012
 30
0.0
 11
1731.818467999999
 21
1152.968577099012
 31
0.0
  0
LINE
  5
7DAA
  8
3
  6
CONTINUOUS
 62
     0
 10
1716.8184679999999
 20
1522.968577099012
 30
0.0
 11
1716.8184679999999
 21
1182.968577099012
 31
0.0
  0
INSERT
  5
7DAB
  8
3
  6
CONTINUOUS
 62
     0
  2
_OPEN
 10
1716.8184679999999
 20
1552.968577099012
 30
0.0
 41
30.0
 42
30.0
 43
30.0
 50
90.0
  0
INSERT
  5
7DAC
  8
3
  6
CONTINUOUS
 62
     0
  2
_OPEN
 10
1716.8184679999999
 20
1152.968577099012
 30
0.0
 41
30.0
 42
30.0
 43
30.0
 50
270.0
  0
TEXT
  8
3
  40
45
  5
7E21
  62
0
  72
0
  71
0
 10
1589.32
 20
1273.32
 30
0.000000
  1
400
  0
POINT
  5
7DAE
  8
DEFPOINTS
  6
CONTINUOUS
 62
     0
 10
1409.586548
 20
1552.968577099012
 30
0.0
  0
POINT
  5
7DAF
  8
DEFPOINTS
  6
CONTINUOUS
 62
     0
 10
1394.586548
 20
1152.968577099012
 30
0.0
  0
POINT
  5
7DB0
  8
DEFPOINTS
  6
CONTINUOUS
 62
     0
 10
1716.8184679999999
 20
1152.968577099012
 30
0.0
  0
ENDBLK
  5
7C2D
  8
0
  0
BLOCK
  8
0
  2
*D6
 70
     1
 10
0.0
 20
0.0
 30
0.0
  3
*D6
  1

  0
LINE
  5
7DB1
  8
3
  6
CONTINUOUS
 62
     0
 10
1167.086548
 20
1785.213764099012
 30
0.0
 11
1841.179903
 21
1785.213764099012
 31
0.0
  0
LINE
  5
7DB2
  8
3
  6
CONTINUOUS
 62
     0
 10
1402.086548
 20
1152.968577099012
 30
0.0
 11
1841.179903
 21
1152.968577099012
 31
0.0
  0
LINE
  5
7DB3
  8
3
  6
CONTINUOUS
 62
     0
 10
1826.179903
 20
1755.213764099012
 30
0.0
 11
1826.179903
 21
1182.968577099012
 31
0.0
  0
INSERT
  5
7DB4
  8
3
  6
CONTINUOUS
 62
     0
  2
_OPEN
 10
1826.179903
 20
1785.213764099012
 30
0.0
 41
30.0
 42
30.0
 43
30.0
 50
90.0
  0
INSERT
  5
7DB5
  8
3
  6
CONTINUOUS
 62
     0
  2
_OPEN
 10
1826.179903
 20
1152.968577099012
 30
0.0
 41
30.0
 42
30.0
 43
30.0
 50
270.0
  0
TEXT
  8
3
  40
45
  5
7E22
  62
0
  72
0
  71
0
 10
1698.68
 20
1394.09
 30
0.000000
  1
632
  0
POINT
  5
7DB7
  8
DEFPOINTS
  6
CONTINUOUS
 62
     0
 10
1159.586548
 20
1785.213764099012
 30
0.0
  0
POINT
  5
7DB8
  8
DEFPOINTS
  6
CONTINUOUS
 62
     0
 10
1394.586548
 20
1152.968577099012
 30
0.0
  0
POINT
  5
7DB9
  8
DEFPOINTS
  6
CONTINUOUS
 62
     0
 10
1826.179903
 20
1152.968577099012
 30
0.0
  0
ENDBLK
  5
7C23
  8
0
  0
BLOCK
  8
0
  2
*D7
 70
     1
 10
0.0
 20
0.0
 30
0.0
  3
*D7
  1

  0
LINE
  5
7DBA
  8
3
  6
CONTINUOUS
 62
     0
 10
885.58654800000022
 20
1560.468577099012
 30
0.0
 11
885.58654800000022
 21
1861.763421099012
 31
0.0
  0
LINE
  5
7DBB
  8
3
  6
CONTINUOUS
 62
     0
 10
1159.586548
 20
1792.713764099012
 30
0.0
 11
1159.586548
 21
1861.763421099012
 31
0.0
  0
LINE
  5
7DBC
  8
3
  6
CONTINUOUS
 62
     0
 10
915.58654800000022
 20
1846.763421099012
 30
0.0
 11
1129.586548
 21
1846.763421099012
 31
0.0
  0
INSERT
  5
7DBD
  8
3
  6
CONTINUOUS
 62
     0
  2
_OPEN
 10
885.58654800000022
 20
1846.763421099012
 30
0.0
 41
30.0
 42
30.0
 43
30.0
 50
180.0
  0
INSERT
  5
7DBE
  8
3
  6
CONTINUOUS
 62
     0
  2
_OPEN
 10
1159.586548
 20
1846.763421099012
 30
0.0
 41
30.0
 42
30.0
 43
30.0
  0
TEXT
  8
3
  40
45
  5
7E23
  62
0
  72
0
  71
0
 10
931.071
 20
1804.61
 30
0.000000
  1
274
  0
POINT
  5
7DC0
  8
DEFPOINTS
  6
CONTINUOUS
 62
     0
 10
885.58654800000022
 20
1552.968577099012
 30
0.0
  0
POINT
  5
7DC1
  8
DEFPOINTS
  6
CONTINUOUS
 62
     0
 10
1159.586548
 20
1785.213764099012
 30
0.0
  0
POINT
  5
7DC2
  8
DEFPOINTS
  6
CONTINUOUS
 62
     0
 10
1159.586548
 20
1846.763421099012
 30
0.0
  0
ENDBLK
  5
7CA1
  8
0
  0
BLOCK
  8
0
  2
*D8
 70
     1
 10
0.0
 20
0.0
 30
0.0
  3
*D8
  1

  0
LINE
  5
7DC3
  8
3
  6
CONTINUOUS
 62
     0
 10
1409.586548
 20
1581.968577099012
 30
0.0
 11
1409.586548
 21
1861.763421099012
 31
0.0
  0
LINE
  5
7DC4
  8
3
  6
CONTINUOUS
 62
     0
 10
1189.586548
 20
1846.763421099012
 30
0.0
 11
1379.586548
 21
1846.763421099012
 31
0.0
  0
INSERT
  5
7DC5
  8
3
  6
CONTINUOUS
 62
     0
  2
_OPEN
 10
1159.586548
 20
1846.763421099012
 30
0.0
 41
30.0
 42
30.0
 43
30.0
 50
180.0
  0
INSERT
  5
7DC6
  8
3
  6
CONTINUOUS
 62
     0
  2
_OPEN
 10
1409.586548
 20
1846.763421099012
 30
0.0
 41
30.0
 42
30.0
 43
30.0
  0
TEXT
  8
3
  40
45
  5
7E24
  62
0
  72
0
  71
0
 10
1194.59
 20
1804.61
 30
0.000000
  1
250
  0
POINT
  5
7DC8
  8
DEFPOINTS
  6
CONTINUOUS
 62
     0
 10
1159.586548
 20
1785.213764099012
 30
0.0
  0
POINT
  5
7DC9
  8
DEFPOINTS
  6
CONTINUOUS
 62
     0
 10
1409.586548
 20
1574.468577099012
 30
0.0
  0
POINT
  5
7DCA
  8
DEFPOINTS
  6
CONTINUOUS
 62
     0
 10
1409.586548
 20
1846.763421099012
 30
0.0
  0
ENDBLK
  5
7B79
  8
0
  0
BLOCK
  8
0
  2
*D9
 70
     1
 10
0.0
 20
0.0
 30
0.0
  3
*D9
  1

  0
LINE
  5
7DCB
  8
3
  6
CONTINUOUS
 62
     0
 10
544.58654799999999
 20
2686.5863890000001
 30
0.0
 11
544.58654799999999
 21
2438.0629020000001
 31
0.0
  0
LINE
  5
7DCC
  8
3
  6
CONTINUOUS
 62
     0
 10
1394.586548
 20
2686.5863890000001
 30
0.0
 11
1394.586548
 21
2438.0629020000001
 31
0.0
  0
LINE
  5
7DCD
  8
3
  6
CONTINUOUS
 62
     0
 10
574.58654799999988
 20
2453.0629020000001
 30
0.0
 11
1364.586548
 21
2453.0629020000001
 31
0.0
  0
INSERT
  5
7DCE
  8
3
  6
CONTINUOUS
 62
     0
  2
_OPEN
 10
544.58654799999999
 20
2453.0629020000001
 30
0.0
 41
30.0
 42
30.0
 43
30.0
 50
180.0
  0
INSERT
  5
7DCF
  8
3
  6
CONTINUOUS
 62
     0
  2
_OPEN
 10
1394.586548
 20
2453.0629020000001
 30
0.0
 41
30.0
 42
30.0
 43
30.0
  0
TEXT
  8
3
  40
45
  5
7E25
  62
0
  72
0
  71
0
 10
891.061
 20
2410.91
 30
0.000000
  1
850
  0
POINT
  5
7DD1
  8
DEFPOINTS
  6
CONTINUOUS
 62
     0
 10
544.58654799999999
 20
2694.0863890000001
 30
0.0
  0
POINT
  5
7DD2
  8
DEFPOINTS
  6
CONTINUOUS
 62
     0
 10
1394.586548
 20
2694.0863890000001
 30
0.0
  0
POINT
  5
7DD3
  8
DEFPOINTS
  6
CONTINUOUS
 62
     0
 10
1394.586548
 20
2453.0629020000001
 30
0.0
  0
ENDBLK
  5
7B86
  8
0
  0
BLOCK
  8
0
  2
*D10
 70
     1
 10
0.0
 20
0.0
 30
0.0
  3
*D10
  1

  0
LINE
  5
7DD4
  8
3
  6
CONTINUOUS
 62
     0
 10
537.08654799999988
 20
3009.0863890000001
 30
0.0
 11
451.26214500000049
 21
3009.0863890000001
 31
0.0
  0
LINE
  5
7DD5
  8
3
  6
CONTINUOUS
 62
     0
 10
537.08654799999988
 20
2694.0863890000001
 30
0.0
 11
451.26214500000037
 21
2694.0863890000001
 31
0.0
  0
LINE
  5
7DD6
  8
3
  6
CONTINUOUS
 62
     0
 10
466.26214500000049
 20
2979.0863890000001
 30
0.0
 11
466.26214500000037
 21
2724.0863889999991
 31
0.0
  0
INSERT
  5
7DD7
  8
3
  6
CONTINUOUS
 62
     0
  2
_OPEN
 10
466.26214500000049
 20
3009.0863890000001
 30
0.0
 41
30.0
 42
30.0
 43
30.0
 50
90.0
  0
INSERT
  5
7DD8
  8
3
  6
CONTINUOUS
 62
     0
  2
_OPEN
 10
466.26214500000037
 20
2694.0863890000001
 30
0.0
 41
30.0
 42
30.0
 43
30.0
 50
270.0
  0
TEXT
  8
3
  40
45
  5
7E26
  62
0
  72
0
  71
0
 10
338.762
 20
2757.10
 30
0.000000
  1
315
  0
POINT
  5
7DDA
  8
DEFPOINTS
  6
CONTINUOUS
 62
     0
 10
544.58654799999999
 20
3009.0863890000001
 30
0.0
  0
POINT
  5
7DDB
  8
DEFPOINTS
  6
CONTINUOUS
 62
     0
 10
544.58654799999999
 20
2694.0863890000001
 30
0.0
  0
POINT
  5
7DDC
  8
DEFPOINTS
  6
CONTINUOUS
 62
     0
 10
466.26214500000037
 20
2694.0863890000001
 30
0.0
  0
ENDBLK
  5
7B93
  8
0
  0
BLOCK
  8
0
  2
*D11
 70
     1
 10
0.0
 20
0.0
 30
0.0
  3
*D11
  1

  0
LINE
  5
7DDD
  8
3
  6
CONTINUOUS
 62
     0
 10
2072.6722773867459
 20
1145.468577099012
 30
0.0
 11
2072.6722773867459
 21
1029.7574660990119
 31
0.0
  0
LINE
  5
7DDE
  8
3
  6
CONTINUOUS
 62
     0
 10
2387.6722773867459
 20
1145.468577099012
 30
0.0
 11
2387.6722773867459
 21
1029.7574660990119
 31
0.0
  0
LINE
  5
7DDF
  8
3
  6
CONTINUOUS
 62
     0
 10
2102.6722773867459
 20
1044.7574660990119
 30
0.0
 11
2357.6722773867459
 21
1044.7574660990119
 31
0.0
  0
INSERT
  5
7DE0
  8
3
  6
CONTINUOUS
 62
     0
  2
_OPEN
 10
2072.6722773867459
 20
1044.7574660990119
 30
0.0
 41
30.0
 42
30.0
 43
30.0
 50
180.0
  0
INSERT
  5
7DE1
  8
3
  6
CONTINUOUS
 62
     0
  2
_OPEN
 10
2387.6722773867459
 20
1044.7574660990119
 30
0.0
 41
30.0
 42
30.0
 43
30.0
  0
TEXT
  8
3
  40
45
  5
7E27
  62
0
  72
0
  71
0
 10
2150.29
 20
1002.61
 30
0.000000
  1
315
  0
POINT
  5
7DE3
  8
DEFPOINTS
  6
CONTINUOUS
 62
     0
 10
2072.6722773867459
 20
1152.968577099012
 30
0.0
  0
POINT
  5
7DE4
  8
DEFPOINTS
  6
CONTINUOUS
 62
     0
 10
2387.6722773867459
 20
1152.968577099012
 30
0.0
  0
POINT
  5
7DE5
  8
DEFPOINTS
  6
CONTINUOUS
 62
     0
 10
2387.6722773867459
 20
1044.7574660990119
 30
0.0
  0
ENDBLK
  5
7BA2
  8
0
  0
BLOCK
  8
0
  2
*D12
 70
     1
 10
0.0
 20
0.0
 30
0.0
  3
*D12
  1

  0
LINE
  5
7DE6
  8
3
  6
CONTINUOUS
 62
     0
 10
2275.8722773867471
 20
1776.389924099012
 30
0.0
 11
2275.8722773867471
 21
1843.1121980990119
 31
0.0
  0
LINE
  5
7DE7
  8
3
  6
CONTINUOUS
 62
     0
 10
2499.6722773867459
 20
1773.5685770990119
 30
0.0
 11
2499.6722773867459
 21
1843.1121980990119
 31
0.0
  0
LINE
  5
7DE8
  8
3
  6
CONTINUOUS
 62
     0
 10
2245.8722773867462
 20
1828.1121980990119
 30
0.0
 11
2215.8722773867462
 21
1828.1121980990119
 31
0.0
  0
LINE
  5
7DE9
  8
3
  6
CONTINUOUS
 62
     0
 10
2529.6722773867459
 20
1828.1121980990119
 30
0.0
 11
2559.6722773867459
 21
1828.1121980990119
 31
0.0
  0
LINE
  5
7DEA
  8
3
  6
CONTINUOUS
 62
     0
 10
2275.8722773867471
 20
1828.1121980990119
 30
0.0
 11
2499.6722773867459
 21
1828.1121980990119
 31
0.0
  0
INSERT
  5
7DEB
  8
3
  6
CONTINUOUS
 62
     0
  2
_OPEN
 10
2275.8722773867471
 20
1828.1121980990119
 30
0.0
 41
30.0
 42
30.0
 43
30.0
  0
INSERT
  5
7DEC
  8
3
  6
CONTINUOUS
 62
     0
  2
_OPEN
 10
2499.6722773867459
 20
1828.1121980990119
 30
0.0
 41
30.0
 42
30.0
 43
30.0
 50
180.0
  0
TEXT
  8
3
  40
45
  5
7E28
  62
0
  72
0
  71
0
 10
2289.80
 20
1785.96
 30
0.000000
  1
224
  0
POINT
  5
7DEE
  8
DEFPOINTS
  6
CONTINUOUS
 62
     0
 10
2275.8722773867471
 20
1768.889924099012
 30
0.0
  0
POINT
  5
7DEF
  8
DEFPOINTS
  6
CONTINUOUS
 62
     0
 10
2499.6722773867459
 20
1766.0685770990119
 30
0.0
  0
POINT
  5
7DF0
  8
DEFPOINTS
  6
CONTINUOUS
 62
     0
 10
2499.6722773867459
 20
1828.1121980990119
 30
0.0
  0
ENDBLK
  5
7BAF
  8
0
  0
BLOCK
  8
0
  2
*D13
 70
     1
 10
0.0
 20
0.0
 30
0.0
  3
*D13
  1

  0
LINE
  5
7DF1
  8
3
  6
CONTINUOUS
 62
     0
 10
1967.6722773867459
 20
1799.968577099012
 30
0.0
 11
1967.6722773867459
 21
1944.362131099012
 31
0.0
  0
LINE
  5
7DF2
  8
3
  6
CONTINUOUS
 62
     0
 10
2387.6722773867459
 20
1911.6988330990121
 30
0.0
 11
2387.6722773867459
 21
1944.362131099012
 31
0.0
  0
LINE
  5
7DF3
  8
3
  6
CONTINUOUS
 62
     0
 10
1997.6722773867459
 20
1929.362131099012
 30
0.0
 11
2357.6722773867459
 21
1929.362131099012
 31
0.0
  0
INSERT
  5
7DF4
  8
3
  6
CONTINUOUS
 62
     0
  2
_OPEN
 10
1967.6722773867459
 20
1929.362131099012
 30
0.0
 41
30.0
 42
30.0
 43
30.0
 50
180.0
  0
INSERT
  5
7DF5
  8
3
  6
CONTINUOUS
 62
     0
  2
_OPEN
 10
2387.6722773867459
 20
1929.362131099012
 30
0.0
 41
30.0
 42
30.0
 43
30.0
  0
TEXT
  8
3
  40
45
  5
7E29
  62
0
  72
0
  71
0
 10
2083.61
 20
1924.71
 30
0.000000
  1
MAX
  0
TEXT
  8
3
  40
45
  5
7E2A
  62
0
  72
0
  71
0
 10
2083.61
 20
1866.21
 30
0.000000
  1
420
  0
POINT
  5
7DF7
  8
DEFPOINTS
  6
CONTINUOUS
 62
     0
 10
1967.6722773867459
 20
1792.468577099012
 30
0.0
  0
POINT
  5
7DF8
  8
DEFPOINTS
  6
CONTINUOUS
 62
     0
 10
2387.6722773867459
 20
1904.1988330990121
 30
0.0
  0
POINT
  5
7DF9
  8
DEFPOINTS
  6
CONTINUOUS
 62
     0
 10
2387.6722773867459
 20
1929.362131099012
 30
0.0
  0
ENDBLK
  5
7C84
  8
0
  0
BLOCK
  8
0
  2
*D14
 70
     1
 10
0.0
 20
0.0
 30
0.0
  3
*D14
  1

  0
LINE
  5
7DFA
  8
3
  6
CONTINUOUS
 62
     0
 10
2508.6722773867459
 20
1742.968577099012
 30
0.0
 11
2508.6722773867459
 21
1944.362131099012
 31
0.0
  0
LINE
  5
7DFB
  8
3
  6
CONTINUOUS
 62
     0
 10
2417.6722773867459
 20
1929.362131099012
 30
0.0
 11
2478.6722773867459
 21
1929.362131099012
 31
0.0
  0
TEXT
  8
3
  40
45
  5
7E2B
  62
0
  72
0
  71
0
 10
2355.68
 20
1889.34
 30
0.000000
  1
121
  0
INSERT
  5
7DFD
  8
3
  6
CONTINUOUS
 62
     0
  2
_OPEN
 10
2387.6722773867459
 20
1929.362131099012
 30
0.0
 41
30.0
 42
30.0
 43
30.0
 50
180.0
  0
INSERT
  5
7DFE
  8
3
  6
CONTINUOUS
 62
     0
  2
_OPEN
 10
2508.6722773867459
 20
1929.362131099012
 30
0.0
 41
30.0
 42
30.0
 43
30.0
  0
POINT
  5
7DFF
  8
DEFPOINTS
  6
CONTINUOUS
 62
     0
 10
2387.6722773867459
 20
1904.1988330990121
 30
0.0
  0
POINT
  5
7E00
  8
DEFPOINTS
  6
CONTINUOUS
 62
     0
 10
2508.6722773867459
 20
1735.468577099012
 30
0.0
  0
POINT
  5
7E01
  8
DEFPOINTS
  6
CONTINUOUS
 62
     0
 10
2508.6722773867459
 20
1929.362131099012
 30
0.0
  0
ENDBLK
  5
7C54
  8
0
  0
BLOCK
  8
0
  2
*D15
 70
     1
 10
0.0
 20
0.0
 30
0.0
  3
*D15
  1

  0
LINE
  5
7E02
  8
3
  6
CONTINUOUS
 62
     0
 10
2516.1722773867459
 20
1710.468577099012
 30
0.0
 11
2638.0000053867461
 21
1710.468577099012
 31
0.0
  0
LINE
  5
7E03
  8
3
  6
CONTINUOUS
 62
     0
 10
2516.1722773867459
 20
1395.468577099012
 30
0.0
 11
2638.0000053867461
 21
1395.468577099012
 31
0.0
  0
LINE
  5
7E04
  8
3
  6
CONTINUOUS
 62
     0
 10
2623.000005386747
 20
1680.468577099012
 30
0.0
 11
2623.000005386747
 21
1425.468577099012
 31
0.0
  0
INSERT
  5
7E05
  8
3
  6
CONTINUOUS
 62
     0
  2
_OPEN
 10
2623.000005386747
 20
1710.468577099012
 30
0.0
 41
30.0
 42
30.0
 43
30.0
 50
90.0
  0
INSERT
  5
7E06
  8
3
  6
CONTINUOUS
 62
     0
  2
_OPEN
 10
2623.000005386747
 20
1395.468577099012
 30
0.0
 41
30.0
 42
30.0
 43
30.0
 50
270.0
  0
TEXT
  8
3
  40
45
  5
7E2C
  62
0
  72
0
  71
0
 10
2495.50
 20
1479.16
 30
0.000000
  1
φ315
  0
POINT
  5
7E08
  8
DEFPOINTS
  6
CONTINUOUS
 62
     0
 10
2508.6722773867459
 20
1710.468577099012
 30
0.0
  0
POINT
  5
7E09
  8
DEFPOINTS
  6
CONTINUOUS
 62
     0
 10
2508.6722773867459
 20
1395.468577099012
 30
0.0
  0
POINT
  5
7E0A
  8
DEFPOINTS
  6
CONTINUOUS
 62
     0
 10
2623.000005386747
 20
1395.468577099012
 30
0.0
  0
ENDBLK
  5
7C79
  8
0
  0
BLOCK
  8
0
  2
*D16
 70
     1
 10
0.0
 20
0.0
 30
0.0
  3
*D16
  1

  0
LINE
  5
7E0B
  8
3
  6
CONTINUOUS
 62
     0
 10
1417.086548
 20
1552.968577099012
 30
0.0
 11
1634.609449
 21
1552.968577099012
 31
0.0
  0
LINE
  5
7E0C
  8
3
  6
CONTINUOUS
 62
     0
 10
1397.086548
 20
1227.968577099012
 30
0.0
 11
1634.609449
 21
1227.968577099012
 31
0.0
  0
LINE
  5
7E0D
  8
3
  6
CONTINUOUS
 62
     0
 10
1619.609449
 20
1522.968577099012
 30
0.0
 11
1619.609449
 21
1257.968577099012
 31
0.0
  0
INSERT
  5
7E0E
  8
3
  6
CONTINUOUS
 62
     0
  2
_OPEN
 10
1619.609449
 20
1552.968577099012
 30
0.0
 41
30.0
 42
30.0
 43
30.0
 50
90.0
  0
INSERT
  5
7E0F
  8
3
  6
CONTINUOUS
 62
     0
  2
_OPEN
 10
1619.609449
 20
1227.968577099012
 30
0.0
 41
30.0
 42
30.0
 43
30.0
 50
270.0
  0
TEXT
  8
3
  40
45
  5
7E2D
  62
0
  72
0
  71
0
 10
1492.11
 20
1323.59
 30
0.000000
  1
325
  0
POINT
  5
7E11
  8
DEFPOINTS
  6
CONTINUOUS
 62
     0
 10
1409.586548
 20
1552.968577099012
 30
0.0
  0
POINT
  5
7E12
  8
DEFPOINTS
  6
CONTINUOUS
 62
     0
 10
1389.586548
 20
1227.968577099012
 30
0.0
  0
POINT
  5
7E13
  8
DEFPOINTS
  6
CONTINUOUS
 62
     0
 10
1619.609449
 20
1227.968577099012
 30
0.0
  0
ENDBLK
  5
7C44
  8
0
  0
BLOCK
  8
0
  2
*D17
 70
     1
 10
0.0
 20
0.0
 30
0.0
  3
*D17
  1

  0
LINE
  5
7E14
  8
3
 62
     0
 10
1409.586548
 20
1581.968577099012
 30
0.0
 11
1409.586548
 21
1966.295344289457
 31
0.0
  0
LINE
  5
7E15
  8
3
 62
     0
 10
544.58654800000011
 20
1230.468577099012
 30
0.0
 11
544.58654800000011
 21
1966.295344289457
 31
0.0
  0
LINE
  5
7E16
  8
3
 62
     0
 10
1379.586548
 20
1951.295344289457
 30
0.0
 11
574.58654800000022
 21
1951.295344289457
 31
0.0
  0
INSERT
  5
7E17
  8
3
 62
     0
  2
_OPEN
 10
1409.586548
 20
1951.295344289457
 30
0.0
 41
30.0
 42
30.0
 43
30.0
  0
INSERT
  5
7E18
  8
3
 62
     0
  2
_OPEN
 10
544.58654800000011
 20
1951.295344289457
 30
0.0
 41
30.0
 42
30.0
 43
30.0
 50
180.0
  0
TEXT
  8
3
  40
45
  5
7E2E
  62
0
  72
0
  71
0
 10
903.283
 20
1909.15
 30
0.000000
  1
865
  0
POINT
  5
7E1A
  8
DEFPOINTS
 62
     0
 10
1409.586548
 20
1574.468577099012
 30
0.0
  0
POINT
  5
7E1B
  8
DEFPOINTS
 62
     0
 10
544.58654800000011
 20
1222.968577099012
 30
0.0
  0
POINT
  5
7E1C
  8
DEFPOINTS
 62
     0
 10
544.58654800000011
 20
1951.295344289457
 30
0.0
  0
ENDBLK
  5
7C90
  8
0
  0
ENDSEC
  0
SECTION
  2
ENTITIES
  0
LINE
  5
7A81
  8
1
  6
CONTINUOUS
 10
2499.6722773867459
 20
1237.0685770990119
 30
0.0
 11
2275.6722773867459
 21
1237.0685770990119
 31
0.0
  0
LINE
  5
7A82
  8
1
  6
CONTINUOUS
 10
2499.6722773867459
 20
1554.0685770990119
 30
0.0
 11
2275.6722773867459
 21
1554.0685770990119
 31
0.0
  0
LINE
  5
7A83
  8
1
  6
CONTINUOUS
 10
2479.6722773867459
 20
1786.0685770990119
 30
0.0
 11
2295.6722773867459
 21
1786.0685770990119
 31
0.0
  0
LINE
  5
7A84
  8
1
  6
CONTINUOUS
 10
2275.6722773867459
 20
1237.0685770990119
 30
0.0
 11
2499.6722773867459
 21
1554.0685770990119
 31
0.0
  0
LINE
  5
7A85
  8
1
  6
CONTINUOUS
 10
2499.6722773867459
 20
1237.0685770990119
 30
0.0
 11
2275.6722773867459
 21
1554.0685770990119
 31
0.0
  0
CIRCLE
  5
7A86
  8
1
  6
CONTINUOUS
 10
1159.586548
 20
1552.968577099012
 30
0.0
 40
157.5
  0
LINE
  5
7A87
  8
1
  6
CONTINUOUS
 10
710.08654800000022
 20
1284.468577099012
 30
0.0
 11
1185.286548
 21
1494.8685770990121
 31
0.0
  0
ARC
  5
7A88
  8
1
  6
CONTINUOUS
 10
1185.086548
 20
1527.468577099012
 30
0.0
 40
299.5
 50
169.40000000000001
 51
270.0
  0
ARC
  5
7A89
  8
1
  6
CONTINUOUS
 10
1141.586548
 20
1570.968577099012
 30
0.0
 40
215.0
 50
8.5999999999999996
 51
100.59999999999999
  0
CIRCLE
  5
7A8A
  8
1
  6
CONTINUOUS
 10
1159.586548
 20
1552.968577099012
 30
0.0
 40
182.5
  0
LINE
  5
7A8B
  8
1
  6
CONTINUOUS
 10
1304.086548
 20
1662.468577099012
 30
0.0
 11
1104.086548
 21
1792.468577099012
 31
0.0
  0
CIRCLE
  5
7A8C
  8
1
  6
CONTINUOUS
 10
1159.586548
 20
1552.968577099012
 30
0.0
 40
63.5
  0
LINE
  5
7A8D
  8
1
  6
CONTINUOUS
 10
544.58654800000011
 20
1152.968577099012
 30
0.0
 11
1394.586548
 21
1152.968577099012
 31
0.0
  0
LINE
  5
7A8E
  8
1
  6
CONTINUOUS
 10
544.58654800000011
 20
1222.968577099012
 30
0.0
 11
1394.586548
 21
1222.968577099012
 31
0.0
  0
LINE
  5
7A8F
  8
1
  6
CONTINUOUS
 10
954.58654800000011
 20
1516.468577099012
 30
0.0
 11
1364.586548
 21
1516.468577099012
 31
0.0
  0
LINE
  5
7A90
  8
1
  6
CONTINUOUS
 10
1067.286548
 20
1732.968577099012
 30
0.0
 11
1251.8865479999999
 21
1732.968577099012
 31
0.0
  0
LINE
  5
7A91
  8
2
  6
CENTER
 10
658.64079200000015
 20
1552.968577099012
 30
0.0
 11
1493.502045
 21
1552.968577099012
 31
0.0
  0
LINE
  5
7A92
  8
1
  6
CONTINUOUS
 10
665.18654800000013
 20
1380.5685770990119
 30
0.0
 11
1131.586548
 21
1609.968577099012
 31
0.0
  0
LINE
  5
7A93
  8
1
  6
CONTINUOUS
 10
1104.086548
 20
1792.468577099012
 30
0.0
 11
574.08654800000022
 21
1442.468577099012
 31
0.0
  0
LINE
  5
7A94
  8
2
  6
CENTER
 10
635.58654800000022
 20
1332.968577099012
 30
0.0
 11
741.58654800000022
 21
1332.968577099012
 31
0.0
  0
ARC
  5
7A95
  8
1
  6
CONTINUOUS
 10
688.58654800000022
 20
1332.968577099012
 30
0.0
 40
101.0
 50
322.89999999999992
 51
217.09999999999991
  0
CIRCLE
  5
7A96
  8
1
  6
CONTINUOUS
 10
688.58654800000022
 20
1332.968577099012
 30
0.0
 40
53.0
  0
LINE
  5
7A97
  8
1
  6
CONTINUOUS
 10
574.58654800000022
 20
1242.968577099012
 30
0.0
 11
889.58654800000022
 21
1242.968577099012
 31
0.0
  0
LINE
  5
7A98
  8
1
  6
CONTINUOUS
 10
574.08654800000022
 20
1442.468577099012
 30
0.0
 11
574.08654800000022
 21
1232.468577099012
 31
0.0
  0
LINE
  5
7A99
  8
1
  6
CONTINUOUS
 10
596.68654800000013
 20
1242.968577099012
 30
0.0
 11
608.08654800000022
 21
1271.968577099012
 31
0.0
  0
LINE
  5
7A9A
  8
1
  6
CONTINUOUS
 10
574.58654800000022
 20
1222.968577099012
 30
0.0
 11
574.58654800000022
 21
1242.968577099012
 31
0.0
  0
LINE
  5
7A9B
  8
1
  6
CONTINUOUS
 10
544.58654800000011
 20
1222.968577099012
 30
0.0
 11
544.58654800000011
 21
1152.968577099012
 31
0.0
  0
LINE
  5
7A9C
  8
2
  6
CENTER
 10
688.58654800000022
 20
1279.968577099012
 30
0.0
 11
688.58654800000022
 21
1385.968577099012
 31
0.0
  0
LINE
  5
7A9D
  8
1
  6
CONTINUOUS
 10
954.58654800000011
 20
1222.968577099012
 30
0.0
 11
954.58654800000011
 21
1638.3685770990121
 31
0.0
  0
LINE
  5
7A9E
  8
1
  6
CONTINUOUS
 10
780.48654799999974
 20
1242.968577099012
 30
0.0
 11
769.08654800000022
 21
1271.968577099012
 31
0.0
  0
LINE
  5
7A9F
  8
1
  6
CONTINUOUS
 10
889.58654800000022
 20
1222.968577099012
 30
0.0
 11
889.58654800000022
 21
1242.968577099012
 31
0.0
  0
ARC
  5
7AA0
  8
1
  6
CONTINUOUS
 10
1138.586548
 20
1531.968577099012
 30
0.0
 40
253.0
 50
98.200000000000003
 51
168.40000000000001
  0
LINE
  5
7AA1
  8
1
  6
CONTINUOUS
 10
1067.286548
 20
1732.968577099012
 30
0.0
 11
954.58654800000011
 21
1638.3685770990121
 31
0.0
  0
LINE
  5
7AA2
  8
2
  6
CENTER
 10
1159.586548
 20
1092.462281099012
 30
0.0
 11
1159.586548
 21
1822.8911730990119
 31
0.0
  0
LINE
  5
7AA3
  8
1
  6
CONTINUOUS
 10
1389.586548
 20
1522.968577099012
 30
0.0
 11
1389.586548
 21
1267.968577099012
 31
0.0
  0
LINE
  5
7AA4
  8
1
  6
CONTINUOUS
 10
1304.086548
 20
1662.468577099012
 30
0.0
 11
1304.086548
 21
1222.968577099012
 31
0.0
  0
LINE
  5
7AA5
  8
1
  6
CONTINUOUS
 10
1364.586548
 20
1222.968577099012
 30
0.0
 11
1364.586548
 21
1638.3685770990121
 31
0.0
  0
LINE
  5
7AA6
  8
1
  6
CONTINUOUS
 10
1409.586548
 20
1574.468577099012
 30
0.0
 11
1409.586548
 21
1216.468577099012
 31
0.0
  0
LINE
  5
7AA7
  8
1
  6
CONTINUOUS
 10
1409.586548
 20
1247.968577099012
 30
0.0
 11
1389.586548
 21
1267.968577099012
 31
0.0
  0
LINE
  5
7AA8
  8
1
  6
CONTINUOUS
 10
1409.586548
 20
1237.968577099012
 30
0.0
 11
1389.586548
 21
1237.968577099012
 31
0.0
  0
LINE
  5
7AA9
  8
1
  6
CONTINUOUS
 10
1389.586548
 20
1227.968577099012
 30
0.0
 11
1185.086548
 21
1227.968577099012
 31
0.0
  0
LINE
  5
7AAA
  8
1
  6
CONTINUOUS
 10
1389.586548
 20
1237.968577099012
 30
0.0
 11
1389.586548
 21
1227.968577099012
 31
0.0
  0
LINE
  5
7AAB
  8
1
  6
CONTINUOUS
 10
1394.586548
 20
1222.968577099012
 30
0.0
 11
1394.586548
 21
1152.968577099012
 31
0.0
  0
LINE
  5
7AAC
  8
1
  6
CONTINUOUS
 10
1409.586548
 20
1542.968577099012
 30
0.0
 11
1389.586548
 21
1522.968577099012
 31
0.0
  0
LINE
  5
7AAD
  8
1
  6
CONTINUOUS
 10
1389.586548
 20
1552.968577099012
 30
0.0
 11
1409.586548
 21
1552.968577099012
 31
0.0
  0
LINE
  5
7AAE
  8
1
  6
CONTINUOUS
 10
1251.8865479999999
 20
1732.968577099012
 30
0.0
 11
1364.586548
 21
1638.3685770990121
 31
0.0
  0
LINE
  5
7AAF
  8
1
  6
CONTINUOUS
 10
1389.586548
 20
1561.8685770990121
 30
0.0
 11
1389.586548
 21
1552.968577099012
 31
0.0
  0
ARC
  5
7AB0
  8
1
  6
CONTINUOUS
 10
1427.586548
 20
1629.968577099012
 30
0.0
 40
78.0
 50
198.80000000000001
 51
240.80000000000001
  0
LINE
  5
7AB1
  8
1
  6
CONTINUOUS
 10
2052.6722773867459
 20
1223.0685770990119
 30
0.0
 11
2052.6722773867459
 21
1792.468577099012
 31
0.0
  0
LINE
  5
7AB2
  8
1
  6
CONTINUOUS
 10
1967.6722773867459
 20
1223.0685770990119
 30
0.0
 11
1967.6722773867459
 21
1792.468577099012
 31
0.0
  0
LINE
  5
7AB3
  8
1
  6
CONTINUOUS
 10
2101.8722773867462
 20
1513.968577099012
 30
0.0
 11
2101.8722773867462
 21
1222.968577099012
 31
0.0
  0
LINE
  5
7AB4
  8
1
  6
CONTINUOUS
 10
2265.8722773867462
 20
1735.5685770990119
 30
0.0
 11
2265.8722773867462
 21
1222.968577099012
 31
0.0
  0
LINE
  5
7AB5
  8
1
  6
CONTINUOUS
 10
2275.6722773867459
 20
1237.0685770990119
 30
0.0
 11
2275.6722773867459
 21
1766.0685770990119
 31
0.0
  0
LINE
  5
7AB6
  8
1
  6
CONTINUOUS
 10
2072.6722773867459
 20
1152.968577099012
 30
0.0
 11
2387.6722773867459
 21
1152.968577099012
 31
0.0
  0
LINE
  5
7AB7
  8
1
  6
CONTINUOUS
 10
2387.6722773867459
 20
1222.968577099012
 30
0.0
 11
2072.6722773867459
 21
1222.968577099012
 31
0.0
  0
LINE
  5
7AB8
  8
1
  6
CONTINUOUS
 10
2027.6722773867459
 20
1345.0685770990119
 30
0.0
 11
2101.8722773867462
 21
1345.0685770990119
 31
0.0
  0
LINE
  5
7AB9
  8
1
  6
CONTINUOUS
 10
2027.6722773867459
 20
1321.0685770990119
 30
0.0
 11
2101.8722773867462
 21
1321.0685770990119
 31
0.0
  0
LINE
  5
7ABA
  8
1
  6
CONTINUOUS
 10
1992.6722773867459
 20
1396.5685770990119
 30
0.0
 11
1992.6722773867459
 21
1269.5685770990119
 31
0.0
  0
LINE
  5
7ABB
  8
1
  6
CONTINUOUS
 10
2027.6722773867459
 20
1396.5685770990119
 30
0.0
 11
1992.6722773867459
 21
1396.5685770990119
 31
0.0
  0
LINE
  5
7ABC
  8
1
  6
CONTINUOUS
 10
2027.6722773867459
 20
1269.5685770990119
 30
0.0
 11
2027.6722773867459
 21
1396.5685770990119
 31
0.0
  0
LINE
  5
7ABD
  8
1
  6
CONTINUOUS
 10
1992.6722773867459
 20
1269.5685770990119
 30
0.0
 11
2027.6722773867459
 21
1269.5685770990119
 31
0.0
  0
LINE
  5
7ABE
  8
1
  6
CONTINUOUS
 10
1967.6722773867459
 20
1223.0685770990119
 30
0.0
 11
2052.6722773867459
 21
1223.0685770990119
 31
0.0
  0
LINE
  5
7ABF
  8
1
  6
CONTINUOUS
 10
2072.6722773867459
 20
1222.968577099012
 30
0.0
 11
2072.6722773867459
 21
1152.968577099012
 31
0.0
  0
LINE
  5
7AC0
  8
1
  6
CONTINUOUS
 10
2265.8722773867462
 20
1370.468577099012
 30
0.0
 11
2275.8722773867471
 21
1370.468577099012
 31
0.0
  0
LINE
  5
7AC1
  8
1
  6
CONTINUOUS
 10
2387.6722773867459
 20
1152.968577099012
 30
0.0
 11
2387.6722773867459
 21
1222.968577099012
 31
0.0
  0
LINE
  5
7AC2
  8
1
  6
CONTINUOUS
 10
2265.8722773867462
 20
1640.1685770990121
 30
0.0
 11
2101.8722773867462
 21
1513.968577099012
 31
0.0
  0
LINE
  5
7AC3
  8
1
  6
CONTINUOUS
 10
2027.6722773867459
 20
1540.5685770990119
 30
0.0
 11
2136.4722773867461
 21
1540.5685770990119
 31
0.0
  0
LINE
  5
7AC4
  8
1
  6
CONTINUOUS
 10
2027.6722773867459
 20
1565.5685770990119
 30
0.0
 11
2168.8722773867462
 21
1565.5685770990119
 31
0.0
  0
LINE
  5
7AC5
  8
1
  6
CONTINUOUS
 10
1992.6722773867459
 20
1489.5685770990119
 30
0.0
 11
2027.6722773867459
 21
1489.5685770990119
 31
0.0
  0
LINE
  5
7AC6
  8
1
  6
CONTINUOUS
 10
2027.6722773867459
 20
1489.5685770990119
 30
0.0
 11
2027.6722773867459
 21
1616.5685770990119
 31
0.0
  0
LINE
  5
7AC7
  8
1
  6
CONTINUOUS
 10
2027.6722773867459
 20
1616.5685770990119
 30
0.0
 11
1992.6722773867459
 21
1616.5685770990119
 31
0.0
  0
LINE
  5
7AC8
  8
1
  6
CONTINUOUS
 10
1992.6722773867459
 20
1616.5685770990119
 30
0.0
 11
1992.6722773867459
 21
1489.5685770990119
 31
0.0
  0
LINE
  5
7AC9
  8
1
  6
CONTINUOUS
 10
1967.6722773867459
 20
1792.468577099012
 30
0.0
 11
2052.6722773867459
 21
1792.468577099012
 31
0.0
  0
LINE
  5
7ACA
  8
1
  6
CONTINUOUS
 10
2275.8722773867471
 20
1771.0685770990119
 30
0.0
 11
2275.8722773867471
 21
1737.0685770990119
 31
0.0
  0
LINE
  5
7ACB
  8
1
  6
CONTINUOUS
 10
2265.8722773867462
 20
1733.968577099012
 30
0.0
 11
2265.8722773867462
 21
1571.968577099012
 31
0.0
  0
LINE
  5
7ACC
  8
1
  6
CONTINUOUS
 10
2265.8722773867462
 20
1735.468577099012
 30
0.0
 11
2275.8722773867471
 21
1735.468577099012
 31
0.0
  0
ARC
  5
7ACD
  8
1
  6
CONTINUOUS
 10
2295.6722773867459
 20
1766.0685770990119
 30
0.0
 40
20.0
 50
90.0
 51
180.0
  0
LINE
  5
7ACE
  8
1
  6
CONTINUOUS
 10
2508.6722773867459
 20
1735.468577099012
 30
0.0
 11
2508.6722773867459
 21
1370.468577099012
 31
0.0
  0
LINE
  5
7ACF
  8
1
  6
CONTINUOUS
 10
2499.6722773867459
 20
1766.0685770990119
 30
0.0
 11
2499.6722773867459
 21
1237.0685770990119
 31
0.0
  0
LINE
  5
7AD0
  8
1
  6
CONTINUOUS
 10
2508.6722773867459
 20
1370.468577099012
 30
0.0
 11
2499.4722773867461
 21
1370.468577099012
 31
0.0
  0
LINE
  5
7AD1
  8
1
  6
CONTINUOUS
 10
2508.6722773867459
 20
1735.468577099012
 30
0.0
 11
2499.6722773867459
 21
1735.468577099012
 31
0.0
  0
ARC
  5
7AD2
  8
1
  6
CONTINUOUS
 10
2479.6722773867459
 20
1766.0685770990119
 30
0.0
 40
20.0
 50
0.0
 51
90.0
  0
LINE
  5
7AD3
  8
1
  6
CONTINUOUS
 10
1171.586548
 20
2724.0863889999991
 30
0.0
 11
1364.586548
 21
2724.0863889999991
 31
0.0
  0
LINE
  5
7AD4
  8
1
  6
CONTINUOUS
 10
574.08654799999999
 20
2674.0863890000001
 30
0.0
 11
1304.086548
 21
2674.0863890000001
 31
0.0
  0
LINE
  5
7AD5
  8
1
  6
CONTINUOUS
 10
574.08654799999999
 20
2589.0863890000001
 30
0.0
 11
1304.086548
 21
2589.0863890000001
 31
0.0
  0
LINE
  5
7AD6
  8
1
  6
CONTINUOUS
 10
1171.586548
 20
2694.0863890000001
 30
0.0
 11
1394.586548
 21
2694.0863890000001
 31
0.0
  0
LINE
  5
7AD7
  8
1
  6
CONTINUOUS
 10
1096.086548
 20
2615.5863890000001
 30
0.0
 11
1223.086548
 21
2615.5863890000001
 31
0.0
  0
LINE
  5
7AD8
  8
1
  6
CONTINUOUS
 10
1223.086548
 20
2650.5863890000001
 30
0.0
 11
1096.086548
 21
2650.5863890000001
 31
0.0
  0
LINE
  5
7AD9
  8
1
  6
CONTINUOUS
 10
1409.586548
 20
2897.0863890000001
 30
0.0
 11
891.58654799999999
 21
2897.0863890000001
 31
0.0
  0
LINE
  5
7ADA
  8
1
  6
CONTINUOUS
 10
891.58654799999999
 20
3121.0863890000001
 30
0.0
 11
1409.586548
 21
3121.0863890000001
 31
0.0
  0
LINE
  5
7ADB
  8
1
  6
CONTINUOUS
 10
954.58654799999988
 20
2887.286388999999
 30
0.0
 11
1364.586548
 21
2887.286388999999
 31
0.0
  0
LINE
  5
7ADC
  8
1
  6
CONTINUOUS
 10
977.08654799999988
 20
3130.0863890000001
 30
0.0
 11
1342.086548
 21
3130.0863890000001
 31
0.0
  0
LINE
  5
7ADD
  8
1
  6
CONTINUOUS
 10
700.58654799999988
 20
2694.0863890000001
 30
0.0
 11
1147.586548
 21
2694.0863890000001
 31
0.0
  0
LINE
  5
7ADE
  8
1
  6
CONTINUOUS
 10
752.08654799999999
 20
2650.5863890000001
 30
0.0
 11
625.08654799999988
 21
2650.5863890000001
 31
0.0
  0
LINE
  5
7ADF
  8
1
  6
CONTINUOUS
 10
625.08654799999988
 20
2615.5863890000001
 30
0.0
 11
752.08654799999999
 21
2615.5863890000001
 31
0.0
  0
LINE
  5
7AE0
  8
1
  6
CONTINUOUS
 10
789.58654799999999
 20
2982.5863890000001
 30
0.0
 11
598.58654799999999
 21
2982.5863890000001
 31
0.0
  0
LINE
  5
7AE1
  8
1
  6
CONTINUOUS
 10
789.58654799999999
 20
2710.5863890000001
 30
0.0
 11
598.58654799999999
 21
2710.5863890000001
 31
0.0
  0
LINE
  5
7AE2
  8
1
  6
CONTINUOUS
 10
871.58654799999988
 20
3009.0863890000001
 30
0.0
 11
544.58654799999999
 21
3009.0863890000001
 31
0.0
  0
LINE
  5
7AE3
  8
1
  6
CONTINUOUS
 10
598.58654799999999
 20
2982.5863890000001
 30
0.0
 11
598.58654799999999
 21
2710.5863890000001
 31
0.0
  0
LINE
  5
7AE4
  8
1
  6
CONTINUOUS
 10
544.58654799999999
 20
3009.0863890000001
 30
0.0
 11
544.58654799999999
 21
2694.0863890000001
 31
0.0
  0
LINE
  5
7AE5
  8
1
  6
CONTINUOUS
 10
544.58654799999999
 20
2694.0863890000001
 30
0.0
 11
676.58654799999999
 21
2694.0863890000001
 31
0.0
  0
LINE
  5
7AE6
  8
1
  6
CONTINUOUS
 10
574.08654799999999
 20
2674.0863890000001
 30
0.0
 11
574.08654799999999
 21
2589.0863890000001
 31
0.0
  0
LINE
  5
7AE7
  8
1
  6
CONTINUOUS
 10
625.08654799999988
 20
2650.5863890000001
 30
0.0
 11
625.08654799999988
 21
2615.5863890000001
 31
0.0
  0
LINE
  5
7AE8
  8
1
  6
CONTINUOUS
 10
700.58654799999988
 20
2615.5863890000001
 30
0.0
 11
676.58654799999999
 21
2615.5863890000001
 31
0.0
  0
LINE
  5
7AE9
  8
1
  6
CONTINUOUS
 10
676.58654799999999
 20
2650.5863890000001
 30
0.0
 11
676.58654799999999
 21
2710.5863890000001
 31
0.0
  0
LINE
  5
7AEA
  8
1
  6
CONTINUOUS
 10
700.58654799999988
 20
2650.5863890000001
 30
0.0
 11
700.58654799999988
 21
2710.5863890000001
 31
0.0
  0
LINE
  5
7AEB
  8
1
  6
CONTINUOUS
 10
871.58654799999988
 20
3101.0863890000001
 30
0.0
 11
871.58654799999988
 21
2917.0863889999991
 31
0.0
  0
LINE
  5
7AEC
  8
1
  6
CONTINUOUS
 10
954.58654799999988
 20
2724.0863889999991
 30
0.0
 11
1147.586548
 21
2724.0863889999991
 31
0.0
  0
LINE
  5
7AED
  8
1
  6
CONTINUOUS
 10
789.58654799999999
 20
2710.5863890000001
 30
0.0
 11
789.58654799999999
 21
2982.5863890000001
 31
0.0
  0
LINE
  5
7AEE
  8
1
  6
CONTINUOUS
 10
954.58654799999988
 20
2724.0863889999991
 30
0.0
 11
954.58654799999988
 21
2887.286388999999
 31
0.0
  0
LINE
  5
7AEF
  8
1
  6
CONTINUOUS
 10
752.08654799999999
 20
2615.5863890000001
 30
0.0
 11
752.08654799999999
 21
2650.5863890000001
 31
0.0
  0
ARC
  5
7AF0
  8
1
  6
CONTINUOUS
 10
891.58654799999999
 20
2917.0863889999991
 30
0.0
 40
20.0
 50
180.0
 51
270.0
  0
LINE
  5
7AF1
  8
1
  6
CONTINUOUS
 10
1171.586548
 20
2887.286388999999
 30
0.0
 11
1171.586548
 21
2650.5863890000001
 31
0.0
  0
LINE
  5
7AF2
  8
1
  6
CONTINUOUS
 10
1147.586548
 20
2887.286388999999
 30
0.0
 11
1147.586548
 21
2650.5863890000001
 31
0.0
  0
LINE
  5
7AF3
  8
1
  6
CONTINUOUS
 10
1096.086548
 20
2650.5863890000001
 30
0.0
 11
1096.086548
 21
2615.5863890000001
 31
0.0
  0
LINE
  5
7AF4
  8
1
  6
CONTINUOUS
 10
978.58654799999999
 20
2887.286388999999
 30
0.0
 11
1140.586548
 21
2887.286388999999
 31
0.0
  0
LINE
  5
7AF5
  8
1
  6
CONTINUOUS
 10
977.08654799999988
 20
2887.286388999999
 30
0.0
 11
977.08654799999988
 21
2897.0863890000001
 31
0.0
  0
ARC
  5
7AF6
  8
1
  6
CONTINUOUS
 10
891.58654799999999
 20
3101.0863890000001
 30
0.0
 40
20.0
 50
90.0
 51
180.0
  0
LINE
  5
7AF7
  8
1
  6
CONTINUOUS
 10
977.08654799999988
 20
3130.0863890000001
 30
0.0
 11
977.08654799999988
 21
3121.8863889999998
 31
0.0
  0
LINE
  5
7AF8
  8
1
  6
CONTINUOUS
 10
1389.586548
 20
3092.0863890000001
 30
0.0
 11
1389.586548
 21
2926.0863889999991
 31
0.0
  0
LINE
  5
7AF9
  8
1
  6
CONTINUOUS
 10
1409.586548
 20
3142.0863890000001
 30
0.0
 11
1409.586548
 21
2876.0863890000001
 31
0.0
  0
LINE
  5
7AFA
  8
1
  6
CONTINUOUS
 10
1409.586548
 20
2906.0863890000001
 30
0.0
 11
1389.586548
 21
2926.0863889999991
 31
0.0
  0
LINE
  5
7AFB
  8
1
  6
CONTINUOUS
 10
1364.586548
 20
2724.0863889999991
 30
0.0
 11
1364.586548
 21
2887.286388999999
 31
0.0
  0
LINE
  5
7AFC
  8
1
  6
CONTINUOUS
 10
1223.086548
 20
2615.5863890000001
 30
0.0
 11
1223.086548
 21
2650.5863890000001
 31
0.0
  0
LINE
  5
7AFD
  8
1
  6
CONTINUOUS
 10
1304.086548
 20
2674.0863890000001
 30
0.0
 11
1304.086548
 21
2589.0863890000001
 31
0.0
  0
LINE
  5
7AFE
  8
1
  6
CONTINUOUS
 10
1342.086548
 20
2887.286388999999
 30
0.0
 11
1342.086548
 21
2897.0863890000001
 31
0.0
  0
LINE
  5
7AFF
  8
1
  6
CONTINUOUS
 10
1394.586548
 20
2694.0863890000001
 30
0.0
 11
1394.586548
 21
2897.0863890000001
 31
0.0
  0
LINE
  5
7B00
  8
1
  6
CONTINUOUS
 10
1409.586548
 20
3112.0863890000001
 30
0.0
 11
1389.586548
 21
3092.0863890000001
 31
0.0
  0
LINE
  5
7B01
  8
1
  6
CONTINUOUS
 10
1342.086548
 20
3130.0863890000001
 30
0.0
 11
1342.086548
 21
3121.8863889999998
 31
0.0
  0
DIMENSION
  5
7B22
  8
3
  6
CONTINUOUS
  2
*D1
 10
1159.586548
 20
1044.7573840990119
 30
0.0
 11
845.02613800000017
 21
1044.7573840990119
 31
0.0
 70
   128
 13
544.58654800000011
 23
1152.968577099012
 33
0.0
 14
1159.586548
 24
1092.462281099012
 34
0.0
1001
ACAD
1000
DSTYLE
1002
{
1070
   287
1070
     3
1070
   287
1070
     3
1070
    40
1040
15.0
1070
   143
1040
0.039
1070
   172
1070
     1
1070
   271
1070
     0
1070
   279
1070
     0
1070
   288
1070
     1
1002
}
  0
DIMENSION
  5
7B2E
  8
3
  6
CONTINUOUS
  2
*D2
 10
1394.586548
 20
1044.7573840990119
 30
0.0
 11
1277.086548
 21
1082.2573840990119
 31
0.0
 70
     0
 13
1159.586548
 23
1092.462281099012
 33
0.0
 14
1394.586548
 24
1152.968577099012
 34
0.0
1001
ACAD
1000
DSTYLE
1002
{
1070
   287
1070
     4
1070
   287
1070
     4
1070
    40
1040
15.0
1070
    75
1070
     1
1070
   143
1040
0.039
1070
   172
1070
     1
1070
   271
1070
     0
1070
   279
1070
     1
1070
   288
1070
     1
1002
}
  0
DIMENSION
  5
7B3B
  8
3
  6
CONTINUOUS
  2
*D3
 10
1514.5315310000001
 20
1237.968577099012
 30
0.0
 11
1514.5315310000001
 21
1396.467675099012
 31
0.0
 70
   128
 13
1409.586548
 23
1552.968577099012
 33
0.0
 14
1409.586548
 24
1237.968577099012
 34
0.0
 50
90.0
1001
ACAD
1000
DSTYLE
1002
{
1070
   287
1070
     3
1070
   287
1070
     3
1070
    40
1040
15.0
1070
   143
1040
0.039
1070
   172
1070
     1
1070
   271
1070
     0
1070
   279
1070
     0
1070
   288
1070
     1
1002
}
  0
DIMENSION
  5
7B48
  8
3
  6
CONTINUOUS
  2
*D4
 10
1716.8184679999999
 20
1552.968577099012
 30
0.0
 11
1716.8184679999999
 21
1655.825720099012
 31
0.0
 70
   128
 13
1159.586548
 23
1785.213764099012
 33
0.0
 14
1409.586548
 24
1552.968577099012
 34
0.0
 50
90.0
1001
ACAD
1000
DSTYLE
1002
{
1070
   287
1070
     3
1070
   287
1070
     3
1070
    40
1040
15.0
1070
   143
1040
0.039
1070
   172
1070
     1
1070
   271
1070
     0
1070
   279
1070
     0
1070
   288
1070
     1
1002
}
  0
DIMENSION
  5
7B54
  8
3
  6
CONTINUOUS
  2
*D5
 10
1716.8184679999999
 20
1152.968577099012
 30
0.0
 11
1679.318467999999
 21
1352.968577099012
 31
0.0
 70
     0
 13
1409.586548
 23
1552.968577099012
 33
0.0
 14
1394.586548
 24
1152.968577099012
 34
0.0
 50
90.0
1001
ACAD
1000
DSTYLE
1002
{
1070
   287
1070
     4
1070
   287
1070
     4
1070
    40
1040
15.0
1070
    75
1070
     1
1070
   143
1040
0.039
1070
   172
1070
     1
1070
   271
1070
     0
1070
   279
1070
     1
1070
   288
1070
     1
1002
}
  0
DIMENSION
  5
7B61
  8
3
  6
CONTINUOUS
  2
*D6
 10
1826.179903
 20
1152.968577099012
 30
0.0
 11
1826.179903
 21
1473.737356099012
 31
0.0
 70
   128
 13
1159.586548
 23
1785.213764099012
 33
0.0
 14
1394.586548
 24
1152.968577099012
 34
0.0
 50
90.0
1001
ACAD
1000
DSTYLE
1002
{
1070
   287
1070
     3
1070
   287
1070
     3
1070
    40
1040
15.0
1070
   143
1040
0.039
1070
   172
1070
     1
1070
   271
1070
     0
1070
   279
1070
     0
1070
   288
1070
     1
1002
}
  0
DIMENSION
  5
7B6E
  8
3
  6
CONTINUOUS
  2
*D7
 10
1159.586548
 20
1846.763421099012
 30
0.0
 11
1021.0713929999999
 21
1846.763421099012
 31
0.0
 70
   128
 13
885.58654800000022
 23
1552.968577099012
 33
0.0
 14
1159.586548
 24
1785.213764099012
 34
0.0
1001
ACAD
1000
DSTYLE
1002
{
1070
   287
1070
     3
1070
   287
1070
     3
1070
    40
1040
15.0
1070
   143
1040
0.039
1070
   172
1070
     1
1070
   271
1070
     0
1070
   279
1070
     0
1070
   288
1070
     1
1002
}
  0
DIMENSION
  5
7B7A
  8
3
  6
CONTINUOUS
  2
*D8
 10
1409.586548
 20
1846.763421099012
 30
0.0
 11
1284.586548
 21
1884.263421099012
 31
0.0
 70
     0
 13
1159.586548
 23
1785.213764099012
 33
0.0
 14
1409.586548
 24
1574.468577099012
 34
0.0
1001
ACAD
1000
DSTYLE
1002
{
1070
   287
1070
     4
1070
   287
1070
     4
1070
    40
1040
15.0
1070
    75
1070
     1
1070
   143
1040
0.039
1070
   172
1070
     1
1070
   271
1070
     0
1070
   279
1070
     1
1070
   288
1070
     1
1002
}
  0
DIMENSION
  5
7B87
  8
3
  6
CONTINUOUS
  2
*D9
 10
1394.586548
 20
2453.0629020000001
 30
0.0
 11
981.06110799999988
 21
2453.0629020000001
 31
0.0
 70
   128
 13
544.58654799999999
 23
2694.0863890000001
 33
0.0
 14
1394.586548
 24
2694.0863890000001
 34
0.0
1001
ACAD
1000
DSTYLE
1002
{
1070
   287
1070
     3
1070
   287
1070
     3
1070
    40
1040
15.0
1070
   143
1040
0.039
1070
   172
1070
     1
1070
   271
1070
     0
1070
   279
1070
     0
1070
   288
1070
     1
1002
}
  0
DIMENSION
  5
7B94
  8
3
  6
CONTINUOUS
  2
*D10
 10
466.26214500000037
 20
2694.0863890000001
 30
0.0
 11
466.26214499999998
 21
2836.7468489999992
 31
0.0
 70
   128
 13
544.58654799999999
 23
3009.0863890000001
 33
0.0
 14
544.58654799999999
 24
2694.0863890000001
 34
0.0
 50
90.0
1001
ACAD
1000
DSTYLE
1002
{
1070
   287
1070
     3
1070
   287
1070
     3
1070
    40
1040
15.0
1070
   143
1040
0.039
1070
   172
1070
     1
1070
   271
1070
     0
1070
   279
1070
     0
1070
   288
1070
     1
1002
}
  0
LINE
  5
7B95
  8
2
  6
CENTER
 10
799.56803400000001
 20
3009.0863890000001
 30
0.0
 11
1461.1844960000001
 21
3009.0863890000001
 31
0.0
  0
LINE
  5
7B96
  8
2
  6
CENTER
 10
2387.6722773867459
 20
1834.9789540990121
 30
0.0
 11
2387.6722773867459
 21
1079.3956100990119
 31
0.0
  0
DIMENSION
  5
7BA3
  8
3
  6
CONTINUOUS
  2
*D11
 10
2387.6722773867459
 20
1044.7574660990119
 30
0.0
 11
2240.2945323867461
 21
1044.7574660990119
 31
0.0
 70
   128
 13
2072.6722773867459
 23
1152.968577099012
 33
0.0
 14
2387.6722773867459
 24
1152.968577099012
 34
0.0
1001
ACAD
1000
DSTYLE
1002
{
1070
   287
1070
     3
1070
   287
1070
     3
1070
    40
1040
15.0
1070
   143
1040
0.039
1070
   172
1070
     1
1070
   271
1070
     0
1070
   279
1070
     0
1070
   288
1070
     1
1002
}
  0
DIMENSION
  5
7BB0
  8
3
  6
CONTINUOUS
  2
*D12
 10
2499.6722773867459
 20
1828.1121980990119
 30
0.0
 11
2379.8008483867461
 21
1828.1121980990119
 31
0.0
 70
   128
 13
2275.8722773867471
 23
1768.889924099012
 33
0.0
 14
2499.6722773867459
 24
1766.0685770990119
 34
0.0
1001
ACAD
1000
DSTYLE
1002
{
1070
   287
1070
     3
1070
   287
1070
     3
1070
    40
1040
15.0
1070
   143
1040
0.039
1070
   172
1070
     1
1070
   271
1070
     0
1070
   279
1070
     0
1070
   288
1070
     1
1002
}
  0
DIMENSION
  5
7BBD
  8
3
  6
CONTINUOUS
  2
*D13
 10
2387.6722773867459
 20
1929.362131099012
 30
0.0
 11
2173.6107113867461
 21
1929.362131099012
 31
0.0
 70
   128
  1
MAX\P420
 13
1967.6722773867459
 23
1792.468577099012
 33
0.0
 14
2387.6722773867459
 24
1904.1988330990121
 34
0.0
1001
ACAD
1000
DSTYLE
1002
{
1070
   287
1070
     3
1070
   287
1070
     3
1070
    40
1040
15.0
1070
   143
1040
0.039
1070
   172
1070
     1
1070
   271
1070
     0
1070
   279
1070
     0
1070
   288
1070
     1
1002
}
  0
DIMENSION
  5
7BCB
  8
3
  6
CONTINUOUS
  2
*D14
 10
2508.6722773867459
 20
1929.362131099012
 30
0.0
 11
2445.6806333867462
 21
1931.4896190990121
 31
0.0
 70
   128
 13
2387.6722773867459
 23
1904.1988330990121
 33
0.0
 14
2508.6722773867459
 24
1735.468577099012
 34
0.0
1001
ACAD
1000
DSTYLE
1002
{
1070
   287
1070
     4
1070
   287
1070
     4
1070
    40
1040
15.0
1070
    75
1070
     1
1070
   143
1040
0.039
1070
   172
1070
     1
1070
   271
1070
     0
1070
   279
1070
     1
1070
   288
1070
     1
1002
}
  0
LINE
  5
7BE3
  8
3
  6
CONTINUOUS
 10
2508.6722773867459
 20
1710.468577099012
 30
0.0
 11
2524.9963293867459
 21
1710.468577099012
 31
0.0
  0
LINE
  5
7BE5
  8
3
  6
CONTINUOUS
 10
2508.6722773867459
 20
1395.468577099012
 30
0.0
 11
2528.8396193867461
 21
1395.468577099012
 31
0.0
  0
DIMENSION
  5
7BF2
  8
3
  6
CONTINUOUS
  2
*D15
 10
2623.000005386747
 20
1395.468577099012
 30
0.0
 11
2623.0000053867461
 21
1558.807645099012
 31
0.0
 70
   128
 13
2508.6722773867459
 23
1710.468577099012
 33
0.0
 14
2508.6722773867459
 24
1395.468577099012
 34
0.0
 50
90.0
1001
ACAD
1000
DSTYLE
1002
{
1070
   287
1070
     3
1070
   287
1070
     3
1070
     3
1000
φ<>
1070
    40
1040
15.0
1070
   143
1040
0.039
1070
   172
1070
     1
1070
   271
1070
     0
1070
   279
1070
     0
1070
   288
1070
     1
1002
}
  0
LINE
  5
7BF3
  8
2
  6
CENTER
 10
1159.586548
 20
2505.5356940000001
 30
0.0
 11
1159.586548
 21
3173.1892210000001
 31
0.0
  0
LINE
  5
7BF4
  8
2
  6
CENTER
 10
1892.274621386746
 20
1552.968577099012
 30
0.0
 11
2522.0638403867461
 21
1552.968577099012
 31
0.0
  0
LINE
  5
7BF5
  8
4
  6
CONTINUOUS
 10
2775.0
 20
750.0
 30
0.0
 11
2775.0
 21
450.0
 31
0.0
  0
LINE
  5
7BF6
  8
4
  6
CONTINUOUS
 10
1725.0
 20
750.0
 30
0.0
 11
1725.0
 21
450.0
 31
0.0
  0
LINE
  5
7BF7
  8
4
  6
CONTINUOUS
 10
975.0
 20
750.0
 30
0.0
 11
975.0
 21
450.0
 31
0.0
  0
LINE
  5
7BFA
  8
4
  6
CONTINUOUS
 10
975.0
 20
450.0
 30
0.0
 11
2775.0
 21
450.0
 31
0.0
  0
LINE
  5
7BFB
  8
4
  6
CONTINUOUS
 10
975.0
 20
600.0
 30
0.0
 11
2775.0
 21
600.0
 31
0.0
  0
TEXT
  5
7BFC
  8
4
  6
CONTINUOUS
 10
1032.753121
 20
647.31453899999985
 30
0.0
 40
75.0
  1
機器名称
  0
TEXT
  5
7BFD
  8
4
  6
CONTINUOUS
 10
1029.387158999999
 20
482.46773499999989
 30
0.0
 40
75.0
  1
機器型番
  0
TEXT
  5
7BFE
  8
4
  6
CONTINUOUS
 10
1766.518118
 20
633.85765300000003
 30
0.0
 40
65.0
  1
ミツヤニューマルチファン
  0
TEXT
  5
7BFF
  8
4
  6
CONTINUOUS
 10
1779.9817430000001
 20
475.73937599999999
 30
0.0
 40
75.0
  1
NM#2-1
  0
TEXT
  5
7C01
  8
4
  6
CONTINUOUS
 10
1357.1786480000001
 20
3575.1432619999991
 30
0.0
 40
81.0
  1
床置ベット
  0
TEXT
  5
7C02
  8
4
  6
CONTINUOUS
 10
474.25139000000001
 20
3800.8214640000001
 30
0.0
 40
108.0
  1
ベルト駆動式片吸込片持多翼ファン
  0
LINE
  5
7C03
  8
4
  6
CONTINUOUS
 10
375.0
 20
3704.1131310000001
 30
0.0
 11
2775.0
 21
3704.1131310000001
 31
0.0
  0
LINE
  5
7C04
  8
4
  6
CONTINUOUS
 10
375.0
 20
4004.1131310000001
 30
0.0
 11
2775.0
 21
4004.1131310000001
 31
0.0
  0
LINE
  5
7C05
  8
4
  6
CONTINUOUS
 10
975.0
 20
750.0
 30
0.0
 11
2775.0
 21
750.0
 31
0.0
  0
LINE
  5
7C06
  8
4
  6
CONTINUOUS
 10
375.0
 20
4004.1131310000001
 30
0.0
 11
375.0
 21
3704.1131310000001
 31
0.0
  0
TEXT
  5
7C07
  8
4
  6
CONTINUOUS
 10
582.50282900000002
 20
3573.4792159999988
 30
0.0
 40
81.0
  1
左回転右横向
  0
TEXT
  5
7C08
  8
4
  6
CONTINUOUS
 10
2203.454338999999
 20
4059.091621999999
 30
0.0
 40
84.0
  1
No.
  0
TEXT
  5
7C09
  8
4
  6
CONTINUOUS
 10
1966.944094
 20
3575.1432619999991
 30
0.0
 40
81.0
  1
縮尺：1/15
  0
LINE
  5
7C0A
  8
4
  6
CONTINUOUS
 10
2775.0
 20
4004.1131310000001
 30
0.0
 11
2775.0
 21
3704.1131310000001
 31
0.0
  0
LINE
  5
7C0C
  8
4
  6
CONTINUOUS
 10
2160.9261339999989
 20
4021.8953750000001
 30
0.0
 11
2160.9261339999989
 21
4179.978392
 31
0.0
  0
LINE
  5
7C0D
  8
4
  6
CONTINUOUS
 10
2160.9261339999989
 20
4179.978392
 30
0.0
 11
2775.0
 21
4179.978392
 31
0.0
  0
LINE
  5
7C0E
  8
4
  6
CONTINUOUS
 10
2775.0
 20
4179.978392
 30
0.0
 11
2775.0
 21
4021.8953750000001
 31
0.0
  0
LINE
  5
7C0F
  8
4
  6
CONTINUOUS
 10
2775.0
 20
4021.8953750000001
 30
0.0
 11
2160.9261339999989
 21
4021.8953750000001
 31
0.0
  0
DIMENSION
  5
7C45
  8
3
  6
CONTINUOUS
  2
*D16
 10
1619.609449
 20
1227.968577099012
 30
0.0
 11
1619.609449
 21
1403.2401510990121
 31
0.0
 70
   128
 13
1409.586548
 23
1552.968577099012
 33
0.0
 14
1389.586548
 24
1227.968577099012
 34
0.0
 50
90.0
1001
ACAD
1000
DSTYLE
1002
{
1070
   287
1070
     3
1070
   287
1070
     3
1070
    40
1040
15.0
1070
   143
1040
0.039
1070
   172
1070
     1
1070
   271
1070
     0
1070
   279
1070
     0
1070
   288
1070
     1
1002
}
  0
DIMENSION
  5
7C91
  8
3
  2
*D17
 10
544.58654800000011
 20
1951.295344289457
 30
0.0
 11
993.28275902920166
 21
1951.295344289457
 31
0.0
 70
   128
 13
1409.586548
 23
1574.468577099012
 33
0.0
 14
544.58654800000011
 24
1222.968577099012
 34
0.0
1001
ACAD
1000
DSTYLE
1002
{
1070
   287
1070
     3
1070
   287
1070
     3
1070
    40
1040
15.0
1070
   143
1040
0.039
1070
   172
1070
     1
1070
   271
1070
     0
1070
   279
1070
     0
1070
   288
1070
     1
1002
}
  0
ENDSEC
  0
EOF
