  0
SECTION
  2
HEADER
  9
$ACADVER
  1
AC1009
  9
$INSBASE
 10
0.0
 20
0.0
 30
0.0
  9
$EXTMIN
 10
375.0
 20
450.0
 30
0.0
  9
$EXTMAX
 10
2775.0
 20
4179.978392
 30
0.0
  9
$LIMMIN
 10
0.0
 20
0.0
  9
$LIMMAX
 10
297.0
 20
210.0
  9
$ORTHOMODE
 70
     0
  9
$REGENMODE
 70
     1
  9
$FILLMODE
 70
     0
  9
$QTEXTMODE
 70
     0
  9
$MIRRTEXT
 70
     1
  9
$DRAGMODE
 70
     2
  9
$LTSCALE
 40
100.0
  9
$OSMODE
 70
    37
  9
$ATTMODE
 70
     1
  9
$TEXTSIZE
 40
180.0
  9
$TRACEWID
 40
0.05
  9
$TEXTSTYLE
  7
STANDARD
  9
$CLAYER
  8
3
  9
$CELTYPE
  6
BYLAYER
  9
$CECOLOR
 62
   256
  9
$DIMSCALE
 40
15.0
  9
$DIMASZ
 40
2.0
  9
$DIMEXO
 40
0.5
  9
$DIMDLI
 40
10.0
  9
$DIMRND
 40
0.0
  9
$DIMDLE
 40
0.0
  9
$DIMEXE
 40
1.0
  9
$DIMTP
 40
1.0
  9
$DIMTM
 40
1.0
  9
$DIMTXT
 40
3.0
  9
$DIMCEN
 40
0.0
  9
$DIMTSZ
 40
0.0
  9
$DIMTOL
 70
     0
  9
$DIMLIM
 70
     0
  9
$DIMTIH
 70
     0
  9
$DIMTOH
 70
     0
  9
$DIMSE1
 70
     0
  9
$DIMSE2
 70
     0
  9
$DIMTAD
 70
     1
  9
$DIMZIN
 70
     8
  9
$DIMBLK
  1

  9
$DIMASO
 70
     1
  9
$DIMSHO
 70
     1
  9
$DIMPOST
  1

  9
$DIMAPOST
  1

  9
$DIMALT
 70
     0
  9
$DIMALTD
 70
     2
  9
$DIMALTF
 40
0.039
  9
$DIMLFAC
 40
1.0
  9
$DIMTOFL
 70
     1
  9
$DIMTVP
 40
0.0
  9
$DIMTIX
 70
     0
  9
$DIMSOXD
 70
     0
  9
$DIMSAH
 70
     1
  9
$DIMBLK1
  1
OPEN
  9
$DIMBLK2
  1
OPEN
  9
$DIMSTYLE
  2
IGA
  9
$DIMCLRD
 70
     0
  9
$DIMCLRE
 70
     0
  9
$DIMCLRT
 70
     0
  9
$DIMTFAC
 40
10.0
  9
$DIMGAP
 40
1.0
  9
$LUNITS
 70
     2
  9
$LUPREC
 70
     3
  9
$SKETCHINC
 40
0.1
  9
$FILLETRAD
 40
50.0
  9
$AUNITS
 70
     0
  9
$AUPREC
 70
     0
  9
$MENU
  1
acad
  9
$ELEVATION
 40
0.0
  9
$PELEVATION
 40
0.0
  9
$THICKNESS
 40
0.0
  9
$LIMCHECK
 70
     0
  9
$BLIPMODE
 70
     0
  9
$CHAMFERA
 40
0.5
  9
$CHAMFERB
 40
0.5
  9
$SKPOLY
 70
     0
  9
$TDCREATE
 40
2450745.54743993
  9
$TDUPDATE
 40
2454953.8658707859
  9
$TDINDWG
 40
0.0035987384
  9
$TDUSRTIMER
 40
0.0035987384
  9
$USRTIMER
 70
     1
  9
$ANGBASE
 50
0.0
  9
$ANGDIR
 70
     0
  9
$PDMODE
 70
     0
  9
$PDSIZE
 40
0.0
  9
$PLINEWID
 40
0.0
  9
$COORDS
 70
     1
  9
$SPLFRAME
 70
     0
  9
$SPLINETYPE
 70
     6
  9
$SPLINESEGS
 70
     8
  9
$ATTDIA
 70
     0
  9
$ATTREQ
 70
     1
  9
$HANDLING
 70
 10241
  9
$HANDSEED
  5
7E77
  9
$SURFTAB1
 70
     6
  9
$SURFTAB2
 70
     6
  9
$SURFTYPE
 70
     6
  9
$SURFU
 70
     6
  9
$SURFV
 70
     6
  9
$UCSNAME
  2

  9
$UCSORG
 10
0.0
 20
0.0
 30
0.0
  9
$UCSXDIR
 10
1.0
 20
0.0
 30
0.0
  9
$UCSYDIR
 10
0.0
 20
1.0
 30
0.0
  9
$PUCSNAME
  2

  9
$PUCSORG
 10
0.0
 20
0.0
 30
0.0
  9
$PUCSXDIR
 10
1.0
 20
0.0
 30
0.0
  9
$PUCSYDIR
 10
0.0
 20
1.0
 30
0.0
  9
$USERI1
 70
     0
  9
$USERI2
 70
     0
  9
$USERI3
 70
     0
  9
$USERI4
 70
     0
  9
$USERI5
 70
     0
  9
$USERR1
 40
0.0
  9
$USERR2
 40
0.0
  9
$USERR3
 40
0.0
  9
$USERR4
 40
0.0
  9
$USERR5
 40
0.0
  9
$WORLDVIEW
 70
     1
  9
$SHADEDGE
 70
     3
  9
$SHADEDIF
 70
    70
  9
$TILEMODE
 70
     1
  9
$MAXACTVP
 70
    16
  9
$PLIMCHECK
 70
     0
  9
$PEXTMIN
 10
1.0000000000000000E+020
 20
1.0000000000000000E+020
 30
1.0000000000000000E+020
  9
$PEXTMAX
 10
-1.0000000000000000E+020
 20
-1.0000000000000000E+020
 30
-1.0000000000000000E+020
  9
$PLIMMIN
 10
0.0
 20
0.0
  9
$PLIMMAX
 10
12.0
 20
9.0
  9
$UNITMODE
 70
     0
  9
$VISRETAIN
 70
     0
  9
$PLINEGEN
 70
     0
  9
$PSLTSCALE
 70
     1
  0
ENDSEC
  0
SECTION
  2
TABLES
  0
TABLE
  2
VPORT
 70
     2
  0
VPORT
  2
*ACTIVE
 70
     0
 10
0.0
 20
0.0
 11
1.0
 21
1.0
 12
4297.7057575486106
 22
2960.513321264028
 13
0.0
 23
0.0
 14
10.0
 24
10.0
 15
10.0
 25
10.0
 16
0.0
 26
0.0
 36
1.0
 17
0.0
 27
0.0
 37
0.0
 40
5790.6463360859261
 41
1.5051150895140659
 42
50.0
 43
0.0
 44
0.0
 50
0.0
 51
0.0
 71
     0
 72
   100
 73
     1
 74
     0
 75
     0
 76
     0
 77
     0
 78
     0
  0
ENDTAB
  0
TABLE
  2
LTYPE
 70
     2
  0
LTYPE
  2
CONTINUOUS
 70
     0
  3
Solid line
 72
    65
 73
     0
 40
0.0
  0
LTYPE
  2
CENTER
 70
     0
  3
____ _ ____ _ ____ _ ____ _ ____ _ ____ _ ____ 
 72
    65
 73
     4
 40
2.0
 49
1.25
 49
-0.25
 49
0.25
 49
-0.25
  0
ENDTAB
  0
TABLE
  2
LAYER
 70
     6
  0
LAYER
  2
0
 70
     0
 62
     7
  6
CONTINUOUS
  0
LAYER
  2
3
 70
     0
 62
     2
  6
CONTINUOUS
  0
LAYER
  2
2
 70
     0
 62
     3
  6
CENTER
  0
LAYER
  2
1
 70
     0
 62
     4
  6
CONTINUOUS
  0
LAYER
  2
4
 70
     0
 62
     7
  6
CONTINUOUS
  0
LAYER
  2
DEFPOINTS
 70
     0
 62
     7
  6
CONTINUOUS
  0
ENDTAB
  0
TABLE
  2
STYLE
 70
     1
  0
STYLE
  2
STANDARD
 70
     0
 40
0.0
 41
1.0
 50
0.0
 71
     0
 42
180.0
  3
simplex.shx
  4
extfont.shx
  0
ENDTAB
  0
TABLE
  2
VIEW
 70
     0
  0
ENDTAB
  0
TABLE
  2
UCS
 70
     0
  0
ENDTAB
  0
TABLE
  2
APPID
 70
     1
  0
APPID
  2
ACAD
 70
     0
  0
ENDTAB
  0
TABLE
  2
DIMSTYLE
 70
     1
  0
DIMSTYLE
  2
IGA
 70
     0
  3

  4

  5

  6
OPEN
  7
OPEN
 40
2.0
 41
2.0
 42
0.5
 43
10.0
 44
1.0
 45
0.0
 46
0.0
 47
1.0
 48
1.0
140
3.0
141
0.0
142
0.0
143
0.03937
144
1.0
145
0.0
146
10.0
147
1.0
 71
     0
 72
     0
 73
     0
 74
     0
 75
     0
 76
     0
 77
     1
 78
     8
170
     0
171
     2
172
     0
173
     1
174
     0
175
     0
176
     0
177
     0
178
     0
  0
ENDTAB
  0
ENDSEC
  0
SECTION
  2
BLOCKS
  0
BLOCK
  8
0
  2
$MODEL_SPACE
 70
     0
 10
0.0
 20
0.0
 30
0.0
  3
$MODEL_SPACE
  1

  0
ENDBLK
  5
1B
  8
0
  0
BLOCK
 67
     1
  8
0
  2
$PAPER_SPACE
 70
     0
 10
0.0
 20
0.0
 30
0.0
  3
$PAPER_SPACE
  1

  0
ENDBLK
  5
18
 67
     1
  8
0
  0
BLOCK
  8
0
  2
_OPEN
 70
     0
 10
0.0
 20
0.0
 30
0.0
  3
_OPEN
  1

  0
LINE
  5
7BAA
  8
0
  6
BYBLOCK
 62
     0
 10
-1.0
 20
0.166667
 30
0.0
 11
0.0
 21
0.0
 31
0.0
  0
LINE
  5
7BAB
  8
0
  6
BYBLOCK
 62
     0
 10
0.0
 20
0.0
 30
0.0
 11
-1.0
 21
-0.166667
 31
0.0
  0
LINE
  5
7BAC
  8
0
  6
BYBLOCK
 62
     0
 10
0.0
 20
0.0
 30
0.0
 11
-1.0
 21
0.0
 31
0.0
  0
ENDBLK
  5
7BAD
  8
0
  0
BLOCK
  8
0
  2
*D1
 70
     1
 10
0.0
 20
0.0
 30
0.0
  3
*D1
  1

  0
LINE
  5
7DE4
  8
3
  6
CONTINUOUS
 62
     0
 10
819.89707632522334
 20
1232.095538
 30
0.0
 11
819.89707632522334
 21
1099.66635
 31
0.0
  0
LINE
  5
7DE5
  8
3
  6
CONTINUOUS
 62
     0
 10
1054.897076325223
 20
1200.2150160000001
 30
0.0
 11
1054.897076325223
 21
1099.66635
 31
0.0
  0
LINE
  5
7DE6
  8
3
  6
CONTINUOUS
 62
     0
 10
849.89707632522322
 20
1114.66635
 30
0.0
 11
1024.897076325223
 21
1114.66635
 31
0.0
  0
INSERT
  5
7DE7
  8
3
  6
CONTINUOUS
 62
     0
  2
_OPEN
 10
819.89707632522334
 20
1114.66635
 30
0.0
 41
30.0
 42
30.0
 43
30.0
 50
180.0
  0
INSERT
  5
7DE8
  8
3
  6
CONTINUOUS
 62
     0
  2
_OPEN
 10
1054.897076325223
 20
1114.66635
 30
0.0
 41
30.0
 42
30.0
 43
30.0
  0
TEXT
  8
3
  40
45
  5
7E67
  62
0
  72
0
  71
0
 10
862.040
 20
1072.52
 30
0.000000
  1
235
  0
POINT
  5
7DEA
  8
DEFPOINTS
  6
CONTINUOUS
 62
     0
 10
819.89707632522334
 20
1239.595538
 30
0.0
  0
POINT
  5
7DEB
  8
DEFPOINTS
  6
CONTINUOUS
 62
     0
 10
1054.897076325223
 20
1207.7150160000001
 30
0.0
  0
POINT
  5
7DEC
  8
DEFPOINTS
  6
CONTINUOUS
 62
     0
 10
1054.897076325223
 20
1114.66635
 30
0.0
  0
ENDBLK
  5
7BBA
  8
0
  0
BLOCK
  8
0
  2
*D2
 70
     1
 10
0.0
 20
0.0
 30
0.0
  3
*D2
  1

  0
LINE
  5
7DED
  8
3
  6
CONTINUOUS
 62
     0
 10
1669.897076325223
 20
1232.095538
 30
0.0
 11
1669.897076325223
 21
1099.66635
 31
0.0
  0
LINE
  5
7DEE
  8
3
  6
CONTINUOUS
 62
     0
 10
1084.897076325223
 20
1114.66635
 30
0.0
 11
1639.897076325223
 21
1114.66635
 31
0.0
  0
INSERT
  5
7DEF
  8
3
  6
CONTINUOUS
 62
     0
  2
_OPEN
 10
1054.897076325223
 20
1114.66635
 30
0.0
 41
30.0
 42
30.0
 43
30.0
 50
180.0
  0
INSERT
  5
7DF0
  8
3
  6
CONTINUOUS
 62
     0
  2
_OPEN
 10
1669.897076325223
 20
1114.66635
 30
0.0
 41
30.0
 42
30.0
 43
30.0
  0
TEXT
  8
3
  40
45
  5
7E68
  62
0
  72
0
  71
0
 10
1272.40
 20
1072.52
 30
0.000000
  1
615
  0
POINT
  5
7DF2
  8
DEFPOINTS
  6
CONTINUOUS
 62
     0
 10
1054.897076325223
 20
1207.7150160000001
 30
0.0
  0
POINT
  5
7DF3
  8
DEFPOINTS
  6
CONTINUOUS
 62
     0
 10
1669.897076325223
 20
1239.595538
 30
0.0
  0
POINT
  5
7DF4
  8
DEFPOINTS
  6
CONTINUOUS
 62
     0
 10
1669.897076325223
 20
1114.66635
 30
0.0
  0
ENDBLK
  5
7BC6
  8
0
  0
BLOCK
  8
0
  2
*D3
 70
     1
 10
0.0
 20
0.0
 30
0.0
  3
*D3
  1

  0
LINE
  5
7DF5
  8
3
  6
CONTINUOUS
 62
     0
 10
1054.897076325223
 20
1897.095538
 30
0.0
 11
1054.897076325223
 21
1984.7754910000001
 31
0.0
  0
LINE
  5
7DF6
  8
3
  6
CONTINUOUS
 62
     0
 10
1369.897076325223
 20
1897.095538
 30
0.0
 11
1369.897076325223
 21
1984.7754910000001
 31
0.0
  0
LINE
  5
7DF7
  8
3
  6
CONTINUOUS
 62
     0
 10
1084.897076325223
 20
1969.7754910000001
 30
0.0
 11
1339.897076325223
 21
1969.7754910000001
 31
0.0
  0
INSERT
  5
7DF8
  8
3
  6
CONTINUOUS
 62
     0
  2
_OPEN
 10
1054.897076325223
 20
1969.7754910000001
 30
0.0
 41
30.0
 42
30.0
 43
30.0
 50
180.0
  0
INSERT
  5
7DF9
  8
3
  6
CONTINUOUS
 62
     0
  2
_OPEN
 10
1369.897076325223
 20
1969.7754910000001
 30
0.0
 41
30.0
 42
30.0
 43
30.0
  0
TEXT
  8
3
  40
45
  5
7E69
  62
0
  72
0
  71
0
 10
1114.09
 20
1927.63
 30
0.000000
  1
315
  0
POINT
  5
7DFB
  8
DEFPOINTS
  6
CONTINUOUS
 62
     0
 10
1054.897076325223
 20
1889.595538
 30
0.0
  0
POINT
  5
7DFC
  8
DEFPOINTS
  6
CONTINUOUS
 62
     0
 10
1369.897076325223
 20
1889.595538
 30
0.0
  0
POINT
  5
7DFD
  8
DEFPOINTS
  6
CONTINUOUS
 62
     0
 10
1369.897076325223
 20
1969.7754910000001
 30
0.0
  0
ENDBLK
  5
7BEC
  8
0
  0
BLOCK
  8
0
  2
*D4
 70
     1
 10
0.0
 20
0.0
 30
0.0
  3
*D4
  1

  0
LINE
  5
7DFE
  8
3
  6
CONTINUOUS
 62
     0
 10
822.65188932522335
 20
1647.095538
 30
0.0
 11
822.65188932522335
 21
2068.3795850000001
 31
0.0
  0
LINE
  5
7DFF
  8
3
  6
CONTINUOUS
 62
     0
 10
1054.897076325223
 20
1897.095538
 30
0.0
 11
1054.897076325223
 21
2068.3795850000001
 31
0.0
  0
LINE
  5
7E00
  8
3
  6
CONTINUOUS
 62
     0
 10
852.65188932522335
 20
2053.3795850000001
 30
0.0
 11
1024.897076325223
 21
2053.3795850000001
 31
0.0
  0
INSERT
  5
7E01
  8
3
  6
CONTINUOUS
 62
     0
  2
_OPEN
 10
822.65188932522335
 20
2053.3795850000001
 30
0.0
 41
30.0
 42
30.0
 43
30.0
 50
180.0
  0
INSERT
  5
7E02
  8
3
  6
CONTINUOUS
 62
     0
  2
_OPEN
 10
1054.897076325223
 20
2053.3795850000001
 30
0.0
 41
30.0
 42
30.0
 43
30.0
  0
TEXT
  8
3
  40
45
  5
7E6A
  62
0
  72
0
  71
0
 10
862.040
 20
2011.23
 30
0.000000
  1
232
  0
POINT
  5
7E04
  8
DEFPOINTS
  6
CONTINUOUS
 62
     0
 10
822.65188932522335
 20
1639.595538
 30
0.0
  0
POINT
  5
7E05
  8
DEFPOINTS
  6
CONTINUOUS
 62
     0
 10
1054.897076325223
 20
1889.595538
 30
0.0
  0
POINT
  5
7E06
  8
DEFPOINTS
  6
CONTINUOUS
 62
     0
 10
1054.897076325223
 20
2053.3795850000001
 30
0.0
  0
ENDBLK
  5
7BF9
  8
0
  0
BLOCK
  8
0
  2
*D5
 70
     1
 10
0.0
 20
0.0
 30
0.0
  3
*D5
  1

  0
LINE
  5
7E07
  8
3
  6
CONTINUOUS
 62
     0
 10
1379.897076325223
 20
1877.095538
 30
0.0
 11
1379.897076325223
 21
2068.3795850000001
 31
0.0
  0
LINE
  5
7E08
  8
3
  6
CONTINUOUS
 62
     0
 10
1084.897076325223
 20
2053.3795850000001
 30
0.0
 11
1349.897076325223
 21
2053.3795850000001
 31
0.0
  0
INSERT
  5
7E09
  8
3
  6
CONTINUOUS
 62
     0
  2
_OPEN
 10
1054.897076325223
 20
2053.3795850000001
 30
0.0
 41
30.0
 42
30.0
 43
30.0
 50
180.0
  0
INSERT
  5
7E0A
  8
3
  6
CONTINUOUS
 62
     0
  2
_OPEN
 10
1379.897076325223
 20
2053.3795850000001
 30
0.0
 41
30.0
 42
30.0
 43
30.0
  0
TEXT
  8
3
  40
45
  5
7E6B
  62
0
  72
0
  71
0
 10
1127.40
 20
2011.23
 30
0.000000
  1
325
  0
POINT
  5
7E0C
  8
DEFPOINTS
  6
CONTINUOUS
 62
     0
 10
1054.897076325223
 20
1889.595538
 30
0.0
  0
POINT
  5
7E0D
  8
DEFPOINTS
  6
CONTINUOUS
 62
     0
 10
1379.897076325223
 20
1869.5955379999989
 30
0.0
  0
POINT
  5
7E0E
  8
DEFPOINTS
  6
CONTINUOUS
 62
     0
 10
1379.897076325223
 20
2053.3795850000001
 30
0.0
  0
ENDBLK
  5
7C05
  8
0
  0
BLOCK
  8
0
  2
*D6
 70
     1
 10
0.0
 20
0.0
 30
0.0
  3
*D6
  1

  0
LINE
  5
7E0F
  8
3
  6
CONTINUOUS
 62
     0
 10
819.89707632522334
 20
2705.1089139999999
 30
0.0
 11
819.89707632522334
 21
2461.7232570000001
 31
0.0
  0
LINE
  5
7E10
  8
3
  6
CONTINUOUS
 62
     0
 10
1669.897076325223
 20
2705.1089139999999
 30
0.0
 11
1669.897076325223
 21
2461.7232570000001
 31
0.0
  0
LINE
  5
7E11
  8
3
  6
CONTINUOUS
 62
     0
 10
849.89707632522322
 20
2476.7232570000001
 30
0.0
 11
1639.897076325223
 21
2476.7232570000001
 31
0.0
  0
INSERT
  5
7E12
  8
3
  6
CONTINUOUS
 62
     0
  2
_OPEN
 10
819.89707632522334
 20
2476.7232570000001
 30
0.0
 41
30.0
 42
30.0
 43
30.0
 50
180.0
  0
INSERT
  5
7E13
  8
3
  6
CONTINUOUS
 62
     0
  2
_OPEN
 10
1669.897076325223
 20
2476.7232570000001
 30
0.0
 41
30.0
 42
30.0
 43
30.0
  0
TEXT
  8
3
  40
45
  5
7E6C
  62
0
  72
0
  71
0
 10
1140.24
 20
2434.57
 30
0.000000
  1
850
  0
POINT
  5
7E15
  8
DEFPOINTS
  6
CONTINUOUS
 62
     0
 10
819.89707632522334
 20
2712.6089139999999
 30
0.0
  0
POINT
  5
7E16
  8
DEFPOINTS
  6
CONTINUOUS
 62
     0
 10
1669.897076325223
 20
2712.6089139999999
 30
0.0
  0
POINT
  5
7E17
  8
DEFPOINTS
  6
CONTINUOUS
 62
     0
 10
1669.897076325223
 20
2476.7232570000001
 30
0.0
  0
ENDBLK
  5
7C12
  8
0
  0
BLOCK
  8
0
  2
*D7
 70
     1
 10
0.0
 20
0.0
 30
0.0
  3
*D7
  1

  0
LINE
  5
7E18
  8
3
  6
CONTINUOUS
 62
     0
 10
1677.397076325223
 20
3027.608913999999
 30
0.0
 11
1818.0270683252229
 21
3027.608913999999
 31
0.0
  0
LINE
  5
7E19
  8
3
  6
CONTINUOUS
 62
     0
 10
1677.397076325223
 20
2712.6089139999999
 30
0.0
 11
1818.0270683252229
 21
2712.6089139999999
 31
0.0
  0
LINE
  5
7E1A
  8
3
  6
CONTINUOUS
 62
     0
 10
1803.0270683252229
 20
2997.6089139999999
 30
0.0
 11
1803.0270683252229
 21
2742.608913999999
 31
0.0
  0
INSERT
  5
7E1B
  8
3
  6
CONTINUOUS
 62
     0
  2
_OPEN
 10
1803.0270683252229
 20
3027.608913999999
 30
0.0
 41
30.0
 42
30.0
 43
30.0
 50
90.0
  0
INSERT
  5
7E1C
  8
3
  6
CONTINUOUS
 62
     0
  2
_OPEN
 10
1803.0270683252229
 20
2712.6089139999999
 30
0.0
 41
30.0
 42
30.0
 43
30.0
 50
270.0
  0
TEXT
  8
3
  40
45
  5
7E6D
  62
0
  72
0
  71
0
 10
1675.53
 20
2786.35
 30
0.000000
  1
315
  0
POINT
  5
7E1E
  8
DEFPOINTS
  6
CONTINUOUS
 62
     0
 10
1669.897076325223
 20
3027.608913999999
 30
0.0
  0
POINT
  5
7E1F
  8
DEFPOINTS
  6
CONTINUOUS
 62
     0
 10
1669.897076325223
 20
2712.6089139999999
 30
0.0
  0
POINT
  5
7E20
  8
DEFPOINTS
  6
CONTINUOUS
 62
     0
 10
1803.0270683252229
 20
2712.6089139999999
 30
0.0
  0
ENDBLK
  5
7C1F
  8
0
  0
BLOCK
  8
0
  2
*D8
 70
     1
 10
0.0
 20
0.0
 30
0.0
  3
*D8
  1

  0
LINE
  5
7E21
  8
3
  6
CONTINUOUS
 62
     0
 10
2120.003423722826
 20
1232.095538
 30
0.0
 11
2120.003423722826
 21
1120.8342070000001
 31
0.0
  0
LINE
  5
7E22
  8
3
  6
CONTINUOUS
 62
     0
 10
2435.003423722826
 20
1232.095538
 30
0.0
 11
2435.003423722826
 21
1120.8342070000001
 31
0.0
  0
LINE
  5
7E23
  8
3
  6
CONTINUOUS
 62
     0
 10
2150.003423722826
 20
1135.8342070000001
 30
0.0
 11
2405.003423722826
 21
1135.8342070000001
 31
0.0
  0
INSERT
  5
7E24
  8
3
  6
CONTINUOUS
 62
     0
  2
_OPEN
 10
2120.003423722826
 20
1135.8342070000001
 30
0.0
 41
30.0
 42
30.0
 43
30.0
 50
180.0
  0
INSERT
  5
7E25
  8
3
  6
CONTINUOUS
 62
     0
  2
_OPEN
 10
2435.003423722826
 20
1135.8342070000001
 30
0.0
 41
30.0
 42
30.0
 43
30.0
  0
TEXT
  8
3
  40
45
  5
7E6E
  62
0
  72
0
  71
0
 10
2196.73
 20
1093.68
 30
0.000000
  1
315
  0
POINT
  5
7E27
  8
DEFPOINTS
  6
CONTINUOUS
 62
     0
 10
2120.003423722826
 20
1239.595538
 30
0.0
  0
POINT
  5
7E28
  8
DEFPOINTS
  6
CONTINUOUS
 62
     0
 10
2435.003423722826
 20
1239.595538
 30
0.0
  0
POINT
  5
7E29
  8
DEFPOINTS
  6
CONTINUOUS
 62
     0
 10
2435.003423722826
 20
1135.8342070000001
 30
0.0
  0
ENDBLK
  5
7C2E
  8
0
  0
BLOCK
  8
0
  2
*D9
 70
     1
 10
0.0
 20
0.0
 30
0.0
  3
*D9
  1

  0
LINE
  5
7E2A
  8
3
  6
CONTINUOUS
 62
     0
 10
2323.2034237228258
 20
1897.095538
 30
0.0
 11
2323.2034237228258
 21
1963.3615119999999
 31
0.0
  0
LINE
  5
7E2B
  8
3
  6
CONTINUOUS
 62
     0
 10
2547.2034237228249
 20
1897.095538
 30
0.0
 11
2547.2034237228249
 21
1963.3615119999999
 31
0.0
  0
LINE
  5
7E2C
  8
3
  6
CONTINUOUS
 62
     0
 10
2353.2034237228249
 20
1948.3615119999999
 30
0.0
 11
2517.2034237228258
 21
1948.3615119999999
 31
0.0
  0
INSERT
  5
7E2D
  8
3
  6
CONTINUOUS
 62
     0
  2
_OPEN
 10
2323.2034237228258
 20
1948.3615119999999
 30
0.0
 41
30.0
 42
30.0
 43
30.0
 50
180.0
  0
INSERT
  5
7E2E
  8
3
  6
CONTINUOUS
 62
     0
  2
_OPEN
 10
2547.2034237228249
 20
1948.3615119999999
 30
0.0
 41
30.0
 42
30.0
 43
30.0
  0
TEXT
  8
3
  40
45
  5
7E6F
  62
0
  72
0
  71
0
 10
2337.13
 20
1906.21
 30
0.000000
  1
224
  0
POINT
  5
7E30
  8
DEFPOINTS
  6
CONTINUOUS
 62
     0
 10
2323.2034237228258
 20
1889.595538
 30
0.0
  0
POINT
  5
7E31
  8
DEFPOINTS
  6
CONTINUOUS
 62
     0
 10
2547.2034237228249
 20
1889.595538
 30
0.0
  0
POINT
  5
7E32
  8
DEFPOINTS
  6
CONTINUOUS
 62
     0
 10
2547.2034237228249
 20
1948.3615119999999
 30
0.0
  0
ENDBLK
  5
7C3B
  8
0
  0
BLOCK
  8
0
  2
*D10
 70
     1
 10
0.0
 20
0.0
 30
0.0
  3
*D10
  1

  0
LINE
  5
7E33
  8
3
  6
CONTINUOUS
 62
     0
 10
2015.2034237228261
 20
1877.095538
 30
0.0
 11
2015.2034237228261
 21
2056.7414739999999
 31
0.0
  0
LINE
  5
7E34
  8
3
  6
CONTINUOUS
 62
     0
 10
2435.2034237228258
 20
2037.341116999999
 30
0.0
 11
2435.2034237228258
 21
2056.7414739999999
 31
0.0
  0
LINE
  5
7E35
  8
3
  6
CONTINUOUS
 62
     0
 10
2045.2034237228261
 20
2041.741473999999
 30
0.0
 11
2405.2034237228249
 21
2041.741473999999
 31
0.0
  0
INSERT
  5
7E36
  8
3
  6
CONTINUOUS
 62
     0
  2
_OPEN
 10
2015.2034237228261
 20
2041.741473999999
 30
0.0
 41
30.0
 42
30.0
 43
30.0
 50
180.0
  0
INSERT
  5
7E37
  8
3
  6
CONTINUOUS
 62
     0
  2
_OPEN
 10
2435.2034237228258
 20
2041.741473999999
 30
0.0
 41
30.0
 42
30.0
 43
30.0
  0
TEXT
  8
3
  40
45
  5
7E70
  62
0
  72
0
  71
0
 10
2144.42
 20
2037.09
 30
0.000000
  1
MAX
  0
TEXT
  8
3
  40
45
  5
7E71
  62
0
  72
0
  71
0
 10
2144.42
 20
1978.59
 30
0.000000
  1
420
  0
POINT
  5
7E39
  8
DEFPOINTS
  6
CONTINUOUS
 62
     0
 10
2015.2034237228261
 20
1869.5955379999989
 30
0.0
  0
POINT
  5
7E3A
  8
DEFPOINTS
  6
CONTINUOUS
 62
     0
 10
2435.2034237228258
 20
2029.8411169999999
 30
0.0
  0
POINT
  5
7E3B
  8
DEFPOINTS
  6
CONTINUOUS
 62
     0
 10
2435.2034237228258
 20
2041.741473999999
 30
0.0
  0
ENDBLK
  5
7CDF
  8
0
  0
BLOCK
  8
0
  2
*D11
 70
     1
 10
0.0
 20
0.0
 30
0.0
  3
*D11
  1

  0
LINE
  5
7E3C
  8
3
  6
CONTINUOUS
 62
     0
 10
2556.2034237228258
 20
1829.5955379999989
 30
0.0
 11
2556.2034237228258
 21
2056.7414739999999
 31
0.0
  0
LINE
  5
7E3D
  8
3
  6
CONTINUOUS
 62
     0
 10
2465.2034237228258
 20
2041.741473999999
 30
0.0
 11
2526.2034237228258
 21
2041.741473999999
 31
0.0
  0
TEXT
  8
3
  40
45
  5
7E72
  62
0
  72
0
  71
0
 10
2400.73
 20
1997.50
 30
0.000000
  1
121
  0
INSERT
  5
7E3F
  8
3
  6
CONTINUOUS
 62
     0
  2
_OPEN
 10
2435.2034237228258
 20
2041.741473999999
 30
0.0
 41
30.0
 42
30.0
 43
30.0
 50
180.0
  0
INSERT
  5
7E40
  8
3
  6
CONTINUOUS
 62
     0
  2
_OPEN
 10
2556.2034237228258
 20
2041.741473999999
 30
0.0
 41
30.0
 42
30.0
 43
30.0
  0
POINT
  5
7E41
  8
DEFPOINTS
  6
CONTINUOUS
 62
     0
 10
2435.2034237228258
 20
2029.8411169999999
 30
0.0
  0
POINT
  5
7E42
  8
DEFPOINTS
  6
CONTINUOUS
 62
     0
 10
2556.2034237228258
 20
1822.095538
 30
0.0
  0
POINT
  5
7E43
  8
DEFPOINTS
  6
CONTINUOUS
 62
     0
 10
2556.2034237228258
 20
2041.741473999999
 30
0.0
  0
ENDBLK
  5
7CBF
  8
0
  0
BLOCK
  8
0
  2
*D12
 70
     1
 10
0.0
 20
0.0
 30
0.0
  3
*D12
  1

  0
LINE
  5
7E44
  8
3
  6
CONTINUOUS
 62
     0
 10
2563.7034237228258
 20
1797.0955379999989
 30
0.0
 11
2688.144627722826
 21
1797.0955379999989
 31
0.0
  0
LINE
  5
7E45
  8
3
  6
CONTINUOUS
 62
     0
 10
2563.7034237228258
 20
1482.095538
 30
0.0
 11
2688.144627722826
 21
1482.095538
 31
0.0
  0
LINE
  5
7E46
  8
3
  6
CONTINUOUS
 62
     0
 10
2673.144627722826
 20
1767.0955379999989
 30
0.0
 11
2673.144627722826
 21
1512.0955379999989
 31
0.0
  0
INSERT
  5
7E47
  8
3
  6
CONTINUOUS
 62
     0
  2
_OPEN
 10
2673.144627722826
 20
1797.0955379999989
 30
0.0
 41
30.0
 42
30.0
 43
30.0
 50
90.0
  0
INSERT
  5
7E48
  8
3
  6
CONTINUOUS
 62
     0
  2
_OPEN
 10
2673.144627722826
 20
1482.095538
 30
0.0
 41
30.0
 42
30.0
 43
30.0
 50
270.0
  0
TEXT
  8
3
  40
45
  5
7E73
  62
0
  72
0
  71
0
 10
2545.64
 20
1545.28
 30
0.000000
  1
φ315
  0
POINT
  5
7E4A
  8
DEFPOINTS
  6
CONTINUOUS
 62
     0
 10
2556.2034237228258
 20
1797.0955379999989
 30
0.0
  0
POINT
  5
7E4B
  8
DEFPOINTS
  6
CONTINUOUS
 62
     0
 10
2556.2034237228258
 20
1482.095538
 30
0.0
  0
POINT
  5
7E4C
  8
DEFPOINTS
  6
CONTINUOUS
 62
     0
 10
2673.144627722826
 20
1482.095538
 30
0.0
  0
ENDBLK
  5
7CEA
  8
0
  0
BLOCK
  8
0
  2
*D13
 70
     1
 10
0.0
 20
0.0
 30
0.0
  3
*D13
  1

  0
LINE
  5
7E4D
  8
3
 62
     0
 10
1025.897076325223
 20
1889.595538
 30
0.0
 11
699.58985877834346
 21
1889.595538
 31
0.0
  0
LINE
  5
7E4E
  8
3
 62
     0
 10
748.83709732522334
 20
1639.595538
 30
0.0
 11
699.58985877834334
 21
1639.595538
 31
0.0
  0
LINE
  5
7E4F
  8
3
 62
     0
 10
714.58985877834346
 20
1859.5955379999989
 30
0.0
 11
714.58985877834334
 21
1669.595538
 31
0.0
  0
INSERT
  5
7E50
  8
3
 62
     0
  2
_OPEN
 10
714.58985877834346
 20
1889.595538
 30
0.0
 41
30.0
 42
30.0
 43
30.0
 50
90.0
  0
INSERT
  5
7E51
  8
3
 62
     0
  2
_OPEN
 10
714.58985877834334
 20
1639.595538
 30
0.0
 41
30.0
 42
30.0
 43
30.0
 50
270.0
  0
TEXT
  8
3
  40
45
  5
7E74
  62
0
  72
0
  71
0
 10
587.090
 20
1707.09
 30
0.000000
  1
250
  0
POINT
  5
7E53
  8
DEFPOINTS
 62
     0
 10
1033.397076325223
 20
1889.595538
 30
0.0
  0
POINT
  5
7E54
  8
DEFPOINTS
 62
     0
 10
756.33709732522334
 20
1639.595538
 30
0.0
  0
POINT
  5
7E55
  8
DEFPOINTS
 62
     0
 10
714.58985877834334
 20
1639.595538
 30
0.0
  0
ENDBLK
  5
7CF6
  8
0
  0
BLOCK
  8
0
  2
*D14
 70
     1
 10
0.0
 20
0.0
 30
0.0
  3
*D14
  1

  0
LINE
  5
7E56
  8
3
 62
     0
 10
812.39707632522322
 20
1239.595538
 30
0.0
 11
699.58985877834311
 21
1239.595538
 31
0.0
  0
LINE
  5
7E57
  8
3
 62
     0
 10
714.58985877834323
 20
1609.5955379999989
 30
0.0
 11
714.58985877834311
 21
1269.595538
 31
0.0
  0
INSERT
  5
7E58
  8
3
 62
     0
  2
_OPEN
 10
714.58985877834323
 20
1639.595538
 30
0.0
 41
30.0
 42
30.0
 43
30.0
 50
90.0
  0
INSERT
  5
7E59
  8
3
 62
     0
  2
_OPEN
 10
714.58985877834311
 20
1239.595538
 30
0.0
 41
30.0
 42
30.0
 43
30.0
 50
270.0
  0
TEXT
  8
3
  40
45
  5
7E75
  62
0
  72
0
  71
0
 10
587.090
 20
1359.95
 30
0.000000
  1
400
  0
POINT
  5
7E5B
  8
DEFPOINTS
 62
     0
 10
756.33709732522334
 20
1639.595538
 30
0.0
  0
POINT
  5
7E5C
  8
DEFPOINTS
 62
     0
 10
819.89707632522334
 20
1239.595538
 30
0.0
  0
POINT
  5
7E5D
  8
DEFPOINTS
 62
     0
 10
714.58985877834311
 20
1239.595538
 30
0.0
  0
ENDBLK
  5
7D02
  8
0
  0
BLOCK
  8
0
  2
*D15
 70
     1
 10
0.0
 20
0.0
 30
0.0
  3
*D15
  1

  0
LINE
  5
7E5E
  8
3
 62
     0
 10
1018.397076325223
 20
1889.595538
 30
0.0
 11
608.22404482619129
 21
1889.595538
 31
0.0
  0
LINE
  5
7E5F
  8
3
 62
     0
 10
812.39707632522322
 20
1239.595538
 30
0.0
 11
608.22404482619095
 21
1239.595538
 31
0.0
  0
LINE
  5
7E60
  8
3
 62
     0
 10
623.22404482619118
 20
1859.5955379999989
 30
0.0
 11
623.22404482619106
 21
1269.595538
 31
0.0
  0
INSERT
  5
7E61
  8
3
 62
     0
  2
_OPEN
 10
623.22404482619118
 20
1889.595538
 30
0.0
 41
30.0
 42
30.0
 43
30.0
 50
90.0
  0
INSERT
  5
7E62
  8
3
 62
     0
  2
_OPEN
 10
623.22404482619106
 20
1239.595538
 30
0.0
 41
30.0
 42
30.0
 43
30.0
 50
270.0
  0
TEXT
  8
3
  40
45
  5
7E76
  62
0
  72
0
  71
0
 10
495.724
 20
1496.42
 30
0.000000
  1
650
  0
POINT
  5
7E64
  8
DEFPOINTS
 62
     0
 10
1025.897076325223
 20
1889.595538
 30
0.0
  0
POINT
  5
7E65
  8
DEFPOINTS
 62
     0
 10
819.89707632522334
 20
1239.595538
 30
0.0
  0
POINT
  5
7E66
  8
DEFPOINTS
 62
     0
 10
623.22404482619106
 20
1239.595538
 30
0.0
  0
ENDBLK
  5
7D0F
  8
0
  0
ENDSEC
  0
SECTION
  2
ENTITIES
  0
LINE
  5
7B07
  8
1
  6
CONTINUOUS
 10
1640.397076325223
 20
2692.6089139999999
 30
0.0
 11
910.39707632522334
 21
2692.6089139999999
 31
0.0
  0
LINE
  5
7B08
  8
1
  6
CONTINUOUS
 10
1640.397076325223
 20
2607.6089139999999
 30
0.0
 11
910.39707632522334
 21
2607.6089139999999
 31
0.0
  0
LINE
  5
7B09
  8
1
  6
CONTINUOUS
 10
1513.897076325223
 20
2712.6089139999999
 30
0.0
 11
1066.897076325223
 21
2712.6089139999999
 31
0.0
  0
LINE
  5
7B0A
  8
1
  6
CONTINUOUS
 10
1110.397076325223
 20
1869.5955379999989
 30
0.0
 11
1640.397076325223
 21
1519.595538
 31
0.0
  0
LINE
  5
7B0B
  8
1
  6
CONTINUOUS
 10
1669.897076325223
 20
1239.595538
 30
0.0
 11
819.89707632522334
 21
1239.595538
 31
0.0
  0
LINE
  5
7B0C
  8
1
  6
CONTINUOUS
 10
1669.897076325223
 20
1309.595538
 30
0.0
 11
819.89707632522334
 21
1309.595538
 31
0.0
  0
LINE
  5
7B0D
  8
1
  6
CONTINUOUS
 10
1033.397076325223
 20
1889.595538
 30
0.0
 11
1391.397076325223
 21
1889.595538
 31
0.0
  0
LINE
  5
7B0E
  8
1
  6
CONTINUOUS
 10
1369.897076325223
 20
3139.6089139999999
 30
0.0
 11
1054.897076325223
 21
2915.608913999999
 31
0.0
  0
LINE
  5
7B0F
  8
1
  6
CONTINUOUS
 10
1369.897076325223
 20
2915.608913999999
 30
0.0
 11
1054.897076325223
 21
3139.6089139999999
 31
0.0
  0
LINE
  5
7B10
  8
1
  6
CONTINUOUS
 10
1369.897076325223
 20
2915.608913999999
 30
0.0
 11
852.89707632522345
 21
2915.608913999999
 31
0.0
  0
LINE
  5
7B11
  8
1
  6
CONTINUOUS
 10
852.89707632522345
 20
3139.6089139999999
 30
0.0
 11
1369.897076325223
 21
3139.6089139999999
 31
0.0
  0
LINE
  5
7B12
  8
1
  6
CONTINUOUS
 10
1084.897076325223
 20
1869.5955379999989
 30
0.0
 11
1339.897076325223
 21
1869.5955379999989
 31
0.0
  0
ARC
  5
7B13
  8
1
  6
CONTINUOUS
 10
1080.397076325223
 20
1665.095538
 30
0.0
 40
299.5
 50
259.39999999999992
 51
0.0
  0
LINE
  5
7B14
  8
1
  6
CONTINUOUS
 10
1084.897076325223
 20
1869.5955379999989
 30
0.0
 11
1339.897076325223
 21
1869.5955379999989
 31
0.0
  0
LINE
  5
7B15
  8
1
  6
CONTINUOUS
 10
1549.2970763252231
 20
1467.1955379999999
 30
0.0
 11
1082.897076325223
 21
1696.5955379999989
 31
0.0
  0
LINE
  5
7B16
  8
1
  6
CONTINUOUS
 10
1504.397076325223
 20
1371.095538
 30
0.0
 11
1029.197076325223
 21
1581.4955379999999
 31
0.0
  0
LINE
  5
7B17
  8
1
  6
CONTINUOUS
 10
962.59707632522327
 20
1819.5955379999989
 30
0.0
 11
849.89707632522322
 21
1724.995537999999
 31
0.0
  0
LINE
  5
7B18
  8
1
  6
CONTINUOUS
 10
1259.897076325223
 20
1603.095538
 30
0.0
 11
849.89707632522322
 21
1603.095538
 31
0.0
  0
ARC
  5
7B19
  8
1
  6
CONTINUOUS
 10
1075.897076325223
 20
1618.595538
 30
0.0
 40
253.0
 50
188.1999999999999
 51
258.39999999999992
  0
ARC
  5
7B1A
  8
1
  6
CONTINUOUS
 10
1036.897076325223
 20
1621.595538
 30
0.0
 40
215.0
 50
98.599999999999994
 51
190.59999999999999
  0
LINE
  5
7B1B
  8
1
  6
CONTINUOUS
 10
849.89707632522322
 20
1309.595538
 30
0.0
 11
849.89707632522322
 21
1724.995537999999
 31
0.0
  0
LINE
  5
7B1C
  8
1
  6
CONTINUOUS
 10
819.89707632522334
 20
1309.595538
 30
0.0
 11
819.89707632522334
 21
1239.595538
 31
0.0
  0
CIRCLE
  5
7B1D
  8
1
  6
CONTINUOUS
 10
1054.897076325223
 20
1639.595538
 30
0.0
 40
157.5
  0
LINE
  5
7B1E
  8
1
  6
CONTINUOUS
 10
910.39707632522334
 20
1739.595538
 30
0.0
 11
910.39707632522334
 21
1300.095538
 31
0.0
  0
LINE
  5
7B1F
  8
1
  6
CONTINUOUS
 10
1259.897076325223
 20
1309.595538
 30
0.0
 11
1259.897076325223
 21
1724.995537999999
 31
0.0
  0
CIRCLE
  5
7B20
  8
1
  6
CONTINUOUS
 10
1054.897076325223
 20
1639.595538
 30
0.0
 40
182.5
  0
LINE
  5
7B21
  8
1
  6
CONTINUOUS
 10
1064.897076325223
 20
1889.595538
 30
0.0
 11
1084.897076325223
 21
1869.5955379999989
 31
0.0
  0
LINE
  5
7B22
  8
1
  6
CONTINUOUS
 10
910.39707632522334
 20
1739.595538
 30
0.0
 11
1110.397076325223
 21
1869.5955379999989
 31
0.0
  0
CIRCLE
  5
7B23
  8
1
  6
CONTINUOUS
 10
1054.897076325223
 20
1639.595538
 30
0.0
 40
63.5
  0
LINE
  5
7B24
  8
1
  6
CONTINUOUS
 10
1147.197076325223
 20
1819.5955379999989
 30
0.0
 11
962.59707632522327
 21
1819.5955379999989
 31
0.0
  0
LINE
  5
7B25
  8
2
  6
CENTER
 10
2575.0447527228248
 20
1639.595538
 30
0.0
 11
1942.7151577228251
 21
1639.595538
 31
0.0
  0
ARC
  5
7B26
  8
1
  6
CONTINUOUS
 10
977.89707632522345
 20
1907.5955379999989
 30
0.0
 40
78.0
 50
288.80000000000001
 51
331.0
  0
LINE
  5
7B27
  8
2
  6
CENTER
 10
1054.897076325223
 20
1207.7150160000001
 30
0.0
 11
1054.897076325223
 21
1963.5530799999999
 31
0.0
  0
LINE
  5
7B28
  8
1
  6
CONTINUOUS
 10
1054.897076325223
 20
1869.5955379999989
 30
0.0
 11
1054.897076325223
 21
1889.595538
 31
0.0
  0
LINE
  5
7B29
  8
1
  6
CONTINUOUS
 10
1045.9970763252229
 20
1869.5955379999989
 30
0.0
 11
1054.897076325223
 21
1869.5955379999989
 31
0.0
  0
LINE
  5
7B2A
  8
1
  6
CONTINUOUS
 10
1147.197076325223
 20
1819.5955379999989
 30
0.0
 11
1259.897076325223
 21
1724.995537999999
 31
0.0
  0
LINE
  5
7B2B
  8
1
  6
CONTINUOUS
 10
1042.897076325223
 20
2742.608913999999
 30
0.0
 11
849.89707632522322
 21
2742.608913999999
 31
0.0
  0
LINE
  5
7B2C
  8
1
  6
CONTINUOUS
 10
1042.897076325223
 20
2712.6089139999999
 30
0.0
 11
819.89707632522334
 21
2712.6089139999999
 31
0.0
  0
LINE
  5
7B2D
  8
1
  6
CONTINUOUS
 10
849.89707632522322
 20
2905.8089140000002
 30
0.0
 11
1259.897076325223
 21
2905.8089140000002
 31
0.0
  0
LINE
  5
7B2E
  8
1
  6
CONTINUOUS
 10
832.89707632522322
 20
3119.6089139999999
 30
0.0
 11
832.89707632522322
 21
2935.608913999999
 31
0.0
  0
LINE
  5
7B2F
  8
1
  6
CONTINUOUS
 10
849.89707632522322
 20
2742.608913999999
 30
0.0
 11
849.89707632522322
 21
2905.8089140000002
 31
0.0
  0
LINE
  5
7B30
  8
1
  6
CONTINUOUS
 10
819.89707632522334
 20
2712.6089139999999
 30
0.0
 11
819.89707632522334
 21
3027.608913999999
 31
0.0
  0
LINE
  5
7B31
  8
1
  6
CONTINUOUS
 10
819.89707632522334
 20
3027.608913999999
 30
0.0
 11
832.89707632522322
 21
3027.608913999999
 31
0.0
  0
ARC
  5
7B32
  8
1
  6
CONTINUOUS
 10
852.89707632522345
 20
2935.608913999999
 30
0.0
 40
20.0
 50
180.0
 51
270.0
  0
ARC
  5
7B33
  8
1
  6
CONTINUOUS
 10
852.89707632522345
 20
3119.6089139999999
 30
0.0
 40
20.0
 50
90.0
 51
180.0
  0
LINE
  5
7B34
  8
1
  6
CONTINUOUS
 10
1054.897076325223
 20
3139.6089139999999
 30
0.0
 11
1054.897076325223
 21
2915.608913999999
 31
0.0
  0
LINE
  5
7B35
  8
1
  6
CONTINUOUS
 10
1259.897076325223
 20
2742.608913999999
 30
0.0
 11
1066.897076325223
 21
2742.608913999999
 31
0.0
  0
LINE
  5
7B36
  8
1
  6
CONTINUOUS
 10
1118.397076325223
 20
2634.1089139999999
 30
0.0
 11
991.39707632522334
 21
2634.1089139999999
 31
0.0
  0
LINE
  5
7B37
  8
1
  6
CONTINUOUS
 10
991.39707632522334
 20
2669.1089139999999
 30
0.0
 11
1118.397076325223
 21
2669.1089139999999
 31
0.0
  0
LINE
  5
7B38
  8
1
  6
CONTINUOUS
 10
1237.397076325223
 20
2905.6089139999999
 30
0.0
 11
872.39707632522345
 21
2905.6089139999999
 31
0.0
  0
LINE
  5
7B39
  8
1
  6
CONTINUOUS
 10
1042.897076325223
 20
2905.8089140000002
 30
0.0
 11
1042.897076325223
 21
2669.1089139999999
 31
0.0
  0
LINE
  5
7B3A
  8
1
  6
CONTINUOUS
 10
1066.897076325223
 20
2905.8089140000002
 30
0.0
 11
1066.897076325223
 21
2669.1089139999999
 31
0.0
  0
LINE
  5
7B3B
  8
1
  6
CONTINUOUS
 10
910.39707632522334
 20
2692.6089139999999
 30
0.0
 11
910.39707632522334
 21
2607.6089139999999
 31
0.0
  0
LINE
  5
7B3C
  8
1
  6
CONTINUOUS
 10
991.39707632522334
 20
2634.1089139999999
 30
0.0
 11
991.39707632522334
 21
2669.1089139999999
 31
0.0
  0
LINE
  5
7B3D
  8
1
  6
CONTINUOUS
 10
872.39707632522345
 20
2905.6089139999999
 30
0.0
 11
872.39707632522345
 21
2915.608913999999
 31
0.0
  0
LINE
  5
7B3E
  8
1
  6
CONTINUOUS
 10
1259.897076325223
 20
2742.608913999999
 30
0.0
 11
1259.897076325223
 21
2905.8089140000002
 31
0.0
  0
LINE
  5
7B3F
  8
1
  6
CONTINUOUS
 10
1118.397076325223
 20
2669.1089139999999
 30
0.0
 11
1118.397076325223
 21
2634.1089139999999
 31
0.0
  0
LINE
  5
7B40
  8
1
  6
CONTINUOUS
 10
1237.397076325223
 20
2905.6089139999999
 30
0.0
 11
1237.397076325223
 21
2915.608913999999
 31
0.0
  0
LINE
  5
7B41
  8
1
  6
CONTINUOUS
 10
872.39707632522345
 20
3148.6089139999999
 30
0.0
 11
1237.397076325223
 21
3148.6089139999999
 31
0.0
  0
LINE
  5
7B42
  8
1
  6
CONTINUOUS
 10
872.39707632522345
 20
3148.6089139999999
 30
0.0
 11
872.39707632522345
 21
3139.6089139999999
 31
0.0
  0
LINE
  5
7B43
  8
1
  6
CONTINUOUS
 10
1237.397076325223
 20
3148.6089139999999
 30
0.0
 11
1237.397076325223
 21
3139.6089139999999
 31
0.0
  0
LINE
  5
7B44
  8
2
  6
CENTER
 10
1578.897076325223
 20
1419.595538
 30
0.0
 11
1472.897076325223
 21
1419.595538
 31
0.0
  0
ARC
  5
7B45
  8
1
  6
CONTINUOUS
 10
1525.897076325223
 20
1419.595538
 30
0.0
 40
101.0
 50
322.89999999999992
 51
217.09999999999991
  0
CIRCLE
  5
7B46
  8
1
  6
CONTINUOUS
 10
1525.897076325223
 20
1419.595538
 30
0.0
 40
53.0
  0
LINE
  5
7B47
  8
1
  6
CONTINUOUS
 10
1639.897076325223
 20
1329.595538
 30
0.0
 11
1324.897076325223
 21
1329.595538
 31
0.0
  0
LINE
  5
7B48
  8
1
  6
CONTINUOUS
 10
1324.897076325223
 20
1309.595538
 30
0.0
 11
1324.897076325223
 21
1329.595538
 31
0.0
  0
LINE
  5
7B49
  8
1
  6
CONTINUOUS
 10
1433.9970763252229
 20
1329.595538
 30
0.0
 11
1445.397076325223
 21
1358.595538
 31
0.0
  0
LINE
  5
7B4A
  8
1
  6
CONTINUOUS
 10
1617.7970763252231
 20
1329.595538
 30
0.0
 11
1606.397076325223
 21
1358.595538
 31
0.0
  0
LINE
  5
7B4B
  8
2
  6
CENTER
 10
1525.897076325223
 20
1366.595538
 30
0.0
 11
1525.897076325223
 21
1472.595538
 31
0.0
  0
LINE
  5
7B4C
  8
1
  6
CONTINUOUS
 10
1640.397076325223
 20
1519.595538
 30
0.0
 11
1640.397076325223
 21
1309.595538
 31
0.0
  0
LINE
  5
7B4D
  8
1
  6
CONTINUOUS
 10
1639.897076325223
 20
1309.595538
 30
0.0
 11
1639.897076325223
 21
1329.595538
 31
0.0
  0
LINE
  5
7B4E
  8
1
  6
CONTINUOUS
 10
1669.897076325223
 20
1309.595538
 30
0.0
 11
1669.897076325223
 21
1239.595538
 31
0.0
  0
LINE
  5
7B4F
  8
1
  6
CONTINUOUS
 10
1379.897076325223
 20
1869.5955379999989
 30
0.0
 11
1379.897076325223
 21
1665.095538
 31
0.0
  0
LINE
  5
7B50
  8
1
  6
CONTINUOUS
 10
1359.897076325223
 20
1889.595538
 30
0.0
 11
1339.897076325223
 21
1869.5955379999989
 31
0.0
  0
LINE
  5
7B51
  8
1
  6
CONTINUOUS
 10
1369.897076325223
 20
1889.595538
 30
0.0
 11
1369.897076325223
 21
1869.5955379999989
 31
0.0
  0
LINE
  5
7B52
  8
1
  6
CONTINUOUS
 10
1369.897076325223
 20
1869.5955379999989
 30
0.0
 11
1379.897076325223
 21
1869.5955379999989
 31
0.0
  0
LINE
  5
7B53
  8
1
  6
CONTINUOUS
 10
1369.897076325223
 20
3139.6089139999999
 30
0.0
 11
1369.897076325223
 21
2915.608913999999
 31
0.0
  0
LINE
  5
7B54
  8
1
  6
CONTINUOUS
 10
1462.397076325223
 20
2669.1089139999999
 30
0.0
 11
1589.397076325223
 21
2669.1089139999999
 31
0.0
  0
LINE
  5
7B55
  8
1
  6
CONTINUOUS
 10
1589.397076325223
 20
2634.1089139999999
 30
0.0
 11
1462.397076325223
 21
2634.1089139999999
 31
0.0
  0
LINE
  5
7B56
  8
1
  6
CONTINUOUS
 10
1424.897076325223
 20
3001.1089139999999
 30
0.0
 11
1615.897076325223
 21
3001.1089139999999
 31
0.0
  0
LINE
  5
7B57
  8
1
  6
CONTINUOUS
 10
1424.897076325223
 20
2729.1089139999999
 30
0.0
 11
1615.897076325223
 21
2729.1089139999999
 31
0.0
  0
LINE
  5
7B58
  8
1
  6
CONTINUOUS
 10
1369.897076325223
 20
3027.608913999999
 30
0.0
 11
1669.897076325223
 21
3027.608913999999
 31
0.0
  0
LINE
  5
7B59
  8
1
  6
CONTINUOUS
 10
1424.897076325223
 20
2729.1089139999999
 30
0.0
 11
1424.897076325223
 21
3001.1089139999999
 31
0.0
  0
LINE
  5
7B5A
  8
1
  6
CONTINUOUS
 10
1462.397076325223
 20
2634.1089139999999
 30
0.0
 11
1462.397076325223
 21
2669.1089139999999
 31
0.0
  0
LINE
  5
7B5B
  8
1
  6
CONTINUOUS
 10
1615.897076325223
 20
3001.1089139999999
 30
0.0
 11
1615.897076325223
 21
2729.1089139999999
 31
0.0
  0
LINE
  5
7B5C
  8
1
  6
CONTINUOUS
 10
1669.897076325223
 20
3027.608913999999
 30
0.0
 11
1669.897076325223
 21
2712.6089139999999
 31
0.0
  0
LINE
  5
7B5D
  8
1
  6
CONTINUOUS
 10
1669.897076325223
 20
2712.6089139999999
 30
0.0
 11
1537.897076325223
 21
2712.6089139999999
 31
0.0
  0
LINE
  5
7B5E
  8
1
  6
CONTINUOUS
 10
1589.397076325223
 20
2669.1089139999999
 30
0.0
 11
1589.397076325223
 21
2634.1089139999999
 31
0.0
  0
LINE
  5
7B5F
  8
1
  6
CONTINUOUS
 10
1513.897076325223
 20
2634.1089139999999
 30
0.0
 11
1537.897076325223
 21
2634.1089139999999
 31
0.0
  0
LINE
  5
7B60
  8
1
  6
CONTINUOUS
 10
1537.897076325223
 20
2669.1089139999999
 30
0.0
 11
1537.897076325223
 21
2729.1089139999999
 31
0.0
  0
LINE
  5
7B61
  8
1
  6
CONTINUOUS
 10
1513.897076325223
 20
2669.1089139999999
 30
0.0
 11
1513.897076325223
 21
2729.1089139999999
 31
0.0
  0
LINE
  5
7B62
  8
1
  6
CONTINUOUS
 10
1640.397076325223
 20
2692.6089139999999
 30
0.0
 11
1640.397076325223
 21
2607.6089139999999
 31
0.0
  0
LINE
  5
7B63
  8
1
  6
CONTINUOUS
 10
2075.2034237228249
 20
1407.6955379999999
 30
0.0
 11
2149.2034237228258
 21
1407.6955379999999
 31
0.0
  0
LINE
  5
7B64
  8
1
  6
CONTINUOUS
 10
2075.2034237228249
 20
1431.6955379999999
 30
0.0
 11
2149.2034237228258
 21
1431.6955379999999
 31
0.0
  0
LINE
  5
7B65
  8
1
  6
CONTINUOUS
 10
2075.2034237228249
 20
1652.1955379999999
 30
0.0
 11
2216.2034237228249
 21
1652.1955379999999
 31
0.0
  0
LINE
  5
7B66
  8
1
  6
CONTINUOUS
 10
2075.2034237228249
 20
1627.1955379999999
 30
0.0
 11
2183.8034237228248
 21
1627.1955379999999
 31
0.0
  0
LINE
  5
7B67
  8
1
  6
CONTINUOUS
 10
2015.2034237228261
 20
1309.6955379999999
 30
0.0
 11
2015.2034237228261
 21
1869.5955379999989
 31
0.0
  0
LINE
  5
7B68
  8
1
  6
CONTINUOUS
 10
2100.2034237228249
 20
1309.6955379999999
 30
0.0
 11
2100.2034237228249
 21
1869.5955379999989
 31
0.0
  0
LINE
  5
7B69
  8
1
  6
CONTINUOUS
 10
2015.2034237228261
 20
1309.6955379999999
 30
0.0
 11
2100.2034237228249
 21
1309.6955379999999
 31
0.0
  0
LINE
  5
7B6A
  8
1
  6
CONTINUOUS
 10
2040.2034237228261
 20
1356.1955379999999
 30
0.0
 11
2075.2034237228249
 21
1356.1955379999999
 31
0.0
  0
LINE
  5
7B6B
  8
1
  6
CONTINUOUS
 10
2075.2034237228249
 20
1356.1955379999999
 30
0.0
 11
2075.2034237228249
 21
1483.1955379999999
 31
0.0
  0
LINE
  5
7B6C
  8
1
  6
CONTINUOUS
 10
2075.2034237228249
 20
1483.1955379999999
 30
0.0
 11
2040.2034237228261
 21
1483.1955379999999
 31
0.0
  0
LINE
  5
7B6D
  8
1
  6
CONTINUOUS
 10
2040.2034237228261
 20
1483.1955379999999
 30
0.0
 11
2040.2034237228261
 21
1356.1955379999999
 31
0.0
  0
LINE
  5
7B6E
  8
1
  6
CONTINUOUS
 10
2040.2034237228261
 20
1703.1955379999999
 30
0.0
 11
2040.2034237228261
 21
1576.1955379999999
 31
0.0
  0
LINE
  5
7B6F
  8
1
  6
CONTINUOUS
 10
2075.2034237228249
 20
1703.1955379999999
 30
0.0
 11
2040.2034237228261
 21
1703.1955379999999
 31
0.0
  0
LINE
  5
7B70
  8
1
  6
CONTINUOUS
 10
2075.2034237228249
 20
1576.1955379999999
 30
0.0
 11
2075.2034237228249
 21
1703.1955379999999
 31
0.0
  0
LINE
  5
7B71
  8
1
  6
CONTINUOUS
 10
2040.2034237228261
 20
1576.1955379999999
 30
0.0
 11
2075.2034237228249
 21
1576.1955379999999
 31
0.0
  0
LINE
  5
7B72
  8
1
  6
CONTINUOUS
 10
2015.2034237228261
 20
1869.5955379999989
 30
0.0
 11
2100.2034237228249
 21
1869.5955379999989
 31
0.0
  0
LINE
  5
7B73
  8
1
  6
CONTINUOUS
 10
2556.2034237228258
 20
1822.095538
 30
0.0
 11
2548.003423722826
 21
1822.095538
 31
0.0
  0
ARC
  5
7B74
  8
1
  6
CONTINUOUS
 10
2527.2034237228249
 20
1371.595538
 30
0.0
 40
20.0
 50
270.0
 51
0.0
  0
LINE
  5
7B75
  8
1
  6
CONTINUOUS
 10
2556.2034237228258
 20
1457.095538
 30
0.0
 11
2547.2034237228249
 21
1457.095538
 31
0.0
  0
LINE
  5
7B76
  8
1
  6
CONTINUOUS
 10
2302.2034237228249
 20
1889.595538
 30
0.0
 11
2568.2034237228258
 21
1889.595538
 31
0.0
  0
LINE
  5
7B77
  8
1
  6
CONTINUOUS
 10
2547.2034237228249
 20
1889.595538
 30
0.0
 11
2547.2034237228249
 21
1371.595538
 31
0.0
  0
LINE
  5
7B78
  8
1
  6
CONTINUOUS
 10
2323.2034237228258
 20
1371.595538
 30
0.0
 11
2323.2034237228258
 21
1889.595538
 31
0.0
  0
LINE
  5
7B79
  8
1
  6
CONTINUOUS
 10
2313.2034237228249
 20
1457.095538
 30
0.0
 11
2313.2034237228249
 21
1822.095538
 31
0.0
  0
LINE
  5
7B7A
  8
1
  6
CONTINUOUS
 10
2313.2034237228249
 20
1822.1955379999999
 30
0.0
 11
2313.2034237228249
 21
1309.595538
 31
0.0
  0
LINE
  5
7B7B
  8
1
  6
CONTINUOUS
 10
2149.2034237228258
 20
1600.595538
 30
0.0
 11
2149.2034237228258
 21
1309.595538
 31
0.0
  0
ARC
  5
7B7C
  8
1
  6
CONTINUOUS
 10
2343.2034237228258
 20
1371.595538
 30
0.0
 40
20.0
 50
180.0
 51
270.0
  0
LINE
  5
7B7D
  8
1
  6
CONTINUOUS
 10
2435.003423722826
 20
1309.595538
 30
0.0
 11
2120.003423722826
 21
1309.595538
 31
0.0
  0
LINE
  5
7B7E
  8
1
  6
CONTINUOUS
 10
2120.003423722826
 20
1239.595538
 30
0.0
 11
2435.003423722826
 21
1239.595538
 31
0.0
  0
LINE
  5
7B7F
  8
1
  6
CONTINUOUS
 10
2120.003423722826
 20
1309.595538
 30
0.0
 11
2120.003423722826
 21
1239.595538
 31
0.0
  0
LINE
  5
7B80
  8
1
  6
CONTINUOUS
 10
2313.2034237228249
 20
1457.095538
 30
0.0
 11
2322.4034237228252
 21
1457.095538
 31
0.0
  0
LINE
  5
7B81
  8
1
  6
CONTINUOUS
 10
2343.2034237228258
 20
1351.595538
 30
0.0
 11
2527.2034237228249
 21
1351.595538
 31
0.0
  0
LINE
  5
7B82
  8
1
  6
CONTINUOUS
 10
2435.003423722826
 20
1239.595538
 30
0.0
 11
2435.003423722826
 21
1309.595538
 31
0.0
  0
LINE
  5
7B83
  8
1
  6
CONTINUOUS
 10
2313.2034237228249
 20
1726.7955380000001
 30
0.0
 11
2149.2034237228258
 21
1600.595538
 31
0.0
  0
LINE
  5
7B84
  8
1
  6
CONTINUOUS
 10
2313.2034237228249
 20
1822.095538
 30
0.0
 11
2322.4034237228252
 21
1822.095538
 31
0.0
  0
LINE
  5
7B85
  8
1
  6
CONTINUOUS
 10
2352.2034237228249
 20
1869.5955379999989
 30
0.0
 11
2518.2034237228249
 21
1869.5955379999989
 31
0.0
  0
LINE
  5
7B86
  8
1
  6
CONTINUOUS
 10
2332.2034237228249
 20
1889.595538
 30
0.0
 11
2352.2034237228249
 21
1869.5955379999989
 31
0.0
  0
LINE
  5
7B87
  8
1
  6
CONTINUOUS
 10
2538.2034237228249
 20
1889.595538
 30
0.0
 11
2518.2034237228249
 21
1869.5955379999989
 31
0.0
  0
LINE
  5
7B88
  8
1
  6
CONTINUOUS
 10
2556.2034237228258
 20
1822.095538
 30
0.0
 11
2556.2034237228258
 21
1457.095538
 31
0.0
  0
LINE
  5
7B89
  8
4
  6
CONTINUOUS
 10
2775.0
 20
750.0
 30
0.0
 11
2775.0
 21
450.0
 31
0.0
  0
LINE
  5
7B8A
  8
4
  6
CONTINUOUS
 10
1725.0
 20
750.0
 30
0.0
 11
1725.0
 21
450.0
 31
0.0
  0
LINE
  5
7B8B
  8
4
  6
CONTINUOUS
 10
975.0
 20
750.0
 30
0.0
 11
975.0
 21
450.0
 31
0.0
  0
LINE
  5
7B8E
  8
4
  6
CONTINUOUS
 10
975.0
 20
450.0
 30
0.0
 11
2775.0
 21
450.0
 31
0.0
  0
LINE
  5
7B8F
  8
4
  6
CONTINUOUS
 10
975.0
 20
600.0
 30
0.0
 11
2775.0
 21
600.0
 31
0.0
  0
TEXT
  5
7B90
  8
4
  6
CONTINUOUS
 10
1032.753121
 20
647.31453899999985
 30
0.0
 40
75.0
  1
機器名称
  0
TEXT
  5
7B91
  8
4
  6
CONTINUOUS
 10
1029.387158999999
 20
482.46773499999989
 30
0.0
 40
75.0
  1
機器型番
  0
TEXT
  5
7B92
  8
4
  6
CONTINUOUS
 10
1766.518118
 20
633.85765300000003
 30
0.0
 40
65.0
  1
ミツヤニューマルチファン
  0
TEXT
  5
7B93
  8
4
  6
CONTINUOUS
 10
1779.9817430000001
 20
475.73937599999999
 30
0.0
 40
75.0
  1
NM#2-1
  0
TEXT
  5
7B95
  8
4
  6
CONTINUOUS
 10
1357.1786480000001
 20
3575.1432619999991
 30
0.0
 40
81.0
  1
床置ベット
  0
TEXT
  5
7B96
  8
4
  6
CONTINUOUS
 10
474.25139000000001
 20
3800.8214640000001
 30
0.0
 40
108.0
  1
ベルト駆動式片吸込片持多翼ファン
  0
LINE
  5
7B97
  8
4
  6
CONTINUOUS
 10
375.0
 20
3704.1131310000001
 30
0.0
 11
2775.0
 21
3704.1131310000001
 31
0.0
  0
LINE
  5
7B98
  8
4
  6
CONTINUOUS
 10
375.0
 20
4004.1131310000001
 30
0.0
 11
2775.0
 21
4004.1131310000001
 31
0.0
  0
LINE
  5
7B99
  8
4
  6
CONTINUOUS
 10
975.0
 20
750.0
 30
0.0
 11
2775.0
 21
750.0
 31
0.0
  0
LINE
  5
7B9A
  8
4
  6
CONTINUOUS
 10
375.0
 20
4004.1131310000001
 30
0.0
 11
375.0
 21
3704.1131310000001
 31
0.0
  0
TEXT
  5
7B9B
  8
4
  6
CONTINUOUS
 10
703.39039999999989
 20
3573.4792159999988
 30
0.0
 40
81.0
  1
左回転上向
  0
TEXT
  5
7B9C
  8
4
  6
CONTINUOUS
 10
2203.454338999999
 20
4059.091621999999
 30
0.0
 40
84.0
  1
No.
  0
TEXT
  5
7B9D
  8
4
  6
CONTINUOUS
 10
1966.944094
 20
3575.1432619999991
 30
0.0
 40
81.0
  1
縮尺：1/15
  0
LINE
  5
7B9E
  8
4
  6
CONTINUOUS
 10
2775.0
 20
4004.1131310000001
 30
0.0
 11
2775.0
 21
3704.1131310000001
 31
0.0
  0
LINE
  5
7BA0
  8
4
  6
CONTINUOUS
 10
2160.9261339999989
 20
4021.8953750000001
 30
0.0
 11
2160.9261339999989
 21
4179.978392
 31
0.0
  0
LINE
  5
7BA1
  8
4
  6
CONTINUOUS
 10
2160.9261339999989
 20
4179.978392
 30
0.0
 11
2775.0
 21
4179.978392
 31
0.0
  0
LINE
  5
7BA2
  8
4
  6
CONTINUOUS
 10
2775.0
 20
4179.978392
 30
0.0
 11
2775.0
 21
4021.8953750000001
 31
0.0
  0
LINE
  5
7BA3
  8
4
  6
CONTINUOUS
 10
2775.0
 20
4021.8953750000001
 30
0.0
 11
2160.9261339999989
 21
4021.8953750000001
 31
0.0
  0
DIMENSION
  5
7BBB
  8
3
  6
CONTINUOUS
  2
*D1
 10
1054.897076325223
 20
1114.66635
 30
0.0
 11
952.03993332522339
 21
1114.66635
 31
0.0
 70
   128
 13
819.89707632522334
 23
1239.595538
 33
0.0
 14
1054.897076325223
 24
1207.7150160000001
 34
0.0
1001
ACAD
1000
DSTYLE
1002
{
1070
   287
1070
     3
1070
   287
1070
     3
1070
    40
1040
15.0
1070
   143
1040
0.039
1070
   172
1070
     1
1070
   271
1070
     0
1070
   279
1070
     0
1070
   288
1070
     1
1002
}
  0
DIMENSION
  5
7BC7
  8
3
  6
CONTINUOUS
  2
*D2
 10
1669.897076325223
 20
1114.66635
 30
0.0
 11
1362.397076325223
 21
1152.16635
 31
0.0
 70
     0
 13
1054.897076325223
 23
1207.7150160000001
 33
0.0
 14
1669.897076325223
 24
1239.595538
 34
0.0
1001
ACAD
1000
DSTYLE
1002
{
1070
   287
1070
     4
1070
   287
1070
     4
1070
    40
1040
15.0
1070
    75
1070
     1
1070
   143
1040
0.039
1070
   172
1070
     1
1070
   271
1070
     0
1070
   279
1070
     1
1070
   288
1070
     1
1002
}
  0
DIMENSION
  5
7BED
  8
3
  6
CONTINUOUS
  2
*D3
 10
1369.897076325223
 20
1969.7754910000001
 30
0.0
 11
1204.088520325223
 21
1969.7754910000001
 31
0.0
 70
   128
 13
1054.897076325223
 23
1889.595538
 33
0.0
 14
1369.897076325223
 24
1889.595538
 34
0.0
1001
ACAD
1000
DSTYLE
1002
{
1070
   287
1070
     3
1070
   287
1070
     3
1070
    40
1040
15.0
1070
   143
1040
0.039
1070
   172
1070
     1
1070
   271
1070
     0
1070
   279
1070
     0
1070
   288
1070
     1
1002
}
  0
DIMENSION
  5
7BFA
  8
3
  6
CONTINUOUS
  2
*D4
 10
1054.897076325223
 20
2053.3795850000001
 30
0.0
 11
952.03993332522339
 21
2053.3795850000001
 31
0.0
 70
   128
 13
822.65188932522335
 23
1639.595538
 33
0.0
 14
1054.897076325223
 24
1889.595538
 34
0.0
1001
ACAD
1000
DSTYLE
1002
{
1070
   287
1070
     3
1070
   287
1070
     3
1070
    40
1040
15.0
1070
   143
1040
0.039
1070
   172
1070
     1
1070
   271
1070
     0
1070
   279
1070
     0
1070
   288
1070
     1
1002
}
  0
DIMENSION
  5
7C06
  8
3
  6
CONTINUOUS
  2
*D5
 10
1379.897076325223
 20
2053.3795850000001
 30
0.0
 11
1217.397076325223
 21
2090.8795850000001
 31
0.0
 70
     0
 13
1054.897076325223
 23
1889.595538
 33
0.0
 14
1379.897076325223
 24
1869.5955379999989
 34
0.0
1001
ACAD
1000
DSTYLE
1002
{
1070
   287
1070
     4
1070
   287
1070
     4
1070
    40
1040
15.0
1070
    75
1070
     1
1070
   143
1040
0.039
1070
   172
1070
     1
1070
   271
1070
     0
1070
   279
1070
     1
1070
   288
1070
     1
1002
}
  0
DIMENSION
  5
7C13
  8
3
  6
CONTINUOUS
  2
*D6
 10
1669.897076325223
 20
2476.7232570000001
 30
0.0
 11
1230.243037325223
 21
2476.7232570000001
 31
0.0
 70
   128
 13
819.89707632522334
 23
2712.6089139999999
 33
0.0
 14
1669.897076325223
 24
2712.6089139999999
 34
0.0
1001
ACAD
1000
DSTYLE
1002
{
1070
   287
1070
     3
1070
   287
1070
     3
1070
    40
1040
15.0
1070
   143
1040
0.039
1070
   172
1070
     1
1070
   271
1070
     0
1070
   279
1070
     0
1070
   288
1070
     1
1002
}
  0
DIMENSION
  5
7C20
  8
3
  6
CONTINUOUS
  2
*D7
 10
1803.0270683252229
 20
2712.6089139999999
 30
0.0
 11
1803.0270683252229
 21
2866.0048149999998
 31
0.0
 70
   128
 13
1669.897076325223
 23
3027.608913999999
 33
0.0
 14
1669.897076325223
 24
2712.6089139999999
 34
0.0
 50
90.0
1001
ACAD
1000
DSTYLE
1002
{
1070
   287
1070
     3
1070
   287
1070
     3
1070
    40
1040
15.0
1070
   143
1040
0.039
1070
   172
1070
     1
1070
   271
1070
     0
1070
   279
1070
     0
1070
   288
1070
     1
1002
}
  0
LINE
  5
7C21
  8
2
  6
CENTER
 10
1396.0515933252229
 20
3027.608913999999
 30
0.0
 11
793.46251132522343
 21
3027.608913999999
 31
0.0
  0
LINE
  5
7C22
  8
2
  6
CENTER
 10
2435.2034237228258
 20
1953.2717230000001
 30
0.0
 11
2435.2034237228258
 21
1193.3120260000001
 31
0.0
  0
DIMENSION
  5
7C2F
  8
3
  6
CONTINUOUS
  2
*D8
 10
2435.003423722826
 20
1135.8342070000001
 30
0.0
 11
2286.7265237228248
 21
1135.8342070000001
 31
0.0
 70
   128
 13
2120.003423722826
 23
1239.595538
 33
0.0
 14
2435.003423722826
 24
1239.595538
 34
0.0
1001
ACAD
1000
DSTYLE
1002
{
1070
   287
1070
     3
1070
   287
1070
     3
1070
    40
1040
15.0
1070
   143
1040
0.039
1070
   172
1070
     1
1070
   271
1070
     0
1070
   279
1070
     0
1070
   288
1070
     1
1002
}
  0
DIMENSION
  5
7C3C
  8
3
  6
CONTINUOUS
  2
*D9
 10
2547.2034237228249
 20
1948.3615119999999
 30
0.0
 11
2427.1319957228261
 21
1948.3615119999999
 31
0.0
 70
   128
 13
2323.2034237228258
 23
1889.595538
 33
0.0
 14
2547.2034237228249
 24
1889.595538
 34
0.0
1001
ACAD
1000
DSTYLE
1002
{
1070
   287
1070
     3
1070
   287
1070
     3
1070
    40
1040
15.0
1070
   143
1040
0.039
1070
   172
1070
     1
1070
   271
1070
     0
1070
   279
1070
     0
1070
   288
1070
     1
1002
}
  0
DIMENSION
  5
7C49
  8
3
  6
CONTINUOUS
  2
*D10
 10
2435.2034237228258
 20
2041.741473999999
 30
0.0
 11
2234.4174887228251
 21
2041.741473999999
 31
0.0
 70
   128
  1
MAX\P420
 13
2015.2034237228261
 23
1869.5955379999989
 33
0.0
 14
2435.2034237228258
 24
2029.8411169999999
 34
0.0
1001
ACAD
1000
DSTYLE
1002
{
1070
   287
1070
     3
1070
   287
1070
     3
1070
    40
1040
15.0
1070
   143
1040
0.039
1070
   172
1070
     1
1070
   271
1070
     0
1070
   279
1070
     0
1070
   288
1070
     1
1002
}
  0
DIMENSION
  5
7C57
  8
3
  6
CONTINUOUS
  2
*D11
 10
2556.2034237228258
 20
2041.741473999999
 30
0.0
 11
2490.7317987228248
 21
2039.648715999999
 31
0.0
 70
   128
 13
2435.2034237228258
 23
2029.8411169999999
 33
0.0
 14
2556.2034237228258
 24
1822.095538
 34
0.0
1001
ACAD
1000
DSTYLE
1002
{
1070
   287
1070
     4
1070
   287
1070
     4
1070
    40
1040
15.0
1070
    75
1070
     1
1070
   143
1040
0.039
1070
   172
1070
     1
1070
   271
1070
     0
1070
   279
1070
     1
1070
   288
1070
     1
1002
}
  0
LINE
  5
7C6F
  8
3
  6
CONTINUOUS
 10
2556.2034237228258
 20
1797.0955379999989
 30
0.0
 11
2580.905009722826
 21
1797.0955379999989
 31
0.0
  0
LINE
  5
7C72
  8
3
  6
CONTINUOUS
 10
2556.2034237228258
 20
1482.095538
 30
0.0
 11
2569.924101722826
 21
1482.095538
 31
0.0
  0
DIMENSION
  5
7C7F
  8
3
  6
CONTINUOUS
  2
*D12
 10
2673.144627722826
 20
1482.095538
 30
0.0
 11
2673.1446277228251
 21
1624.9254749999991
 31
0.0
 70
   128
 13
2556.2034237228258
 23
1797.0955379999989
 33
0.0
 14
2556.2034237228258
 24
1482.095538
 34
0.0
 50
90.0
1001
ACAD
1000
DSTYLE
1002
{
1070
   287
1070
     3
1070
   287
1070
     3
1070
     3
1000
φ<>
1070
    40
1040
15.0
1070
   143
1040
0.039
1070
   172
1070
     1
1070
   271
1070
     0
1070
   279
1070
     0
1070
   288
1070
     1
1002
}
  0
LINE
  5
7C80
  8
2
  6
CENTER
 10
1054.897076325223
 20
2548.3760349999998
 30
0.0
 11
1054.897076325223
 21
3242.5442879999991
 31
0.0
  0
LINE
  5
7C81
  8
2
  6
CENTER
 10
1461.103551325223
 20
1639.595538
 30
0.0
 11
756.33709732522334
 21
1639.595538
 31
0.0
  0
DIMENSION
  5
7CF7
  8
3
  2
*D13
 10
714.58985877834334
 20
1639.595538
 30
0.0
 11
714.58985877834311
 21
1786.738395142856
 31
0.0
 70
   128
 13
1033.397076325223
 23
1889.595538
 33
0.0
 14
756.33709732522334
 24
1639.595538
 34
0.0
 50
90.0
1001
ACAD
1000
DSTYLE
1002
{
1070
   287
1070
     3
1070
   287
1070
     3
1070
    40
1040
15.0
1070
   143
1040
0.039
1070
   172
1070
     1
1070
   271
1070
     0
1070
   279
1070
     0
1070
   288
1070
     1
1002
}
  0
DIMENSION
  5
7D03
  8
3
  2
*D14
 10
714.58985877834311
 20
1239.595538
 30
0.0
 11
677.08985877834289
 21
1439.595538
 31
0.0
 70
     0
 13
756.33709732522334
 23
1639.595538
 33
0.0
 14
819.89707632522334
 24
1239.595538
 34
0.0
 50
90.0
1001
ACAD
1000
DSTYLE
1002
{
1070
   287
1070
     4
1070
   287
1070
     4
1070
    40
1040
15.0
1070
    75
1070
     1
1070
   143
1040
0.039
1070
   172
1070
     1
1070
   271
1070
     0
1070
   279
1070
     1
1070
   288
1070
     1
1002
}
  0
DIMENSION
  5
7D10
  8
3
  2
*D15
 10
623.22404482619106
 20
1239.595538
 30
0.0
 11
623.22404482619095
 21
1576.073327110694
 31
0.0
 70
   128
 13
1025.897076325223
 23
1889.595538
 33
0.0
 14
819.89707632522334
 24
1239.595538
 34
0.0
 50
90.0
1001
ACAD
1000
DSTYLE
1002
{
1070
   287
1070
     3
1070
   287
1070
     3
1070
    40
1040
15.0
1070
   143
1040
0.039
1070
   172
1070
     1
1070
   271
1070
     0
1070
   279
1070
     0
1070
   288
1070
     1
1002
}
  0
ENDSEC
  0
EOF
