  0
SECTION
  2
HEADER
  9
$ACADVER
  1
AC1009
  9
$INSBASE
 10
0.0
 20
0.0
 30
0.0
  9
$EXTMIN
 10
-588.73151399999995
 20
403.08524299999999
 30
0.0
  9
$EXTMAX
 10
1811.268485999999
 20
4133.0636359999999
 30
0.0
  9
$LIMMIN
 10
0.0
 20
0.0
  9
$LIMMAX
 10
297.0
 20
210.0
  9
$ORTHOMODE
 70
     0
  9
$REGENMODE
 70
     1
  9
$FILLMODE
 70
     0
  9
$QTEXTMODE
 70
     0
  9
$MIRRTEXT
 70
     1
  9
$DRAGMODE
 70
     2
  9
$LTSCALE
 40
100.0
  9
$OSMODE
 70
    37
  9
$ATTMODE
 70
     1
  9
$TEXTSIZE
 40
180.0
  9
$TRACEWID
 40
0.05
  9
$TEXTSTYLE
  7
STANDARD
  9
$CLAYER
  8
3
  9
$CELTYPE
  6
BYLAYER
  9
$CECOLOR
 62
   256
  9
$DIMSCALE
 40
15.0
  9
$DIMASZ
 40
2.0
  9
$DIMEXO
 40
0.5
  9
$DIMDLI
 40
10.0
  9
$DIMRND
 40
0.0
  9
$DIMDLE
 40
0.0
  9
$DIMEXE
 40
1.0
  9
$DIMTP
 40
1.0
  9
$DIMTM
 40
1.0
  9
$DIMTXT
 40
3.0
  9
$DIMCEN
 40
0.0
  9
$DIMTSZ
 40
0.0
  9
$DIMTOL
 70
     0
  9
$DIMLIM
 70
     0
  9
$DIMTIH
 70
     0
  9
$DIMTOH
 70
     0
  9
$DIMSE1
 70
     0
  9
$DIMSE2
 70
     0
  9
$DIMTAD
 70
     1
  9
$DIMZIN
 70
     8
  9
$DIMBLK
  1

  9
$DIMASO
 70
     1
  9
$DIMSHO
 70
     1
  9
$DIMPOST
  1

  9
$DIMAPOST
  1

  9
$DIMALT
 70
     0
  9
$DIMALTD
 70
     2
  9
$DIMALTF
 40
0.039
  9
$DIMLFAC
 40
1.0
  9
$DIMTOFL
 70
     1
  9
$DIMTVP
 40
0.0
  9
$DIMTIX
 70
     0
  9
$DIMSOXD
 70
     0
  9
$DIMSAH
 70
     1
  9
$DIMBLK1
  1
OPEN
  9
$DIMBLK2
  1
OPEN
  9
$DIMSTYLE
  2
IGA
  9
$DIMCLRD
 70
     0
  9
$DIMCLRE
 70
     0
  9
$DIMCLRT
 70
     0
  9
$DIMTFAC
 40
10.0
  9
$DIMGAP
 40
1.0
  9
$LUNITS
 70
     2
  9
$LUPREC
 70
     3
  9
$SKETCHINC
 40
0.1
  9
$FILLETRAD
 40
50.0
  9
$AUNITS
 70
     0
  9
$AUPREC
 70
     0
  9
$MENU
  1
acad
  9
$ELEVATION
 40
0.0
  9
$PELEVATION
 40
0.0
  9
$THICKNESS
 40
0.0
  9
$LIMCHECK
 70
     0
  9
$BLIPMODE
 70
     0
  9
$CHAMFERA
 40
0.5
  9
$CHAMFERB
 40
0.5
  9
$SKPOLY
 70
     0
  9
$TDCREATE
 40
2450745.4537030091
  9
$TDUPDATE
 40
2454953.865811157
  9
$TDINDWG
 40
0.0079985301
  9
$TDUSRTIMER
 40
0.0079985301
  9
$USRTIMER
 70
     1
  9
$ANGBASE
 50
0.0
  9
$ANGDIR
 70
     0
  9
$PDMODE
 70
     0
  9
$PDSIZE
 40
0.0
  9
$PLINEWID
 40
0.0
  9
$COORDS
 70
     1
  9
$SPLFRAME
 70
     0
  9
$SPLINETYPE
 70
     6
  9
$SPLINESEGS
 70
     8
  9
$ATTDIA
 70
     0
  9
$ATTREQ
 70
     1
  9
$HANDLING
 70
 10241
  9
$HANDSEED
  5
7F4A
  9
$SURFTAB1
 70
     6
  9
$SURFTAB2
 70
     6
  9
$SURFTYPE
 70
     6
  9
$SURFU
 70
     6
  9
$SURFV
 70
     6
  9
$UCSNAME
  2

  9
$UCSORG
 10
0.0
 20
0.0
 30
0.0
  9
$UCSXDIR
 10
1.0
 20
0.0
 30
0.0
  9
$UCSYDIR
 10
0.0
 20
1.0
 30
0.0
  9
$PUCSNAME
  2

  9
$PUCSORG
 10
0.0
 20
0.0
 30
0.0
  9
$PUCSXDIR
 10
1.0
 20
0.0
 30
0.0
  9
$PUCSYDIR
 10
0.0
 20
1.0
 30
0.0
  9
$USERI1
 70
     0
  9
$USERI2
 70
     0
  9
$USERI3
 70
     0
  9
$USERI4
 70
     0
  9
$USERI5
 70
     0
  9
$USERR1
 40
0.0
  9
$USERR2
 40
0.0
  9
$USERR3
 40
0.0
  9
$USERR4
 40
0.0
  9
$USERR5
 40
0.0
  9
$WORLDVIEW
 70
     1
  9
$SHADEDGE
 70
     3
  9
$SHADEDIF
 70
    70
  9
$TILEMODE
 70
     1
  9
$MAXACTVP
 70
    16
  9
$PLIMCHECK
 70
     0
  9
$PEXTMIN
 10
1.0000000000000000E+020
 20
1.0000000000000000E+020
 30
1.0000000000000000E+020
  9
$PEXTMAX
 10
-1.0000000000000000E+020
 20
-1.0000000000000000E+020
 30
-1.0000000000000000E+020
  9
$PLIMMIN
 10
0.0
 20
0.0
  9
$PLIMMAX
 10
12.0
 20
9.0
  9
$UNITMODE
 70
     0
  9
$VISRETAIN
 70
     0
  9
$PLINEGEN
 70
     0
  9
$PSLTSCALE
 70
     1
  0
ENDSEC
  0
SECTION
  2
TABLES
  0
TABLE
  2
VPORT
 70
     2
  0
VPORT
  2
*ACTIVE
 70
     0
 10
0.0
 20
0.0
 11
1.0
 21
1.0
 12
3396.1297909054588
 22
2934.3170833457571
 13
0.0
 23
0.0
 14
10.0
 24
10.0
 15
10.0
 25
10.0
 16
0.0
 26
0.0
 36
1.0
 17
0.0
 27
0.0
 37
0.0
 40
5790.6463253138718
 41
1.5051150895140659
 42
50.0
 43
0.0
 44
0.0
 50
0.0
 51
0.0
 71
     0
 72
   100
 73
     1
 74
     0
 75
     0
 76
     1
 77
     0
 78
     0
  0
ENDTAB
  0
TABLE
  2
LTYPE
 70
     2
  0
LTYPE
  2
CONTINUOUS
 70
     0
  3
Solid line
 72
    65
 73
     0
 40
0.0
  0
LTYPE
  2
CENTER
 70
     0
  3
____ _ ____ _ ____ _ ____ _ ____ _ ____ _ ____ 
 72
    65
 73
     4
 40
2.0
 49
1.25
 49
-0.25
 49
0.25
 49
-0.25
  0
ENDTAB
  0
TABLE
  2
LAYER
 70
     6
  0
LAYER
  2
0
 70
     0
 62
    -7
  6
CONTINUOUS
  0
LAYER
  2
3
 70
     0
 62
     2
  6
CONTINUOUS
  0
LAYER
  2
2
 70
     0
 62
     3
  6
CENTER
  0
LAYER
  2
1
 70
     0
 62
     4
  6
CONTINUOUS
  0
LAYER
  2
4
 70
     0
 62
     7
  6
CONTINUOUS
  0
LAYER
  2
DEFPOINTS
 70
     0
 62
     7
  6
CONTINUOUS
  0
ENDTAB
  0
TABLE
  2
STYLE
 70
     1
  0
STYLE
  2
STANDARD
 70
     0
 40
0.0
 41
1.0
 50
0.0
 71
     0
 42
180.0
  3
simplex.shx
  4
extfont.shx
  0
ENDTAB
  0
TABLE
  2
VIEW
 70
     0
  0
ENDTAB
  0
TABLE
  2
UCS
 70
     0
  0
ENDTAB
  0
TABLE
  2
APPID
 70
     1
  0
APPID
  2
ACAD
 70
     0
  0
ENDTAB
  0
TABLE
  2
DIMSTYLE
 70
     1
  0
DIMSTYLE
  2
IGA
 70
     0
  3

  4

  5

  6
OPEN
  7
OPEN
 40
2.0
 41
2.0
 42
0.5
 43
10.0
 44
1.0
 45
0.0
 46
0.0
 47
1.0
 48
1.0
140
3.0
141
0.0
142
0.0
143
0.03937
144
1.0
145
0.0
146
10.0
147
1.0
 71
     0
 72
     0
 73
     0
 74
     0
 75
     0
 76
     0
 77
     1
 78
     8
170
     0
171
     2
172
     0
173
     1
174
     0
175
     0
176
     0
177
     0
178
     0
  0
ENDTAB
  0
ENDSEC
  0
SECTION
  2
BLOCKS
  0
BLOCK
  8
0
  2
$MODEL_SPACE
 70
     0
 10
0.0
 20
0.0
 30
0.0
  3
$MODEL_SPACE
  1

  0
ENDBLK
  5
1B
  8
0
  0
BLOCK
 67
     1
  8
0
  2
$PAPER_SPACE
 70
     0
 10
0.0
 20
0.0
 30
0.0
  3
$PAPER_SPACE
  1

  0
ENDBLK
  5
18
 67
     1
  8
0
  0
BLOCK
  8
0
  2
_OPEN
 70
     0
 10
0.0
 20
0.0
 30
0.0
  3
_OPEN
  1

  0
LINE
  5
7B1F
  8
0
  6
BYBLOCK
 62
     0
 10
-1.0
 20
0.166667
 30
0.0
 11
0.0
 21
0.0
 31
0.0
  0
LINE
  5
7B20
  8
0
  6
BYBLOCK
 62
     0
 10
0.0
 20
0.0
 30
0.0
 11
-1.0
 21
-0.166667
 31
0.0
  0
LINE
  5
7B21
  8
0
  6
BYBLOCK
 62
     0
 10
0.0
 20
0.0
 30
0.0
 11
-1.0
 21
0.0
 31
0.0
  0
ENDBLK
  5
7B22
  8
0
  0
BLOCK
  8
0
  2
*D1
 70
     1
 10
0.0
 20
0.0
 30
0.0
  3
*D1
  1

  0
LINE
  5
7EB3
  8
3
  6
CONTINUOUS
 62
     0
 10
-183.81277899999981
 20
2016.5980404509951
 30
0.0
 11
-265.35448699999972
 21
2016.5980404509951
 31
0.0
  0
LINE
  5
7EB4
  8
3
  6
CONTINUOUS
 62
     0
 10
-183.81277899999981
 20
1701.5980404509951
 30
0.0
 11
-265.35448699999972
 21
1701.5980404509951
 31
0.0
  0
LINE
  5
7EB5
  8
3
  6
CONTINUOUS
 62
     0
 10
-250.35448699999969
 20
1986.5980404509939
 30
0.0
 11
-250.35448699999981
 21
1731.5980404509951
 31
0.0
  0
INSERT
  5
7EB6
  8
3
  6
CONTINUOUS
 62
     0
  2
_OPEN
 10
-250.35448699999969
 20
2016.5980404509951
 30
0.0
 41
30.0
 42
30.0
 43
30.0
 50
90.0
  0
INSERT
  5
7EB7
  8
3
  6
CONTINUOUS
 62
     0
  2
_OPEN
 10
-250.35448699999981
 20
1701.5980404509951
 30
0.0
 41
30.0
 42
30.0
 43
30.0
 50
270.0
  0
TEXT
  8
3
  40
45
  5
7F3A
  62
0
  72
0
  71
0
 10
-377.854
 20
1773.19
 30
0.000000
  1
315
  0
POINT
  5
7EB9
  8
DEFPOINTS
  6
CONTINUOUS
 62
     0
 10
-176.31277899999981
 20
2016.5980404509951
 30
0.0
  0
POINT
  5
7EBA
  8
DEFPOINTS
  6
CONTINUOUS
 62
     0
 10
-176.31277899999981
 20
1701.5980404509951
 30
0.0
  0
POINT
  5
7EBB
  8
DEFPOINTS
  6
CONTINUOUS
 62
     0
 10
-250.35448699999981
 20
1701.5980404509951
 30
0.0
  0
ENDBLK
  5
7D3B
  8
0
  0
BLOCK
  8
0
  2
*D2
 70
     1
 10
0.0
 20
0.0
 30
0.0
  3
*D2
  1

  0
LINE
  5
7EBC
  8
3
  6
CONTINUOUS
 62
     0
 10
-163.81277899999981
 20
2026.5980404509939
 30
0.0
 11
-349.99952034895989
 21
2026.5980404509939
 31
0.0
  0
LINE
  5
7EBD
  8
3
  6
CONTINUOUS
 62
     0
 10
-183.81277899999981
 20
1701.5980404509951
 30
0.0
 11
-349.99952034895989
 21
1701.5980404509951
 31
0.0
  0
LINE
  5
7EBE
  8
3
  6
CONTINUOUS
 62
     0
 10
-334.99952034895978
 20
1996.5980404509939
 30
0.0
 11
-334.99952034895989
 21
1731.5980404509951
 31
0.0
  0
INSERT
  5
7EBF
  8
3
  6
CONTINUOUS
 62
     0
  2
_OPEN
 10
-334.99952034895978
 20
2026.5980404509939
 30
0.0
 41
30.0
 42
30.0
 43
30.0
 50
90.0
  0
INSERT
  5
7EC0
  8
3
  6
CONTINUOUS
 62
     0
  2
_OPEN
 10
-334.99952034895989
 20
1701.5980404509951
 30
0.0
 41
30.0
 42
30.0
 43
30.0
 50
270.0
  0
TEXT
  8
3
  40
45
  5
7F3B
  62
0
  72
0
  71
0
 10
-462.500
 20
1777.60
 30
0.000000
  1
325
  0
POINT
  5
7EC2
  8
DEFPOINTS
  6
CONTINUOUS
 62
     0
 10
-156.31277899999981
 20
2026.5980404509939
 30
0.0
  0
POINT
  5
7EC3
  8
DEFPOINTS
  6
CONTINUOUS
 62
     0
 10
-176.31277899999981
 20
1701.5980404509951
 30
0.0
  0
POINT
  5
7EC4
  8
DEFPOINTS
  6
CONTINUOUS
 62
     0
 10
-334.99952034895989
 20
1701.5980404509951
 30
0.0
  0
ENDBLK
  5
7D9E
  8
0
  0
BLOCK
  8
0
  2
*D3
 70
     1
 10
0.0
 20
0.0
 30
0.0
  3
*D3
  1

  0
LINE
  5
7EC5
  8
3
  6
CONTINUOUS
 62
     0
 10
-183.81277899999981
 20
1701.5980404509951
 30
0.0
 11
-349.99952034896012
 21
1701.5980404509951
 31
0.0
  0
LINE
  5
7EC6
  8
3
  6
CONTINUOUS
 62
     0
 10
-168.81277899999981
 20
1301.5980404509951
 30
0.0
 11
-349.99952034896017
 21
1301.5980404509951
 31
0.0
  0
LINE
  5
7EC7
  8
3
  6
CONTINUOUS
 62
     0
 10
-334.99952034896012
 20
1671.5980404509951
 30
0.0
 11
-334.99952034896017
 21
1331.5980404509951
 31
0.0
  0
INSERT
  5
7EC8
  8
3
  6
CONTINUOUS
 62
     0
  2
_OPEN
 10
-334.99952034896012
 20
1701.5980404509951
 30
0.0
 41
30.0
 42
30.0
 43
30.0
 50
90.0
  0
INSERT
  5
7EC9
  8
3
  6
CONTINUOUS
 62
     0
  2
_OPEN
 10
-334.99952034896017
 20
1301.5980404509951
 30
0.0
 41
30.0
 42
30.0
 43
30.0
 50
270.0
  0
TEXT
  8
3
  40
45
  5
7F3C
  62
0
  72
0
  71
0
 10
-462.500
 20
1421.95
 30
0.000000
  1
400
  0
POINT
  5
7ECB
  8
DEFPOINTS
  6
CONTINUOUS
 62
     0
 10
-176.31277899999981
 20
1701.5980404509951
 30
0.0
  0
POINT
  5
7ECC
  8
DEFPOINTS
  6
CONTINUOUS
 62
     0
 10
-161.31277899999981
 20
1301.5980404509951
 30
0.0
  0
POINT
  5
7ECD
  8
DEFPOINTS
  6
CONTINUOUS
 62
     0
 10
-334.99952034896017
 20
1301.5980404509951
 30
0.0
  0
ENDBLK
  5
7DB4
  8
0
  0
BLOCK
  8
0
  2
*D4
 70
     1
 10
0.0
 20
0.0
 30
0.0
  3
*D4
  1

  0
LINE
  5
7ECE
  8
3
  6
CONTINUOUS
 62
     0
 10
-176.31277899999981
 20
2045.5980404509951
 30
0.0
 11
-176.31277899999981
 21
2107.5472864509939
 31
0.0
  0
LINE
  5
7ECF
  8
3
  6
CONTINUOUS
 62
     0
 10
73.687221000000136
 20
2033.0105064509939
 30
0.0
 11
73.687221000000136
 21
2107.5472864509939
 31
0.0
  0
LINE
  5
7ED0
  8
3
  6
CONTINUOUS
 62
     0
 10
-146.31277899999981
 20
2092.5472864509952
 30
0.0
 11
43.687221000000129
 21
2092.5472864509952
 31
0.0
  0
INSERT
  5
7ED1
  8
3
  6
CONTINUOUS
 62
     0
  2
_OPEN
 10
-176.31277899999981
 20
2092.5472864509952
 30
0.0
 41
30.0
 42
30.0
 43
30.0
 50
180.0
  0
INSERT
  5
7ED2
  8
3
  6
CONTINUOUS
 62
     0
  2
_OPEN
 10
73.687221000000136
 20
2092.5472864509952
 30
0.0
 41
30.0
 42
30.0
 43
30.0
  0
TEXT
  8
3
  40
45
  5
7F3D
  62
0
  72
0
  71
0
 10
-142.219
 20
2050.40
 30
0.000000
  1
250
  0
POINT
  5
7ED4
  8
DEFPOINTS
  6
CONTINUOUS
 62
     0
 10
-176.31277899999981
 20
2038.0980404509939
 30
0.0
  0
POINT
  5
7ED5
  8
DEFPOINTS
  6
CONTINUOUS
 62
     0
 10
73.687221000000136
 20
2025.5105064509951
 30
0.0
  0
POINT
  5
7ED6
  8
DEFPOINTS
  6
CONTINUOUS
 62
     0
 10
73.687221000000136
 20
2092.5472864509952
 30
0.0
  0
ENDBLK
  5
7D1A
  8
0
  0
BLOCK
  8
0
  2
*D5
 70
     1
 10
0.0
 20
0.0
 30
0.0
  3
*D5
  1

  0
LINE
  5
7ED7
  8
3
  6
CONTINUOUS
 62
     0
 10
73.687221000000136
 20
2033.0105064509939
 30
0.0
 11
73.687221000000136
 21
2107.5472864509939
 31
0.0
  0
LINE
  5
7ED8
  8
3
  6
CONTINUOUS
 62
     0
 10
347.68722100000008
 20
1709.0980404509951
 30
0.0
 11
347.68722100000008
 21
2107.5472864509939
 31
0.0
  0
LINE
  5
7ED9
  8
3
  6
CONTINUOUS
 62
     0
 10
103.68722100000009
 20
2092.5472864509952
 30
0.0
 11
317.68722100000008
 21
2092.5472864509952
 31
0.0
  0
INSERT
  5
7EDA
  8
3
  6
CONTINUOUS
 62
     0
  2
_OPEN
 10
73.687221000000136
 20
2092.5472864509952
 30
0.0
 41
30.0
 42
30.0
 43
30.0
 50
180.0
  0
INSERT
  5
7EDB
  8
3
  6
CONTINUOUS
 62
     0
  2
_OPEN
 10
347.68722100000008
 20
2092.5472864509952
 30
0.0
 41
30.0
 42
30.0
 43
30.0
  0
TEXT
  8
3
  40
45
  5
7F3E
  62
0
  72
0
  71
0
 10
120.687
 20
2050.40
 30
0.000000
  1
274
  0
POINT
  5
7EDD
  8
DEFPOINTS
  6
CONTINUOUS
 62
     0
 10
73.687221000000136
 20
2025.5105064509951
 30
0.0
  0
POINT
  5
7EDE
  8
DEFPOINTS
  6
CONTINUOUS
 62
     0
 10
347.68722100000008
 20
1701.5980404509951
 30
0.0
  0
POINT
  5
7EDF
  8
DEFPOINTS
  6
CONTINUOUS
 62
     0
 10
347.68722100000008
 20
2092.5472864509952
 30
0.0
  0
ENDBLK
  5
7DDC
  8
0
  0
BLOCK
  8
0
  2
*D6
 70
     1
 10
0.0
 20
0.0
 30
0.0
  3
*D6
  1

  0
LINE
  5
7EE0
  8
3
  6
CONTINUOUS
 62
     0
 10
-161.31277899999989
 20
2674.3121477787981
 30
0.0
 11
-161.31277899999989
 21
2488.4964537787978
 31
0.0
  0
LINE
  5
7EE1
  8
3
  6
CONTINUOUS
 62
     0
 10
688.68722099999991
 20
2674.3121477787981
 30
0.0
 11
688.68722099999991
 21
2488.4964537787978
 31
0.0
  0
LINE
  5
7EE2
  8
3
  6
CONTINUOUS
 62
     0
 10
-131.31277899999989
 20
2503.4964537787978
 30
0.0
 11
658.68722100000002
 21
2503.4964537787978
 31
0.0
  0
INSERT
  5
7EE3
  8
3
  6
CONTINUOUS
 62
     0
  2
_OPEN
 10
-161.31277899999989
 20
2503.4964537787978
 30
0.0
 41
30.0
 42
30.0
 43
30.0
 50
180.0
  0
INSERT
  5
7EE4
  8
3
  6
CONTINUOUS
 62
     0
  2
_OPEN
 10
688.68722099999991
 20
2503.4964537787978
 30
0.0
 41
30.0
 42
30.0
 43
30.0
  0
TEXT
  8
3
  40
45
  5
7F3F
  62
0
  72
0
  71
0
 10
173.030
 20
2461.35
 30
0.000000
  1
850
  0
POINT
  5
7EE6
  8
DEFPOINTS
  6
CONTINUOUS
 62
     0
 10
-161.31277899999989
 20
2681.8121477787981
 30
0.0
  0
POINT
  5
7EE7
  8
DEFPOINTS
  6
CONTINUOUS
 62
     0
 10
688.68722099999991
 20
2681.8121477787981
 30
0.0
  0
POINT
  5
7EE8
  8
DEFPOINTS
  6
CONTINUOUS
 62
     0
 10
688.68722099999991
 20
2503.4964537787978
 30
0.0
  0
ENDBLK
  5
7D04
  8
0
  0
BLOCK
  8
0
  2
*D7
 70
     1
 10
0.0
 20
0.0
 30
0.0
  3
*D7
  1

  0
LINE
  5
7EE9
  8
3
  6
CONTINUOUS
 62
     0
 10
696.18722100000002
 20
2996.8121477787981
 30
0.0
 11
814.2487550000003
 21
2996.8121477787981
 31
0.0
  0
LINE
  5
7EEA
  8
3
  6
CONTINUOUS
 62
     0
 10
696.18722100000002
 20
2681.8121477787981
 30
0.0
 11
814.2487550000003
 21
2681.8121477787981
 31
0.0
  0
LINE
  5
7EEB
  8
3
  6
CONTINUOUS
 62
     0
 10
799.24875500000041
 20
2966.8121477787981
 30
0.0
 11
799.2487550000003
 21
2711.8121477787981
 31
0.0
  0
INSERT
  5
7EEC
  8
3
  6
CONTINUOUS
 62
     0
  2
_OPEN
 10
799.24875500000041
 20
2996.8121477787981
 30
0.0
 41
30.0
 42
30.0
 43
30.0
 50
90.0
  0
INSERT
  5
7EED
  8
3
  6
CONTINUOUS
 62
     0
  2
_OPEN
 10
799.2487550000003
 20
2681.8121477787981
 30
0.0
 41
30.0
 42
30.0
 43
30.0
 50
270.0
  0
TEXT
  8
3
  40
45
  5
7F40
  62
0
  72
0
  71
0
 10
671.749
 20
2750.53
 30
0.000000
  1
315
  0
POINT
  5
7EEF
  8
DEFPOINTS
  6
CONTINUOUS
 62
     0
 10
688.68722099999991
 20
2996.8121477787981
 30
0.0
  0
POINT
  5
7EF0
  8
DEFPOINTS
  6
CONTINUOUS
 62
     0
 10
688.68722099999991
 20
2681.8121477787981
 30
0.0
  0
POINT
  5
7EF1
  8
DEFPOINTS
  6
CONTINUOUS
 62
     0
 10
799.2487550000003
 20
2681.8121477787981
 30
0.0
  0
ENDBLK
  5
7CF9
  8
0
  0
BLOCK
  8
0
  2
*D8
 70
     1
 10
0.0
 20
0.0
 30
0.0
  3
*D8
  1

  0
LINE
  5
7EF2
  8
3
  6
CONTINUOUS
 62
     0
 10
1389.92301
 20
2024.0980404509939
 30
0.0
 11
1389.92301
 21
2087.1157146978849
 31
0.0
  0
LINE
  5
7EF3
  8
3
  6
CONTINUOUS
 62
     0
 10
1613.9230099999991
 20
2024.0980404509939
 30
0.0
 11
1613.9230099999991
 21
2087.1157146978849
 31
0.0
  0
LINE
  5
7EF4
  8
3
  6
CONTINUOUS
 62
     0
 10
1419.9230099999991
 20
2072.1157146978849
 30
0.0
 11
1583.92301
 21
2072.1157146978849
 31
0.0
  0
INSERT
  5
7EF5
  8
3
  6
CONTINUOUS
 62
     0
  2
_OPEN
 10
1389.92301
 20
2072.1157146978849
 30
0.0
 41
30.0
 42
30.0
 43
30.0
 50
180.0
  0
INSERT
  5
7EF6
  8
3
  6
CONTINUOUS
 62
     0
  2
_OPEN
 10
1613.9230099999991
 20
2072.1157146978849
 30
0.0
 41
30.0
 42
30.0
 43
30.0
  0
TEXT
  8
3
  40
45
  5
7F41
  62
0
  72
0
  71
0
 10
1403.85
 20
2029.97
 30
0.000000
  1
224
  0
POINT
  5
7EF8
  8
DEFPOINTS
  6
CONTINUOUS
 62
     0
 10
1389.92301
 20
2016.5980404509951
 30
0.0
  0
POINT
  5
7EF9
  8
DEFPOINTS
  6
CONTINUOUS
 62
     0
 10
1613.9230099999991
 20
2016.5980404509951
 30
0.0
  0
POINT
  5
7EFA
  8
DEFPOINTS
  6
CONTINUOUS
 62
     0
 10
1613.9230099999991
 20
2072.1157146978849
 30
0.0
  0
ENDBLK
  5
7D7D
  8
0
  0
BLOCK
  8
0
  2
*D9
 70
     1
 10
0.0
 20
0.0
 30
0.0
  3
*D9
  1

  0
LINE
  5
7EFB
  8
3
  6
CONTINUOUS
 62
     0
 10
1081.92301
 20
1939.0980404509939
 30
0.0
 11
1081.92301
 21
2194.7861115432679
 31
0.0
  0
LINE
  5
7EFC
  8
3
  6
CONTINUOUS
 62
     0
 10
1501.92301
 20
2154.257760170326
 30
0.0
 11
1501.92301
 21
2194.7861115432679
 31
0.0
  0
LINE
  5
7EFD
  8
3
  6
CONTINUOUS
 62
     0
 10
1111.9230099999991
 20
2179.7861115432679
 30
0.0
 11
1471.92301
 21
2179.7861115432679
 31
0.0
  0
INSERT
  5
7EFE
  8
3
  6
CONTINUOUS
 62
     0
  2
_OPEN
 10
1081.92301
 20
2179.7861115432679
 30
0.0
 41
30.0
 42
30.0
 43
30.0
 50
180.0
  0
INSERT
  5
7EFF
  8
3
  6
CONTINUOUS
 62
     0
  2
_OPEN
 10
1501.92301
 20
2179.7861115432679
 30
0.0
 41
30.0
 42
30.0
 43
30.0
  0
TEXT
  8
3
  40
45
  5
7F42
  62
0
  72
0
  71
0
 10
1201.27
 20
2175.14
 30
0.000000
  1
MAX
  0
TEXT
  8
3
  40
45
  5
7F43
  62
0
  72
0
  71
0
 10
1201.27
 20
2116.64
 30
0.000000
  1
420
  0
POINT
  5
7F01
  8
DEFPOINTS
  6
CONTINUOUS
 62
     0
 10
1081.92301
 20
1931.5980404509951
 30
0.0
  0
POINT
  5
7F02
  8
DEFPOINTS
  6
CONTINUOUS
 62
     0
 10
1501.92301
 20
2146.7577601703269
 30
0.0
  0
POINT
  5
7F03
  8
DEFPOINTS
  6
CONTINUOUS
 62
     0
 10
1501.92301
 20
2179.7861115432679
 30
0.0
  0
ENDBLK
  5
7D88
  8
0
  0
BLOCK
  8
0
  2
*D10
 70
     1
 10
0.0
 20
0.0
 30
0.0
  3
*D10
  1

  0
LINE
  5
7D8A
  8
0
  6
BYBLOCK
 62
     0
 10
1501.92301
 20
2238.438746701202
 30
0.0
 11
1501.92301
 21
2278.9670980741439
 31
0.0
  0
LINE
  5
7D8B
  8
0
  6
BYBLOCK
 62
     0
 10
1622.92301
 20
1975.7790269818699
 30
0.0
 11
1622.92301
 21
2278.9670980741439
 31
0.0
  0
LINE
  5
7D8C
  8
0
  6
BYBLOCK
 62
     0
 10
1531.92301
 20
2263.967098074143
 30
0.0
 11
1592.9230099999991
 21
2263.967098074143
 31
0.0
  0
TEXT
  5
7D8D
  8
3
 62
     0
 10
1518.494438571428
 20
2301.4670980741439
 30
0.0
 40
45.0
  1
121
  0
INSERT
  5
7D8E
  8
0
  6
BYBLOCK
 62
     0
  2
_OPEN
 10
1501.92301
 20
2263.967098074143
 30
0.0
 41
30.0
 42
30.0
 43
30.0
 50
180.0
  0
INSERT
  5
7D8F
  8
0
  6
BYBLOCK
 62
     0
  2
_OPEN
 10
1622.92301
 20
2263.967098074143
 30
0.0
 41
30.0
 42
30.0
 43
30.0
  0
POINT
  5
7D90
  8
DEFPOINTS
  6
BYBLOCK
 62
     0
 10
1501.92301
 20
2230.9387467012011
 30
0.0
  0
POINT
  5
7D91
  8
DEFPOINTS
  6
BYBLOCK
 62
     0
 10
1622.92301
 20
1968.279026981869
 30
0.0
  0
POINT
  5
7D92
  8
DEFPOINTS
  6
BYBLOCK
 62
     0
 10
1622.92301
 20
2263.967098074143
 30
0.0
  0
ENDBLK
  5
7D93
  8
0
  0
BLOCK
  8
0
  2
*D11
 70
     1
 10
0.0
 20
0.0
 30
0.0
  3
*D11
  1

  0
LINE
  5
7F04
  8
3
  6
CONTINUOUS
 62
     0
 10
1630.42301
 20
1859.0980404509939
 30
0.0
 11
1743.0290054101019
 21
1859.0980404509939
 31
0.0
  0
LINE
  5
7F05
  8
3
  6
CONTINUOUS
 62
     0
 10
1630.42301
 20
1544.0980404509951
 30
0.0
 11
1743.0290054101019
 21
1544.0980404509951
 31
0.0
  0
LINE
  5
7F06
  8
3
  6
CONTINUOUS
 62
     0
 10
1728.0290054101031
 20
1829.0980404509939
 30
0.0
 11
1728.0290054101031
 21
1574.0980404509951
 31
0.0
  0
INSERT
  5
7F07
  8
3
  6
CONTINUOUS
 62
     0
  2
_OPEN
 10
1728.0290054101031
 20
1859.0980404509939
 30
0.0
 41
30.0
 42
30.0
 43
30.0
 50
90.0
  0
INSERT
  5
7F08
  8
3
  6
CONTINUOUS
 62
     0
  2
_OPEN
 10
1728.0290054101031
 20
1544.0980404509951
 30
0.0
 41
30.0
 42
30.0
 43
30.0
 50
270.0
  0
TEXT
  8
3
  40
45
  5
7F44
  62
0
  72
0
  71
0
 10
1600.53
 20
1620.32
 30
0.000000
  1
φ315
  0
POINT
  5
7F0A
  8
DEFPOINTS
  6
CONTINUOUS
 62
     0
 10
1622.92301
 20
1859.0980404509939
 30
0.0
  0
POINT
  5
7F0B
  8
DEFPOINTS
  6
CONTINUOUS
 62
     0
 10
1622.92301
 20
1544.0980404509951
 30
0.0
  0
POINT
  5
7F0C
  8
DEFPOINTS
  6
CONTINUOUS
 62
     0
 10
1728.0290054101031
 20
1544.0980404509951
 30
0.0
  0
ENDBLK
  5
7D51
  8
0
  0
BLOCK
  8
0
  2
*D12
 70
     1
 10
0.0
 20
0.0
 30
0.0
  3
*D12
  1

  0
LINE
  5
7F0D
  8
3
  6
CONTINUOUS
 62
     0
 10
-161.31277899999981
 20
1294.0980404509951
 30
0.0
 11
-161.31277899999981
 21
1154.0874174509941
 31
0.0
  0
LINE
  5
7F0E
  8
3
  6
CONTINUOUS
 62
     0
 10
73.687221000000136
 20
1270.597121450995
 30
0.0
 11
73.687221000000122
 21
1154.0874174509941
 31
0.0
  0
LINE
  5
7F0F
  8
3
  6
CONTINUOUS
 62
     0
 10
-131.31277899999981
 20
1169.087417450995
 30
0.0
 11
43.687221000000129
 21
1169.087417450995
 31
0.0
  0
INSERT
  5
7F10
  8
3
  6
CONTINUOUS
 62
     0
  2
_OPEN
 10
-161.31277899999981
 20
1169.087417450995
 30
0.0
 41
30.0
 42
30.0
 43
30.0
 50
180.0
  0
INSERT
  5
7F11
  8
3
  6
CONTINUOUS
 62
     0
  2
_OPEN
 10
73.687221000000136
 20
1169.087417450995
 30
0.0
 41
30.0
 42
30.0
 43
30.0
  0
TEXT
  8
3
  40
45
  5
7F45
  62
0
  72
0
  71
0
 10
-119.170
 20
1126.94
 30
0.000000
  1
235
  0
POINT
  5
7F13
  8
DEFPOINTS
  6
CONTINUOUS
 62
     0
 10
-161.31277899999981
 20
1301.5980404509951
 30
0.0
  0
POINT
  5
7F14
  8
DEFPOINTS
  6
CONTINUOUS
 62
     0
 10
73.687221000000136
 20
1278.097121450995
 30
0.0
  0
POINT
  5
7F15
  8
DEFPOINTS
  6
CONTINUOUS
 62
     0
 10
73.687221000000136
 20
1169.087417450995
 30
0.0
  0
ENDBLK
  5
7CC0
  8
0
  0
BLOCK
  8
0
  2
*D13
 70
     1
 10
0.0
 20
0.0
 30
0.0
  3
*D13
  1

  0
LINE
  5
7F16
  8
3
  6
CONTINUOUS
 62
     0
 10
73.687221000000136
 20
1270.597121450995
 30
0.0
 11
73.687221000000122
 21
1154.0874174509941
 31
0.0
  0
LINE
  5
7F17
  8
3
  6
CONTINUOUS
 62
     0
 10
688.68722100000014
 20
1294.0980404509951
 30
0.0
 11
688.68722100000014
 21
1154.0874174509941
 31
0.0
  0
LINE
  5
7F18
  8
3
  6
CONTINUOUS
 62
     0
 10
103.68722100000009
 20
1169.087417450995
 30
0.0
 11
658.68722100000014
 21
1169.087417450995
 31
0.0
  0
INSERT
  5
7F19
  8
3
  6
CONTINUOUS
 62
     0
  2
_OPEN
 10
73.687221000000136
 20
1169.087417450995
 30
0.0
 41
30.0
 42
30.0
 43
30.0
 50
180.0
  0
INSERT
  5
7F1A
  8
3
  6
CONTINUOUS
 62
     0
  2
_OPEN
 10
688.68722100000014
 20
1169.087417450995
 30
0.0
 41
30.0
 42
30.0
 43
30.0
  0
TEXT
  8
3
  40
45
  5
7F46
  62
0
  72
0
  71
0
 10
291.187
 20
1126.94
 30
0.000000
  1
615
  0
POINT
  5
7F1C
  8
DEFPOINTS
  6
CONTINUOUS
 62
     0
 10
73.687221000000136
 20
1278.097121450995
 30
0.0
  0
POINT
  5
7F1D
  8
DEFPOINTS
  6
CONTINUOUS
 62
     0
 10
688.68722100000014
 20
1301.5980404509951
 30
0.0
  0
POINT
  5
7F1E
  8
DEFPOINTS
  6
CONTINUOUS
 62
     0
 10
688.68722100000014
 20
1169.087417450995
 30
0.0
  0
ENDBLK
  5
7CB5
  8
0
  0
BLOCK
  8
0
  2
*D14
 70
     1
 10
0.0
 20
0.0
 30
0.0
  3
*D14
  1

  0
LINE
  5
7F1F
  8
3
  6
CONTINUOUS
 62
     0
 10
1186.9230099999991
 20
1294.0980404509951
 30
0.0
 11
1186.9230099999991
 21
1161.0995992303119
 31
0.0
  0
LINE
  5
7F20
  8
3
  6
CONTINUOUS
 62
     0
 10
1501.92301
 20
1294.0980404509951
 30
0.0
 11
1501.92301
 21
1161.0995992303119
 31
0.0
  0
LINE
  5
7F21
  8
3
  6
CONTINUOUS
 62
     0
 10
1216.92301
 20
1176.0995992303119
 30
0.0
 11
1471.92301
 21
1176.0995992303119
 31
0.0
  0
INSERT
  5
7F22
  8
3
  6
CONTINUOUS
 62
     0
  2
_OPEN
 10
1186.9230099999991
 20
1176.0995992303119
 30
0.0
 41
30.0
 42
30.0
 43
30.0
 50
180.0
  0
INSERT
  5
7F23
  8
3
  6
CONTINUOUS
 62
     0
  2
_OPEN
 10
1501.92301
 20
1176.0995992303119
 30
0.0
 41
30.0
 42
30.0
 43
30.0
  0
TEXT
  8
3
  40
45
  5
7F47
  62
0
  72
0
  71
0
 10
1267.58
 20
1133.95
 30
0.000000
  1
315
  0
POINT
  5
7F25
  8
DEFPOINTS
  6
CONTINUOUS
 62
     0
 10
1186.9230099999991
 20
1301.5980404509951
 30
0.0
  0
POINT
  5
7F26
  8
DEFPOINTS
  6
CONTINUOUS
 62
     0
 10
1501.92301
 20
1301.5980404509951
 30
0.0
  0
POINT
  5
7F27
  8
DEFPOINTS
  6
CONTINUOUS
 62
     0
 10
1501.92301
 20
1176.0995992303119
 30
0.0
  0
ENDBLK
  5
7DCC
  8
0
  0
BLOCK
  8
0
  2
*D15
 70
     1
 10
0.0
 20
0.0
 30
0.0
  3
*D15
  1

  0
LINE
  5
7F28
  8
3
  6
CONTINUOUS
 62
     0
 10
-183.81277899999981
 20
2038.0980404509939
 30
0.0
 11
-443.03270634896001
 21
2038.0980404509939
 31
0.0
  0
LINE
  5
7F29
  8
3
  6
CONTINUOUS
 62
     0
 10
-168.81277899999981
 20
1301.5980404509951
 30
0.0
 11
-443.03270634896018
 21
1301.5980404509951
 31
0.0
  0
LINE
  5
7F2A
  8
3
  6
CONTINUOUS
 62
     0
 10
-428.03270634896001
 20
2008.0980404509939
 30
0.0
 11
-428.03270634896012
 21
1331.5980404509951
 31
0.0
  0
INSERT
  5
7F2B
  8
3
  6
CONTINUOUS
 62
     0
  2
_OPEN
 10
-428.03270634896001
 20
2038.0980404509939
 30
0.0
 41
30.0
 42
30.0
 43
30.0
 50
90.0
  0
INSERT
  5
7F2C
  8
3
  6
CONTINUOUS
 62
     0
  2
_OPEN
 10
-428.03270634896012
 20
1301.5980404509951
 30
0.0
 41
30.0
 42
30.0
 43
30.0
 50
270.0
  0
TEXT
  8
3
  40
45
  5
7F48
  62
0
  72
0
  71
0
 10
-555.533
 20
1597.87
 30
0.000000
  1
737
  0
POINT
  5
7F2E
  8
DEFPOINTS
  6
CONTINUOUS
 62
     0
 10
-176.31277899999981
 20
2038.0980404509939
 30
0.0
  0
POINT
  5
7F2F
  8
DEFPOINTS
  6
CONTINUOUS
 62
     0
 10
-161.31277899999981
 20
1301.5980404509951
 30
0.0
  0
POINT
  5
7F30
  8
DEFPOINTS
  6
CONTINUOUS
 62
     0
 10
-428.03270634896012
 20
1301.5980404509951
 30
0.0
  0
ENDBLK
  5
7DA9
  8
0
  0
BLOCK
  8
0
  2
*D16
 70
     1
 10
0.0
 20
0.0
 30
0.0
  3
*D16
  1

  0
LINE
  5
7F31
  8
3
 62
     0
 10
-176.31277899999981
 20
2045.5980404509951
 30
0.0
 11
-176.31277899999981
 21
2199.6442662983368
 31
0.0
  0
LINE
  5
7F32
  8
3
 62
     0
 10
688.68722100000014
 20
1379.0980404509951
 30
0.0
 11
688.68722100000014
 21
2199.6442662983368
 31
0.0
  0
LINE
  5
7F33
  8
3
 62
     0
 10
-146.31277899999981
 20
2184.6442662983368
 30
0.0
 11
658.68722100000014
 21
2184.6442662983368
 31
0.0
  0
INSERT
  5
7F34
  8
3
 62
     0
  2
_OPEN
 10
-176.31277899999981
 20
2184.6442662983368
 30
0.0
 41
30.0
 42
30.0
 43
30.0
 50
180.0
  0
INSERT
  5
7F35
  8
3
 62
     0
  2
_OPEN
 10
688.68722100000014
 20
2184.6442662983368
 30
0.0
 41
30.0
 42
30.0
 43
30.0
  0
TEXT
  8
3
  40
45
  5
7F49
  62
0
  72
0
  71
0
 10
140.774
 20
2142.49
 30
0.000000
  1
865
  0
POINT
  5
7F37
  8
DEFPOINTS
 62
     0
 10
-176.31277899999981
 20
2038.0980404509939
 30
0.0
  0
POINT
  5
7F38
  8
DEFPOINTS
 62
     0
 10
688.68722100000014
 20
1371.5980404509951
 30
0.0
  0
POINT
  5
7F39
  8
DEFPOINTS
 62
     0
 10
688.68722100000014
 20
2184.6442662983368
 30
0.0
  0
ENDBLK
  5
7DC0
  8
0
  0
ENDSEC
  0
SECTION
  2
ENTITIES
  0
CIRCLE
  5
7A7F
  8
1
  6
CONTINUOUS
 10
73.687221000000136
 20
1701.5980404509951
 30
0.0
 40
157.5
  0
LINE
  5
7A80
  8
1
  6
CONTINUOUS
 10
-176.31277899999981
 20
1711.5980404509951
 30
0.0
 11
-156.31277899999981
 21
1731.5980404509951
 31
0.0
  0
LINE
  5
7A81
  8
1
  6
CONTINUOUS
 10
-176.31277899999981
 20
2006.5980404509939
 30
0.0
 11
-156.31277899999981
 21
1986.5980404509939
 31
0.0
  0
LINE
  5
7A82
  8
1
  6
CONTINUOUS
 10
129.18722100000011
 20
1931.5980404509951
 30
0.0
 11
659.18722100000014
 21
1581.5980404509951
 31
0.0
  0
LINE
  5
7A83
  8
1
  6
CONTINUOUS
 10
-70.812778999999864
 20
1801.5980404509939
 30
0.0
 11
129.18722100000011
 21
1931.5980404509951
 31
0.0
  0
LINE
  5
7A84
  8
1
  6
CONTINUOUS
 10
-156.31277899999981
 20
1701.5980404509951
 30
0.0
 11
-176.31277899999981
 21
1701.5980404509951
 31
0.0
  0
LINE
  5
7A85
  8
1
  6
CONTINUOUS
 10
659.18722100000014
 20
1581.5980404509951
 30
0.0
 11
659.18722100000014
 21
1371.5980404509951
 31
0.0
  0
LINE
  5
7A86
  8
1
  6
CONTINUOUS
 10
-70.812778999999864
 20
1801.5980404509939
 30
0.0
 11
-70.812778999999864
 21
1371.5980404509951
 31
0.0
  0
LINE
  5
7A87
  8
2
  6
CENTER
 10
597.68722100000014
 20
1481.5980404509951
 30
0.0
 11
491.68722100000008
 21
1481.5980404509951
 31
0.0
  0
LINE
  5
7A88
  8
1
  6
CONTINUOUS
 10
452.78722099999999
 20
1391.5980404509951
 30
0.0
 11
464.18722100000008
 21
1420.5980404509951
 31
0.0
  0
LINE
  5
7A89
  8
1
  6
CONTINUOUS
 10
636.587221
 20
1391.5980404509951
 30
0.0
 11
625.18722100000014
 21
1420.5980404509951
 31
0.0
  0
ARC
  5
7A8A
  8
1
  6
CONTINUOUS
 10
544.68722100000014
 20
1481.5980404509951
 30
0.0
 40
101.0
 50
322.89999999999992
 51
217.09999999999991
  0
CIRCLE
  5
7A8B
  8
1
  6
CONTINUOUS
 10
544.68722100000014
 20
1481.5980404509951
 30
0.0
 40
53.0
  0
CIRCLE
  5
7A8C
  8
1
  6
CONTINUOUS
 10
73.687221000000136
 20
1701.5980404509951
 30
0.0
 40
63.5
  0
LINE
  5
7A8D
  8
2
  6
CENTER
 10
544.68722100000014
 20
1428.5980404509951
 30
0.0
 11
544.68722100000014
 21
1534.5980404509951
 31
0.0
  0
LINE
  5
7A8E
  8
1
  6
CONTINUOUS
 10
343.68722100000008
 20
1371.5980404509951
 30
0.0
 11
343.68722100000008
 21
1391.5980404509951
 31
0.0
  0
LINE
  5
7A8F
  8
1
  6
CONTINUOUS
 10
658.68722100000014
 20
1371.5980404509951
 30
0.0
 11
658.68722100000014
 21
1391.5980404509951
 31
0.0
  0
LINE
  5
7A90
  8
1
  6
CONTINUOUS
 10
658.68722100000014
 20
1391.5980404509951
 30
0.0
 11
343.68722100000008
 21
1391.5980404509951
 31
0.0
  0
LINE
  5
7A91
  8
1
  6
CONTINUOUS
 10
688.68722100000014
 20
1301.5980404509951
 30
0.0
 11
-161.31277899999981
 21
1301.5980404509951
 31
0.0
  0
LINE
  5
7A92
  8
1
  6
CONTINUOUS
 10
688.68722100000014
 20
1371.5980404509951
 30
0.0
 11
688.68722100000014
 21
1301.5980404509951
 31
0.0
  0
LINE
  5
7A93
  8
1
  6
CONTINUOUS
 10
-161.31277899999981
 20
1371.5980404509951
 30
0.0
 11
-161.31277899999981
 21
1301.5980404509951
 31
0.0
  0
LINE
  5
7A94
  8
1
  6
CONTINUOUS
 10
688.68722100000014
 20
1371.5980404509951
 30
0.0
 11
-161.31277899999981
 21
1371.5980404509951
 31
0.0
  0
LINE
  5
7A95
  8
1
  6
CONTINUOUS
 10
-131.31277899999981
 20
1371.5980404509951
 30
0.0
 11
-131.31277899999981
 21
1786.9980404509949
 31
0.0
  0
LINE
  5
7A96
  8
1
  6
CONTINUOUS
 10
-18.612779000000039
 20
1881.5980404509951
 30
0.0
 11
-131.31277899999981
 21
1786.9980404509949
 31
0.0
  0
LINE
  5
7A97
  8
1
  6
CONTINUOUS
 10
165.98722099999981
 20
1881.5980404509951
 30
0.0
 11
278.68722100000008
 21
1786.9980404509949
 31
0.0
  0
LINE
  5
7A98
  8
1
  6
CONTINUOUS
 10
278.68722100000008
 20
1665.0980404509951
 30
0.0
 11
-131.31277899999981
 21
1665.0980404509951
 31
0.0
  0
LINE
  5
7A99
  8
1
  6
CONTINUOUS
 10
278.68722100000008
 20
1371.5980404509951
 30
0.0
 11
278.68722100000008
 21
1786.9980404509949
 31
0.0
  0
LINE
  5
7A9A
  8
1
  6
CONTINUOUS
 10
165.98722099999981
 20
1881.5980404509951
 30
0.0
 11
-18.612779000000039
 21
1881.5980404509951
 31
0.0
  0
LINE
  5
7A9B
  8
1
  6
CONTINUOUS
 10
-176.31277899999981
 20
2016.5980404509951
 30
0.0
 11
-156.31277899999981
 21
2016.5980404509951
 31
0.0
  0
LINE
  5
7A9C
  8
1
  6
CONTINUOUS
 10
-176.31277899999981
 20
1680.0980404509951
 30
0.0
 11
-176.31277899999981
 21
2038.0980404509939
 31
0.0
  0
LINE
  5
7A9D
  8
2
  6
CENTER
 10
73.687221000000136
 20
1278.097121450995
 30
0.0
 11
73.687221000000136
 21
2047.5077654509951
 31
0.0
  0
LINE
  5
7A9E
  8
2
  6
CENTER
 10
1662.569999999999
 20
1701.5980404509951
 30
0.0
 11
1025.5086249999999
 21
1701.5980404509951
 31
0.0
  0
LINE
  5
7A9F
  8
1
  6
CONTINUOUS
 10
-108.81277899999991
 20
2875.012147778798
 30
0.0
 11
-108.81277899999991
 21
2884.8121477787981
 31
0.0
  0
LINE
  5
7AA0
  8
1
  6
CONTINUOUS
 10
-176.31277899999989
 20
3099.8121477787981
 30
0.0
 11
-156.31277899999989
 21
3079.8121477787981
 31
0.0
  0
LINE
  5
7AA1
  8
1
  6
CONTINUOUS
 10
-176.31277899999989
 20
2893.8121477787981
 30
0.0
 11
-156.31277899999989
 21
2913.8121477787981
 31
0.0
  0
LINE
  5
7AA2
  8
1
  6
CONTINUOUS
 10
61.687221000000022
 20
2711.8121477787981
 30
0.0
 11
-131.31277899999989
 21
2711.8121477787981
 31
0.0
  0
LINE
  5
7AA3
  8
1
  6
CONTINUOUS
 10
61.687221000000022
 20
2875.012147778798
 30
0.0
 11
61.687221000000022
 21
2638.3121477787981
 31
0.0
  0
LINE
  5
7AA4
  8
1
  6
CONTINUOUS
 10
85.687221000000022
 20
2875.012147778798
 30
0.0
 11
85.687221000000022
 21
2638.3121477787981
 31
0.0
  0
LINE
  5
7AA5
  8
1
  6
CONTINUOUS
 10
659.18722100000002
 20
2661.8121477787981
 30
0.0
 11
659.18722100000002
 21
2576.8121477787981
 31
0.0
  0
LINE
  5
7AA6
  8
1
  6
CONTINUOUS
 10
-70.812778999999978
 20
2661.8121477787981
 30
0.0
 11
-70.812778999999978
 21
2576.8121477787981
 31
0.0
  0
LINE
  5
7AA7
  8
1
  6
CONTINUOUS
 10
659.18722100000002
 20
2661.8121477787981
 30
0.0
 11
-70.812778999999978
 21
2661.8121477787981
 31
0.0
  0
LINE
  5
7AA8
  8
1
  6
CONTINUOUS
 10
659.18722100000002
 20
2576.8121477787981
 30
0.0
 11
-70.812778999999978
 21
2576.8121477787981
 31
0.0
  0
LINE
  5
7AA9
  8
1
  6
CONTINUOUS
 10
532.68722100000002
 20
2681.8121477787981
 30
0.0
 11
85.687221000000022
 21
2681.8121477787981
 31
0.0
  0
LINE
  5
7AAA
  8
1
  6
CONTINUOUS
 10
61.687221000000022
 20
2681.8121477787981
 30
0.0
 11
-161.31277899999989
 21
2681.8121477787981
 31
0.0
  0
LINE
  5
7AAB
  8
1
  6
CONTINUOUS
 10
481.18722100000002
 20
2603.3121477787981
 30
0.0
 11
481.18722100000002
 21
2638.3121477787981
 31
0.0
  0
LINE
  5
7AAC
  8
1
  6
CONTINUOUS
 10
481.18722100000002
 20
2638.3121477787981
 30
0.0
 11
608.18722100000002
 21
2638.3121477787981
 31
0.0
  0
LINE
  5
7AAD
  8
1
  6
CONTINUOUS
 10
608.18722100000002
 20
2638.3121477787981
 30
0.0
 11
608.18722100000002
 21
2603.3121477787981
 31
0.0
  0
LINE
  5
7AAE
  8
1
  6
CONTINUOUS
 10
608.18722100000002
 20
2603.3121477787981
 30
0.0
 11
481.18722100000002
 21
2603.3121477787981
 31
0.0
  0
LINE
  5
7AAF
  8
1
  6
CONTINUOUS
 10
443.68722100000002
 20
2698.3121477787981
 30
0.0
 11
443.68722100000002
 21
2970.3121477787981
 31
0.0
  0
LINE
  5
7AB0
  8
1
  6
CONTINUOUS
 10
634.68722100000002
 20
2970.3121477787981
 30
0.0
 11
634.68722100000002
 21
2698.3121477787981
 31
0.0
  0
LINE
  5
7AB1
  8
1
  6
CONTINUOUS
 10
532.68722100000002
 20
2603.3121477787981
 30
0.0
 11
556.68722100000002
 21
2603.3121477787981
 31
0.0
  0
LINE
  5
7AB2
  8
1
  6
CONTINUOUS
 10
443.68722100000002
 20
2970.3121477787981
 30
0.0
 11
634.68722100000002
 21
2970.3121477787981
 31
0.0
  0
LINE
  5
7AB3
  8
1
  6
CONTINUOUS
 10
443.68722100000002
 20
2698.3121477787981
 30
0.0
 11
634.68722100000002
 21
2698.3121477787981
 31
0.0
  0
LINE
  5
7AB4
  8
1
  6
CONTINUOUS
 10
556.68722100000002
 20
2638.3121477787981
 30
0.0
 11
556.68722100000002
 21
2698.3121477787981
 31
0.0
  0
LINE
  5
7AB5
  8
1
  6
CONTINUOUS
 10
532.68722100000002
 20
2638.3121477787981
 30
0.0
 11
532.68722100000002
 21
2698.3121477787981
 31
0.0
  0
LINE
  5
7AB6
  8
1
  6
CONTINUOUS
 10
278.68722100000002
 20
2711.8121477787981
 30
0.0
 11
85.687221000000022
 21
2711.8121477787981
 31
0.0
  0
LINE
  5
7AB7
  8
1
  6
CONTINUOUS
 10
-131.31277899999989
 20
2711.8121477787981
 30
0.0
 11
-131.31277899999989
 21
2875.012147778798
 31
0.0
  0
LINE
  5
7AB8
  8
1
  6
CONTINUOUS
 10
278.68722100000002
 20
2711.8121477787981
 30
0.0
 11
278.68722100000002
 21
2875.012147778798
 31
0.0
  0
LINE
  5
7AB9
  8
1
  6
CONTINUOUS
 10
361.68722100000002
 20
2996.8121477787981
 30
0.0
 11
688.68722099999991
 21
2996.8121477787981
 31
0.0
  0
LINE
  5
7ABA
  8
1
  6
CONTINUOUS
 10
137.18722099999999
 20
2603.3121477787981
 30
0.0
 11
10.187221000000021
 21
2603.3121477787981
 31
0.0
  0
LINE
  5
7ABB
  8
1
  6
CONTINUOUS
 10
137.18722099999999
 20
2638.3121477787981
 30
0.0
 11
137.18722099999999
 21
2603.3121477787981
 31
0.0
  0
LINE
  5
7ABC
  8
1
  6
CONTINUOUS
 10
10.187221000000021
 20
2638.3121477787981
 30
0.0
 11
137.18722099999999
 21
2638.3121477787981
 31
0.0
  0
LINE
  5
7ABD
  8
1
  6
CONTINUOUS
 10
10.187221000000021
 20
2603.3121477787981
 30
0.0
 11
10.187221000000021
 21
2638.3121477787981
 31
0.0
  0
ARC
  5
7ABE
  8
1
  6
CONTINUOUS
 10
341.68722100000002
 20
2904.8121477787981
 30
0.0
 40
20.0
 50
270.0
 51
0.0
  0
ARC
  5
7ABF
  8
1
  6
CONTINUOUS
 10
341.68722100000002
 20
3088.8121477787981
 30
0.0
 40
20.0
 50
0.0
 51
90.0
  0
LINE
  5
7AC0
  8
1
  6
CONTINUOUS
 10
-108.81277899999991
 20
3117.8121477787981
 30
0.0
 11
-108.81277899999991
 21
3109.6121477787979
 31
0.0
  0
LINE
  5
7AC1
  8
1
  6
CONTINUOUS
 10
256.18722100000002
 20
2875.012147778798
 30
0.0
 11
256.18722100000002
 21
2884.8121477787981
 31
0.0
  0
LINE
  5
7AC2
  8
1
  6
CONTINUOUS
 10
361.68722100000002
 20
3088.8121477787981
 30
0.0
 11
361.68722100000002
 21
2904.8121477787981
 31
0.0
  0
LINE
  5
7AC3
  8
1
  6
CONTINUOUS
 10
-176.31277899999989
 20
2884.8121477787981
 30
0.0
 11
341.68722100000002
 21
2884.8121477787981
 31
0.0
  0
LINE
  5
7AC4
  8
1
  6
CONTINUOUS
 10
-176.31277899999989
 20
3129.8121477787981
 30
0.0
 11
-176.31277899999989
 21
2863.8121477787981
 31
0.0
  0
LINE
  5
7AC5
  8
1
  6
CONTINUOUS
 10
341.68722100000002
 20
3108.8121477787981
 30
0.0
 11
-176.31277899999989
 21
3108.8121477787981
 31
0.0
  0
LINE
  5
7AC6
  8
1
  6
CONTINUOUS
 10
278.68722100000002
 20
2875.012147778798
 30
0.0
 11
-131.31277899999989
 21
2875.012147778798
 31
0.0
  0
LINE
  5
7AC7
  8
1
  6
CONTINUOUS
 10
256.18722100000002
 20
3117.8121477787981
 30
0.0
 11
256.18722100000002
 21
3109.6121477787979
 31
0.0
  0
LINE
  5
7AC8
  8
1
  6
CONTINUOUS
 10
256.18722100000002
 20
3117.8121477787981
 30
0.0
 11
-108.81277899999991
 21
3117.8121477787981
 31
0.0
  0
LINE
  5
7AC9
  8
1
  6
CONTINUOUS
 10
688.68722099999991
 20
2996.8121477787981
 30
0.0
 11
688.68722099999991
 21
2681.8121477787981
 31
0.0
  0
LINE
  5
7ACA
  8
1
  6
CONTINUOUS
 10
-161.31277899999989
 20
2681.8121477787981
 30
0.0
 11
-161.31277899999989
 21
2884.8121477787981
 31
0.0
  0
LINE
  5
7ACB
  8
1
  6
CONTINUOUS
 10
688.68722099999991
 20
2681.8121477787981
 30
0.0
 11
556.68722100000002
 21
2681.8121477787981
 31
0.0
  0
CIRCLE
  5
7ACC
  8
1
  6
CONTINUOUS
 10
73.687221000000136
 20
1701.5980404509951
 30
0.0
 40
182.5
  0
LINE
  5
7ACD
  8
1
  6
CONTINUOUS
 10
-156.31277899999981
 20
1692.698040450995
 30
0.0
 11
-156.31277899999981
 21
1701.5980404509951
 31
0.0
  0
LINE
  5
7ACE
  8
1
  6
CONTINUOUS
 10
-156.31277899999981
 20
2026.5980404509939
 30
0.0
 11
48.187221000000129
 21
2026.5980404509939
 31
0.0
  0
ARC
  5
7ACF
  8
1
  6
CONTINUOUS
 10
48.187221000000129
 20
1727.0980404509951
 30
0.0
 40
299.5
 50
349.39999999999992
 51
90.0
  0
ARC
  5
7AD0
  8
1
  6
CONTINUOUS
 10
94.687221000000136
 20
1722.5980404509951
 30
0.0
 40
253.0
 50
278.19999999999999
 51
348.39999999999998
  0
ARC
  5
7AD1
  8
1
  6
CONTINUOUS
 10
91.687221000000136
 20
1683.5980404509951
 30
0.0
 40
215.0
 50
188.59999999999991
 51
280.60000000000002
  0
ARC
  5
7AD2
  8
1
  6
CONTINUOUS
 10
-194.31277899999981
 20
1624.5980404509951
 30
0.0
 40
78.0
 50
18.800000000000001
 51
60.799999999999997
  0
LINE
  5
7AD3
  8
1
  6
CONTINUOUS
 10
-156.31277899999981
 20
2016.5980404509951
 30
0.0
 11
-156.31277899999981
 21
2026.5980404509939
 31
0.0
  0
LINE
  5
7AD4
  8
1
  6
CONTINUOUS
 10
-156.31277899999989
 20
3079.8121477787981
 30
0.0
 11
-156.31277899999989
 21
2913.8121477787981
 31
0.0
  0
LINE
  5
7AD5
  8
1
  6
CONTINUOUS
 10
-156.31277899999981
 20
1731.5980404509951
 30
0.0
 11
-156.31277899999981
 21
1986.5980404509939
 31
0.0
  0
LINE
  5
7AD6
  8
1
  6
CONTINUOUS
 10
568.087221
 20
1529.198040450995
 30
0.0
 11
101.68722100000009
 21
1758.5980404509951
 31
0.0
  0
LINE
  5
7AD7
  8
1
  6
CONTINUOUS
 10
523.18722100000014
 20
1433.0980404509951
 30
0.0
 11
47.987220999999863
 21
1643.4980404509949
 31
0.0
  0
LINE
  5
7AD8
  8
1
  6
CONTINUOUS
 10
1389.92301
 20
1701.5980404509951
 30
0.0
 11
1613.9230099999991
 21
2016.5980404509951
 31
0.0
  0
LINE
  5
7AD9
  8
1
  6
CONTINUOUS
 10
1389.92301
 20
2016.5980404509951
 30
0.0
 11
1613.9230099999991
 21
1701.5980404509951
 31
0.0
  0
LINE
  5
7ADA
  8
1
  6
CONTINUOUS
 10
1389.92301
 20
1701.5980404509951
 30
0.0
 11
1613.9230099999991
 21
1701.5980404509951
 31
0.0
  0
LINE
  5
7ADB
  8
1
  6
CONTINUOUS
 10
1501.92301
 20
2016.5980404509951
 30
0.0
 11
1613.9230099999991
 21
2016.5980404509951
 31
0.0
  0
LINE
  5
7ADC
  8
1
  6
CONTINUOUS
 10
1166.92301
 20
1371.698040450995
 30
0.0
 11
1166.92301
 21
1931.5980404509951
 31
0.0
  0
LINE
  5
7ADD
  8
1
  6
CONTINUOUS
 10
1081.92301
 20
1371.698040450995
 30
0.0
 11
1081.92301
 21
1931.5980404509951
 31
0.0
  0
LINE
  5
7ADE
  8
1
  6
CONTINUOUS
 10
1106.92301
 20
1545.198040450995
 30
0.0
 11
1106.92301
 21
1418.198040450995
 31
0.0
  0
LINE
  5
7ADF
  8
1
  6
CONTINUOUS
 10
1141.9230099999991
 20
1545.198040450995
 30
0.0
 11
1106.92301
 21
1545.198040450995
 31
0.0
  0
LINE
  5
7AE0
  8
1
  6
CONTINUOUS
 10
1141.9230099999991
 20
1418.198040450995
 30
0.0
 11
1141.9230099999991
 21
1545.198040450995
 31
0.0
  0
LINE
  5
7AE1
  8
1
  6
CONTINUOUS
 10
1106.92301
 20
1418.198040450995
 30
0.0
 11
1141.9230099999991
 21
1418.198040450995
 31
0.0
  0
LINE
  5
7AE2
  8
1
  6
CONTINUOUS
 10
1081.92301
 20
1371.698040450995
 30
0.0
 11
1166.92301
 21
1371.698040450995
 31
0.0
  0
LINE
  5
7AE3
  8
1
  6
CONTINUOUS
 10
1081.92301
 20
1931.5980404509951
 30
0.0
 11
1166.92301
 21
1931.5980404509951
 31
0.0
  0
LINE
  5
7AE4
  8
1
  6
CONTINUOUS
 10
1141.9230099999991
 20
1689.198040450995
 30
0.0
 11
1250.723009999999
 21
1689.198040450995
 31
0.0
  0
LINE
  5
7AE5
  8
1
  6
CONTINUOUS
 10
1141.9230099999991
 20
1714.198040450995
 30
0.0
 11
1283.12301
 21
1714.198040450995
 31
0.0
  0
LINE
  5
7AE6
  8
1
  6
CONTINUOUS
 10
1380.12301
 20
1788.7980404509949
 30
0.0
 11
1216.12301
 21
1662.5980404509951
 31
0.0
  0
LINE
  5
7AE7
  8
1
  6
CONTINUOUS
 10
1216.12301
 20
1662.5980404509951
 30
0.0
 11
1216.12301
 21
1371.5980404509951
 31
0.0
  0
LINE
  5
7AE8
  8
1
  6
CONTINUOUS
 10
1622.92301
 20
1519.0980404509951
 30
0.0
 11
1622.92301
 21
1884.0980404509951
 31
0.0
  0
LINE
  5
7AE9
  8
1
  6
CONTINUOUS
 10
1622.92301
 20
1519.0980404509951
 30
0.0
 11
1613.9230099999991
 21
1519.0980404509951
 31
0.0
  0
LINE
  5
7AEA
  8
1
  6
CONTINUOUS
 10
1380.12301
 20
1884.198040450995
 30
0.0
 11
1380.12301
 21
1371.5980404509951
 31
0.0
  0
LINE
  5
7AEB
  8
1
  6
CONTINUOUS
 10
1613.9230099999991
 20
1499.5980404509951
 30
0.0
 11
1613.9230099999991
 21
2016.5980404509951
 31
0.0
  0
LINE
  5
7AEC
  8
1
  6
CONTINUOUS
 10
1613.9230099999991
 20
2016.5980404509951
 30
0.0
 11
1389.92301
 21
2016.5980404509951
 31
0.0
  0
LINE
  5
7AED
  8
1
  6
CONTINUOUS
 10
1389.92301
 20
2016.5980404509951
 30
0.0
 11
1389.92301
 21
1499.5980404509951
 31
0.0
  0
LINE
  5
7AEE
  8
1
  6
CONTINUOUS
 10
1593.92301
 20
1479.5980404509951
 30
0.0
 11
1409.9230099999991
 21
1479.5980404509951
 31
0.0
  0
LINE
  5
7AEF
  8
1
  6
CONTINUOUS
 10
1106.92301
 20
1638.198040450995
 30
0.0
 11
1141.9230099999991
 21
1638.198040450995
 31
0.0
  0
LINE
  5
7AF0
  8
1
  6
CONTINUOUS
 10
1141.9230099999991
 20
1638.198040450995
 30
0.0
 11
1141.9230099999991
 21
1765.198040450995
 31
0.0
  0
LINE
  5
7AF1
  8
1
  6
CONTINUOUS
 10
1141.9230099999991
 20
1765.198040450995
 30
0.0
 11
1106.92301
 21
1765.198040450995
 31
0.0
  0
LINE
  5
7AF2
  8
1
  6
CONTINUOUS
 10
1106.92301
 20
1765.198040450995
 30
0.0
 11
1106.92301
 21
1638.198040450995
 31
0.0
  0
LINE
  5
7AF3
  8
1
  6
CONTINUOUS
 10
1186.9230099999991
 20
1301.5980404509951
 30
0.0
 11
1501.92301
 21
1301.5980404509951
 31
0.0
  0
LINE
  5
7AF4
  8
1
  6
CONTINUOUS
 10
1501.92301
 20
1301.5980404509951
 30
0.0
 11
1501.92301
 21
1371.5980404509951
 31
0.0
  0
LINE
  5
7AF5
  8
1
  6
CONTINUOUS
 10
1501.92301
 20
1371.5980404509951
 30
0.0
 11
1186.9230099999991
 21
1371.5980404509951
 31
0.0
  0
LINE
  5
7AF6
  8
1
  6
CONTINUOUS
 10
1186.9230099999991
 20
1371.5980404509951
 30
0.0
 11
1186.9230099999991
 21
1301.5980404509951
 31
0.0
  0
LINE
  5
7AF7
  8
1
  6
CONTINUOUS
 10
1380.12301
 20
1519.0980404509951
 30
0.0
 11
1389.92301
 21
1519.0980404509951
 31
0.0
  0
LINE
  5
7AF8
  8
1
  6
CONTINUOUS
 10
1141.9230099999991
 20
1493.698040450995
 30
0.0
 11
1216.12301
 21
1493.698040450995
 31
0.0
  0
LINE
  5
7AF9
  8
1
  6
CONTINUOUS
 10
1141.9230099999991
 20
1469.698040450995
 30
0.0
 11
1216.12301
 21
1469.698040450995
 31
0.0
  0
LINE
  5
7AFA
  8
1
  6
CONTINUOUS
 10
1380.12301
 20
1884.0980404509951
 30
0.0
 11
1390.12301
 21
1884.0980404509951
 31
0.0
  0
LINE
  5
7AFB
  8
1
  6
CONTINUOUS
 10
1622.92301
 20
1884.0980404509951
 30
0.0
 11
1613.7230099999999
 21
1884.0980404509951
 31
0.0
  0
ARC
  5
7AFC
  8
1
  6
CONTINUOUS
 10
1593.92301
 20
1499.5980404509951
 30
0.0
 40
20.0
 50
270.0
 51
0.0
  0
ARC
  5
7AFD
  8
1
  6
CONTINUOUS
 10
1409.9230099999991
 20
1499.5980404509951
 30
0.0
 40
20.0
 50
180.0
 51
270.0
  0
LINE
  5
7AFE
  8
4
  6
CONTINUOUS
 10
1811.268485999999
 20
703.08524299999999
 30
0.0
 11
1811.268485999999
 21
403.08524299999999
 31
0.0
  0
LINE
  5
7AFF
  8
4
  6
CONTINUOUS
 10
761.26848600000005
 20
703.08524299999999
 30
0.0
 11
761.26848599999994
 21
403.08524299999999
 31
0.0
  0
LINE
  5
7B00
  8
4
  6
CONTINUOUS
 10
11.26848599999999
 20
703.08524299999999
 30
0.0
 11
11.26848599999999
 21
403.08524299999999
 31
0.0
  0
LINE
  5
7B03
  8
4
  6
CONTINUOUS
 10
11.26848599999999
 20
403.08524299999999
 30
0.0
 11
1811.268485999999
 21
403.08524299999999
 31
0.0
  0
LINE
  5
7B04
  8
4
  6
CONTINUOUS
 10
11.26848599999999
 20
553.08524299999999
 30
0.0
 11
1811.268485999999
 21
553.08524299999999
 31
0.0
  0
TEXT
  5
7B05
  8
4
  6
CONTINUOUS
 10
69.021608000000001
 20
600.39978200000007
 30
0.0
 40
75.0
  1
機器名称
  0
TEXT
  5
7B06
  8
4
  6
CONTINUOUS
 10
65.655644999999993
 20
435.552978
 30
0.0
 40
75.0
  1
機器型番
  0
TEXT
  5
7B07
  8
4
  6
CONTINUOUS
 10
802.78660400000012
 20
586.94289600000002
 30
0.0
 40
67.5
  1
ミツヤニューマルチファン
  0
TEXT
  5
7B08
  8
4
  6
CONTINUOUS
 10
816.25022999999987
 20
428.82461899999998
 30
0.0
 40
75.0
  1
NM#2-1
  0
TEXT
  5
7B0A
  8
4
  6
CONTINUOUS
 10
393.44713399999989
 20
3528.2285039999988
 30
0.0
 40
81.0
  1
床置ベット
  0
TEXT
  5
7B0B
  8
4
  6
CONTINUOUS
 10
-489.48012399999999
 20
3753.9067070000001
 30
0.0
 40
108.0
  1
ベルト駆動式片吸込片持多翼ファン
  0
LINE
  5
7B0C
  8
4
  6
CONTINUOUS
 10
-588.73151399999995
 20
3657.1983740000001
 30
0.0
 11
1811.268485999999
 21
3657.1983740000001
 31
0.0
  0
LINE
  5
7B0D
  8
4
  6
CONTINUOUS
 10
-588.73151399999995
 20
3957.1983740000001
 30
0.0
 11
1811.268485999999
 21
3957.1983740000001
 31
0.0
  0
LINE
  5
7B0E
  8
4
  6
CONTINUOUS
 10
11.26848599999999
 20
703.08524299999999
 30
0.0
 11
1811.268485999999
 21
703.08524299999999
 31
0.0
  0
LINE
  5
7B0F
  8
4
  6
CONTINUOUS
 10
-588.73151399999995
 20
3957.1983740000001
 30
0.0
 11
-588.73151399999995
 21
3657.1983740000001
 31
0.0
  0
TEXT
  5
7B10
  8
4
  6
CONTINUOUS
 10
-260.34111399999989
 20
3526.5644600000001
 30
0.0
 40
81.0
  1
左回転左横向
  0
TEXT
  5
7B11
  8
4
  6
CONTINUOUS
 10
1239.7228250000001
 20
4012.1768639999991
 30
0.0
 40
84.0
  1
No.
  0
TEXT
  5
7B12
  8
4
  6
CONTINUOUS
 10
1003.212581
 20
3528.2285039999988
 30
0.0
 40
81.0
  1
縮尺：1/15
  0
LINE
  5
7B13
  8
4
  6
CONTINUOUS
 10
1811.268485999999
 20
3957.1983740000001
 30
0.0
 11
1811.268485999999
 21
3657.1983740000001
 31
0.0
  0
LINE
  5
7B15
  8
4
  6
CONTINUOUS
 10
1197.1946190000001
 20
3974.9806169999988
 30
0.0
 11
1197.1946190000001
 21
4133.0636359999999
 31
0.0
  0
LINE
  5
7B16
  8
4
  6
CONTINUOUS
 10
1197.1946190000001
 20
4133.0636359999999
 30
0.0
 11
1811.268485999999
 21
4133.0636359999999
 31
0.0
  0
LINE
  5
7B17
  8
4
  6
CONTINUOUS
 10
1811.268485999999
 20
4133.0636359999999
 30
0.0
 11
1811.268485999999
 21
3974.9806169999988
 31
0.0
  0
LINE
  5
7B18
  8
4
  6
CONTINUOUS
 10
1811.268485999999
 20
3974.9806169999988
 30
0.0
 11
1197.1946190000001
 21
3974.9806169999988
 31
0.0
  0
DIMENSION
  5
7B49
  8
3
  6
CONTINUOUS
  2
*D1
 10
-250.35448699999981
 20
1701.5980404509951
 30
0.0
 11
-250.35448700000001
 21
1852.836922450995
 31
0.0
 70
   128
 13
-176.31277899999981
 23
2016.5980404509951
 33
0.0
 14
-176.31277899999981
 24
1701.5980404509951
 34
0.0
 50
90.0
1001
ACAD
1000
DSTYLE
1002
{
1070
   287
1070
     3
1070
   287
1070
     3
1070
    40
1040
15.0
1070
   143
1040
0.039
1070
   172
1070
     1
1070
   271
1070
     0
1070
   279
1070
     0
1070
   288
1070
     1
1002
}
  0
DIMENSION
  5
7B56
  8
3
  6
CONTINUOUS
  2
*D2
 10
-334.99952034895989
 20
1701.5980404509951
 30
0.0
 11
-334.99952034896017
 21
1857.2515374509951
 31
0.0
 70
   128
 13
-156.31277899999981
 23
2026.5980404509939
 33
0.0
 14
-176.31277899999981
 24
1701.5980404509951
 34
0.0
 50
90.0
1001
ACAD
1000
DSTYLE
1002
{
1070
   287
1070
     3
1070
   287
1070
     3
1070
    40
1040
15.0
1070
   143
1040
0.039
1070
   172
1070
     1
1070
   271
1070
     0
1070
   279
1070
     0
1070
   288
1070
     1
1002
}
  0
DIMENSION
  5
7B63
  8
3
  6
CONTINUOUS
  2
*D3
 10
-334.99952034896017
 20
1301.5980404509951
 30
0.0
 11
-372.4995203489604
 21
1501.5980404509951
 31
0.0
 70
     0
 13
-176.31277899999981
 23
1701.5980404509951
 33
0.0
 14
-161.31277899999981
 24
1301.5980404509951
 34
0.0
 50
90.0
1001
ACAD
1000
DSTYLE
1002
{
1070
   287
1070
     3
1070
   287
1070
     3
1070
    40
1040
15.0
1070
   143
1040
0.039
1070
   172
1070
     1
1070
   271
1070
     0
1070
   279
1070
     0
1070
   288
1070
     1
1002
}
  0
DIMENSION
  5
7B7D
  8
3
  6
CONTINUOUS
  2
*D4
 10
73.687221000000136
 20
2092.5472864509952
 30
0.0
 11
-52.218858000000182
 21
2092.5472864509952
 31
0.0
 70
   128
 13
-176.31277899999981
 23
2038.0980404509939
 33
0.0
 14
73.687221000000136
 24
2025.5105064509951
 34
0.0
1001
ACAD
1000
DSTYLE
1002
{
1070
   287
1070
     3
1070
   287
1070
     3
1070
    40
1040
15.0
1070
   143
1040
0.039
1070
   172
1070
     1
1070
   271
1070
     0
1070
   279
1070
     0
1070
   288
1070
     1
1002
}
  0
DIMENSION
  5
7B89
  8
3
  6
CONTINUOUS
  2
*D5
 10
347.68722100000008
 20
2092.5472864509952
 30
0.0
 11
210.68722100000011
 21
2130.0472864509952
 31
0.0
 70
     0
 13
73.687221000000136
 23
2025.5105064509951
 33
0.0
 14
347.68722100000008
 24
1701.5980404509951
 34
0.0
1001
ACAD
1000
DSTYLE
1002
{
1070
   287
1070
     3
1070
   287
1070
     3
1070
    40
1040
15.0
1070
   143
1040
0.039
1070
   172
1070
     1
1070
   271
1070
     0
1070
   279
1070
     0
1070
   288
1070
     1
1002
}
  0
DIMENSION
  5
7B96
  8
3
  6
CONTINUOUS
  2
*D6
 10
688.68722099999991
 20
2503.4964537787978
 30
0.0
 11
263.03039999999987
 21
2503.4964537787978
 31
0.0
 70
   128
 13
-161.31277899999989
 23
2681.8121477787981
 33
0.0
 14
688.68722099999991
 24
2681.8121477787981
 34
0.0
1001
ACAD
1000
DSTYLE
1002
{
1070
   287
1070
     3
1070
   287
1070
     3
1070
    40
1040
15.0
1070
   143
1040
0.039
1070
   172
1070
     1
1070
   271
1070
     0
1070
   279
1070
     0
1070
   288
1070
     1
1002
}
  0
DIMENSION
  5
7BA3
  8
3
  6
CONTINUOUS
  2
*D7
 10
799.2487550000003
 20
2681.8121477787981
 30
0.0
 11
799.24875499999985
 21
2830.1775867787969
 31
0.0
 70
   128
 13
688.68722099999991
 23
2996.8121477787981
 33
0.0
 14
688.68722099999991
 24
2681.8121477787981
 34
0.0
 50
90.0
1001
ACAD
1000
DSTYLE
1002
{
1070
   287
1070
     3
1070
   287
1070
     3
1070
    40
1040
15.0
1070
   143
1040
0.039
1070
   172
1070
     1
1070
   271
1070
     0
1070
   279
1070
     0
1070
   288
1070
     1
1002
}
  0
LINE
  5
7BA4
  8
2
  6
CENTER
 10
417.66604999999993
 20
2996.8121477787981
 30
0.0
 11
-240.77917099999991
 21
2996.8121477787981
 31
0.0
  0
LINE
  5
7BA5
  8
2
  6
CENTER
 10
73.687221000000022
 20
2544.699482778798
 30
0.0
 11
73.687221000000022
 21
3138.6381167787981
 31
0.0
  0
LINE
  5
7BA6
  8
2
  6
CENTER
 10
1501.92301
 20
2075.992157697885
 30
0.0
 11
1501.92301
 21
1259.6576154509951
 31
0.0
  0
DIMENSION
  5
7BC0
  8
3
  6
CONTINUOUS
  2
*D8
 10
1613.9230099999991
 20
2072.1157146978849
 30
0.0
 11
1493.8515814285711
 21
2072.1157146978849
 31
0.0
 70
   128
 13
1389.92301
 23
2016.5980404509951
 33
0.0
 14
1613.9230099999991
 24
2016.5980404509951
 34
0.0
1001
ACAD
1000
DSTYLE
1002
{
1070
   287
1070
     3
1070
   287
1070
     3
1070
    40
1040
15.0
1070
   143
1040
0.039
1070
   172
1070
     1
1070
   271
1070
     0
1070
   279
1070
     0
1070
   288
1070
     1
1002
}
  0
DIMENSION
  5
7BCD
  8
3
  6
CONTINUOUS
  2
*D9
 10
1501.92301
 20
2179.7861115432679
 30
0.0
 11
1291.273498
 21
2179.7861115432679
 31
0.0
 70
   128
  1
MAX\P420
 13
1081.92301
 23
1931.5980404509951
 33
0.0
 14
1501.92301
 24
2146.7577601703269
 34
0.0
1001
ACAD
1000
DSTYLE
1002
{
1070
   287
1070
     3
1070
   287
1070
     3
1070
    40
1040
15.0
1070
   143
1040
0.039
1070
   172
1070
     1
1070
   271
1070
     0
1070
   279
1070
     0
1070
   288
1070
     1
1002
}
  0
DIMENSION
  5
7BD9
  8
3
  6
CONTINUOUS
  2
*D10
 10
1622.92301
 20
2179.7861115432679
 30
0.0
 11
1562.42301
 21
2239.7861115432679
 31
0.0
 12
0.0
 22
-84.180986530875089
 32
0.0
 70
     0
 13
1501.92301
 23
2146.7577601703269
 33
0.0
 14
1622.92301
 24
1884.0980404509951
 34
0.0
1001
ACAD
1000
DSTYLE
1002
{
1070
   288
1070
     1
1070
   172
1070
     1
1070
    40
1040
15.0
1070
   271
1070
     0
1070
   143
1040
0.039
1002
}
  0
LINE
  5
7BDC
  8
3
  6
CONTINUOUS
 10
1622.92301
 20
1859.0980404509939
 30
0.0
 11
1635.7566349999991
 21
1859.0980404509939
 31
0.0
  0
LINE
  5
7BDE
  8
3
  6
CONTINUOUS
 10
1622.92301
 20
1544.0980404509951
 30
0.0
 11
1641.4692109999989
 21
1544.0980404509951
 31
0.0
  0
DIMENSION
  5
7BEB
  8
3
  6
CONTINUOUS
  2
*D11
 10
1728.0290054101031
 20
1544.0980404509951
 30
0.0
 11
1728.0290054101019
 21
1699.969073450995
 31
0.0
 70
   128
 13
1622.92301
 23
1859.0980404509939
 33
0.0
 14
1622.92301
 24
1544.0980404509951
 34
0.0
 50
90.0
1001
ACAD
1000
DSTYLE
1002
{
1070
   287
1070
     3
1070
   287
1070
     3
1070
     3
1000
φ<>
1070
    40
1040
15.0
1070
   143
1040
0.039
1070
   172
1070
     1
1070
   271
1070
     0
1070
   279
1070
     0
1070
   288
1070
     1
1002
}
  0
LINE
  5
7BEC
  8
2
  6
CENTER
 10
524.23122499999999
 20
1701.5980404509951
 30
0.0
 11
-225.523674
 21
1701.5980404509951
 31
0.0
  0
DIMENSION
  5
7BFE
  8
3
  6
CONTINUOUS
  2
*D12
 10
73.687221000000136
 20
1169.087417450995
 30
0.0
 11
-29.169921857142981
 21
1169.087417450995
 31
0.0
 70
   128
 13
-161.31277899999981
 23
1301.5980404509951
 33
0.0
 14
73.687221000000136
 24
1278.097121450995
 34
0.0
1001
ACAD
1000
DSTYLE
1002
{
1070
   287
1070
     3
1070
   287
1070
     3
1070
    40
1040
15.0
1070
   143
1040
0.039
1070
   172
1070
     1
1070
   271
1070
     0
1070
   279
1070
     0
1070
   288
1070
     1
1002
}
  0
DIMENSION
  5
7C0A
  8
3
  6
CONTINUOUS
  2
*D13
 10
688.68722100000014
 20
1169.087417450995
 30
0.0
 11
381.18722100000008
 21
1206.587417450995
 31
0.0
 70
     0
 13
73.687221000000136
 23
1278.097121450995
 33
0.0
 14
688.68722100000014
 24
1301.5980404509951
 34
0.0
1001
ACAD
1000
DSTYLE
1002
{
1070
   287
1070
     3
1070
   287
1070
     3
1070
    40
1040
15.0
1070
   143
1040
0.039
1070
   172
1070
     1
1070
   271
1070
     0
1070
   279
1070
     0
1070
   288
1070
     1
1002
}
  0
DIMENSION
  5
7C17
  8
3
  6
CONTINUOUS
  2
*D14
 10
1501.92301
 20
1176.0995992303119
 30
0.0
 11
1357.5820650000001
 21
1176.0995992303119
 31
0.0
 70
   128
 13
1186.9230099999991
 23
1301.5980404509951
 33
0.0
 14
1501.92301
 24
1301.5980404509951
 34
0.0
1001
ACAD
1000
DSTYLE
1002
{
1070
   287
1070
     3
1070
   287
1070
     3
1070
    40
1040
15.0
1070
   143
1040
0.039
1070
   172
1070
     1
1070
   271
1070
     0
1070
   279
1070
     0
1070
   288
1070
     1
1002
}
  0
DIMENSION
  5
7C55
  8
3
  6
CONTINUOUS
  2
*D15
 10
-428.03270634896012
 20
1301.5980404509951
 30
0.0
 11
-428.03270634896029
 21
1677.519329450995
 31
0.0
 70
   128
 13
-176.31277899999981
 23
2038.0980404509939
 33
0.0
 14
-161.31277899999981
 24
1301.5980404509951
 34
0.0
 50
90.0
1001
ACAD
1000
DSTYLE
1002
{
1070
   287
1070
     3
1070
   287
1070
     3
1070
    40
1040
15.0
1070
   143
1040
0.039
1070
   172
1070
     1
1070
   271
1070
     0
1070
   279
1070
     0
1070
   288
1070
     1
1002
}
  0
DIMENSION
  5
7DC1
  8
3
  2
*D16
 10
688.68722100000014
 20
2184.6442662983368
 30
0.0
 11
230.773573217597
 21
2184.6442662983368
 31
0.0
 70
   128
 13
-176.31277899999981
 23
2038.0980404509939
 33
0.0
 14
688.68722100000014
 24
1371.5980404509951
 34
0.0
1001
ACAD
1000
DSTYLE
1002
{
1070
   287
1070
     3
1070
   287
1070
     3
1070
    40
1040
15.0
1070
   143
1040
0.039
1070
   172
1070
     1
1070
   271
1070
     0
1070
   279
1070
     0
1070
   288
1070
     1
1002
}
  0
ENDSEC
  0
EOF
