  0
SECTION
  2
HEADER
  9
$ACADVER
  1
AC1027
  9
$ACADMAINTVER
 70
    81
  9
$DWGCODEPAGE
  3
ANSI_932
  9
$LASTSAVEDBY
  1
reiko.miyawaki
  9
$REQUIREDVERSIONS
160
                 0
  9
$INSBASE
 10
0.0
 20
0.0
 30
0.0
  9
$EXTMIN
 10
375.0
 20
450.0
 30
0.0
  9
$EXTMAX
 10
2775.0
 20
4179.978392
 30
0.0
  9
$LIMMIN
 10
0.0
 20
0.0
  9
$LIMMAX
 10
297.0
 20
210.0
  9
$ORTHOMODE
 70
     0
  9
$REGENMODE
 70
     1
  9
$FILLMODE
 70
     0
  9
$QTEXTMODE
 70
     0
  9
$MIRRTEXT
 70
     1
  9
$LTSCALE
 40
100.0
  9
$ATTMODE
 70
     1
  9
$TEXTSIZE
 40
180.0
  9
$TRACEWID
 40
0.05
  9
$TEXTSTYLE
  7
STANDARD
  9
$CLAYER
  8
3
  9
$CELTYPE
  6
BYLAYER
  9
$CECOLOR
 62
   256
  9
$CELTSCALE
 40
1.0
  9
$DISPSILH
 70
     0
  9
$DIMSCALE
 40
15.0
  9
$DIMASZ
 40
2.0
  9
$DIMEXO
 40
0.5
  9
$DIMDLI
 40
10.0
  9
$DIMRND
 40
0.0
  9
$DIMDLE
 40
0.0
  9
$DIMEXE
 40
1.0
  9
$DIMTP
 40
1.0
  9
$DIMTM
 40
1.0
  9
$DIMTXT
 40
3.0
  9
$DIMCEN
 40
0.0
  9
$DIMTSZ
 40
0.0
  9
$DIMTOL
 70
     0
  9
$DIMLIM
 70
     0
  9
$DIMTIH
 70
     0
  9
$DIMTOH
 70
     0
  9
$DIMSE1
 70
     0
  9
$DIMSE2
 70
     0
  9
$DIMTAD
 70
     1
  9
$DIMZIN
 70
     8
  9
$DIMBLK
  1

  9
$DIMASO
 70
     1
  9
$DIMSHO
 70
     1
  9
$DIMPOST
  1
(<>)
  9
$DIMAPOST
  1

  9
$DIMALT
 70
     0
  9
$DIMALTD
 70
     2
  9
$DIMALTF
 40
0.039
  9
$DIMLFAC
 40
1.0
  9
$DIMTOFL
 70
     1
  9
$DIMTVP
 40
0.0
  9
$DIMTIX
 70
     0
  9
$DIMSOXD
 70
     0
  9
$DIMSAH
 70
     1
  9
$DIMBLK1
  1
OPEN
  9
$DIMBLK2
  1
OPEN
  9
$DIMSTYLE
  2
IGA
  9
$DIMCLRD
 70
     0
  9
$DIMCLRE
 70
     0
  9
$DIMCLRT
 70
     0
  9
$DIMTFAC
 40
10.0
  9
$DIMGAP
 40
1.0
  9
$DIMJUST
 70
     0
  9
$DIMSD1
 70
     0
  9
$DIMSD2
 70
     0
  9
$DIMTOLJ
 70
     1
  9
$DIMTZIN
 70
     8
  9
$DIMALTZ
 70
     0
  9
$DIMALTTZ
 70
     0
  9
$DIMUPT
 70
     0
  9
$DIMDEC
 70
     0
  9
$DIMTDEC
 70
     0
  9
$DIMALTU
 70
     2
  9
$DIMALTTD
 70
     2
  9
$DIMTXSTY
  7
STANDARD
  9
$DIMAUNIT
 70
     0
  9
$DIMADEC
 70
     0
  9
$DIMALTRND
 40
0.0
  9
$DIMAZIN
 70
     0
  9
$DIMDSEP
 70
    46
  9
$DIMATFIT
 70
     3
  9
$DIMFRAC
 70
     0
  9
$DIMLDRBLK
  1
OPEN
  9
$DIMLUNIT
 70
     2
  9
$DIMLWD
 70
    -2
  9
$DIMLWE
 70
    -2
  9
$DIMTMOVE
 70
     0
  9
$DIMFXL
 40
1.0
  9
$DIMFXLON
 70
     0
  9
$DIMJOGANG
 40
0.7853981633974483
  9
$DIMTFILL
 70
     0
  9
$DIMTFILLCLR
 70
     0
  9
$DIMARCSYM
 70
     0
  9
$DIMLTYPE
  6

  9
$DIMLTEX1
  6

  9
$DIMLTEX2
  6

  9
$DIMTXTDIRECTION
 70
     0
  9
$LUNITS
 70
     2
  9
$LUPREC
 70
     3
  9
$SKETCHINC
 40
0.1
  9
$FILLETRAD
 40
50.0
  9
$AUNITS
 70
     0
  9
$AUPREC
 70
     0
  9
$MENU
  1
acad
  9
$ELEVATION
 40
0.0
  9
$PELEVATION
 40
0.0
  9
$THICKNESS
 40
0.0
  9
$LIMCHECK
 70
     0
  9
$CHAMFERA
 40
0.5
  9
$CHAMFERB
 40
0.5
  9
$CHAMFERC
 40
20.0
  9
$CHAMFERD
 40
0.0
  9
$SKPOLY
 70
     0
  9
$TDCREATE
 40
2450746.649695370
  9
$TDUCREATE
 40
2450746.274695370
  9
$TDUPDATE
 40
2459024.553198206
  9
$TDUUPDATE
 40
2459024.178198206
  9
$TDINDWG
 40
0.0115714352
  9
$TDUSRTIMER
 40
0.0115714352
  9
$USRTIMER
 70
     1
  9
$ANGBASE
 50
0.0
  9
$ANGDIR
 70
     0
  9
$PDMODE
 70
     0
  9
$PDSIZE
 40
0.0
  9
$PLINEWID
 40
0.0
  9
$SPLFRAME
 70
     0
  9
$SPLINETYPE
 70
     6
  9
$SPLINESEGS
 70
     8
  9
$HANDSEED
  5
8019
  9
$SURFTAB1
 70
     6
  9
$SURFTAB2
 70
     6
  9
$SURFTYPE
 70
     6
  9
$SURFU
 70
     6
  9
$SURFV
 70
     6
  9
$UCSBASE
  2

  9
$UCSNAME
  2

  9
$UCSORG
 10
0.0
 20
0.0
 30
0.0
  9
$UCSXDIR
 10
1.0
 20
0.0
 30
0.0
  9
$UCSYDIR
 10
0.0
 20
1.0
 30
0.0
  9
$UCSORTHOREF
  2

  9
$UCSORTHOVIEW
 70
     0
  9
$UCSORGTOP
 10
0.0
 20
0.0
 30
0.0
  9
$UCSORGBOTTOM
 10
0.0
 20
0.0
 30
0.0
  9
$UCSORGLEFT
 10
0.0
 20
0.0
 30
0.0
  9
$UCSORGRIGHT
 10
0.0
 20
0.0
 30
0.0
  9
$UCSORGFRONT
 10
0.0
 20
0.0
 30
0.0
  9
$UCSORGBACK
 10
0.0
 20
0.0
 30
0.0
  9
$PUCSBASE
  2

  9
$PUCSNAME
  2

  9
$PUCSORG
 10
0.0
 20
0.0
 30
0.0
  9
$PUCSXDIR
 10
1.0
 20
0.0
 30
0.0
  9
$PUCSYDIR
 10
0.0
 20
1.0
 30
0.0
  9
$PUCSORTHOREF
  2

  9
$PUCSORTHOVIEW
 70
     0
  9
$PUCSORGTOP
 10
0.0
 20
0.0
 30
0.0
  9
$PUCSORGBOTTOM
 10
0.0
 20
0.0
 30
0.0
  9
$PUCSORGLEFT
 10
0.0
 20
0.0
 30
0.0
  9
$PUCSORGRIGHT
 10
0.0
 20
0.0
 30
0.0
  9
$PUCSORGFRONT
 10
0.0
 20
0.0
 30
0.0
  9
$PUCSORGBACK
 10
0.0
 20
0.0
 30
0.0
  9
$USERI1
 70
     0
  9
$USERI2
 70
     0
  9
$USERI3
 70
     0
  9
$USERI4
 70
     0
  9
$USERI5
 70
     0
  9
$USERR1
 40
0.0
  9
$USERR2
 40
0.0
  9
$USERR3
 40
0.0
  9
$USERR4
 40
0.0
  9
$USERR5
 40
0.0
  9
$WORLDVIEW
 70
     1
  9
$SHADEDGE
 70
     3
  9
$SHADEDIF
 70
    70
  9
$TILEMODE
 70
     1
  9
$MAXACTVP
 70
    16
  9
$PINSBASE
 10
0.0
 20
0.0
 30
0.0
  9
$PLIMCHECK
 70
     0
  9
$PEXTMIN
 10
1.000000000000000E+20
 20
1.000000000000000E+20
 30
1.000000000000000E+20
  9
$PEXTMAX
 10
-1.000000000000000E+20
 20
-1.000000000000000E+20
 30
-1.000000000000000E+20
  9
$PLIMMIN
 10
0.0
 20
0.0
  9
$PLIMMAX
 10
12.0
 20
9.0
  9
$UNITMODE
 70
     0
  9
$VISRETAIN
 70
     0
  9
$PLINEGEN
 70
     0
  9
$PSLTSCALE
 70
     1
  9
$TREEDEPTH
 70
  3020
  9
$CMLSTYLE
  2
STANDARD
  9
$CMLJUST
 70
     0
  9
$CMLSCALE
 40
20.0
  9
$PROXYGRAPHICS
 70
     1
  9
$MEASUREMENT
 70
     0
  9
$CELWEIGHT
370
    -1
  9
$ENDCAPS
280
     0
  9
$JOINSTYLE
280
     0
  9
$LWDISPLAY
290
     0
  9
$INSUNITS
 70
     0
  9
$HYPERLINKBASE
  1

  9
$STYLESHEET
  1

  9
$XEDIT
290
     1
  9
$CEPSNTYPE
380
     0
  9
$PSTYLEMODE
290
     1
  9
$FINGERPRINTGUID
  2
{175A7BF4-2AC4-4AEA-9B36-5EB45E275DE7}
  9
$VERSIONGUID
  2
{F7882D53-C564-41C8-A48A-6A3AA1794EB9}
  9
$EXTNAMES
290
     1
  9
$PSVPSCALE
 40
0.0
  9
$OLESTARTUP
290
     0
  9
$SORTENTS
280
   127
  9
$INDEXCTL
280
     0
  9
$HIDETEXT
280
     0
  9
$XCLIPFRAME
280
     2
  9
$HALOGAP
280
     0
  9
$OBSCOLOR
 70
   257
  9
$OBSLTYPE
280
     0
  9
$INTERSECTIONDISPLAY
280
     0
  9
$INTERSECTIONCOLOR
 70
   257
  9
$DIMASSOC
280
     1
  9
$PROJECTNAME
  1

  9
$CAMERADISPLAY
290
     0
  9
$LENSLENGTH
 40
50.0
  9
$CAMERAHEIGHT
 40
0.0
  9
$STEPSPERSEC
 40
2.0
  9
$STEPSIZE
 40
6.0
  9
$3DDWFPREC
 40
2.0
  9
$PSOLWIDTH
 40
0.25
  9
$PSOLHEIGHT
 40
4.0
  9
$LOFTANG1
 40
1.570796326794896
  9
$LOFTANG2
 40
1.570796326794896
  9
$LOFTMAG1
 40
0.0
  9
$LOFTMAG2
 40
0.0
  9
$LOFTPARAM
 70
     7
  9
$LOFTNORMALS
280
     1
  9
$LATITUDE
 40
37.795
  9
$LONGITUDE
 40
-122.394
  9
$NORTHDIRECTION
 40
0.0
  9
$TIMEZONE
 70
 -8000
  9
$LIGHTGLYPHDISPLAY
280
     1
  9
$TILEMODELIGHTSYNCH
280
     1
  9
$CMATERIAL
347
7F17
  9
$SOLIDHIST
280
     0
  9
$SHOWHIST
280
     1
  9
$DWFFRAME
280
     2
  9
$DGNFRAME
280
     0
  9
$REALWORLDSCALE
290
     1
  9
$INTERFERECOLOR
 62
     1
  9
$INTERFEREOBJVS
345
7F39
  9
$INTERFEREVPVS
346
7F36
  9
$CSHADOW
280
     0
  9
$SHADOWPLANELOCATION
 40
0.0
  0
ENDSEC
  0
SECTION
  2
CLASSES
  0
CLASS
  1
ACDBDICTIONARYWDFLT
  2
AcDbDictionaryWithDefault
  3
ObjectDBX Classes
 90
        0
 91
        1
280
     0
281
     0
  0
CLASS
  1
DICTIONARYVAR
  2
AcDbDictionaryVar
  3
ObjectDBX Classes
 90
        0
 91
       10
280
     0
281
     0
  0
CLASS
  1
MATERIAL
  2
AcDbMaterial
  3
ObjectDBX Classes
 90
     1153
 91
        3
280
     0
281
     0
  0
CLASS
  1
VISUALSTYLE
  2
AcDbVisualStyle
  3
ObjectDBX Classes
 90
     4095
 91
       24
280
     0
281
     0
  0
CLASS
  1
TABLESTYLE
  2
AcDbTableStyle
  3
ObjectDBX Classes
 90
     4095
 91
        1
280
     0
281
     0
  0
CLASS
  1
SCALE
  2
AcDbScale
  3
ObjectDBX Classes
 90
     1153
 91
       17
280
     0
281
     0
  0
CLASS
  1
MLEADERSTYLE
  2
AcDbMLeaderStyle
  3
ACDB_MLEADERSTYLE_CLASS
 90
     4095
 91
        1
280
     0
281
     0
  0
CLASS
  1
ACDBSECTIONVIEWSTYLE
  2
AcDbSectionViewStyle
  3
ObjectDBX Classes
 90
     1025
 91
        1
280
     0
281
     0
  0
CLASS
  1
ACDBDETAILVIEWSTYLE
  2
AcDbDetailViewStyle
  3
ObjectDBX Classes
 90
     1025
 91
        1
280
     0
281
     0
  0
CLASS
  1
CELLSTYLEMAP
  2
AcDbCellStyleMap
  3
ObjectDBX Classes
 90
     1152
 91
        1
280
     0
281
     0
  0
ENDSEC
  0
SECTION
  2
TABLES
  0
TABLE
  2
VPORT
  5
8
330
0
100
AcDbSymbolTable
 70
     1
  0
VPORT
  5
7F14
330
8
100
AcDbSymbolTableRecord
100
AcDbViewportTableRecord
  2
*Active
 70
     0
 10
0.0
 20
0.0
 11
1.0
 21
1.0
 12
1574.974257472756
 22
2404.313643811312
 13
0.0
 23
0.0
 14
10.0
 24
10.0
 15
10.0
 25
10.0
 16
0.0
 26
0.0
 36
1.0
 17
0.0
 27
0.0
 37
0.0
 40
3934.380883204197
 41
1.957107843137254
 42
50.0
 43
0.0
 44
0.0
 50
0.0
 51
0.0
 71
     0
 72
   100
 73
     1
 74
     0
 75
     0
 76
     0
 77
     0
 78
     0
281
     0
 65
     1
110
0.0
120
0.0
130
0.0
111
1.0
121
0.0
131
0.0
112
0.0
122
1.0
132
0.0
 79
     0
146
0.0
348
7F35
 60
     3
 61
     5
292
     1
282
     1
141
0.0
142
0.0
 63
   250
421
  3355443
1001
ACAD_NAV_VCDISPLAY
1070
     3
  0
ENDTAB
  0
TABLE
  2
LTYPE
  5
5
330
0
100
AcDbSymbolTable
 70
     2
  0
LTYPE
  5
13
330
5
100
AcDbSymbolTableRecord
100
AcDbLinetypeTableRecord
  2
BYBLOCK
 70
     0
  3

 72
    65
 73
     0
 40
0.0
  0
LTYPE
  5
14
330
5
100
AcDbSymbolTableRecord
100
AcDbLinetypeTableRecord
  2
BYLAYER
 70
     0
  3

 72
    65
 73
     0
 40
0.0
  0
LTYPE
  5
15
330
5
100
AcDbSymbolTableRecord
100
AcDbLinetypeTableRecord
  2
CONTINUOUS
 70
     0
  3
Solid line
 72
    65
 73
     0
 40
0.0
  0
LTYPE
  5
1F
330
5
100
AcDbSymbolTableRecord
100
AcDbLinetypeTableRecord
  2
CENTER
 70
     0
  3
____ _ ____ _ ____ _ ____ _ ____ _ ____ _ ____ 
 72
    65
 73
     4
 40
2.0
 49
1.25
 74
     0
 49
-0.25
 74
     0
 49
0.25
 74
     0
 49
-0.25
 74
     0
  0
ENDTAB
  0
TABLE
  2
LAYER
  5
2
102
{ACAD_XDICTIONARY
360
7F67
102
}
330
0
100
AcDbSymbolTable
 70
     6
  0
LAYER
  5
F
102
{ACAD_XDICTIONARY
360
7FC0
102
}
330
2
100
AcDbSymbolTableRecord
100
AcDbLayerTableRecord
  2
0
 70
     0
 62
     7
  6
CONTINUOUS
370
    -3
390
7E38
347
7F27
348
0
  0
LAYER
  5
31
102
{ACAD_XDICTIONARY
360
7FC2
102
}
330
2
100
AcDbSymbolTableRecord
100
AcDbLayerTableRecord
  2
3
 70
     0
 62
     2
  6
CONTINUOUS
370
    -3
390
7E38
347
7F27
348
0
  0
LAYER
  5
76D0
102
{ACAD_XDICTIONARY
360
7FC4
102
}
330
2
100
AcDbSymbolTableRecord
100
AcDbLayerTableRecord
  2
2
 70
     0
 62
     3
  6
CENTER
370
    -3
390
7E38
347
7F27
348
0
  0
LAYER
  5
76D1
102
{ACAD_XDICTIONARY
360
7FC6
102
}
330
2
100
AcDbSymbolTableRecord
100
AcDbLayerTableRecord
  2
1
 70
     0
 62
     4
  6
CONTINUOUS
370
    -3
390
7E38
347
7F27
348
0
  0
LAYER
  5
76D2
102
{ACAD_XDICTIONARY
360
7FC8
102
}
330
2
100
AcDbSymbolTableRecord
100
AcDbLayerTableRecord
  2
4
 70
     0
 62
     7
  6
CONTINUOUS
370
    -3
390
7E38
347
7F27
348
0
  0
LAYER
  5
7B65
330
2
100
AcDbSymbolTableRecord
100
AcDbLayerTableRecord
  2
DEFPOINTS
 70
     0
 62
     7
  6
CONTINUOUS
290
     0
370
    -3
390
7E38
347
7F27
348
0
  0
ENDTAB
  0
TABLE
  2
STYLE
  5
3
330
0
100
AcDbSymbolTable
 70
     1
  0
STYLE
  5
10
330
3
100
AcDbSymbolTableRecord
100
AcDbTextStyleTableRecord
  2
STANDARD
 70
     0
 40
0.0
 41
1.0
 50
0.0
 71
     0
 42
180.0
  3
simplex.shx
  4
extfont.shx
  0
ENDTAB
  0
TABLE
  2
VIEW
  5
6
330
0
100
AcDbSymbolTable
 70
     0
  0
ENDTAB
  0
TABLE
  2
UCS
  5
7
330
0
100
AcDbSymbolTable
 70
     0
  0
ENDTAB
  0
TABLE
  2
APPID
  5
9
330
0
100
AcDbSymbolTable
 70
     4
  0
APPID
  5
11
330
9
100
AcDbSymbolTableRecord
100
AcDbRegAppTableRecord
  2
ACAD
 70
     0
  0
APPID
  5
7F66
330
9
100
AcDbSymbolTableRecord
100
AcDbRegAppTableRecord
  2
ACAD_NAV_VCDISPLAY
 70
     0
  0
APPID
  5
7FE3
330
9
100
AcDbSymbolTableRecord
100
AcDbRegAppTableRecord
  2
AcadAnnoMonitorAlertIconDisabled
 70
     0
  0
APPID
  5
7FE4
330
9
100
AcDbSymbolTableRecord
100
AcDbRegAppTableRecord
  2
ACAD_EXEMPT_FROM_CAD_STANDARDS
 70
     0
  0
ENDTAB
  0
TABLE
  2
DIMSTYLE
  5
A
330
0
100
AcDbSymbolTable
 70
     1
100
AcDbDimStyleTable
 71
     0
  0
DIMSTYLE
105
1D
102
{ACAD_REACTORS
330
7B83
330
7B90
330
7B9C
330
7BA9
330
7BB5
330
7C27
330
7C34
330
7C75
330
7C82
330
7C90
330
7CB7
330
7DDB
330
7DE8
330
7DF5
330
7E04
330
7E13
330
7E22
330
7E2F
102
}
330
A
100
AcDbSymbolTableRecord
100
AcDbDimStyleTableRecord
  2
IGA
 70
     0
 40
2.0
 41
2.0
 42
0.5
 43
10.0
 44
1.0
 47
1.0
 48
1.0
 73
     0
 74
     0
 77
     1
 78
     8
140
3.0
141
0.0
143
0.03937
146
10.0
147
1.0
173
     1
271
     1
272
     0
279
     2
284
     8
340
10
341
7B57
343
7B57
344
7B57
  0
ENDTAB
  0
TABLE
  2
BLOCK_RECORD
  5
1
330
0
100
AcDbSymbolTable
 70
    20
  0
BLOCK_RECORD
  5
19
102
{ACAD_XDICTIONARY
360
7E66
102
}
330
1
100
AcDbSymbolTableRecord
100
AcDbBlockTableRecord
  2
*MODEL_SPACE
340
7E3B
 70
     0
280
     1
281
     0
  0
BLOCK_RECORD
  5
16
102
{ACAD_XDICTIONARY
360
7E64
102
}
330
1
100
AcDbSymbolTableRecord
100
AcDbBlockTableRecord
  2
*PAPER_SPACE
340
7E3C
 70
     0
280
     1
281
     0
  0
BLOCK_RECORD
  5
7B57
330
1
100
AcDbSymbolTableRecord
100
AcDbBlockTableRecord
  2
_OPEN
340
0
102
{BLKREFS
331
7F90
331
7F91
331
7F9C
331
7FAF
331
7FB0
331
7FBC
331
7FF2
331
7FF3
331
7E6F
331
7E70
331
7E78
331
7E79
331
7E80
331
7E81
331
7E89
331
7E8A
331
7E91
331
7E92
331
7E9A
331
7E9B
331
7EA3
331
7EA4
331
7EAC
331
7EAD
331
7EBE
331
7EBF
331
7EC6
331
7EC7
331
7F75
331
7F76
331
7F7E
331
7F7F
331
7F87
331
7F88
102
}
 70
     0
280
     1
281
     0
  0
BLOCK_RECORD
  5
7B77
330
1
100
AcDbSymbolTableRecord
100
AcDbBlockTableRecord
  2
*D1
340
0
 70
     0
280
     1
281
     0
  0
BLOCK_RECORD
  5
7B84
330
1
100
AcDbSymbolTableRecord
100
AcDbBlockTableRecord
  2
*D2
340
0
 70
     0
280
     1
281
     0
  0
BLOCK_RECORD
  5
7B91
330
1
100
AcDbSymbolTableRecord
100
AcDbBlockTableRecord
  2
*D3
340
0
 70
     0
280
     1
281
     0
  0
BLOCK_RECORD
  5
7B9D
330
1
100
AcDbSymbolTableRecord
100
AcDbBlockTableRecord
  2
*D4
340
0
 70
     0
280
     1
281
     0
  0
BLOCK_RECORD
  5
7BAA
330
1
100
AcDbSymbolTableRecord
100
AcDbBlockTableRecord
  2
*D5
340
0
 70
     0
280
     1
281
     0
  0
BLOCK_RECORD
  5
7C1B
330
1
100
AcDbSymbolTableRecord
100
AcDbBlockTableRecord
  2
*D6
340
0
 70
     0
280
     1
281
     0
  0
BLOCK_RECORD
  5
7C28
330
1
100
AcDbSymbolTableRecord
100
AcDbBlockTableRecord
  2
*D7
340
0
 70
     0
280
     1
281
     0
  0
BLOCK_RECORD
  5
7C69
330
1
100
AcDbSymbolTableRecord
100
AcDbBlockTableRecord
  2
*D8
340
0
 70
     0
280
     1
281
     0
  0
BLOCK_RECORD
  5
7C76
330
1
100
AcDbSymbolTableRecord
100
AcDbBlockTableRecord
  2
*D9
340
0
 70
     0
280
     1
281
     0
  0
BLOCK_RECORD
  5
7C83
330
1
100
AcDbSymbolTableRecord
100
AcDbBlockTableRecord
  2
*D10
340
0
 70
     0
280
     1
281
     0
  0
BLOCK_RECORD
  5
7CAB
330
1
100
AcDbSymbolTableRecord
100
AcDbBlockTableRecord
  2
*D11
340
0
 70
     0
280
     1
281
     0
  0
BLOCK_RECORD
  5
7D44
330
1
100
AcDbSymbolTableRecord
100
AcDbBlockTableRecord
  2
_DOT
340
0
102
{BLKREFS
331
7F9B
331
7FBB
102
}
 70
     0
280
     1
281
     0
  0
BLOCK_RECORD
  5
7DCF
330
1
100
AcDbSymbolTableRecord
100
AcDbBlockTableRecord
  2
*D13
340
0
 70
     0
280
     1
281
     0
  0
BLOCK_RECORD
  5
7DDC
330
1
100
AcDbSymbolTableRecord
100
AcDbBlockTableRecord
  2
*D14
340
0
 70
     0
280
     1
281
     0
  0
BLOCK_RECORD
  5
7DE9
330
1
100
AcDbSymbolTableRecord
100
AcDbBlockTableRecord
  2
*D15
340
0
 70
     0
280
     1
281
     0
  0
BLOCK_RECORD
  5
7DF6
330
1
100
AcDbSymbolTableRecord
100
AcDbBlockTableRecord
  2
*D16
340
0
 70
     0
280
     1
281
     0
  0
BLOCK_RECORD
  5
7E05
330
1
100
AcDbSymbolTableRecord
100
AcDbBlockTableRecord
  2
*D17
340
0
 70
     0
280
     1
281
     0
  0
BLOCK_RECORD
  5
7E14
330
1
100
AcDbSymbolTableRecord
100
AcDbBlockTableRecord
  2
*D18
340
0
 70
     0
280
     1
281
     0
  0
BLOCK_RECORD
  5
7E23
330
1
100
AcDbSymbolTableRecord
100
AcDbBlockTableRecord
  2
*D19
340
0
 70
     0
280
     1
281
     0
  0
ENDTAB
  0
ENDSEC
  0
SECTION
  2
BLOCKS
  0
BLOCK
  5
1A
330
19
100
AcDbEntity
  8
0
100
AcDbBlockBegin
  2
*MODEL_SPACE
 70
     0
 10
0.0
 20
0.0
 30
0.0
  3
*MODEL_SPACE
  1

  0
ENDBLK
  5
1B
330
19
100
AcDbEntity
  8
0
100
AcDbBlockEnd
  0
BLOCK
  5
17
330
16
100
AcDbEntity
 67
     1
  8
0
100
AcDbBlockBegin
  2
*PAPER_SPACE
 70
     0
 10
0.0
 20
0.0
 30
0.0
  3
*PAPER_SPACE
  1

  0
ENDBLK
  5
18
330
16
100
AcDbEntity
 67
     1
  8
0
100
AcDbBlockEnd
  0
BLOCK
  5
7B58
330
7B57
100
AcDbEntity
  8
0
100
AcDbBlockBegin
  2
_OPEN
 70
     0
 10
0.0
 20
0.0
 30
0.0
  3
_OPEN
  1

  0
LINE
  5
7B59
330
7B57
100
AcDbEntity
  8
0
  6
ByBlock
 62
     0
100
AcDbLine
 10
-1.0
 20
0.166667
 30
0.0
 11
0.0
 21
0.0
 31
0.0
  0
LINE
  5
7B5A
330
7B57
100
AcDbEntity
  8
0
  6
ByBlock
 62
     0
100
AcDbLine
 10
0.0
 20
0.0
 30
0.0
 11
-1.0
 21
-0.166667
 31
0.0
  0
LINE
  5
7B5B
330
7B57
100
AcDbEntity
  8
0
  6
ByBlock
 62
     0
100
AcDbLine
 10
0.0
 20
0.0
 30
0.0
 11
-1.0
 21
0.0
 31
0.0
  0
ENDBLK
  5
7B5C
330
7B57
100
AcDbEntity
  8
0
100
AcDbBlockEnd
  0
BLOCK
  5
7B78
330
7B77
100
AcDbEntity
  8
0
100
AcDbBlockBegin
  2
*D1
 70
     1
 10
0.0
 20
0.0
 30
0.0
  3
*D1
  1

  0
LINE
  5
7E6C
330
7B77
100
AcDbEntity
  8
3
  6
Continuous
 62
     0
440
 16777216
100
AcDbLine
 10
903.6077286901608
 20
1922.652643
 30
0.0
 11
903.6077286901608
 21
1988.226544
 31
0.0
  0
LINE
  5
7E6D
330
7B77
100
AcDbEntity
  8
3
  6
Continuous
 62
     0
440
 16777216
100
AcDbLine
 10
1218.607728690161
 20
1922.652643
 30
0.0
 11
1218.607728690161
 21
1988.226544
 31
0.0
  0
LINE
  5
7E6E
330
7B77
100
AcDbEntity
  8
3
  6
Continuous
 62
     0
440
 16777216
100
AcDbLine
 10
933.6077286901607
 20
1973.226544
 30
0.0
 11
1188.607728690161
 21
1973.226544
 31
0.0
  0
INSERT
  5
7E6F
330
7B77
100
AcDbEntity
  8
3
  6
Continuous
 62
     0
440
 16777216
100
AcDbBlockReference
  2
_OPEN
 10
903.6077286901608
 20
1973.226544
 30
0.0
 41
30.0
 42
30.0
 43
30.0
 50
180.0
  0
INSERT
  5
7E70
330
7B77
100
AcDbEntity
  8
3
  6
Continuous
 62
     0
440
 16777216
100
AcDbBlockReference
  2
_OPEN
 10
1218.607728690161
 20
1973.226544
 30
0.0
 41
30.0
 42
30.0
 43
30.0
  0
MTEXT
  5
7E71
330
7B77
100
AcDbEntity
  8
3
  6
Continuous
 62
     0
440
 16777216
100
AcDbMText
 10
1070.195354690161
 20
2010.726544
 30
0.0
 40
45.0
 41
0.0
 46
0.0
 71
     5
 72
     5
  1
\A1;315
 73
     1
 44
1.0
  0
POINT
  5
7E72
330
7B77
100
AcDbEntity
  8
DEFPOINTS
  6
Continuous
 62
     0
440
 16777216
100
AcDbPoint
 10
903.6077286901608
 20
1915.152643
 30
0.0
  0
POINT
  5
7E73
330
7B77
100
AcDbEntity
  8
DEFPOINTS
  6
Continuous
 62
     0
440
 16777216
100
AcDbPoint
 10
1218.607728690161
 20
1915.152643
 30
0.0
  0
POINT
  5
7E74
330
7B77
100
AcDbEntity
  8
DEFPOINTS
  6
Continuous
 62
     0
440
 16777216
100
AcDbPoint
 10
1218.607728690161
 20
1973.226544
 30
0.0
  0
ENDBLK
  5
7B82
330
7B77
100
AcDbEntity
  8
0
100
AcDbBlockEnd
  0
BLOCK
  5
7B85
330
7B84
100
AcDbEntity
  8
0
100
AcDbBlockBegin
  2
*D2
 70
     1
 10
0.0
 20
0.0
 30
0.0
  3
*D2
  1

  0
LINE
  5
7E75
330
7B84
100
AcDbEntity
  8
3
  6
Continuous
 62
     0
440
 16777216
100
AcDbLine
 10
893.6077286901607
 20
1902.652643
 30
0.0
 11
893.6077286901607
 21
2062.741432
 31
0.0
  0
LINE
  5
7E76
330
7B84
100
AcDbEntity
  8
3
  6
Continuous
 62
     0
440
 16777216
100
AcDbLine
 10
1218.607728690161
 20
1922.652643
 30
0.0
 11
1218.607728690161
 21
2062.741432
 31
0.0
  0
LINE
  5
7E77
330
7B84
100
AcDbEntity
  8
3
  6
Continuous
 62
     0
440
 16777216
100
AcDbLine
 10
923.6077286901608
 20
2047.741432
 30
0.0
 11
1188.607728690161
 21
2047.741432
 31
0.0
  0
INSERT
  5
7E78
330
7B84
100
AcDbEntity
  8
3
  6
Continuous
 62
     0
440
 16777216
100
AcDbBlockReference
  2
_OPEN
 10
893.6077286901607
 20
2047.741432
 30
0.0
 41
30.0
 42
30.0
 43
30.0
 50
180.0
  0
INSERT
  5
7E79
330
7B84
100
AcDbEntity
  8
3
  6
Continuous
 62
     0
440
 16777216
100
AcDbBlockReference
  2
_OPEN
 10
1218.607728690161
 20
2047.741432
 30
0.0
 41
30.0
 42
30.0
 43
30.0
  0
MTEXT
  5
7E7A
330
7B84
100
AcDbEntity
  8
3
  6
Continuous
 62
     0
440
 16777216
100
AcDbMText
 10
1067.708853690161
 20
2085.241432
 30
0.0
 40
45.0
 41
0.0
 46
0.0
 71
     5
 72
     5
  1
\A1;325
 73
     1
 44
1.0
  0
POINT
  5
7E7B
330
7B84
100
AcDbEntity
  8
DEFPOINTS
  6
Continuous
 62
     0
440
 16777216
100
AcDbPoint
 10
893.6077286901607
 20
1895.152643
 30
0.0
  0
POINT
  5
7E7C
330
7B84
100
AcDbEntity
  8
DEFPOINTS
  6
Continuous
 62
     0
440
 16777216
100
AcDbPoint
 10
1218.607728690161
 20
1915.152643
 30
0.0
  0
POINT
  5
7E7D
330
7B84
100
AcDbEntity
  8
DEFPOINTS
  6
Continuous
 62
     0
440
 16777216
100
AcDbPoint
 10
1218.607728690161
 20
2047.741432
 30
0.0
  0
ENDBLK
  5
7B8F
330
7B84
100
AcDbEntity
  8
0
100
AcDbBlockEnd
  0
BLOCK
  5
7B92
330
7B91
100
AcDbEntity
  8
0
100
AcDbBlockBegin
  2
*D3
 70
     1
 10
0.0
 20
0.0
 30
0.0
  3
*D3
  1

  0
LINE
  5
7E7E
330
7B91
100
AcDbEntity
  8
3
  6
Continuous
 62
     0
440
 16777216
100
AcDbLine
 10
1450.852914690161
 20
1672.652643
 30
0.0
 11
1450.852914690161
 21
2062.741432
 31
0.0
  0
LINE
  5
7E7F
330
7B91
100
AcDbEntity
  8
3
  6
Continuous
 62
     0
440
 16777216
100
AcDbLine
 10
1248.607728690161
 20
2047.741432
 30
0.0
 11
1420.852914690161
 21
2047.741432
 31
0.0
  0
INSERT
  5
7E80
330
7B91
100
AcDbEntity
  8
3
  6
Continuous
 62
     0
440
 16777216
100
AcDbBlockReference
  2
_OPEN
 10
1218.607728690161
 20
2047.741432
 30
0.0
 41
30.0
 42
30.0
 43
30.0
 50
180.0
  0
INSERT
  5
7E81
330
7B91
100
AcDbEntity
  8
3
  6
Continuous
 62
     0
440
 16777216
100
AcDbBlockReference
  2
_OPEN
 10
1450.852914690161
 20
2047.741432
 30
0.0
 41
30.0
 42
30.0
 43
30.0
  0
MTEXT
  5
7E82
330
7B91
100
AcDbEntity
  8
3
  6
Continuous
 62
     0
440
 16777216
100
AcDbMText
 10
1334.730321690161
 20
2085.241432
 30
0.0
 40
45.0
 41
0.0
 46
0.0
 71
     5
 72
     5
  1
\A1;232
 73
     1
 44
1.0
  0
POINT
  5
7E83
330
7B91
100
AcDbEntity
  8
DEFPOINTS
  6
Continuous
 62
     0
440
 16777216
100
AcDbPoint
 10
1218.607728690161
 20
1915.152643
 30
0.0
  0
POINT
  5
7E84
330
7B91
100
AcDbEntity
  8
DEFPOINTS
  6
Continuous
 62
     0
440
 16777216
100
AcDbPoint
 10
1450.852914690161
 20
1665.152643
 30
0.0
  0
POINT
  5
7E85
330
7B91
100
AcDbEntity
  8
DEFPOINTS
  6
Continuous
 62
     0
440
 16777216
100
AcDbPoint
 10
1450.852914690161
 20
2047.741432
 30
0.0
  0
ENDBLK
  5
7B9B
330
7B91
100
AcDbEntity
  8
0
100
AcDbBlockEnd
  0
BLOCK
  5
7D82
330
7B9D
100
AcDbEntity
  8
0
100
AcDbBlockBegin
  2
*D4
 70
     1
 10
0.0
 20
0.0
 30
0.0
  3
*D4
  1

  0
LINE
  5
7E86
330
7B9D
100
AcDbEntity
  8
3
  6
Continuous
 62
     0
440
 16777216
100
AcDbLine
 10
1247.607728690161
 20
1915.152643
 30
0.0
 11
1646.249106943007
 21
1915.152643
 31
0.0
  0
LINE
  5
7E87
330
7B9D
100
AcDbEntity
  8
3
  6
Continuous
 62
     0
440
 16777216
100
AcDbLine
 10
1458.352914690161
 20
1665.152643
 30
0.0
 11
1646.249106943007
 21
1665.152643
 31
0.0
  0
LINE
  5
7E88
330
7B9D
100
AcDbEntity
  8
3
  6
Continuous
 62
     0
440
 16777216
100
AcDbLine
 10
1631.249106943007
 20
1885.152642999999
 30
0.0
 11
1631.249106943007
 21
1695.152643
 31
0.0
  0
INSERT
  5
7E89
330
7B9D
100
AcDbEntity
  8
3
  6
Continuous
 62
     0
440
 16777216
100
AcDbBlockReference
  2
_OPEN
 10
1631.249106943007
 20
1915.152643
 30
0.0
 41
30.0
 42
30.0
 43
30.0
 50
90.0
  0
INSERT
  5
7E8A
330
7B9D
100
AcDbEntity
  8
3
  6
Continuous
 62
     0
440
 16777216
100
AcDbBlockReference
  2
_OPEN
 10
1631.249106943007
 20
1665.152643
 30
0.0
 41
30.0
 42
30.0
 43
30.0
 50
270.0
  0
MTEXT
  5
7E8B
330
7B9D
100
AcDbEntity
  8
3
  6
Continuous
 62
     0
440
 16777216
100
AcDbMText
 10
1593.749106943007
 20
1789.17603
 30
0.0
 40
45.0
 41
0.0
 46
0.0
 71
     5
 72
     5
  1
\A1;250
 11
0.0000000000000001
 21
1.0
 31
0.0
 73
     1
 44
1.0
  0
POINT
  5
7E8C
330
7B9D
100
AcDbEntity
  8
DEFPOINTS
  6
Continuous
 62
     0
440
 16777216
100
AcDbPoint
 10
1240.107728690161
 20
1915.152643
 30
0.0
  0
POINT
  5
7E8D
330
7B9D
100
AcDbEntity
  8
DEFPOINTS
  6
Continuous
 62
     0
440
 16777216
100
AcDbPoint
 10
1450.852914690161
 20
1665.152643
 30
0.0
  0
POINT
  5
7E8E
330
7B9D
100
AcDbEntity
  8
DEFPOINTS
  6
Continuous
 62
     0
440
 16777216
100
AcDbPoint
 10
1631.249106943007
 20
1665.152643
 30
0.0
  0
ENDBLK
  5
7D8C
330
7B9D
100
AcDbEntity
  8
0
100
AcDbBlockEnd
  0
BLOCK
  5
7D8D
330
7BAA
100
AcDbEntity
  8
0
100
AcDbBlockBegin
  2
*D5
 70
     1
 10
0.0
 20
0.0
 30
0.0
  3
*D5
  1

  0
LINE
  5
7E8F
330
7BAA
100
AcDbEntity
  8
3
  6
Continuous
 62
     0
440
 16777216
100
AcDbLine
 10
1461.107728690161
 20
1265.152643
 30
0.0
 11
1646.249106943006
 21
1265.152642999999
 31
0.0
  0
LINE
  5
7E90
330
7BAA
100
AcDbEntity
  8
3
  6
Continuous
 62
     0
440
 16777216
100
AcDbLine
 10
1631.249106943007
 20
1635.152642999999
 30
0.0
 11
1631.249106943007
 21
1295.152642999999
 31
0.0
  0
INSERT
  5
7E91
330
7BAA
100
AcDbEntity
  8
3
  6
Continuous
 62
     0
440
 16777216
100
AcDbBlockReference
  2
_OPEN
 10
1631.249106943007
 20
1665.152643
 30
0.0
 41
30.0
 42
30.0
 43
30.0
 50
90.0
  0
INSERT
  5
7E92
330
7BAA
100
AcDbEntity
  8
3
  6
Continuous
 62
     0
440
 16777216
100
AcDbBlockReference
  2
_OPEN
 10
1631.249106943007
 20
1265.152642999999
 30
0.0
 41
30.0
 42
30.0
 43
30.0
 50
270.0
  0
MTEXT
  5
7E93
330
7BAA
100
AcDbEntity
  8
3
  6
Continuous
 62
     0
440
 16777216
100
AcDbMText
 10
1593.749106943006
 20
1465.152643
 30
0.0
 40
45.0
 41
0.0
 46
0.0
 71
     5
 72
     5
  1
\A1;400
 11
0.0000000000000001
 21
1.0
 31
0.0
 73
     1
 44
1.0
  0
POINT
  5
7E94
330
7BAA
100
AcDbEntity
  8
DEFPOINTS
  6
Continuous
 62
     0
440
 16777216
100
AcDbPoint
 10
1450.852914690161
 20
1665.152643
 30
0.0
  0
POINT
  5
7E95
330
7BAA
100
AcDbEntity
  8
DEFPOINTS
  6
Continuous
 62
     0
440
 16777216
100
AcDbPoint
 10
1453.607728690161
 20
1265.152643
 30
0.0
  0
POINT
  5
7E96
330
7BAA
100
AcDbEntity
  8
DEFPOINTS
  6
Continuous
 62
     0
440
 16777216
100
AcDbPoint
 10
1631.249106943007
 20
1265.152642999999
 30
0.0
  0
ENDBLK
  5
7D96
330
7BAA
100
AcDbEntity
  8
0
100
AcDbBlockEnd
  0
BLOCK
  5
7C1C
330
7C1B
100
AcDbEntity
  8
0
100
AcDbBlockBegin
  2
*D6
 70
     1
 10
0.0
 20
0.0
 30
0.0
  3
*D6
  1

  0
LINE
  5
7E97
330
7C1B
100
AcDbEntity
  8
3
  6
Continuous
 62
     0
440
 16777216
100
AcDbLine
 10
573.6077286901608
 20
2649.870046766276
 30
0.0
 11
573.6077286901608
 21
2532.824893766275
 31
0.0
  0
LINE
  5
7E98
330
7C1B
100
AcDbEntity
  8
3
  6
Continuous
 62
     0
440
 16777216
100
AcDbLine
 10
1483.607728690161
 20
2649.870046766276
 30
0.0
 11
1483.607728690161
 21
2532.824893766275
 31
0.0
  0
LINE
  5
7E99
330
7C1B
100
AcDbEntity
  8
3
  6
Continuous
 62
     0
440
 16777216
100
AcDbLine
 10
603.6077286901607
 20
2547.824893766275
 30
0.0
 11
1453.607728690161
 21
2547.824893766275
 31
0.0
  0
INSERT
  5
7E9A
330
7C1B
100
AcDbEntity
  8
3
  6
Continuous
 62
     0
440
 16777216
100
AcDbBlockReference
  2
_OPEN
 10
573.6077286901608
 20
2547.824893766275
 30
0.0
 41
30.0
 42
30.0
 43
30.0
 50
180.0
  0
INSERT
  5
7E9B
330
7C1B
100
AcDbEntity
  8
3
  6
Continuous
 62
     0
440
 16777216
100
AcDbBlockReference
  2
_OPEN
 10
1483.607728690161
 20
2547.824893766275
 30
0.0
 41
30.0
 42
30.0
 43
30.0
  0
MTEXT
  5
7E9C
330
7C1B
100
AcDbEntity
  8
3
  6
Continuous
 62
     0
440
 16777216
100
AcDbMText
 10
965.7617636901607
 20
2585.324893766275
 30
0.0
 40
45.0
 41
0.0
 46
0.0
 71
     5
 72
     5
  1
\A1;910
 73
     1
 44
1.0
  0
POINT
  5
7E9D
330
7C1B
100
AcDbEntity
  8
DEFPOINTS
  6
Continuous
 62
     0
440
 16777216
100
AcDbPoint
 10
573.6077286901608
 20
2657.370046766275
 30
0.0
  0
POINT
  5
7E9E
330
7C1B
100
AcDbEntity
  8
DEFPOINTS
  6
Continuous
 62
     0
440
 16777216
100
AcDbPoint
 10
1483.607728690161
 20
2657.370046766275
 30
0.0
  0
POINT
  5
7E9F
330
7C1B
100
AcDbEntity
  8
DEFPOINTS
  6
Continuous
 62
     0
440
 16777216
100
AcDbPoint
 10
1483.607728690161
 20
2547.824893766275
 30
0.0
  0
ENDBLK
  5
7C26
330
7C1B
100
AcDbEntity
  8
0
100
AcDbBlockEnd
  0
BLOCK
  5
7C29
330
7C28
100
AcDbEntity
  8
0
100
AcDbBlockBegin
  2
*D7
 70
     1
 10
0.0
 20
0.0
 30
0.0
  3
*D7
  1

  0
LINE
  5
7EA0
330
7C28
100
AcDbEntity
  8
3
  6
Continuous
 62
     0
440
 16777216
100
AcDbLine
 10
1491.107728690161
 20
3257.370046766276
 30
0.0
 11
1659.580290690161
 21
3257.370046766276
 31
0.0
  0
LINE
  5
7EA1
330
7C28
100
AcDbEntity
  8
3
  6
Continuous
 62
     0
440
 16777216
100
AcDbLine
 10
1491.107728690161
 20
2657.370046766275
 30
0.0
 11
1659.580290690161
 21
2657.370046766275
 31
0.0
  0
LINE
  5
7EA2
330
7C28
100
AcDbEntity
  8
3
  6
Continuous
 62
     0
440
 16777216
100
AcDbLine
 10
1644.580290690161
 20
3227.370046766275
 30
0.0
 11
1644.580290690161
 21
2687.370046766276
 31
0.0
  0
INSERT
  5
7EA3
330
7C28
100
AcDbEntity
  8
3
  6
Continuous
 62
     0
440
 16777216
100
AcDbBlockReference
  2
_OPEN
 10
1644.580290690161
 20
3257.370046766276
 30
0.0
 41
30.0
 42
30.0
 43
30.0
 50
90.0
  0
INSERT
  5
7EA4
330
7C28
100
AcDbEntity
  8
3
  6
Continuous
 62
     0
440
 16777216
100
AcDbBlockReference
  2
_OPEN
 10
1644.580290690161
 20
2657.370046766275
 30
0.0
 41
30.0
 42
30.0
 43
30.0
 50
270.0
  0
MTEXT
  5
7EA5
330
7C28
100
AcDbEntity
  8
3
  6
Continuous
 62
     0
440
 16777216
100
AcDbMText
 10
1607.080290690161
 20
2973.808113766276
 30
0.0
 40
45.0
 41
0.0
 46
0.0
 71
     5
 72
     5
  1
\A1;600
 11
0.0000000000000001
 21
1.0
 31
0.0
 73
     1
 44
1.0
  0
POINT
  5
7EA6
330
7C28
100
AcDbEntity
  8
DEFPOINTS
  6
Continuous
 62
     0
440
 16777216
100
AcDbPoint
 10
1483.607728690161
 20
3257.370046766276
 30
0.0
  0
POINT
  5
7EA7
330
7C28
100
AcDbEntity
  8
DEFPOINTS
  6
Continuous
 62
     0
440
 16777216
100
AcDbPoint
 10
1483.607728690161
 20
2657.370046766275
 30
0.0
  0
POINT
  5
7EA8
330
7C28
100
AcDbEntity
  8
DEFPOINTS
  6
Continuous
 62
     0
440
 16777216
100
AcDbPoint
 10
1644.580290690161
 20
2657.370046766275
 30
0.0
  0
ENDBLK
  5
7C33
330
7C28
100
AcDbEntity
  8
0
100
AcDbBlockEnd
  0
BLOCK
  5
7C6A
330
7C69
100
AcDbEntity
  8
0
100
AcDbBlockBegin
  2
*D8
 70
     1
 10
0.0
 20
0.0
 30
0.0
  3
*D8
  1

  0
LINE
  5
7EA9
330
7C69
100
AcDbEntity
  8
3
  6
Continuous
 62
     0
440
 16777216
100
AcDbLine
 10
2358.19435
 20
1922.652643
 30
0.0
 11
2358.19435
 21
1973.095659
 31
0.0
  0
LINE
  5
7EAA
330
7C69
100
AcDbEntity
  8
3
  6
Continuous
 62
     0
440
 16777216
100
AcDbLine
 10
2582.19435
 20
1922.652643
 30
0.0
 11
2582.19435
 21
1973.095659
 31
0.0
  0
LINE
  5
7EAB
330
7C69
100
AcDbEntity
  8
3
  6
Continuous
 62
     0
440
 16777216
100
AcDbLine
 10
2388.19435
 20
1958.095659
 30
0.0
 11
2552.194350000001
 21
1958.095659
 31
0.0
  0
INSERT
  5
7EAC
330
7C69
100
AcDbEntity
  8
3
  6
Continuous
 62
     0
440
 16777216
100
AcDbBlockReference
  2
_OPEN
 10
2358.19435
 20
1958.095659
 30
0.0
 41
30.0
 42
30.0
 43
30.0
 50
180.0
  0
INSERT
  5
7EAD
330
7C69
100
AcDbEntity
  8
3
  6
Continuous
 62
     0
440
 16777216
100
AcDbBlockReference
  2
_OPEN
 10
2582.19435
 20
1958.095659
 30
0.0
 41
30.0
 42
30.0
 43
30.0
  0
MTEXT
  5
7EAE
330
7C69
100
AcDbEntity
  8
3
  6
Continuous
 62
     0
440
 16777216
100
AcDbMText
 10
2462.122921000001
 20
1995.595659
 30
0.0
 40
45.0
 41
0.0
 46
0.0
 71
     5
 72
     5
  1
\A1;224
 73
     1
 44
1.0
  0
POINT
  5
7EAF
330
7C69
100
AcDbEntity
  8
DEFPOINTS
  6
Continuous
 62
     0
440
 16777216
100
AcDbPoint
 10
2358.19435
 20
1915.152643
 30
0.0
  0
POINT
  5
7EB0
330
7C69
100
AcDbEntity
  8
DEFPOINTS
  6
Continuous
 62
     0
440
 16777216
100
AcDbPoint
 10
2582.19435
 20
1915.152643
 30
0.0
  0
POINT
  5
7EB1
330
7C69
100
AcDbEntity
  8
DEFPOINTS
  6
Continuous
 62
     0
440
 16777216
100
AcDbPoint
 10
2582.19435
 20
1958.095659
 30
0.0
  0
ENDBLK
  5
7C74
330
7C69
100
AcDbEntity
  8
0
100
AcDbBlockEnd
  0
BLOCK
  5
7CE8
330
7C76
100
AcDbEntity
  8
0
100
AcDbBlockBegin
  2
*D9
 70
     1
 10
0.0
 20
0.0
 30
0.0
  3
*D9
  1

  0
LINE
  5
7FEF
330
7C76
100
AcDbEntity
  8
3
  6
Continuous
 62
     0
440
 16777216
370
    -2
100
AcDbLine
 10
2050.19435
 20
1902.652643
 30
0.0
 11
2050.19435
 21
2060.029696
 31
0.0
  0
LINE
  5
7FF0
330
7C76
100
AcDbEntity
  8
3
  6
Continuous
 62
     0
440
 16777216
370
    -2
100
AcDbLine
 10
2470.19435
 20
2033.418427
 30
0.0
 11
2470.19435
 21
2060.029696
 31
0.0
  0
LINE
  5
7FF1
330
7C76
100
AcDbEntity
  8
3
  6
Continuous
 62
     0
440
 16777216
370
    -2
100
AcDbLine
 10
2080.194350000001
 20
2045.029696
 30
0.0
 11
2440.19435
 21
2045.029696
 31
0.0
  0
INSERT
  5
7FF2
330
7C76
100
AcDbEntity
  8
3
  6
Continuous
 62
     0
440
 16777216
370
    -2
100
AcDbBlockReference
  2
_OPEN
 10
2050.19435
 20
2045.029696
 30
0.0
 41
30.0
 42
30.0
 43
30.0
 50
180.0
  0
INSERT
  5
7FF3
330
7C76
100
AcDbEntity
  8
3
  6
Continuous
 62
     0
440
 16777216
370
    -2
100
AcDbBlockReference
  2
_OPEN
 10
2470.19435
 20
2045.029696
 30
0.0
 41
30.0
 42
30.0
 43
30.0
  0
MTEXT
  5
7FF4
330
7C76
100
AcDbEntity
  8
3
  6
Continuous
 62
     0
440
 16777216
100
AcDbMText
 10
2247.055384
 20
2094.315410285714
 30
0.0
 40
45.0
 41
0.0
 46
0.0
 71
     5
 72
     1
  1
\A1;(420)
 73
     1
 44
1.0
  0
POINT
  5
7FF5
330
7C76
100
AcDbEntity
  8
DEFPOINTS
  6
Continuous
 62
     0
440
 16777216
100
AcDbPoint
 10
2050.19435
 20
1895.152643
 30
0.0
  0
POINT
  5
7FF6
330
7C76
100
AcDbEntity
  8
DEFPOINTS
  6
Continuous
 62
     0
440
 16777216
100
AcDbPoint
 10
2470.19435
 20
2025.918427
 30
0.0
  0
POINT
  5
7FF7
330
7C76
100
AcDbEntity
  8
DEFPOINTS
  6
Continuous
 62
     0
440
 16777216
100
AcDbPoint
 10
2470.19435
 20
2045.029696
 30
0.0
  0
ENDBLK
  5
7CF2
330
7C76
100
AcDbEntity
  8
0
100
AcDbBlockEnd
  0
BLOCK
  5
7CC9
330
7C83
100
AcDbEntity
  8
0
100
AcDbBlockBegin
  2
*D10
 70
     1
 10
0.0
 20
0.0
 30
0.0
  3
*D10
  1

  0
LINE
  5
7EBB
330
7C83
100
AcDbEntity
  8
3
  6
Continuous
 62
     0
440
 16777216
100
AcDbLine
 10
2591.19435
 20
1855.152643
 30
0.0
 11
2591.19435
 21
2060.029696
 31
0.0
  0
LINE
  5
7EBC
330
7C83
100
AcDbEntity
  8
3
  6
Continuous
 62
     0
440
 16777216
100
AcDbLine
 10
2500.194350000001
 20
2045.029696
 30
0.0
 11
2561.19435
 21
2045.029696
 31
0.0
  0
MTEXT
  5
7EBD
330
7C83
100
AcDbEntity
  8
3
  6
Continuous
 62
     0
440
 16777216
100
AcDbMText
 10
2530.76636
 20
2082.029116
 30
0.0
 40
45.0
 41
0.0
 46
0.0
 71
     5
 72
     5
  1
\A1;121
 73
     1
 44
1.0
  0
INSERT
  5
7EBE
330
7C83
100
AcDbEntity
  8
3
  6
Continuous
 62
     0
440
 16777216
100
AcDbBlockReference
  2
_OPEN
 10
2470.19435
 20
2045.029696
 30
0.0
 41
30.0
 42
30.0
 43
30.0
 50
180.0
  0
INSERT
  5
7EBF
330
7C83
100
AcDbEntity
  8
3
  6
Continuous
 62
     0
440
 16777216
100
AcDbBlockReference
  2
_OPEN
 10
2591.19435
 20
2045.029696
 30
0.0
 41
30.0
 42
30.0
 43
30.0
  0
POINT
  5
7EC0
330
7C83
100
AcDbEntity
  8
DEFPOINTS
  6
Continuous
 62
     0
440
 16777216
100
AcDbPoint
 10
2470.19435
 20
2025.918427
 30
0.0
  0
POINT
  5
7EC1
330
7C83
100
AcDbEntity
  8
DEFPOINTS
  6
Continuous
 62
     0
440
 16777216
100
AcDbPoint
 10
2591.19435
 20
1847.652643
 30
0.0
  0
POINT
  5
7EC2
330
7C83
100
AcDbEntity
  8
DEFPOINTS
  6
Continuous
 62
     0
440
 16777216
100
AcDbPoint
 10
2591.19435
 20
2045.029696
 30
0.0
  0
ENDBLK
  5
7CD2
330
7C83
100
AcDbEntity
  8
0
100
AcDbBlockEnd
  0
BLOCK
  5
7CF3
330
7CAB
100
AcDbEntity
  8
0
100
AcDbBlockBegin
  2
*D11
 70
     1
 10
0.0
 20
0.0
 30
0.0
  3
*D11
  1

  0
LINE
  5
7EC3
330
7CAB
100
AcDbEntity
  8
3
  6
Continuous
 62
     0
440
 16777216
100
AcDbLine
 10
2598.694350000001
 20
1822.652643
 30
0.0
 11
2712.960744
 21
1822.652643
 31
0.0
  0
LINE
  5
7EC4
330
7CAB
100
AcDbEntity
  8
3
  6
Continuous
 62
     0
440
 16777216
100
AcDbLine
 10
2598.694350000001
 20
1507.652643
 30
0.0
 11
2712.960744
 21
1507.652643
 31
0.0
  0
LINE
  5
7EC5
330
7CAB
100
AcDbEntity
  8
3
  6
Continuous
 62
     0
440
 16777216
100
AcDbLine
 10
2697.960744000001
 20
1792.652643
 30
0.0
 11
2697.960744000001
 21
1537.652643
 31
0.0
  0
INSERT
  5
7EC6
330
7CAB
100
AcDbEntity
  8
3
  6
Continuous
 62
     0
440
 16777216
100
AcDbBlockReference
  2
_OPEN
 10
2697.960744000001
 20
1822.652643
 30
0.0
 41
30.0
 42
30.0
 43
30.0
 50
90.0
  0
INSERT
  5
7EC7
330
7CAB
100
AcDbEntity
  8
3
  6
Continuous
 62
     0
440
 16777216
100
AcDbBlockReference
  2
_OPEN
 10
2697.960744000001
 20
1507.652643
 30
0.0
 41
30.0
 42
30.0
 43
30.0
 50
270.0
  0
MTEXT
  5
7EC8
330
7CAB
100
AcDbEntity
  8
3
  6
Continuous
 62
     0
440
 16777216
100
AcDbMText
 10
2660.460744
 20
1673.855221
 30
0.0
 40
45.0
 41
0.0
 46
0.0
 71
     5
 72
     5
  1
\A1;φ315
 11
0.0000000000000001
 21
1.0
 31
0.0
 73
     1
 44
1.0
  0
POINT
  5
7EC9
330
7CAB
100
AcDbEntity
  8
DEFPOINTS
  6
Continuous
 62
     0
440
 16777216
100
AcDbPoint
 10
2591.19435
 20
1822.652643
 30
0.0
  0
POINT
  5
7ECA
330
7CAB
100
AcDbEntity
  8
DEFPOINTS
  6
Continuous
 62
     0
440
 16777216
100
AcDbPoint
 10
2591.19435
 20
1507.652643
 30
0.0
  0
POINT
  5
7ECB
330
7CAB
100
AcDbEntity
  8
DEFPOINTS
  6
Continuous
 62
     0
440
 16777216
100
AcDbPoint
 10
2697.960744000001
 20
1507.652643
 30
0.0
  0
ENDBLK
  5
7CFD
330
7CAB
100
AcDbEntity
  8
0
100
AcDbBlockEnd
  0
BLOCK
  5
7D45
330
7D44
100
AcDbEntity
  8
0
100
AcDbBlockBegin
  2
_DOT
 70
     0
 10
0.0
 20
0.0
 30
0.0
  3
_DOT
  1

  0
LINE
  5
7D65
330
7D44
100
AcDbEntity
  8
0
  6
ByBlock
 62
     0
100
AcDbLine
 10
0.0
 20
0.0
 30
0.0
 11
-1.0
 21
-0.0000000000000284
 31
0.0
  0
LWPOLYLINE
  5
7D66
330
7D44
100
AcDbEntity
  8
0
  6
ByBlock
 62
     0
100
AcDbPolyline
 90
        2
 70
     1
 43
0.1666666666666666
 10
-0.0833333333333286
 20
-0.0000000000000284
 42
1.0
 10
0.0833333333333286
 20
-0.0000000000000284
 42
1.0
  0
ENDBLK
  5
7D4B
330
7D44
100
AcDbEntity
  8
0
100
AcDbBlockEnd
  0
BLOCK
  5
7DD0
330
7DCF
100
AcDbEntity
  8
0
100
AcDbBlockBegin
  2
*D13
 70
     1
 10
0.0
 20
0.0
 30
0.0
  3
*D13
  1

  0
LINE
  5
7F72
330
7DCF
100
AcDbEntity
  8
3
 62
     0
440
 16777216
370
    -2
100
AcDbLine
 10
573.6077286901609
 20
1127.652643
 30
0.0
 11
573.6077286901609
 21
1020.348186827816
 31
0.0
  0
LINE
  5
7F73
330
7DCF
100
AcDbEntity
  8
3
 62
     0
440
 16777216
370
    -2
100
AcDbLine
 10
1218.607728690161
 20
1157.652643
 30
0.0
 11
1218.607728690161
 21
1020.348186827816
 31
0.0
  0
LINE
  5
7F74
330
7DCF
100
AcDbEntity
  8
3
 62
     0
440
 16777216
370
    -2
100
AcDbLine
 10
603.6077286901608
 20
1035.348186827816
 30
0.0
 11
1188.607728690161
 21
1035.348186827816
 31
0.0
  0
INSERT
  5
7F75
330
7DCF
100
AcDbEntity
  8
3
 62
     0
440
 16777216
370
    -2
100
AcDbBlockReference
  2
_OPEN
 10
573.6077286901609
 20
1035.348186827816
 30
0.0
 41
30.0
 42
30.0
 43
30.0
 50
180.0
  0
INSERT
  5
7F76
330
7DCF
100
AcDbEntity
  8
3
 62
     0
440
 16777216
370
    -2
100
AcDbBlockReference
  2
_OPEN
 10
1218.607728690161
 20
1035.348186827816
 30
0.0
 41
30.0
 42
30.0
 43
30.0
  0
MTEXT
  5
7F77
330
7DCF
100
AcDbEntity
  8
3
 62
     0
440
 16777216
100
AcDbMText
 10
896.1077286901609
 20
1072.848186827816
 30
0.0
 40
45.0
 41
0.0
 46
0.0
 71
     5
 72
     1
  1
\A1;645
 73
     1
 44
1.0
  0
POINT
  5
7F78
330
7DCF
100
AcDbEntity
  8
DEFPOINTS
 62
     0
440
 16777216
100
AcDbPoint
 10
573.6077286901609
 20
1135.152643
 30
0.0
  0
POINT
  5
7F79
330
7DCF
100
AcDbEntity
  8
DEFPOINTS
 62
     0
440
 16777216
100
AcDbPoint
 10
1218.607728690161
 20
1165.152643
 30
0.0
  0
POINT
  5
7F7A
330
7DCF
100
AcDbEntity
  8
DEFPOINTS
 62
     0
440
 16777216
100
AcDbPoint
 10
1218.607728690161
 20
1035.348186827816
 30
0.0
  0
ENDBLK
  5
7DDA
330
7DCF
100
AcDbEntity
  8
0
100
AcDbBlockEnd
  0
BLOCK
  5
7DDD
330
7DDC
100
AcDbEntity
  8
0
100
AcDbBlockBegin
  2
*D14
 70
     1
 10
0.0
 20
0.0
 30
0.0
  3
*D14
  1

  0
LINE
  5
7F7B
330
7DDC
100
AcDbEntity
  8
3
 62
     0
440
 16777216
370
    -2
100
AcDbLine
 10
1218.607728690161
 20
1157.652643
 30
0.0
 11
1218.607728690161
 21
1020.348186827816
 31
0.0
  0
LINE
  5
7F7C
330
7DDC
100
AcDbEntity
  8
3
 62
     0
440
 16777216
370
    -2
100
AcDbLine
 10
1483.607728690161
 20
1127.652643
 30
0.0
 11
1483.607728690161
 21
1020.348186827816
 31
0.0
  0
LINE
  5
7F7D
330
7DDC
100
AcDbEntity
  8
3
 62
     0
440
 16777216
370
    -2
100
AcDbLine
 10
1248.607728690161
 20
1035.348186827816
 30
0.0
 11
1453.607728690161
 21
1035.348186827816
 31
0.0
  0
INSERT
  5
7F7E
330
7DDC
100
AcDbEntity
  8
3
 62
     0
440
 16777216
370
    -2
100
AcDbBlockReference
  2
_OPEN
 10
1218.607728690161
 20
1035.348186827816
 30
0.0
 41
30.0
 42
30.0
 43
30.0
 50
180.0
  0
INSERT
  5
7F7F
330
7DDC
100
AcDbEntity
  8
3
 62
     0
440
 16777216
370
    -2
100
AcDbBlockReference
  2
_OPEN
 10
1483.607728690161
 20
1035.348186827816
 30
0.0
 41
30.0
 42
30.0
 43
30.0
  0
MTEXT
  5
7F80
330
7DDC
100
AcDbEntity
  8
3
 62
     0
440
 16777216
100
AcDbMText
 10
1351.107728690161
 20
1072.848186827816
 30
0.0
 40
45.0
 41
0.0
 46
0.0
 71
     5
 72
     1
  1
\A1;265
 73
     1
 44
1.0
  0
POINT
  5
7F81
330
7DDC
100
AcDbEntity
  8
DEFPOINTS
 62
     0
440
 16777216
100
AcDbPoint
 10
1218.607728690161
 20
1165.152643
 30
0.0
  0
POINT
  5
7F82
330
7DDC
100
AcDbEntity
  8
DEFPOINTS
 62
     0
440
 16777216
100
AcDbPoint
 10
1483.607728690161
 20
1135.152643
 30
0.0
  0
POINT
  5
7F83
330
7DDC
100
AcDbEntity
  8
DEFPOINTS
 62
     0
440
 16777216
100
AcDbPoint
 10
1483.607728690161
 20
1035.348186827816
 30
0.0
  0
ENDBLK
  5
7DE7
330
7DDC
100
AcDbEntity
  8
0
100
AcDbBlockEnd
  0
BLOCK
  5
7DEA
330
7DE9
100
AcDbEntity
  8
0
100
AcDbBlockBegin
  2
*D15
 70
     1
 10
0.0
 20
0.0
 30
0.0
  3
*D15
  1

  0
LINE
  5
7F84
330
7DE9
100
AcDbEntity
  8
3
 62
     0
440
 16777216
370
    -2
100
AcDbLine
 10
2050.19435
 20
1127.652643
 30
0.0
 11
2050.19435
 21
1020.348186827816
 31
0.0
  0
LINE
  5
7F85
330
7DE9
100
AcDbEntity
  8
3
 62
     0
440
 16777216
370
    -2
100
AcDbLine
 10
2470.19435
 20
1127.652643
 30
0.0
 11
2470.19435
 21
1020.348186827816
 31
0.0
  0
LINE
  5
7F86
330
7DE9
100
AcDbEntity
  8
3
 62
     0
440
 16777216
370
    -2
100
AcDbLine
 10
2080.194350000001
 20
1035.348186827816
 30
0.0
 11
2440.19435
 21
1035.348186827816
 31
0.0
  0
INSERT
  5
7F87
330
7DE9
100
AcDbEntity
  8
3
 62
     0
440
 16777216
370
    -2
100
AcDbBlockReference
  2
_OPEN
 10
2050.19435
 20
1035.348186827816
 30
0.0
 41
30.0
 42
30.0
 43
30.0
 50
180.0
  0
INSERT
  5
7F88
330
7DE9
100
AcDbEntity
  8
3
 62
     0
440
 16777216
370
    -2
100
AcDbBlockReference
  2
_OPEN
 10
2470.19435
 20
1035.348186827816
 30
0.0
 41
30.0
 42
30.0
 43
30.0
  0
MTEXT
  5
7F89
330
7DE9
100
AcDbEntity
  8
3
 62
     0
440
 16777216
100
AcDbMText
 10
2260.19435
 20
1072.848186827816
 30
0.0
 40
45.0
 41
0.0
 46
0.0
 71
     5
 72
     1
  1
\A1;420
 73
     1
 44
1.0
  0
POINT
  5
7F8A
330
7DE9
100
AcDbEntity
  8
DEFPOINTS
 62
     0
440
 16777216
100
AcDbPoint
 10
2050.19435
 20
1135.152643
 30
0.0
  0
POINT
  5
7F8B
330
7DE9
100
AcDbEntity
  8
DEFPOINTS
 62
     0
440
 16777216
100
AcDbPoint
 10
2470.19435
 20
1135.152643
 30
0.0
  0
POINT
  5
7F8C
330
7DE9
100
AcDbEntity
  8
DEFPOINTS
 62
     0
440
 16777216
100
AcDbPoint
 10
2470.19435
 20
1035.348186827816
 30
0.0
  0
ENDBLK
  5
7DF4
330
7DE9
100
AcDbEntity
  8
0
100
AcDbBlockEnd
  0
BLOCK
  5
7DF7
330
7DF6
100
AcDbEntity
  8
0
100
AcDbBlockBegin
  2
*D16
 70
     1
 10
0.0
 20
0.0
 30
0.0
  3
*D16
  1

  0
LINE
  5
7F8D
330
7DF6
100
AcDbEntity
  8
3
 62
     0
440
 16777216
370
    -2
100
AcDbLine
 10
2470.19435
 20
1127.652643
 30
0.0
 11
2470.19435
 21
1020.348186827816
 31
0.0
  0
LINE
  5
7F8E
330
7DF6
100
AcDbEntity
  8
3
 62
     0
440
 16777216
370
    -2
100
AcDbLine
 10
2650.19435
 20
1127.652643
 30
0.0
 11
2650.19435
 21
1020.348186827816
 31
0.0
  0
LINE
  5
7F8F
330
7DF6
100
AcDbEntity
  8
3
 62
     0
440
 16777216
370
    -2
100
AcDbLine
 10
2500.194350000001
 20
1035.348186827816
 30
0.0
 11
2620.19435
 21
1035.348186827816
 31
0.0
  0
INSERT
  5
7F90
330
7DF6
100
AcDbEntity
  8
3
 62
     0
440
 16777216
370
    -2
100
AcDbBlockReference
  2
_OPEN
 10
2470.19435
 20
1035.348186827816
 30
0.0
 41
30.0
 42
30.0
 43
30.0
 50
180.0
  0
INSERT
  5
7F91
330
7DF6
100
AcDbEntity
  8
3
 62
     0
440
 16777216
370
    -2
100
AcDbBlockReference
  2
_OPEN
 10
2650.19435
 20
1035.348186827816
 30
0.0
 41
30.0
 42
30.0
 43
30.0
  0
MTEXT
  5
7F92
330
7DF6
100
AcDbEntity
  8
3
 62
     0
440
 16777216
100
AcDbMText
 10
2560.194350000001
 20
1072.848186827816
 30
0.0
 40
45.0
 41
0.0
 46
0.0
 71
     5
 72
     1
  1
\A1;180
 73
     1
 44
1.0
  0
POINT
  5
7F93
330
7DF6
100
AcDbEntity
  8
DEFPOINTS
 62
     0
440
 16777216
100
AcDbPoint
 10
2470.19435
 20
1135.152643
 30
0.0
  0
POINT
  5
7F94
330
7DF6
100
AcDbEntity
  8
DEFPOINTS
 62
     0
440
 16777216
100
AcDbPoint
 10
2650.19435
 20
1135.152643
 30
0.0
  0
POINT
  5
7F95
330
7DF6
100
AcDbEntity
  8
DEFPOINTS
 62
     0
440
 16777216
100
AcDbPoint
 10
2650.19435
 20
1035.348186827816
 30
0.0
  0
ENDBLK
  5
7E03
330
7DF6
100
AcDbEntity
  8
0
100
AcDbBlockEnd
  0
BLOCK
  5
7E06
330
7E05
100
AcDbEntity
  8
0
100
AcDbBlockBegin
  2
*D17
 70
     1
 10
0.0
 20
0.0
 30
0.0
  3
*D17
  1

  0
LINE
  5
7F96
330
7E05
100
AcDbEntity
  8
3
 62
     0
440
 16777216
370
    -2
100
AcDbLine
 10
1491.107728690161
 20
1195.152643
 30
0.0
 11
1644.766684077747
 21
1195.152643
 31
0.0
  0
LINE
  5
7F97
330
7E05
100
AcDbEntity
  8
3
 62
     0
440
 16777216
370
    -2
100
AcDbLine
 10
1491.107728690161
 20
1135.152643
 30
0.0
 11
1644.766684077747
 21
1135.152642999999
 31
0.0
  0
LINE
  5
7F98
330
7E05
100
AcDbEntity
  8
3
 62
     0
440
 16777216
370
    -2
100
AcDbLine
 10
1629.766684077747
 20
1225.152642999999
 30
0.0
 11
1629.766684077747
 21
1255.152642999999
 31
0.0
  0
LINE
  5
7F99
330
7E05
100
AcDbEntity
  8
3
 62
     0
440
 16777216
370
    -2
100
AcDbLine
 10
1629.766684077747
 20
1105.152643
 30
0.0
 11
1629.766684077747
 21
972.2955001428569
 31
0.0
  0
LINE
  5
7F9A
330
7E05
100
AcDbEntity
  8
3
 62
     0
440
 16777216
370
    -2
100
AcDbLine
 10
1629.766684077747
 20
1195.152643
 30
0.0
 11
1629.766684077747
 21
1135.152642999999
 31
0.0
  0
INSERT
  5
7F9B
330
7E05
100
AcDbEntity
  8
3
 62
     0
440
 16777216
370
    -2
100
AcDbBlockReference
  2
_DOT
 10
1629.766684077747
 20
1195.152643
 30
0.0
 41
30.0
 42
30.0
 43
30.0
 50
270.0
  0
INSERT
  5
7F9C
330
7E05
100
AcDbEntity
  8
3
 62
     0
440
 16777216
370
    -2
100
AcDbBlockReference
  2
_OPEN
 10
1629.766684077747
 20
1135.152642999999
 30
0.0
 41
30.0
 42
30.0
 43
30.0
 50
90.0
  0
MTEXT
  5
7F9D
330
7E05
100
AcDbEntity
  8
3
 62
     0
440
 16777216
100
AcDbMText
 10
1592.266684077747
 20
1023.724071571428
 30
0.0
 40
45.0
 41
0.0
 46
0.0
 71
     5
 72
     1
  1
\A1;60
 11
0.0000000000000001
 21
1.0
 31
0.0
 73
     1
 44
1.0
  0
POINT
  5
7F9E
330
7E05
100
AcDbEntity
  8
DEFPOINTS
 62
     0
440
 16777216
100
AcDbPoint
 10
1483.607728690161
 20
1195.152643
 30
0.0
  0
POINT
  5
7F9F
330
7E05
100
AcDbEntity
  8
DEFPOINTS
 62
     0
440
 16777216
100
AcDbPoint
 10
1483.607728690161
 20
1135.152643
 30
0.0
  0
POINT
  5
7FA0
330
7E05
100
AcDbEntity
  8
DEFPOINTS
 62
     0
440
 16777216
100
AcDbPoint
 10
1629.766684077747
 20
1135.152642999999
 30
0.0
  0
ENDBLK
  5
7E12
330
7E05
100
AcDbEntity
  8
0
100
AcDbBlockEnd
  0
BLOCK
  5
7E15
330
7E14
100
AcDbEntity
  8
0
100
AcDbBlockBegin
  2
*D18
 70
     1
 10
0.0
 20
0.0
 30
0.0
  3
*D18
  1

  0
LINE
  5
7FB5
330
7E14
100
AcDbEntity
  8
3
 62
     0
440
 16777216
370
    -2
100
AcDbLine
 10
1491.107728690161
 20
1195.152643
 30
0.0
 11
1644.766684077747
 21
1195.152643
 31
0.0
  0
LINE
  5
7FB6
330
7E14
100
AcDbEntity
  8
3
 62
     0
440
 16777216
370
    -2
100
AcDbLine
 10
1461.107728690161
 20
1265.152643
 30
0.0
 11
1644.766684077747
 21
1265.152642999999
 31
0.0
  0
LINE
  5
7FB7
330
7E14
100
AcDbEntity
  8
3
 62
     0
440
 16777216
370
    -2
100
AcDbLine
 10
1629.766684077747
 20
1165.152642999999
 30
0.0
 11
1629.766684077747
 21
1135.152642999999
 31
0.0
  0
LINE
  5
7FB8
330
7E14
100
AcDbEntity
  8
3
 62
     0
440
 16777216
370
    -2
100
AcDbLine
 10
1629.766684077747
 20
1295.152642999999
 30
0.0
 11
1629.766684077747
 21
1325.152643
 31
0.0
  0
MTEXT
  5
7FB9
330
7E14
100
AcDbEntity
  8
3
 62
     0
440
 16777216
100
AcDbMText
 10
1693.11237387959
 20
1227.266346263057
 30
0.0
 40
45.0
 41
0.0
 46
0.0
 71
     5
 72
     1
  1
\A1;(70)
 11
0.0000000000000001
 21
1.0
 31
0.0
 73
     1
 44
1.0
  0
LINE
  5
7FBA
330
7E14
100
AcDbEntity
  8
3
 62
     0
440
 16777216
370
    -2
100
AcDbLine
 10
1629.766684077747
 20
1195.152643
 30
0.0
 11
1629.766684077747
 21
1265.152642999999
 31
0.0
  0
INSERT
  5
7FBB
330
7E14
100
AcDbEntity
  8
3
 62
     0
440
 16777216
370
    -2
100
AcDbBlockReference
  2
_DOT
 10
1629.766684077747
 20
1195.152643
 30
0.0
 41
30.0
 42
30.0
 43
30.0
 50
90.0
  0
INSERT
  5
7FBC
330
7E14
100
AcDbEntity
  8
3
 62
     0
440
 16777216
370
    -2
100
AcDbBlockReference
  2
_OPEN
 10
1629.766684077747
 20
1265.152642999999
 30
0.0
 41
30.0
 42
30.0
 43
30.0
 50
270.0
  0
POINT
  5
7FBD
330
7E14
100
AcDbEntity
  8
DEFPOINTS
 62
     0
440
 16777216
100
AcDbPoint
 10
1483.607728690161
 20
1195.152643
 30
0.0
  0
POINT
  5
7FBE
330
7E14
100
AcDbEntity
  8
DEFPOINTS
 62
     0
440
 16777216
100
AcDbPoint
 10
1453.607728690161
 20
1265.152643
 30
0.0
  0
POINT
  5
7FBF
330
7E14
100
AcDbEntity
  8
DEFPOINTS
 62
     0
440
 16777216
100
AcDbPoint
 10
1629.766684077747
 20
1265.152642999999
 30
0.0
  0
ENDBLK
  5
7E21
330
7E14
100
AcDbEntity
  8
0
100
AcDbBlockEnd
  0
BLOCK
  5
7E24
330
7E23
100
AcDbEntity
  8
0
100
AcDbBlockBegin
  2
*D19
 70
     1
 10
0.0
 20
0.0
 30
0.0
  3
*D19
  1

  0
LINE
  5
7FAC
330
7E23
100
AcDbEntity
  8
3
 62
     0
440
 16777216
370
    -2
100
AcDbLine
 10
1247.607728690161
 20
1915.152643
 30
0.0
 11
1783.234881436982
 21
1915.152643
 31
0.0
  0
LINE
  5
7FAD
330
7E23
100
AcDbEntity
  8
3
 62
     0
440
 16777216
370
    -2
100
AcDbLine
 10
1491.107728690161
 20
1135.152643
 30
0.0
 11
1783.234881436981
 21
1135.152642999999
 31
0.0
  0
LINE
  5
7FAE
330
7E23
100
AcDbEntity
  8
3
 62
     0
440
 16777216
370
    -2
100
AcDbLine
 10
1768.234881436981
 20
1885.152642999999
 30
0.0
 11
1768.234881436981
 21
1165.152642999999
 31
0.0
  0
INSERT
  5
7FAF
330
7E23
100
AcDbEntity
  8
3
 62
     0
440
 16777216
370
    -2
100
AcDbBlockReference
  2
_OPEN
 10
1768.234881436981
 20
1915.152643
 30
0.0
 41
30.0
 42
30.0
 43
30.0
 50
90.0
  0
INSERT
  5
7FB0
330
7E23
100
AcDbEntity
  8
3
 62
     0
440
 16777216
370
    -2
100
AcDbBlockReference
  2
_OPEN
 10
1768.234881436981
 20
1135.152642999999
 30
0.0
 41
30.0
 42
30.0
 43
30.0
 50
270.0
  0
MTEXT
  5
7FB1
330
7E23
100
AcDbEntity
  8
3
 62
     0
440
 16777216
100
AcDbMText
 10
1718.949167151267
 20
1525.152643
 30
0.0
 40
45.0
 41
0.0
 46
0.0
 71
     5
 72
     1
  1
\A1;(780)
 11
0.0000000000000001
 21
1.0
 31
0.0
 73
     1
 44
1.0
  0
POINT
  5
7FB2
330
7E23
100
AcDbEntity
  8
DEFPOINTS
 62
     0
440
 16777216
100
AcDbPoint
 10
1240.107728690161
 20
1915.152643
 30
0.0
  0
POINT
  5
7FB3
330
7E23
100
AcDbEntity
  8
DEFPOINTS
 62
     0
440
 16777216
100
AcDbPoint
 10
1483.607728690161
 20
1135.152643
 30
0.0
  0
POINT
  5
7FB4
330
7E23
100
AcDbEntity
  8
DEFPOINTS
 62
     0
440
 16777216
100
AcDbPoint
 10
1768.234881436981
 20
1135.152642999999
 30
0.0
  0
ENDBLK
  5
7E2E
330
7E23
100
AcDbEntity
  8
0
100
AcDbBlockEnd
  0
ENDSEC
  0
SECTION
  2
ENTITIES
  0
LINE
  5
7A9C
330
19
100
AcDbEntity
  8
1
  6
Continuous
100
AcDbLine
 10
2050.19435
 20
1165.152643
 30
0.0
 11
2650.19435
 21
1165.152643
 31
0.0
  0
LINE
  5
7A9D
330
19
100
AcDbEntity
  8
1
  6
Continuous
100
AcDbLine
 10
2050.19435
 20
1135.152643
 30
0.0
 11
2650.19435
 21
1135.152643
 31
0.0
  0
LINE
  5
7A9E
330
19
100
AcDbEntity
  8
1
  6
Continuous
100
AcDbLine
 10
2110.19435
 20
1433.252643
 30
0.0
 11
2184.19435
 21
1433.252643
 31
0.0
  0
LINE
  5
7A9F
330
19
100
AcDbEntity
  8
1
  6
Continuous
100
AcDbLine
 10
2110.19435
 20
1457.252643
 30
0.0
 11
2184.19435
 21
1457.252643
 31
0.0
  0
LINE
  5
7AA0
330
19
100
AcDbEntity
  8
1
  6
Continuous
100
AcDbLine
 10
2110.19435
 20
1677.752643
 30
0.0
 11
2251.19435
 21
1677.752643
 31
0.0
  0
LINE
  5
7AA1
330
19
100
AcDbEntity
  8
1
  6
Continuous
100
AcDbLine
 10
2110.19435
 20
1652.752643
 30
0.0
 11
2218.79435
 21
1652.752643
 31
0.0
  0
LINE
  5
7AA2
330
19
100
AcDbEntity
  8
1
  6
Continuous
100
AcDbLine
 10
769.1077286901608
 20
1396.652643
 30
0.0
 11
1244.30772869016
 21
1607.052643
 31
0.0
  0
LINE
  5
7AA3
330
19
100
AcDbEntity
  8
1
  6
Continuous
100
AcDbLine
 10
724.2077286901607
 20
1492.752643
 30
0.0
 11
1190.607728690161
 21
1722.152643
 31
0.0
  0
LINE
  5
7AA4
330
19
100
AcDbEntity
  8
1
  6
Continuous
100
AcDbLine
 10
903.6077286901608
 20
1895.152643
 30
0.0
 11
893.6077286901607
 21
1895.152643
 31
0.0
  0
ARC
  5
7AA5
330
19
100
AcDbEntity
  8
1
  6
Continuous
100
AcDbCircle
 10
1193.107728690161
 20
1690.652643
 30
0.0
 40
299.5
100
AcDbArc
 50
180.0
 51
280.6000000000001
  0
LINE
  5
7AA6
330
19
100
AcDbEntity
  8
1
  6
Continuous
100
AcDbLine
 10
1240.107728690161
 20
1915.152643
 30
0.0
 11
882.1077286901608
 21
1915.152643
 31
0.0
  0
LINE
  5
7AA7
330
19
100
AcDbEntity
  8
1
  6
Continuous
100
AcDbLine
 10
603.6077286901607
 20
1335.152643
 30
0.0
 11
1453.607728690161
 21
1335.152643
 31
0.0
  0
LINE
  5
7AA8
330
19
100
AcDbEntity
  8
1
  6
Continuous
100
AcDbLine
 10
603.6077286901607
 20
1265.152643
 30
0.0
 11
1453.607728690161
 21
1265.152643
 31
0.0
  0
LINE
  5
7AA9
330
19
100
AcDbEntity
  8
1
  6
Continuous
100
AcDbLine
 10
633.6077286901607
 20
1355.152643
 30
0.0
 11
948.6077286901609
 21
1355.152643
 31
0.0
  0
LINE
  5
7AAA
330
19
100
AcDbEntity
  8
1
  6
Continuous
100
AcDbLine
 10
1163.107728690161
 20
1895.152643
 30
0.0
 11
633.1077286901607
 21
1545.152643
 31
0.0
  0
LINE
  5
7AAB
330
19
100
AcDbEntity
  8
1
  6
Continuous
100
AcDbLine
 10
573.6077286901609
 20
1165.152643
 30
0.0
 11
1483.607728690161
 21
1165.152643
 31
0.0
  0
LINE
  5
7AAC
330
19
100
AcDbEntity
  8
1
  6
Continuous
100
AcDbLine
 10
573.6077286901609
 20
1195.152643
 30
0.0
 11
1483.607728690161
 21
1195.152643
 31
0.0
  0
LINE
  5
7AAD
330
19
100
AcDbEntity
  8
2
  6
CENTER
100
AcDbLine
 10
747.6077286901608
 20
1392.152643
 30
0.0
 11
747.6077286901608
 21
1498.152643
 31
0.0
  0
CIRCLE
  5
7AAE
330
19
100
AcDbEntity
  8
1
  6
Continuous
100
AcDbCircle
 10
747.6077286901608
 20
1445.152643
 30
0.0
 40
53.0
  0
ARC
  5
7AAF
330
19
100
AcDbEntity
  8
1
  6
Continuous
100
AcDbCircle
 10
747.6077286901608
 20
1445.152643
 30
0.0
 40
101.0
100
AcDbArc
 50
322.9
 51
217.1
  0
LINE
  5
7AB0
330
19
100
AcDbEntity
  8
1
  6
Continuous
100
AcDbLine
 10
633.1077286901607
 20
1545.152643
 30
0.0
 11
633.1077286901607
 21
1335.152643
 31
0.0
  0
LINE
  5
7AB1
330
19
100
AcDbEntity
  8
1
  6
Continuous
100
AcDbLine
 10
603.6077286901608
 20
1165.152643
 30
0.0
 11
603.6077286901608
 21
1135.152643
 31
0.0
  0
LINE
  5
7AB2
330
19
100
AcDbEntity
  8
1
  6
Continuous
100
AcDbLine
 10
573.6077286901609
 20
1135.152643
 30
0.0
 11
603.6077286901608
 21
1135.152643
 31
0.0
  0
LINE
  5
7AB3
330
19
100
AcDbEntity
  8
1
  6
Continuous
100
AcDbLine
 10
603.6077286901607
 20
1335.152643
 30
0.0
 11
603.6077286901607
 21
1265.152643
 31
0.0
  0
LINE
  5
7AB4
330
19
100
AcDbEntity
  8
1
  6
Continuous
100
AcDbLine
 10
633.6077286901607
 20
1335.152643
 30
0.0
 11
633.6077286901607
 21
1355.152643
 31
0.0
  0
LINE
  5
7AB5
330
19
100
AcDbEntity
  8
1
  6
Continuous
100
AcDbLine
 10
655.7077286901606
 20
1355.152643
 30
0.0
 11
667.1077286901607
 21
1384.152643
 31
0.0
  0
LINE
  5
7AB6
330
19
100
AcDbEntity
  8
1
  6
Continuous
100
AcDbLine
 10
573.6077286901609
 20
1135.152643
 30
0.0
 11
573.6077286901609
 21
1195.152643
 31
0.0
  0
LINE
  5
7AB7
330
19
100
AcDbEntity
  8
2
  6
CENTER
100
AcDbLine
 10
694.6077286901608
 20
1445.152643
 30
0.0
 11
800.6077286901607
 21
1445.152643
 31
0.0
  0
LINE
  5
7AB8
330
19
100
AcDbEntity
  8
1
  6
Continuous
100
AcDbLine
 10
839.5077286901608
 20
1355.152643
 30
0.0
 11
828.1077286901608
 21
1384.152643
 31
0.0
  0
LINE
  5
7AB9
330
19
100
AcDbEntity
  8
1
  6
Continuous
100
AcDbLine
 10
893.6077286901607
 20
1895.152643
 30
0.0
 11
893.6077286901607
 21
1690.652643
 31
0.0
  0
CIRCLE
  5
7ABA
330
19
100
AcDbEntity
  8
1
  6
Continuous
100
AcDbCircle
 10
1218.607728690161
 20
1665.152643
 30
0.0
 40
157.5
  0
ARC
  5
7ABB
330
19
100
AcDbEntity
  8
1
  6
Continuous
100
AcDbCircle
 10
1236.607728690161
 20
1647.152643
 30
0.0
 40
215.0
100
AcDbArc
 50
349.4
 51
81.40000000000002
  0
ARC
  5
7ABC
330
19
100
AcDbEntity
  8
1
  6
Continuous
100
AcDbCircle
 10
1197.607728690161
 20
1644.152643
 30
0.0
 40
253.0
100
AcDbArc
 50
281.6
 51
351.8
  0
CIRCLE
  5
7ABD
330
19
100
AcDbEntity
  8
1
  6
Continuous
100
AcDbCircle
 10
1218.607728690161
 20
1665.152643
 30
0.0
 40
182.5
  0
LINE
  5
7ABE
330
19
100
AcDbEntity
  8
1
  6
Continuous
100
AcDbLine
 10
1013.607728690161
 20
1628.652643
 30
0.0
 11
1423.607728690161
 21
1628.652643
 31
0.0
  0
LINE
  5
7ABF
330
19
100
AcDbEntity
  8
1
  6
Continuous
100
AcDbLine
 10
1310.907728690161
 20
1845.152643
 30
0.0
 11
1423.607728690161
 21
1750.552643
 31
0.0
  0
LINE
  5
7AC0
330
19
100
AcDbEntity
  8
1
  6
Continuous
100
AcDbLine
 10
1363.107728690161
 20
1765.152643
 30
0.0
 11
1163.107728690161
 21
1895.152643
 31
0.0
  0
LINE
  5
7AC1
330
19
100
AcDbEntity
  8
1
  6
Continuous
100
AcDbLine
 10
1013.607728690161
 20
1335.152643
 30
0.0
 11
1013.607728690161
 21
1750.552643
 31
0.0
  0
LINE
  5
7AC2
330
19
100
AcDbEntity
  8
1
  6
Continuous
100
AcDbLine
 10
948.6077286901609
 20
1335.152643
 30
0.0
 11
948.6077286901609
 21
1355.152643
 31
0.0
  0
LINE
  5
7AC3
330
19
100
AcDbEntity
  8
1
  6
Continuous
100
AcDbLine
 10
1188.607728690161
 20
1895.152643
 30
0.0
 11
933.6077286901609
 21
1895.152643
 31
0.0
  0
LINE
  5
7AC4
330
19
100
AcDbEntity
  8
1
  6
Continuous
100
AcDbLine
 10
1188.607728690161
 20
1895.152643
 30
0.0
 11
933.6077286901609
 21
1895.152643
 31
0.0
  0
LINE
  5
7AC5
330
19
100
AcDbEntity
  8
1
  6
Continuous
100
AcDbLine
 10
1126.307728690161
 20
1845.152643
 30
0.0
 11
1013.607728690161
 21
1750.552643
 31
0.0
  0
LINE
  5
7AC6
330
19
100
AcDbEntity
  8
1
  6
Continuous
100
AcDbLine
 10
903.6077286901608
 20
1915.152643
 30
0.0
 11
903.6077286901608
 21
1895.152643
 31
0.0
  0
LINE
  5
7AC7
330
19
100
AcDbEntity
  8
1
  6
Continuous
100
AcDbLine
 10
913.6077286901608
 20
1915.152643
 30
0.0
 11
933.6077286901609
 21
1895.152643
 31
0.0
  0
LINE
  5
7AC8
330
19
100
AcDbEntity
  8
2
  6
CENTER
100
AcDbLine
 10
789.5900626901608
 20
1665.152643
 30
0.0
 11
1523.984277690161
 21
1665.152643
 31
0.0
  0
CIRCLE
  5
7AC9
330
19
100
AcDbEntity
  8
1
  6
Continuous
100
AcDbCircle
 10
1218.607728690161
 20
1665.152643
 30
0.0
 40
63.5
  0
LINE
  5
7ACA
330
19
100
AcDbEntity
  8
2
  6
CENTER
100
AcDbLine
 10
1218.607728690161
 20
1165.152643
 30
0.0
 11
1218.607728690161
 21
1930.266555
 31
0.0
  0
ARC
  5
7ACB
330
19
100
AcDbEntity
  8
1
  6
Continuous
100
AcDbCircle
 10
1295.607728690161
 20
1933.152643
 30
0.0
 40
78.0
100
AcDbArc
 50
209.0
 51
251.2
  0
LINE
  5
7ACC
330
19
100
AcDbEntity
  8
1
  6
Continuous
100
AcDbLine
 10
1227.507728690161
 20
1895.152643
 30
0.0
 11
1218.607728690161
 21
1895.152643
 31
0.0
  0
LINE
  5
7ACD
330
19
100
AcDbEntity
  8
1
  6
Continuous
100
AcDbLine
 10
1126.307728690161
 20
1845.152643
 30
0.0
 11
1310.907728690161
 21
1845.152643
 31
0.0
  0
LINE
  5
7ACE
330
19
100
AcDbEntity
  8
1
  6
Continuous
100
AcDbLine
 10
1218.607728690161
 20
1895.152643
 30
0.0
 11
1218.607728690161
 21
1915.152643
 31
0.0
  0
LINE
  5
7ACF
330
19
100
AcDbEntity
  8
1
  6
Continuous
100
AcDbLine
 10
1208.607728690161
 20
1915.152643
 30
0.0
 11
1188.607728690161
 21
1895.152643
 31
0.0
  0
LINE
  5
7AD0
330
19
100
AcDbEntity
  8
1
  6
Continuous
100
AcDbLine
 10
1423.607728690161
 20
1335.152643
 30
0.0
 11
1423.607728690161
 21
1750.552643
 31
0.0
  0
LINE
  5
7AD1
330
19
100
AcDbEntity
  8
1
  6
Continuous
100
AcDbLine
 10
2110.19435
 20
1381.752643
 30
0.0
 11
2110.19435
 21
1508.752643
 31
0.0
  0
LINE
  5
7AD2
330
19
100
AcDbEntity
  8
1
  6
Continuous
100
AcDbLine
 10
2075.19435
 20
1508.752643
 30
0.0
 11
2075.19435
 21
1381.752643
 31
0.0
  0
LINE
  5
7AD3
330
19
100
AcDbEntity
  8
1
  6
Continuous
100
AcDbLine
 10
1363.107728690161
 20
1765.152643
 30
0.0
 11
1363.107728690161
 21
1325.652643
 31
0.0
  0
LINE
  5
7AD4
330
19
100
AcDbEntity
  8
1
  6
Continuous
100
AcDbLine
 10
2050.19435
 20
1335.252643
 30
0.0
 11
2050.19435
 21
1895.152643
 31
0.0
  0
LINE
  5
7AD5
330
19
100
AcDbEntity
  8
1
  6
Continuous
100
AcDbLine
 10
2135.19435
 20
1335.252643
 30
0.0
 11
2135.19435
 21
1895.152643
 31
0.0
  0
LINE
  5
7AD6
330
19
100
AcDbEntity
  8
1
  6
Continuous
100
AcDbLine
 10
1483.607728690161
 20
1135.152643
 30
0.0
 11
1453.607728690161
 21
1135.152643
 31
0.0
  0
LINE
  5
7AD7
330
19
100
AcDbEntity
  8
1
  6
Continuous
100
AcDbLine
 10
1453.607728690161
 20
1165.152643
 30
0.0
 11
1453.607728690161
 21
1135.152643
 31
0.0
  0
LINE
  5
7AD8
330
19
100
AcDbEntity
  8
1
  6
Continuous
100
AcDbLine
 10
1453.607728690161
 20
1335.152643
 30
0.0
 11
1453.607728690161
 21
1265.152643
 31
0.0
  0
LINE
  5
7AD9
330
19
100
AcDbEntity
  8
1
  6
Continuous
100
AcDbLine
 10
1483.607728690161
 20
1135.152643
 30
0.0
 11
1483.607728690161
 21
1195.152643
 31
0.0
  0
LINE
  5
7ADD
330
19
100
AcDbEntity
  8
1
  6
Continuous
100
AcDbLine
 10
2050.19435
 20
1165.152643
 30
0.0
 11
2050.19435
 21
1135.152643
 31
0.0
  0
LINE
  5
7ADE
330
19
100
AcDbEntity
  8
1
  6
Continuous
100
AcDbLine
 10
2050.19435
 20
1335.252643
 30
0.0
 11
2135.19435
 21
1335.252643
 31
0.0
  0
LINE
  5
7ADF
330
19
100
AcDbEntity
  8
1
  6
Continuous
100
AcDbLine
 10
2075.19435
 20
1381.752643
 30
0.0
 11
2110.19435
 21
1381.752643
 31
0.0
  0
LINE
  5
7AE0
330
19
100
AcDbEntity
  8
1
  6
Continuous
100
AcDbLine
 10
2075.19435
 20
1728.752643
 30
0.0
 11
2075.19435
 21
1601.752643
 31
0.0
  0
LINE
  5
7AE1
330
19
100
AcDbEntity
  8
1
  6
Continuous
100
AcDbLine
 10
2110.19435
 20
1728.752643
 30
0.0
 11
2075.19435
 21
1728.752643
 31
0.0
  0
LINE
  5
7AE2
330
19
100
AcDbEntity
  8
1
  6
Continuous
100
AcDbLine
 10
2110.19435
 20
1601.752643
 30
0.0
 11
2110.19435
 21
1728.752643
 31
0.0
  0
LINE
  5
7AE3
330
19
100
AcDbEntity
  8
1
  6
Continuous
100
AcDbLine
 10
2075.19435
 20
1601.752643
 30
0.0
 11
2110.19435
 21
1601.752643
 31
0.0
  0
LINE
  5
7AE4
330
19
100
AcDbEntity
  8
1
  6
Continuous
100
AcDbLine
 10
2110.19435
 20
1508.752643
 30
0.0
 11
2075.19435
 21
1508.752643
 31
0.0
  0
LINE
  5
7AE5
330
19
100
AcDbEntity
  8
1
  6
Continuous
100
AcDbLine
 10
2050.19435
 20
1895.152643
 30
0.0
 11
2135.19435
 21
1895.152643
 31
0.0
  0
LINE
  5
7AE6
330
19
100
AcDbEntity
  8
1
  6
Continuous
100
AcDbLine
 10
903.6077286901608
 20
3077.370046766275
 30
0.0
 11
573.6077286901608
 21
3077.370046766275
 31
0.0
  0
LINE
  5
7AE7
330
19
100
AcDbEntity
  8
1
  6
Continuous
100
AcDbLine
 10
759.6077286901608
 20
2762.370046766275
 30
0.0
 11
1206.607728690161
 21
2762.370046766275
 31
0.0
  0
LINE
  5
7AE8
330
19
100
AcDbEntity
  8
1
  6
Continuous
100
AcDbLine
 10
633.1077286901607
 20
2657.370046766275
 30
0.0
 11
1363.107728690161
 21
2657.370046766275
 31
0.0
  0
LINE
  5
7AE9
330
19
100
AcDbEntity
  8
1
  6
Continuous
100
AcDbLine
 10
633.1077286901607
 20
2742.370046766275
 30
0.0
 11
1363.107728690161
 21
2742.370046766275
 31
0.0
  0
LINE
  5
7AEA
330
19
100
AcDbEntity
  8
1
  6
Continuous
100
AcDbLine
 10
657.6077286901607
 20
3050.870046766275
 30
0.0
 11
657.6077286901607
 21
2778.870046766276
 31
0.0
  0
LINE
  5
7AEB
330
19
100
AcDbEntity
  8
1
  6
Continuous
100
AcDbLine
 10
848.6077286901608
 20
2778.870046766276
 30
0.0
 11
848.6077286901608
 21
3050.870046766275
 31
0.0
  0
LINE
  5
7AEC
330
19
100
AcDbEntity
  8
1
  6
Continuous
100
AcDbLine
 10
573.6077286901608
 20
2657.370046766275
 30
0.0
 11
573.6077286901608
 21
3257.370046766276
 31
0.0
  0
LINE
  5
7AED
330
19
100
AcDbEntity
  8
1
  6
Continuous
100
AcDbLine
 10
573.6077286901608
 20
2762.370046766275
 30
0.0
 11
735.6077286901608
 21
2762.370046766275
 31
0.0
  0
LINE
  5
7AEE
330
19
100
AcDbEntity
  8
1
  6
Continuous
100
AcDbLine
 10
848.6077286901608
 20
2778.870046766276
 30
0.0
 11
657.6077286901607
 21
2778.870046766276
 31
0.0
  0
LINE
  5
7AEF
330
19
100
AcDbEntity
  8
1
  6
Continuous
100
AcDbLine
 10
603.6077286901607
 20
2762.370046766275
 30
0.0
 11
603.6077286901607
 21
2657.370046766275
 31
0.0
  0
LINE
  5
7AF0
330
19
100
AcDbEntity
  8
1
  6
Continuous
100
AcDbLine
 10
633.1077286901607
 20
2742.370046766275
 30
0.0
 11
633.1077286901607
 21
2657.370046766275
 31
0.0
  0
LINE
  5
7AF1
330
19
100
AcDbEntity
  8
1
  6
Continuous
100
AcDbLine
 10
573.6077286901608
 20
2657.370046766275
 30
0.0
 11
603.6077286901607
 21
2657.370046766275
 31
0.0
  0
LINE
  5
7AF2
330
19
100
AcDbEntity
  8
1
  6
Continuous
100
AcDbLine
 10
759.6077286901608
 20
2718.870046766275
 30
0.0
 11
759.6077286901608
 21
2778.870046766276
 31
0.0
  0
LINE
  5
7AF3
330
19
100
AcDbEntity
  8
1
  6
Continuous
100
AcDbLine
 10
735.6077286901608
 20
2718.870046766275
 30
0.0
 11
735.6077286901608
 21
2778.870046766276
 31
0.0
  0
LINE
  5
7AF4
330
19
100
AcDbEntity
  8
1
  6
Continuous
100
AcDbLine
 10
684.1077286901608
 20
2683.870046766275
 30
0.0
 11
811.1077286901608
 21
2683.870046766275
 31
0.0
  0
LINE
  5
7AF5
330
19
100
AcDbEntity
  8
1
  6
Continuous
100
AcDbLine
 10
811.1077286901608
 20
2718.870046766275
 30
0.0
 11
684.1077286901608
 21
2718.870046766275
 31
0.0
  0
LINE
  5
7AF6
330
19
100
AcDbEntity
  8
1
  6
Continuous
100
AcDbLine
 10
759.6077286901608
 20
2683.870046766275
 30
0.0
 11
735.6077286901608
 21
2683.870046766275
 31
0.0
  0
LINE
  5
7AF7
330
19
100
AcDbEntity
  8
1
  6
Continuous
100
AcDbLine
 10
684.1077286901608
 20
2718.870046766275
 30
0.0
 11
684.1077286901608
 21
2683.870046766275
 31
0.0
  0
LINE
  5
7AF8
330
19
100
AcDbEntity
  8
1
  6
Continuous
100
AcDbLine
 10
811.1077286901608
 20
2683.870046766275
 30
0.0
 11
811.1077286901608
 21
2718.870046766275
 31
0.0
  0
LINE
  5
7AF9
330
19
100
AcDbEntity
  8
1
  6
Continuous
100
AcDbLine
 10
848.6077286901608
 20
3050.870046766275
 30
0.0
 11
657.6077286901607
 21
3050.870046766275
 31
0.0
  0
LINE
  5
7AFA
330
19
100
AcDbEntity
  8
1
  6
Continuous
100
AcDbLine
 10
603.6077286901607
 20
3257.370046766276
 30
0.0
 11
603.6077286901607
 21
3077.370046766275
 31
0.0
  0
LINE
  5
7AFB
330
19
100
AcDbEntity
  8
1
  6
Continuous
100
AcDbLine
 10
573.6077286901608
 20
3257.370046766276
 30
0.0
 11
603.6077286901607
 21
3257.370046766276
 31
0.0
  0
LINE
  5
7AFC
330
19
100
AcDbEntity
  8
1
  6
Continuous
100
AcDbLine
 10
1423.607728690161
 20
2955.570046766276
 30
0.0
 11
1013.607728690161
 21
2955.570046766276
 31
0.0
  0
LINE
  5
7AFD
330
19
100
AcDbEntity
  8
1
  6
Continuous
100
AcDbLine
 10
1036.107728690161
 20
2955.370046766276
 30
0.0
 11
1401.107728690161
 21
2955.370046766276
 31
0.0
  0
LINE
  5
7AFE
330
19
100
AcDbEntity
  8
1
  6
Continuous
100
AcDbLine
 10
1401.107728690161
 20
3198.370046766275
 30
0.0
 11
1036.107728690161
 21
3198.370046766275
 31
0.0
  0
LINE
  5
7AFF
330
19
100
AcDbEntity
  8
1
  6
Continuous
100
AcDbLine
 10
1420.607728690161
 20
3189.370046766276
 30
0.0
 11
903.6077286901608
 21
3189.370046766276
 31
0.0
  0
LINE
  5
7B00
330
19
100
AcDbEntity
  8
1
  6
Continuous
100
AcDbLine
 10
903.6077286901608
 20
2965.370046766275
 30
0.0
 11
1420.607728690161
 21
2965.370046766275
 31
0.0
  0
LINE
  5
7B01
330
19
100
AcDbEntity
  8
1
  6
Continuous
100
AcDbLine
 10
1230.607728690161
 20
2762.370046766275
 30
0.0
 11
1483.607728690161
 21
2762.370046766275
 31
0.0
  0
LINE
  5
7B02
330
19
100
AcDbEntity
  8
1
  6
Continuous
100
AcDbLine
 10
1230.607728690161
 20
2792.370046766275
 30
0.0
 11
1423.607728690161
 21
2792.370046766275
 31
0.0
  0
LINE
  5
7B03
330
19
100
AcDbEntity
  8
1
  6
Continuous
100
AcDbLine
 10
903.6077286901608
 20
3189.370046766276
 30
0.0
 11
903.6077286901608
 21
2965.370046766275
 31
0.0
  0
LINE
  5
7B04
330
19
100
AcDbEntity
  8
1
  6
Continuous
100
AcDbLine
 10
1218.607728690161
 20
3189.370046766276
 30
0.0
 11
1218.607728690161
 21
2965.370046766275
 31
0.0
  0
LINE
  5
7B05
330
19
100
AcDbEntity
  8
1
  6
Continuous
100
AcDbLine
 10
903.6077286901608
 20
2965.370046766275
 30
0.0
 11
1218.607728690161
 21
3189.370046766276
 31
0.0
  0
LINE
  5
7B06
330
19
100
AcDbEntity
  8
1
  6
Continuous
100
AcDbLine
 10
903.6077286901608
 20
3189.370046766276
 30
0.0
 11
1218.607728690161
 21
2965.370046766275
 31
0.0
  0
LINE
  5
7B07
330
19
100
AcDbEntity
  8
1
  6
Continuous
100
AcDbLine
 10
1013.607728690161
 20
2792.370046766275
 30
0.0
 11
1206.607728690161
 21
2792.370046766275
 31
0.0
  0
LINE
  5
7B08
330
19
100
AcDbEntity
  8
1
  6
Continuous
100
AcDbLine
 10
1036.107728690161
 20
2955.370046766276
 30
0.0
 11
1036.107728690161
 21
2965.370046766275
 31
0.0
  0
LINE
  5
7B09
330
19
100
AcDbEntity
  8
1
  6
Continuous
100
AcDbLine
 10
1013.607728690161
 20
2792.370046766275
 30
0.0
 11
1013.607728690161
 21
2955.570046766276
 31
0.0
  0
LINE
  5
7B0A
330
19
100
AcDbEntity
  8
1
  6
Continuous
100
AcDbLine
 10
1206.607728690161
 20
2955.570046766276
 30
0.0
 11
1206.607728690161
 21
2718.870046766275
 31
0.0
  0
LINE
  5
7B0B
330
19
100
AcDbEntity
  8
1
  6
Continuous
100
AcDbLine
 10
1230.607728690161
 20
2955.570046766276
 30
0.0
 11
1230.607728690161
 21
2718.870046766275
 31
0.0
  0
LINE
  5
7B0C
330
19
100
AcDbEntity
  8
1
  6
Continuous
100
AcDbLine
 10
1282.107728690161
 20
2718.870046766275
 30
0.0
 11
1155.107728690161
 21
2718.870046766275
 31
0.0
  0
LINE
  5
7B0D
330
19
100
AcDbEntity
  8
1
  6
Continuous
100
AcDbLine
 10
1155.107728690161
 20
2683.870046766275
 30
0.0
 11
1282.107728690161
 21
2683.870046766275
 31
0.0
  0
LINE
  5
7B0E
330
19
100
AcDbEntity
  8
1
  6
Continuous
100
AcDbLine
 10
1155.107728690161
 20
2718.870046766275
 30
0.0
 11
1155.107728690161
 21
2683.870046766275
 31
0.0
  0
LINE
  5
7B0F
330
19
100
AcDbEntity
  8
1
  6
Continuous
100
AcDbLine
 10
1282.107728690161
 20
2683.870046766275
 30
0.0
 11
1282.107728690161
 21
2718.870046766275
 31
0.0
  0
LINE
  5
7B10
330
19
100
AcDbEntity
  8
1
  6
Continuous
100
AcDbLine
 10
1036.107728690161
 20
3198.370046766275
 30
0.0
 11
1036.107728690161
 21
3189.370046766276
 31
0.0
  0
LINE
  5
7B11
330
19
100
AcDbEntity
  8
1
  6
Continuous
100
AcDbLine
 10
1440.607728690161
 20
3169.370046766275
 30
0.0
 11
1440.607728690161
 21
2985.370046766275
 31
0.0
  0
LINE
  5
7B12
330
19
100
AcDbEntity
  8
1
  6
Continuous
100
AcDbLine
 10
1483.607728690161
 20
2657.370046766275
 30
0.0
 11
1483.607728690161
 21
3257.370046766276
 31
0.0
  0
LINE
  5
7B13
330
19
100
AcDbEntity
  8
1
  6
Continuous
100
AcDbLine
 10
1453.607728690161
 20
2762.370046766275
 30
0.0
 11
1453.607728690161
 21
2657.370046766275
 31
0.0
  0
LINE
  5
7B14
330
19
100
AcDbEntity
  8
1
  6
Continuous
100
AcDbLine
 10
1363.107728690161
 20
2742.370046766275
 30
0.0
 11
1363.107728690161
 21
2657.370046766275
 31
0.0
  0
LINE
  5
7B15
330
19
100
AcDbEntity
  8
1
  6
Continuous
100
AcDbLine
 10
1483.607728690161
 20
2657.370046766275
 30
0.0
 11
1453.607728690161
 21
2657.370046766275
 31
0.0
  0
ARC
  5
7B16
330
19
100
AcDbEntity
  8
1
  6
Continuous
100
AcDbCircle
 10
1420.607728690161
 20
2985.370046766275
 30
0.0
 40
20.0
100
AcDbArc
 50
270.0
 51
0.0
  0
LINE
  5
7B17
330
19
100
AcDbEntity
  8
1
  6
Continuous
100
AcDbLine
 10
1401.107728690161
 20
2955.370046766276
 30
0.0
 11
1401.107728690161
 21
2965.370046766275
 31
0.0
  0
LINE
  5
7B18
330
19
100
AcDbEntity
  8
1
  6
Continuous
100
AcDbLine
 10
1423.607728690161
 20
2792.370046766275
 30
0.0
 11
1423.607728690161
 21
2955.570046766276
 31
0.0
  0
ARC
  5
7B19
330
19
100
AcDbEntity
  8
1
  6
Continuous
100
AcDbCircle
 10
1420.607728690161
 20
3169.370046766275
 30
0.0
 40
20.0
100
AcDbArc
 50
0.0
 51
90.0
  0
LINE
  5
7B1A
330
19
100
AcDbEntity
  8
1
  6
Continuous
100
AcDbLine
 10
1483.607728690161
 20
3077.370046766275
 30
0.0
 11
1440.607728690161
 21
3077.370046766275
 31
0.0
  0
LINE
  5
7B1B
330
19
100
AcDbEntity
  8
1
  6
Continuous
100
AcDbLine
 10
1401.107728690161
 20
3198.370046766275
 30
0.0
 11
1401.107728690161
 21
3189.370046766276
 31
0.0
  0
LINE
  5
7B1C
330
19
100
AcDbEntity
  8
1
  6
Continuous
100
AcDbLine
 10
1483.607728690161
 20
3257.370046766276
 30
0.0
 11
1453.607728690161
 21
3257.370046766276
 31
0.0
  0
LINE
  5
7B1D
330
19
100
AcDbEntity
  8
1
  6
Continuous
100
AcDbLine
 10
1453.607728690161
 20
3257.370046766276
 30
0.0
 11
1453.607728690161
 21
3077.370046766275
 31
0.0
  0
LINE
  5
7B1E
330
19
100
AcDbEntity
  8
1
  6
Continuous
100
AcDbLine
 10
2591.19435
 20
1847.652643
 30
0.0
 11
2582.99435
 21
1847.652643
 31
0.0
  0
ARC
  5
7B1F
330
19
100
AcDbEntity
  8
1
  6
Continuous
100
AcDbCircle
 10
2562.19435
 20
1397.152643
 30
0.0
 40
20.0
100
AcDbArc
 50
270.0
 51
0.0
  0
LINE
  5
7B20
330
19
100
AcDbEntity
  8
1
  6
Continuous
100
AcDbLine
 10
2591.19435
 20
1482.652643
 30
0.0
 11
2582.19435
 21
1482.652643
 31
0.0
  0
LINE
  5
7B21
330
19
100
AcDbEntity
  8
1
  6
Continuous
100
AcDbLine
 10
2337.19435
 20
1915.152643
 30
0.0
 11
2603.194350000001
 21
1915.152643
 31
0.0
  0
LINE
  5
7B22
330
19
100
AcDbEntity
  8
1
  6
Continuous
100
AcDbLine
 10
2582.19435
 20
1915.152643
 30
0.0
 11
2582.19435
 21
1397.152643
 31
0.0
  0
LINE
  5
7B23
330
19
100
AcDbEntity
  8
1
  6
Continuous
100
AcDbLine
 10
2358.19435
 20
1397.152643
 30
0.0
 11
2358.19435
 21
1915.152643
 31
0.0
  0
LINE
  5
7B24
330
19
100
AcDbEntity
  8
1
  6
Continuous
100
AcDbLine
 10
2348.19435
 20
1482.652643
 30
0.0
 11
2348.19435
 21
1847.652643
 31
0.0
  0
LINE
  5
7B25
330
19
100
AcDbEntity
  8
1
  6
Continuous
100
AcDbLine
 10
2348.19435
 20
1847.752643
 30
0.0
 11
2348.19435
 21
1335.152643
 31
0.0
  0
LINE
  5
7B26
330
19
100
AcDbEntity
  8
1
  6
Continuous
100
AcDbLine
 10
2184.19435
 20
1626.152643
 30
0.0
 11
2184.19435
 21
1335.152643
 31
0.0
  0
ARC
  5
7B27
330
19
100
AcDbEntity
  8
1
  6
Continuous
100
AcDbCircle
 10
2378.194350000001
 20
1397.152643
 30
0.0
 40
20.0
100
AcDbArc
 50
180.0
 51
270.0
  0
LINE
  5
7B28
330
19
100
AcDbEntity
  8
1
  6
Continuous
100
AcDbLine
 10
2469.99435
 20
1335.152643
 30
0.0
 11
2154.99435
 21
1335.152643
 31
0.0
  0
LINE
  5
7B29
330
19
100
AcDbEntity
  8
1
  6
Continuous
100
AcDbLine
 10
2154.99435
 20
1265.152643
 30
0.0
 11
2469.99435
 21
1265.152643
 31
0.0
  0
LINE
  5
7B2A
330
19
100
AcDbEntity
  8
1
  6
Continuous
100
AcDbLine
 10
2155.19435
 20
1195.152643
 30
0.0
 11
2470.19435
 21
1195.152643
 31
0.0
  0
LINE
  5
7B2B
330
19
100
AcDbEntity
  8
1
  6
Continuous
100
AcDbLine
 10
2154.99435
 20
1335.152643
 30
0.0
 11
2154.99435
 21
1265.152643
 31
0.0
  0
LINE
  5
7B2C
330
19
100
AcDbEntity
  8
1
  6
Continuous
100
AcDbLine
 10
2155.19435
 20
1195.152643
 30
0.0
 11
2155.19435
 21
1165.152643
 31
0.0
  0
LINE
  5
7B2D
330
19
100
AcDbEntity
  8
1
  6
Continuous
100
AcDbLine
 10
2348.19435
 20
1482.652643
 30
0.0
 11
2357.39435
 21
1482.652643
 31
0.0
  0
LINE
  5
7B2E
330
19
100
AcDbEntity
  8
1
  6
Continuous
100
AcDbLine
 10
2378.194350000001
 20
1377.152643
 30
0.0
 11
2562.19435
 21
1377.152643
 31
0.0
  0
LINE
  5
7B2F
330
19
100
AcDbEntity
  8
1
  6
Continuous
100
AcDbLine
 10
2469.99435
 20
1265.152643
 30
0.0
 11
2469.99435
 21
1335.152643
 31
0.0
  0
LINE
  5
7B30
330
19
100
AcDbEntity
  8
1
  6
Continuous
100
AcDbLine
 10
2470.19435
 20
1165.152643
 30
0.0
 11
2470.19435
 21
1195.152643
 31
0.0
  0
LINE
  5
7B31
330
19
100
AcDbEntity
  8
1
  6
Continuous
100
AcDbLine
 10
2348.19435
 20
1752.352643
 30
0.0
 11
2184.19435
 21
1626.152643
 31
0.0
  0
LINE
  5
7B32
330
19
100
AcDbEntity
  8
1
  6
Continuous
100
AcDbLine
 10
2348.19435
 20
1847.652643
 30
0.0
 11
2357.39435
 21
1847.652643
 31
0.0
  0
LINE
  5
7B33
330
19
100
AcDbEntity
  8
1
  6
Continuous
100
AcDbLine
 10
2387.194350000001
 20
1895.152643
 30
0.0
 11
2553.19435
 21
1895.152643
 31
0.0
  0
LINE
  5
7B34
330
19
100
AcDbEntity
  8
1
  6
Continuous
100
AcDbLine
 10
2367.19435
 20
1915.152643
 30
0.0
 11
2387.194350000001
 21
1895.152643
 31
0.0
  0
LINE
  5
7B35
330
19
100
AcDbEntity
  8
1
  6
Continuous
100
AcDbLine
 10
2573.19435
 20
1915.152643
 30
0.0
 11
2553.19435
 21
1895.152643
 31
0.0
  0
LINE
  5
7B36
330
19
100
AcDbEntity
  8
1
  6
Continuous
100
AcDbLine
 10
2591.19435
 20
1847.652643
 30
0.0
 11
2591.19435
 21
1482.652643
 31
0.0
  0
LINE
  5
7B37
330
19
100
AcDbEntity
  8
1
  6
Continuous
100
AcDbLine
 10
2650.19435
 20
1165.152643
 30
0.0
 11
2650.19435
 21
1135.152643
 31
0.0
  0
LINE
  5
7B38
330
19
100
AcDbEntity
  8
4
  6
Continuous
100
AcDbLine
 10
2775.0
 20
750.0
 30
0.0
 11
2775.0
 21
450.0
 31
0.0
  0
LINE
  5
7B39
330
19
100
AcDbEntity
  8
4
  6
Continuous
100
AcDbLine
 10
1725.0
 20
750.0
 30
0.0
 11
1725.0
 21
450.0
 31
0.0
  0
LINE
  5
7B3A
330
19
100
AcDbEntity
  8
4
  6
Continuous
100
AcDbLine
 10
975.0
 20
750.0
 30
0.0
 11
975.0
 21
450.0
 31
0.0
  0
LINE
  5
7B3D
330
19
100
AcDbEntity
  8
4
  6
Continuous
100
AcDbLine
 10
975.0
 20
450.0
 30
0.0
 11
2775.0
 21
450.0
 31
0.0
  0
LINE
  5
7B3E
330
19
100
AcDbEntity
  8
4
  6
Continuous
100
AcDbLine
 10
975.0
 20
600.0
 30
0.0
 11
2775.0
 21
600.0
 31
0.0
  0
TEXT
  5
7B3F
330
19
100
AcDbEntity
  8
4
  6
Continuous
100
AcDbText
 10
1032.753121
 20
647.3145389999999
 30
0.0
 40
75.0
  1
機器名称
100
AcDbText
  0
TEXT
  5
7B40
330
19
100
AcDbEntity
  8
4
  6
Continuous
100
AcDbText
 10
1029.387159
 20
482.4677349999999
 30
0.0
 40
75.0
  1
機器型番
100
AcDbText
  0
TEXT
  5
7B41
330
19
100
AcDbEntity
  8
4
  6
Continuous
100
AcDbText
 10
1766.518118
 20
633.857653
 30
0.0
 40
65.0
  1
ミツヤニューマルチファン
100
AcDbText
  0
TEXT
  5
7B42
330
19
100
AcDbEntity
  8
4
  6
Continuous
100
AcDbText
 10
1779.981743
 20
475.739376
 30
0.0
 40
75.0
  1
NM#2-1
100
AcDbText
  0
TEXT
  5
7B44
330
19
100
AcDbEntity
  8
4
  6
Continuous
100
AcDbText
 10
1165.559503
 20
3575.143262
 30
0.0
 40
81.0
  1
天井吊防振ベット
100
AcDbText
  0
TEXT
  5
7B45
330
19
100
AcDbEntity
  8
4
  6
Continuous
100
AcDbText
 10
474.25139
 20
3800.821464
 30
0.0
 40
108.0
  1
ベルト駆動式片吸込片持多翼ファン
100
AcDbText
  0
LINE
  5
7B46
330
19
100
AcDbEntity
  8
4
  6
Continuous
100
AcDbLine
 10
375.0
 20
3704.113131000001
 30
0.0
 11
2775.0
 21
3704.113131000001
 31
0.0
  0
LINE
  5
7B47
330
19
100
AcDbEntity
  8
4
  6
Continuous
100
AcDbLine
 10
375.0
 20
4004.113131
 30
0.0
 11
2775.0
 21
4004.113131
 31
0.0
  0
LINE
  5
7B48
330
19
100
AcDbEntity
  8
4
  6
Continuous
100
AcDbLine
 10
975.0
 20
750.0
 30
0.0
 11
2775.0
 21
750.0
 31
0.0
  0
LINE
  5
7B49
330
19
100
AcDbEntity
  8
4
  6
Continuous
100
AcDbLine
 10
375.0
 20
4004.113131
 30
0.0
 11
375.0
 21
3704.113131000001
 31
0.0
  0
TEXT
  5
7B4A
330
19
100
AcDbEntity
  8
4
  6
Continuous
100
AcDbText
 10
511.771254
 20
3573.479216
 30
0.0
 40
81.0
  1
右回転上向
100
AcDbText
  0
TEXT
  5
7B4B
330
19
100
AcDbEntity
  8
4
  6
Continuous
100
AcDbText
 10
2203.454339
 20
4059.091621999999
 30
0.0
 40
84.0
  1
No.
100
AcDbText
  0
TEXT
  5
7B4C
330
19
100
AcDbEntity
  8
4
  6
Continuous
100
AcDbText
 10
2102.204653000001
 20
3575.143262
 30
0.0
 40
81.0
  1
縮尺：1/15
100
AcDbText
  0
LINE
  5
7B4D
330
19
100
AcDbEntity
  8
4
  6
Continuous
100
AcDbLine
 10
2775.0
 20
4004.113131
 30
0.0
 11
2775.0
 21
3704.113131000001
 31
0.0
  0
LINE
  5
7B4F
330
19
100
AcDbEntity
  8
4
  6
Continuous
100
AcDbLine
 10
2160.926134
 20
4021.895375
 30
0.0
 11
2160.926134
 21
4179.978392
 31
0.0
  0
LINE
  5
7B50
330
19
100
AcDbEntity
  8
4
  6
Continuous
100
AcDbLine
 10
2160.926134
 20
4179.978392
 30
0.0
 11
2775.0
 21
4179.978392
 31
0.0
  0
LINE
  5
7B51
330
19
100
AcDbEntity
  8
4
  6
Continuous
100
AcDbLine
 10
2775.0
 20
4179.978392
 30
0.0
 11
2775.0
 21
4021.895375
 31
0.0
  0
LINE
  5
7B52
330
19
100
AcDbEntity
  8
4
  6
Continuous
100
AcDbLine
 10
2775.0
 20
4021.895375
 30
0.0
 11
2160.926134
 21
4021.895375
 31
0.0
  0
DIMENSION
  5
7B83
330
19
100
AcDbEntity
  8
3
  6
Continuous
100
AcDbDimension
280
     0
  2
*D1
 10
1218.607728690161
 20
1973.226544
 30
0.0
 11
1070.195354690161
 21
1973.226544
 31
0.0
 70
   160
 71
     5
 42
-1.0
 73
     0
 74
     0
 75
     0
  3
IGA
100
AcDbAlignedDimension
 13
903.6077286901608
 23
1915.152643
 33
0.0
 14
1218.607728690161
 24
1915.152643
 34
0.0
100
AcDbRotatedDimension
1001
ACAD
1000
DSTYLE
1002
{
1070
   287
1070
     3
1070
    40
1040
15.0
1070
   143
1040
0.039
1070
   172
1070
     1
1070
   271
1070
     0
1070
   279
1070
     0
1070
   288
1070
     1
1002
}
  0
DIMENSION
  5
7B90
330
19
100
AcDbEntity
  8
3
  6
Continuous
100
AcDbDimension
280
     0
  2
*D2
 10
1218.607728690161
 20
2047.741432
 30
0.0
 11
1067.708853690161
 21
2047.741432
 31
0.0
 70
   160
 71
     5
 42
-1.0
 73
     0
 74
     0
 75
     0
  3
IGA
100
AcDbAlignedDimension
 13
893.6077286901607
 23
1895.152643
 33
0.0
 14
1218.607728690161
 24
1915.152643
 34
0.0
100
AcDbRotatedDimension
1001
ACAD
1000
DSTYLE
1002
{
1070
   287
1070
     3
1070
    40
1040
15.0
1070
   143
1040
0.039
1070
   172
1070
     1
1070
   271
1070
     0
1070
   279
1070
     0
1070
   288
1070
     1
1002
}
  0
DIMENSION
  5
7B9C
330
19
100
AcDbEntity
  8
3
  6
Continuous
100
AcDbDimension
280
     0
  2
*D3
 10
1450.852914690161
 20
2047.741432
 30
0.0
 11
1334.730321690161
 21
2085.241432
 31
0.0
 70
    32
 71
     5
 42
-1.0
 73
     0
 74
     0
 75
     0
  3
IGA
100
AcDbAlignedDimension
 13
1218.607728690161
 23
1915.152643
 33
0.0
 14
1450.852914690161
 24
1665.152643
 34
0.0
100
AcDbRotatedDimension
1001
ACAD
1000
DSTYLE
1002
{
1070
   287
1070
     4
1070
    40
1040
15.0
1070
    75
1070
     1
1070
   143
1040
0.039
1070
   172
1070
     1
1070
   271
1070
     0
1070
   279
1070
     1
1070
   288
1070
     1
1002
}
  0
DIMENSION
  5
7BA9
330
19
100
AcDbEntity
  8
3
  6
Continuous
100
AcDbDimension
280
     0
  2
*D4
 10
1631.249106943007
 20
1665.152643
 30
0.0
 11
1631.249106943007
 21
1789.17603
 31
0.0
 70
   160
 71
     5
 42
-1.0
 73
     0
 74
     0
 75
     0
  3
IGA
100
AcDbAlignedDimension
 13
1240.107728690161
 23
1915.152643
 33
0.0
 14
1450.852914690161
 24
1665.152643
 34
0.0
 50
90.0
100
AcDbRotatedDimension
1001
ACAD
1000
DSTYLE
1002
{
1070
   287
1070
     3
1070
    40
1040
15.0
1070
   143
1040
0.039
1070
   172
1070
     1
1070
   271
1070
     0
1070
   279
1070
     0
1070
   288
1070
     1
1002
}
  0
DIMENSION
  5
7BB5
330
19
100
AcDbEntity
  8
3
  6
Continuous
100
AcDbDimension
280
     0
  2
*D5
 10
1631.249106943007
 20
1265.152642999999
 30
0.0
 11
1593.749106943006
 21
1465.152643
 31
0.0
 70
    32
 71
     5
 42
-1.0
 73
     0
 74
     0
 75
     0
  3
IGA
100
AcDbAlignedDimension
 13
1450.852914690161
 23
1665.152643
 33
0.0
 14
1453.607728690161
 24
1265.152643
 34
0.0
 50
90.0
100
AcDbRotatedDimension
1001
ACAD
1000
DSTYLE
1002
{
1070
   287
1070
     4
1070
    40
1040
15.0
1070
    75
1070
     1
1070
   143
1040
0.039
1070
   172
1070
     1
1070
   271
1070
     0
1070
   279
1070
     1
1070
   288
1070
     1
1002
}
  0
DIMENSION
  5
7C27
330
19
100
AcDbEntity
  8
3
  6
Continuous
100
AcDbDimension
280
     0
  2
*D6
 10
1483.607728690161
 20
2547.824893766275
 30
0.0
 11
965.7617636901607
 21
2547.824893766275
 31
0.0
 70
   160
 71
     5
 42
-1.0
 73
     0
 74
     0
 75
     0
  3
IGA
100
AcDbAlignedDimension
 13
573.6077286901608
 23
2657.370046766275
 33
0.0
 14
1483.607728690161
 24
2657.370046766275
 34
0.0
100
AcDbRotatedDimension
1001
ACAD
1000
DSTYLE
1002
{
1070
   287
1070
     3
1070
    40
1040
15.0
1070
   143
1040
0.039
1070
   172
1070
     1
1070
   271
1070
     0
1070
   279
1070
     0
1070
   288
1070
     1
1002
}
  0
DIMENSION
  5
7C34
330
19
100
AcDbEntity
  8
3
  6
Continuous
100
AcDbDimension
280
     0
  2
*D7
 10
1644.580290690161
 20
2657.370046766275
 30
0.0
 11
1644.580290690161
 21
2973.808113766276
 31
0.0
 70
   160
 71
     5
 42
-1.0
 73
     0
 74
     0
 75
     0
  3
IGA
100
AcDbAlignedDimension
 13
1483.607728690161
 23
3257.370046766276
 33
0.0
 14
1483.607728690161
 24
2657.370046766275
 34
0.0
 50
90.0
100
AcDbRotatedDimension
1001
ACAD
1000
DSTYLE
1002
{
1070
   287
1070
     3
1070
    40
1040
15.0
1070
   143
1040
0.039
1070
   172
1070
     1
1070
   271
1070
     0
1070
   279
1070
     0
1070
   288
1070
     1
1002
}
  0
LINE
  5
7C35
330
19
100
AcDbEntity
  8
2
  6
CENTER
100
AcDbLine
 10
851.3909066901607
 20
3077.370046766275
 30
0.0
 11
1525.227569690161
 21
3077.370046766275
 31
0.0
  0
LINE
  5
7C36
330
19
100
AcDbEntity
  8
2
  6
CENTER
100
AcDbLine
 10
1218.607728690161
 20
2619.868749766276
 30
0.0
 11
1218.607728690161
 21
3230.954980766276
 31
0.0
  0
LINE
  5
7C37
330
19
100
AcDbEntity
  8
2
  6
CENTER
100
AcDbLine
 10
2470.19435
 20
1964.193571
 30
0.0
 11
2470.19435
 21
1135.152643
 31
0.0
  0
DIMENSION
  5
7C75
330
19
100
AcDbEntity
  8
3
  6
Continuous
100
AcDbDimension
280
     0
  2
*D8
 10
2582.19435
 20
1958.095659
 30
0.0
 11
2462.122921000001
 21
1958.095659
 31
0.0
 70
   160
 71
     5
 42
-1.0
 73
     0
 74
     0
 75
     0
  3
IGA
100
AcDbAlignedDimension
 13
2358.19435
 23
1915.152643
 33
0.0
 14
2582.19435
 24
1915.152643
 34
0.0
100
AcDbRotatedDimension
1001
ACAD
1000
DSTYLE
1002
{
1070
   287
1070
     3
1070
    40
1040
15.0
1070
   143
1040
0.039
1070
   172
1070
     1
1070
   271
1070
     0
1070
   279
1070
     0
1070
   288
1070
     1
1002
}
  0
DIMENSION
  5
7C82
330
19
100
AcDbEntity
  8
3
  6
Continuous
100
AcDbDimension
280
     0
  2
*D9
 10
2470.19435
 20
2045.029696
 30
0.0
 11
2247.055384
 21
2045.029696
 31
0.0
 70
   160
  1
(420)
 71
     5
 42
420.0
 73
     0
 74
     0
 75
     0
  3
IGA
100
AcDbAlignedDimension
 13
2050.19435
 23
1895.152643
 33
0.0
 14
2470.19435
 24
2025.918427
 34
0.0
100
AcDbRotatedDimension
1001
ACAD
1000
DSTYLE
1002
{
1070
   287
1070
     3
1070
    40
1040
15.0
1070
   143
1040
0.039
1070
   172
1070
     1
1070
   271
1070
     0
1070
   279
1070
     0
1070
   288
1070
     1
1002
}
  0
DIMENSION
  5
7C90
330
19
100
AcDbEntity
  8
3
  6
Continuous
100
AcDbDimension
280
     0
  2
*D10
 10
2591.19435
 20
2045.029696
 30
0.0
 11
2530.76636
 21
2044.529116
 31
0.0
 70
   160
 71
     5
 42
-1.0
 73
     0
 74
     0
 75
     0
  3
IGA
100
AcDbAlignedDimension
 13
2470.19435
 23
2025.918427
 33
0.0
 14
2591.19435
 24
1847.652643
 34
0.0
100
AcDbRotatedDimension
1001
ACAD
1000
DSTYLE
1002
{
1070
   287
1070
     4
1070
    40
1040
15.0
1070
    75
1070
     1
1070
   143
1040
0.039
1070
   172
1070
     1
1070
   271
1070
     0
1070
   279
1070
     1
1070
   288
1070
     1
1002
}
  0
LINE
  5
7CA8
330
19
100
AcDbEntity
  8
3
  6
Continuous
100
AcDbLine
 10
2591.19435
 20
1822.652643
 30
0.0
 11
2614.444221
 21
1822.652643
 31
0.0
  0
LINE
  5
7CAA
330
19
100
AcDbEntity
  8
3
  6
Continuous
100
AcDbLine
 10
2591.19435
 20
1507.652643
 30
0.0
 11
2609.224436
 21
1507.652643
 31
0.0
  0
DIMENSION
  5
7CB7
330
19
100
AcDbEntity
  8
3
  6
Continuous
100
AcDbDimension
280
     0
  2
*D11
 10
2697.960744000001
 20
1507.652643
 30
0.0
 11
2697.960744
 21
1673.855221
 31
0.0
 70
   160
 71
     5
 42
-1.0
 73
     0
 74
     0
 75
     0
  3
IGA
100
AcDbAlignedDimension
 13
2591.19435
 23
1822.652643
 33
0.0
 14
2591.19435
 24
1507.652643
 34
0.0
 50
90.0
100
AcDbRotatedDimension
1001
ACAD
1000
DSTYLE
1002
{
1070
   287
1070
     3
1070
     3
1000
φ<>
1070
    40
1040
15.0
1070
   143
1040
0.039
1070
   172
1070
     1
1070
   271
1070
     0
1070
   279
1070
     0
1070
   288
1070
     1
1002
}
  0
LINE
  5
7CB8
330
19
100
AcDbEntity
  8
2
  6
CENTER
100
AcDbLine
 10
1987.905796999999
 20
1665.152643
 30
0.0
 11
2620.342832
 21
1665.152643
 31
0.0
  0
DIMENSION
  5
7DDB
330
19
100
AcDbEntity
  8
3
100
AcDbDimension
280
     0
  2
*D13
 10
1218.607728690161
 20
1035.348186827816
 30
0.0
 11
896.1077286901609
 21
1072.848186827816
 31
0.0
 70
    32
 71
     5
 42
645.0
 73
     0
 74
     0
 75
     0
  3
IGA
100
AcDbAlignedDimension
 13
573.6077286901609
 23
1135.152643
 33
0.0
 14
1218.607728690161
 24
1165.152643
 34
0.0
100
AcDbRotatedDimension
1001
ACAD
1000
DSTYLE
1002
{
1070
   287
1070
     3
1070
    40
1040
15.0
1070
   143
1040
0.039
1070
   172
1070
     1
1070
   271
1070
     0
1070
   279
1070
     0
1002
}
  0
DIMENSION
  5
7DE8
330
19
100
AcDbEntity
  8
3
100
AcDbDimension
280
     0
  2
*D14
 10
1483.607728690161
 20
1035.348186827816
 30
0.0
 11
1351.107728690161
 21
1072.848186827816
 31
0.0
 70
    32
 71
     5
 42
265.0
 73
     0
 74
     0
 75
     0
  3
IGA
100
AcDbAlignedDimension
 13
1218.607728690161
 23
1165.152643
 33
0.0
 14
1483.607728690161
 24
1135.152643
 34
0.0
100
AcDbRotatedDimension
1001
ACAD
1000
DSTYLE
1002
{
1070
   287
1070
     3
1070
    40
1040
15.0
1070
   143
1040
0.039
1070
   172
1070
     1
1070
   271
1070
     0
1070
   279
1070
     0
1002
}
  0
DIMENSION
  5
7DF5
330
19
100
AcDbEntity
  8
3
100
AcDbDimension
280
     0
  2
*D15
 10
2470.19435
 20
1035.348186827816
 30
0.0
 11
2260.19435
 21
1072.848186827816
 31
0.0
 70
    32
 71
     5
 42
420.0
 73
     0
 74
     0
 75
     0
  3
IGA
100
AcDbAlignedDimension
 13
2050.19435
 23
1135.152643
 33
0.0
 14
2470.19435
 24
1135.152643
 34
0.0
100
AcDbRotatedDimension
1001
ACAD
1000
DSTYLE
1002
{
1070
   287
1070
     3
1070
    40
1040
15.0
1070
   143
1040
0.039
1070
   172
1070
     1
1070
   271
1070
     0
1070
   279
1070
     0
1002
}
  0
DIMENSION
  5
7E04
330
19
100
AcDbEntity
  8
3
100
AcDbDimension
280
     0
  2
*D16
 10
2650.19435
 20
1035.348186827816
 30
0.0
 11
2560.194350000001
 21
1072.848186827816
 31
0.0
 70
    32
 71
     5
 42
180.0
 73
     0
 74
     0
 75
     0
  3
IGA
100
AcDbAlignedDimension
 13
2470.19435
 23
1135.152643
 33
0.0
 14
2650.19435
 24
1135.152643
 34
0.0
100
AcDbRotatedDimension
1001
ACAD
1000
DSTYLE
1002
{
1070
   287
1070
     3
1070
    40
1040
15.0
1070
   143
1040
0.039
1070
   172
1070
     1
1070
   271
1070
     0
1070
   279
1070
     0
1002
}
  0
DIMENSION
  5
7E13
330
19
100
AcDbEntity
  8
3
100
AcDbDimension
280
     0
  2
*D17
 10
1629.766684077747
 20
1135.152642999999
 30
0.0
 11
1592.266684077747
 21
1023.724071571428
 31
0.0
 70
    32
 71
     5
 42
60.0
 73
     0
 74
     0
 75
     0
  3
IGA
100
AcDbAlignedDimension
 13
1483.607728690161
 23
1195.152643
 33
0.0
 14
1483.607728690161
 24
1135.152643
 34
0.0
 50
90.0
100
AcDbRotatedDimension
1001
ACAD
1000
DSTYLE
1002
{
1070
   287
1070
     3
1070
    40
1040
15.0
1070
   143
1040
0.039
1070
   172
1070
     1
1070
   271
1070
     0
1070
   279
1070
     0
1070
     6
1000
DOT
1002
}
  0
DIMENSION
  5
7E22
330
19
100
AcDbEntity
  8
3
100
AcDbDimension
280
     0
  2
*D18
 10
1629.766684077747
 20
1265.152642999999
 30
0.0
 11
1693.11237387959
 21
1227.266346263057
 31
0.0
 70
   160
 71
     5
 42
70.0
 73
     0
 74
     0
 75
     0
  3
IGA
100
AcDbAlignedDimension
 13
1483.607728690161
 23
1195.152643
 33
0.0
 14
1453.607728690161
 24
1265.152643
 34
0.0
 50
90.0
100
AcDbRotatedDimension
1001
ACAD
1000
DSTYLE
1002
{
1070
     3
1000
(<>)
1070
    40
1040
15.0
1070
   143
1040
0.039
1070
   172
1070
     1
1070
   271
1070
     0
1070
   343
1005
7D44
1002
}
  0
DIMENSION
  5
7E2F
330
19
100
AcDbEntity
  8
3
100
AcDbDimension
280
     0
  2
*D19
 10
1768.234881436981
 20
1135.152642999999
 30
0.0
 11
1718.949167151267
 21
1525.152643
 31
0.0
 70
    32
 71
     5
 42
780.0
 73
     0
 74
     0
 75
     0
  3
IGA
100
AcDbAlignedDimension
 13
1240.107728690161
 23
1915.152643
 33
0.0
 14
1483.607728690161
 24
1135.152643
 34
0.0
 50
90.0
100
AcDbRotatedDimension
1001
ACAD
1000
DSTYLE
1002
{
1070
   287
1070
     3
1070
     3
1000
(<>)
1070
    40
1040
15.0
1070
   143
1040
0.039
1070
   172
1070
     1
1070
   271
1070
     0
1070
   279
1070
     0
1002
}
  0
ENDSEC
  0
SECTION
  2
OBJECTS
  0
DICTIONARY
  5
C
330
0
100
AcDbDictionary
281
     1
  3
ACAD_CIP_PREVIOUS_PRODUCT_INFO
350
7F65
  3
ACAD_COLOR
350
7F48
  3
ACAD_DETAILVIEWSTYLE
350
7F61
  3
ACAD_GROUP
350
D
  3
ACAD_LAYOUT
350
7E39
  3
ACAD_MATERIAL
350
7F16
  3
ACAD_MLEADERSTYLE
350
7F5D
  3
ACAD_MLINESTYLE
350
E
  3
ACAD_PLOTSETTINGS
350
7E3A
  3
ACAD_PLOTSTYLENAME
350
7E37
  3
ACAD_SCALELIST
350
7F4B
  3
ACAD_SECTIONVIEWSTYLE
350
7F5F
  3
ACAD_TABLESTYLE
350
7F49
  3
ACAD_VISUALSTYLE
350
7F2F
  3
ACDB_RECOMPOSE_DATA
350
8018
  3
AcDbVariableDictionary
350
7F09
  0
DICTIONARY
  5
7F67
330
2
100
AcDbDictionary
280
     1
281
     1
  3
ACAD_LAYERSTATES
360
7F68
  0
DICTIONARY
  5
7FC0
330
F
100
AcDbDictionary
280
     1
281
     1
  3
ADSK_XREC_LAYER_RECONCILED
360
7FC1
  0
DICTIONARY
  5
7FC2
330
31
100
AcDbDictionary
280
     1
281
     1
  3
ADSK_XREC_LAYER_RECONCILED
360
7FC3
  0
DICTIONARY
  5
7FC4
330
76D0
100
AcDbDictionary
280
     1
281
     1
  3
ADSK_XREC_LAYER_RECONCILED
360
7FC5
  0
DICTIONARY
  5
7FC6
330
76D1
100
AcDbDictionary
280
     1
281
     1
  3
ADSK_XREC_LAYER_RECONCILED
360
7FC7
  0
DICTIONARY
  5
7FC8
330
76D2
100
AcDbDictionary
280
     1
281
     1
  3
ADSK_XREC_LAYER_RECONCILED
360
7FC9
  0
DICTIONARY
  5
7E66
330
19
100
AcDbDictionary
280
     1
281
     1
  3
ACAD_LAYOUTSELFREF
360
7E67
  0
DICTIONARY
  5
7E64
330
16
100
AcDbDictionary
280
     1
281
     1
  3
ACAD_LAYOUTSELFREF
360
7E65
  0
XRECORD
  5
7F65
102
{ACAD_REACTORS
330
C
102
}
330
C
100
AcDbXrecord
280
     1
300
ACDLT
300
2015
300
INVLTS_F_S
  0
DICTIONARY
  5
7F48
102
{ACAD_REACTORS
330
C
102
}
330
C
100
AcDbDictionary
281
     1
  0
DICTIONARY
  5
7F61
102
{ACAD_REACTORS
330
C
102
}
330
C
100
AcDbDictionary
281
     1
  3
Imperial24
350
7F62
  0
DICTIONARY
  5
D
102
{ACAD_REACTORS
330
C
102
}
330
0
100
AcDbDictionary
281
     1
  0
DICTIONARY
  5
7E39
102
{ACAD_REACTORS
330
C
102
}
330
C
100
AcDbDictionary
281
     1
  3
Model
350
7E3B
  3
ﾚｲｱｳﾄ1
350
7E3C
  0
DICTIONARY
  5
7F16
102
{ACAD_REACTORS
330
C
102
}
330
C
100
AcDbDictionary
281
     1
  3
ByBlock
350
7F1F
  3
ByLayer
350
7F17
  3
Global
350
7F27
  0
DICTIONARY
  5
7F5D
102
{ACAD_REACTORS
330
C
102
}
330
C
100
AcDbDictionary
281
     1
  3
Standard
350
7F5E
  0
DICTIONARY
  5
E
102
{ACAD_REACTORS
330
C
102
}
330
0
100
AcDbDictionary
281
     1
  3
STANDARD
350
1C
  0
DICTIONARY
  5
7E3A
102
{ACAD_REACTORS
330
C
102
}
330
C
100
AcDbDictionary
281
     1
  0
ACDBDICTIONARYWDFLT
  5
7E37
102
{ACAD_REACTORS
330
C
102
}
330
C
100
AcDbDictionary
281
     1
  3
Normal
350
7E38
100
AcDbDictionaryWithDefault
340
7E38
1001
ACAD
1000
TREAT_AS_HARD
1070
     0
  0
DICTIONARY
  5
7F4B
102
{ACAD_REACTORS
330
C
102
}
330
C
100
AcDbDictionary
281
     1
  3
A0
350
7F4C
  3
A1
350
7F4D
  3
A2
350
7F4E
  3
A3
350
7F4F
  3
A4
350
7F50
  3
A5
350
7F51
  3
A6
350
7F52
  3
A7
350
7F53
  3
A8
350
7F54
  3
A9
350
7F55
  3
B0
350
7F56
  3
B1
350
7F57
  3
B2
350
7F58
  3
B3
350
7F59
  3
B4
350
7F5A
  3
B5
350
7F5B
  3
B6
350
7F5C
  0
DICTIONARY
  5
7F5F
102
{ACAD_REACTORS
330
C
102
}
330
C
100
AcDbDictionary
281
     1
  3
Imperial24
350
7F60
  0
DICTIONARY
  5
7F49
102
{ACAD_REACTORS
330
C
102
}
330
C
100
AcDbDictionary
281
     1
  3
Standard
350
7F4A
  0
DICTIONARY
  5
7F2F
102
{ACAD_REACTORS
330
C
102
}
330
C
100
AcDbDictionary
281
     1
  3
2dWireframe
350
7F35
  3
Basic
350
7F34
  3
Brighten
350
7F3B
  3
ColorChange
350
7F3F
  3
Conceptual
350
7F38
  3
Dim
350
7F3A
  3
EdgeColorOff
350
7F47
  3
Facepattern
350
7F3E
  3
Flat
350
7F30
  3
FlatWithEdges
350
7F31
  3
Gouraud
350
7F32
  3
GouraudWithEdges
350
7F33
  3
Hidden
350
7F37
  3
JitterOff
350
7F45
  3
Linepattern
350
7F3D
  3
OverhangOff
350
7F46
  3
Realistic
350
7F39
  3
Shaded
350
7F44
  3
Shaded with edges
350
7F43
  3
Shades of Gray
350
7F40
  3
Sketchy
350
7F41
  3
Thicken
350
7F3C
  3
Wireframe
350
7F36
  3
X-Ray
350
7F42
  0
XRECORD
  5
8018
102
{ACAD_REACTORS
330
C
102
}
330
C
100
AcDbXrecord
280
     1
 90
        1
330
7F4A
330
7F60
330
7F62
  0
DICTIONARY
  5
7F09
102
{ACAD_REACTORS
330
C
102
}
330
C
100
AcDbDictionary
281
     1
  3
CANNOSCALE
350
7FDB
  3
CMLEADERSTYLE
350
7FD7
  3
CTABLESTYLE
350
7FD6
  3
CVIEWDETAILSTYLE
350
7FD8
  3
CVIEWSECTIONSTYLE
350
7FD9
  3
DIMASSOC
350
7F0A
  3
LAYEREVAL
350
7FDD
  3
LAYERNOTIFY
350
7FDE
  3
LIGHTINGUNITS
350
7FDC
  3
MSLTSCALE
350
7FDA
  0
DICTIONARY
  5
7F68
102
{ACAD_REACTORS
330
7F67
102
}
330
7F67
100
AcDbDictionary
281
     1
  0
XRECORD
  5
7FC1
102
{ACAD_REACTORS
330
7FC0
102
}
330
7FC0
100
AcDbXrecord
280
     1
290
     1
  0
XRECORD
  5
7FC3
102
{ACAD_REACTORS
330
7FC2
102
}
330
7FC2
100
AcDbXrecord
280
     1
290
     1
  0
XRECORD
  5
7FC5
102
{ACAD_REACTORS
330
7FC4
102
}
330
7FC4
100
AcDbXrecord
280
     1
290
     1
  0
XRECORD
  5
7FC7
102
{ACAD_REACTORS
330
7FC6
102
}
330
7FC6
100
AcDbXrecord
280
     1
290
     1
  0
XRECORD
  5
7FC9
102
{ACAD_REACTORS
330
7FC8
102
}
330
7FC8
100
AcDbXrecord
280
     1
290
     1
  0
XRECORD
  5
7E67
102
{ACAD_REACTORS
330
7E66
102
}
330
7E66
100
AcDbXrecord
280
     1
340
19
  0
XRECORD
  5
7E65
102
{ACAD_REACTORS
330
7E64
102
}
330
7E64
100
AcDbXrecord
280
     1
340
16
  0
ACDBDETAILVIEWSTYLE
  5
7F62
102
{ACAD_XDICTIONARY
360
7FD3
102
}
102
{ACAD_REACTORS
330
7F61
102
}
330
7F61
100
AcDbModelDocViewStyle
 70
     0
  3
Imperial24
290
     0
100
AcDbDetailViewStyle
 70
     0
 71
     0
 90
        3
 71
     1
340
10
 62
   256
 40
0.24
340
0
 62
   256
 40
0.24
300

 40
0.36
280
     3
 71
     2
340
15
 90
       25
 62
   256
 71
     3
340
10
 62
   256
 40
0.24
 90
        1
 40
0.75
 90
        1
300
%<\AcVar ViewType \f "%tc1">% %<\AcVar ViewDetailId>%\PSCALE %<\AcVar ViewScale \f "%sn">%
 71
     4
340
15
 90
       25
 62
   256
340
15
 90
       25
 62
   256
280
     0
  0
LAYOUT
  5
7E3B
102
{ACAD_REACTORS
330
7E39
102
}
330
7E39
100
AcDbPlotSettings
  1

  2
\\Txbo34x8944cqyd\EPSON LP-6100
  4

  6

 40
0.0
 41
0.0
 42
0.0
 43
0.0
 44
0.0
 45
0.0
 46
0.0
 47
0.0
 48
0.0
 49
0.0
140
0.0
141
0.0
142
1.0
143
1.0
 70
  1712
 72
     0
 73
     0
 74
     0
  7
GOD2000TABLE.ctb
 75
     0
147
1.0
 76
     0
 77
     2
 78
   300
148
0.0
149
0.0
100
AcDbLayout
  1
Model
 70
     1
 71
     0
 10
0.0
 20
0.0
 11
12.0
 21
9.0
 12
0.0
 22
0.0
 32
0.0
 14
0.0
 24
0.0
 34
0.0
 15
0.0
 25
0.0
 35
0.0
146
0.0
 13
0.0
 23
0.0
 33
0.0
 16
1.0
 26
0.0
 36
0.0
 17
0.0
 27
1.0
 37
0.0
 76
     0
330
19
331
7F14
  0
LAYOUT
  5
7E3C
102
{ACAD_REACTORS
330
7E39
102
}
330
7E39
100
AcDbPlotSettings
  1

  2
\\Txbo34x8944cqyd\EPSON LP-6100
  4

  6

 40
0.0
 41
0.0
 42
0.0
 43
0.0
 44
0.0
 45
0.0
 46
0.0
 47
0.0
 48
0.0
 49
0.0
140
0.0
141
0.0
142
1.0
143
1.0
 70
   688
 72
     0
 73
     0
 74
     5
  7
GOD2000TABLE.ctb
 75
    16
147
1.0
 76
     0
 77
     2
 78
   300
148
0.0
149
0.0
100
AcDbLayout
  1
ﾚｲｱｳﾄ1
 70
     1
 71
     1
 10
0.0
 20
0.0
 11
12.0
 21
9.0
 12
0.0
 22
0.0
 32
0.0
 14
1.000000000000000E+20
 24
1.000000000000000E+20
 34
1.000000000000000E+20
 15
-1.000000000000000E+20
 25
-1.000000000000000E+20
 35
-1.000000000000000E+20
146
0.0
 13
0.0
 23
0.0
 33
0.0
 16
1.0
 26
0.0
 36
0.0
 17
0.0
 27
1.0
 37
0.0
 76
     0
330
16
  0
MATERIAL
  5
7F1F
102
{ACAD_XDICTIONARY
360
7F20
102
}
102
{ACAD_REACTORS
330
7F16
102
}
330
7F16
100
AcDbMaterial
  1
ByBlock
 72
     0
 43
0.0208333333333333
 43
0.0
 43
0.0
 43
0.0
 43
0.0
 43
0.0208333333333333
 43
0.0
 43
0.0
 43
0.0
 43
0.0
 43
1.0
 43
0.0
 43
0.0
 43
0.0
 43
0.0
 43
1.0
 77
     0
 47
0.0208333333333333
 47
0.0
 47
0.0
 47
0.0
 47
0.0
 47
0.0208333333333333
 47
0.0
 47
0.0
 47
0.0
 47
0.0
 47
1.0
 47
0.0
 47
0.0
 47
0.0
 47
0.0
 47
1.0
171
     0
 49
0.0208333333333333
 49
0.0
 49
0.0
 49
0.0
 49
0.0
 49
0.0208333333333333
 49
0.0
 49
0.0
 49
0.0
 49
0.0
 49
1.0
 49
0.0
 49
0.0
 49
0.0
 49
0.0
 49
1.0
175
     0
142
0.0208333333333333
142
0.0
142
0.0
142
0.0
142
0.0
142
0.0208333333333333
142
0.0
142
0.0
142
0.0
142
0.0
142
1.0
142
0.0
142
0.0
142
0.0
142
0.0
142
1.0
179
     0
144
0.0208333333333333
144
0.0
144
0.0
144
0.0
144
0.0
144
0.0208333333333333
144
0.0
144
0.0
144
0.0
144
0.0
144
1.0
144
0.0
144
0.0
144
0.0
144
0.0
144
1.0
147
0.0208333333333333
147
0.0
147
0.0
147
0.0
147
0.0
147
0.0208333333333333
147
0.0
147
0.0
147
0.0
147
0.0
147
1.0
147
0.0
147
0.0
147
0.0
147
0.0
147
1.0
  0
MATERIAL
  5
7F17
102
{ACAD_XDICTIONARY
360
7F18
102
}
102
{ACAD_REACTORS
330
7F16
102
}
330
7F16
100
AcDbMaterial
  1
ByLayer
 72
     0
 43
0.0208333333333333
 43
0.0
 43
0.0
 43
0.0
 43
0.0
 43
0.0208333333333333
 43
0.0
 43
0.0
 43
0.0
 43
0.0
 43
1.0
 43
0.0
 43
0.0
 43
0.0
 43
0.0
 43
1.0
 77
     0
 47
0.0208333333333333
 47
0.0
 47
0.0
 47
0.0
 47
0.0
 47
0.0208333333333333
 47
0.0
 47
0.0
 47
0.0
 47
0.0
 47
1.0
 47
0.0
 47
0.0
 47
0.0
 47
0.0
 47
1.0
171
     0
 49
0.0208333333333333
 49
0.0
 49
0.0
 49
0.0
 49
0.0
 49
0.0208333333333333
 49
0.0
 49
0.0
 49
0.0
 49
0.0
 49
1.0
 49
0.0
 49
0.0
 49
0.0
 49
0.0
 49
1.0
175
     0
142
0.0208333333333333
142
0.0
142
0.0
142
0.0
142
0.0
142
0.0208333333333333
142
0.0
142
0.0
142
0.0
142
0.0
142
1.0
142
0.0
142
0.0
142
0.0
142
0.0
142
1.0
179
     0
144
0.0208333333333333
144
0.0
144
0.0
144
0.0
144
0.0
144
0.0208333333333333
144
0.0
144
0.0
144
0.0
144
0.0
144
1.0
144
0.0
144
0.0
144
0.0
144
0.0
144
1.0
147
0.0208333333333333
147
0.0
147
0.0
147
0.0
147
0.0
147
0.0208333333333333
147
0.0
147
0.0
147
0.0
147
0.0
147
1.0
147
0.0
147
0.0
147
0.0
147
0.0
147
1.0
  0
MATERIAL
  5
7F27
102
{ACAD_XDICTIONARY
360
7F28
102
}
102
{ACAD_REACTORS
330
7F16
102
}
330
7F16
100
AcDbMaterial
  1
Global
 72
     0
 43
0.0208333333333333
 43
0.0
 43
0.0
 43
0.0
 43
0.0
 43
0.0208333333333333
 43
0.0
 43
0.0
 43
0.0
 43
0.0
 43
1.0
 43
0.0
 43
0.0
 43
0.0
 43
0.0
 43
1.0
 77
     0
 47
0.0208333333333333
 47
0.0
 47
0.0
 47
0.0
 47
0.0
 47
0.0208333333333333
 47
0.0
 47
0.0
 47
0.0
 47
0.0
 47
1.0
 47
0.0
 47
0.0
 47
0.0
 47
0.0
 47
1.0
171
     0
 49
0.0208333333333333
 49
0.0
 49
0.0
 49
0.0
 49
0.0
 49
0.0208333333333333
 49
0.0
 49
0.0
 49
0.0
 49
0.0
 49
1.0
 49
0.0
 49
0.0
 49
0.0
 49
0.0
 49
1.0
175
     0
142
0.0208333333333333
142
0.0
142
0.0
142
0.0
142
0.0
142
0.0208333333333333
142
0.0
142
0.0
142
0.0
142
0.0
142
1.0
142
0.0
142
0.0
142
0.0
142
0.0
142
1.0
179
     0
144
0.0208333333333333
144
0.0
144
0.0
144
0.0
144
0.0
144
0.0208333333333333
144
0.0
144
0.0
144
0.0
144
0.0
144
1.0
144
0.0
144
0.0
144
0.0
144
0.0
144
1.0
147
0.0208333333333333
147
0.0
147
0.0
147
0.0
147
0.0
147
0.0208333333333333
147
0.0
147
0.0
147
0.0
147
0.0
147
1.0
147
0.0
147
0.0
147
0.0
147
0.0
147
1.0
  0
MLEADERSTYLE
  5
7F5E
102
{ACAD_REACTORS
330
7F5D
102
}
330
7F5D
100
AcDbMLeaderStyle
179
     2
170
     2
171
     1
172
     0
 90
        2
 40
0.0
 41
0.0
173
     1
 91
-1056964608
340
13
 92
       -2
290
     1
 42
0.09
291
     1
 43
0.36
  3
Standard
 44
0.18
300

342
10
174
     1
178
     6
175
     1
176
     0
 93
-1056964608
 45
0.18
292
     0
297
     0
 46
0.18
 94
-1056964608
 47
1.0
 49
1.0
140
1.0
293
     1
141
0.0
294
     1
177
     0
142
1.0
295
     1
296
     0
143
0.125
271
     0
272
     9
273
     9
298
     1
  0
MLINESTYLE
  5
1C
102
{ACAD_REACTORS
330
E
102
}
330
0
100
AcDbMlineStyle
  2
STANDARD
 70
     0
  3

 62
     0
 51
90.0
 52
90.0
 71
     2
 49
0.5
 62
   256
  6
BYLAYER
 49
-0.5
 62
   256
  6
BYLAYER
  0
ACDBPLACEHOLDER
  5
7E38
102
{ACAD_REACTORS
330
7E37
102
}
330
7E37
  0
SCALE
  5
7F4C
102
{ACAD_REACTORS
330
7F4B
102
}
330
7F4B
100
AcDbScale
 70
     0
300
1:1
140
1.0
141
1.0
290
     1
  0
SCALE
  5
7F4D
102
{ACAD_REACTORS
330
7F4B
102
}
330
7F4B
100
AcDbScale
 70
     0
300
1/128" = 1'-0"
140
0.0078125
141
12.0
290
     0
  0
SCALE
  5
7F4E
102
{ACAD_REACTORS
330
7F4B
102
}
330
7F4B
100
AcDbScale
 70
     0
300
1/64" = 1'-0"
140
0.015625
141
12.0
290
     0
  0
SCALE
  5
7F4F
102
{ACAD_REACTORS
330
7F4B
102
}
330
7F4B
100
AcDbScale
 70
     0
300
1/32" = 1'-0"
140
0.03125
141
12.0
290
     0
  0
SCALE
  5
7F50
102
{ACAD_REACTORS
330
7F4B
102
}
330
7F4B
100
AcDbScale
 70
     0
300
1/16" = 1'-0"
140
0.0625
141
12.0
290
     0
  0
SCALE
  5
7F51
102
{ACAD_REACTORS
330
7F4B
102
}
330
7F4B
100
AcDbScale
 70
     0
300
3/32" = 1'-0"
140
0.09375
141
12.0
290
     0
  0
SCALE
  5
7F52
102
{ACAD_REACTORS
330
7F4B
102
}
330
7F4B
100
AcDbScale
 70
     0
300
1/8" = 1'-0"
140
0.125
141
12.0
290
     0
  0
SCALE
  5
7F53
102
{ACAD_REACTORS
330
7F4B
102
}
330
7F4B
100
AcDbScale
 70
     0
300
3/16" = 1'-0"
140
0.1875
141
12.0
290
     0
  0
SCALE
  5
7F54
102
{ACAD_REACTORS
330
7F4B
102
}
330
7F4B
100
AcDbScale
 70
     0
300
1/4" = 1'-0"
140
0.25
141
12.0
290
     0
  0
SCALE
  5
7F55
102
{ACAD_REACTORS
330
7F4B
102
}
330
7F4B
100
AcDbScale
 70
     0
300
3/8" = 1'-0"
140
0.375
141
12.0
290
     0
  0
SCALE
  5
7F56
102
{ACAD_REACTORS
330
7F4B
102
}
330
7F4B
100
AcDbScale
 70
     0
300
1/2" = 1'-0"
140
0.5
141
12.0
290
     0
  0
SCALE
  5
7F57
102
{ACAD_REACTORS
330
7F4B
102
}
330
7F4B
100
AcDbScale
 70
     0
300
3/4" = 1'-0"
140
0.75
141
12.0
290
     0
  0
SCALE
  5
7F58
102
{ACAD_REACTORS
330
7F4B
102
}
330
7F4B
100
AcDbScale
 70
     0
300
1" = 1'-0"
140
1.0
141
12.0
290
     0
  0
SCALE
  5
7F59
102
{ACAD_REACTORS
330
7F4B
102
}
330
7F4B
100
AcDbScale
 70
     0
300
1-1/2" = 1'-0"
140
1.5
141
12.0
290
     0
  0
SCALE
  5
7F5A
102
{ACAD_REACTORS
330
7F4B
102
}
330
7F4B
100
AcDbScale
 70
     0
300
3" = 1'-0"
140
3.0
141
12.0
290
     0
  0
SCALE
  5
7F5B
102
{ACAD_REACTORS
330
7F4B
102
}
330
7F4B
100
AcDbScale
 70
     0
300
6" = 1'-0"
140
6.0
141
12.0
290
     0
  0
SCALE
  5
7F5C
102
{ACAD_REACTORS
330
7F4B
102
}
330
7F4B
100
AcDbScale
 70
     0
300
1'-0" = 1'-0"
140
12.0
141
12.0
290
     0
  0
ACDBSECTIONVIEWSTYLE
  5
7F60
102
{ACAD_XDICTIONARY
360
7FD1
102
}
102
{ACAD_REACTORS
330
7F5F
102
}
330
7F5F
100
AcDbModelDocViewStyle
 70
     0
  3
Imperial24
290
     0
100
AcDbSectionViewStyle
 70
     0
 71
     0
 90
       78
 71
     1
340
10
 62
   256
 40
0.24
340
0
340
0
 62
   256
 40
0.24
300
I, O, Q, S, X, Z
 40
0.48
 90
        3
 40
0.18
 90
        1
 71
     2
340
15
 90
       25
 62
   256
340
15
 90
       50
 62
   256
 40
0.24
 40
0.0
 40
0.24
 71
     3
340
10
 62
   256
 40
0.24
 90
        1
 40
0.75
 90
        1
300
%<\AcVar ViewType \f "%tc1">% %<\AcVar ViewSectionStartId>%-%<\AcVar ViewSectionEndId>%\PSCALE %<\AcVar ViewScale \f "%sn">%
 71
     4
 62
   256
 62
   257
300
ANSI31
 40
1.0
 90
        0
290
     0
290
     0
 90
        6
 40
0.0
 40
1.570796326794896
 40
0.2617993877991494
 40
1.308996938995747
 40
-0.2617993877991494
 40
1.832595714594046
  0
TABLESTYLE
  5
7F4A
102
{ACAD_XDICTIONARY
360
8014
102
}
102
{ACAD_REACTORS
330
7F49
102
}
330
7F49
100
AcDbTableStyle
280
     0
  3
Standard
 70
     0
 71
     0
 40
0.06
 41
0.06
280
     0
281
     0
  7
STANDARD
140
0.18
170
     2
 62
     0
 63
     7
283
     0
 90
      512
 91
        0
  1

274
    -2
284
     1
 64
     0
275
    -2
285
     1
 65
     0
276
    -2
286
     1
 66
     0
277
    -2
287
     1
 67
     0
278
    -2
288
     1
 68
     0
279
    -2
289
     1
 69
     0
  7
STANDARD
140
0.25
170
     5
 62
     0
 63
     7
283
     0
 90
      512
 91
        0
  1

274
    -2
284
     1
 64
     0
275
    -2
285
     1
 65
     0
276
    -2
286
     1
 66
     0
277
    -2
287
     1
 67
     0
278
    -2
288
     1
 68
     0
279
    -2
289
     1
 69
     0
  7
STANDARD
140
0.18
170
     5
 62
     0
 63
     7
283
     0
 90
      512
 91
        0
  1

274
    -2
284
     1
 64
     0
275
    -2
285
     1
 65
     0
276
    -2
286
     1
 66
     0
277
    -2
287
     1
 67
     0
278
    -2
288
     1
 68
     0
279
    -2
289
     1
 69
     0
  0
VISUALSTYLE
  5
7F35
102
{ACAD_REACTORS
330
7F2F
102
}
330
7F2F
100
AcDbVisualStyle
  2
2dWireframe
 70
     4
177
     3
291
     0
 70
    58
 90
        0
176
     1
 90
        2
176
     1
 90
        0
176
     1
 90
        0
176
     1
 40
0.6
176
     1
 40
30.0
176
     1
 62
     7
420
 16777215
176
     1
 90
        1
176
     1
 90
        4
176
     1
 62
     7
176
     1
 62
   257
176
     1
 90
        1
176
     1
 90
        1
176
     1
 40
1.0
176
     1
 90
        0
176
     1
 62
   257
176
     1
 40
1.0
176
     1
 90
        1
176
     1
 90
        6
176
     1
 90
        2
176
     1
 62
     7
176
     1
 90
        5
176
     1
 90
        0
176
     1
 90
        0
176
     1
290
     0
176
     1
 90
        1
176
     1
 40
0.0
176
     1
 90
        0
176
     1
290
     1
176
     1
290
     1
176
     1
290
     0
176
     1
290
     0
176
     1
290
     0
176
     1
290
     0
176
     1
290
     0
176
     1
290
     0
176
     1
290
     0
176
     1
 90
       50
176
     1
 40
0.0
176
     1
 40
1.0
176
     1
 90
        0
176
     1
 62
    18
420
        0
176
     1
 90
       50
176
     1
 90
        3
176
     1
 62
     5
420
      255
176
     1
290
     0
176
     1
 90
       50
176
     1
 90
       50
176
     1
 90
       50
176
     1
290
     0
176
     1
 90
       50
176
     1
 62
   256
176
     0
 40
1.0
176
     0
 90
        2
176
     1
  1
strokes_ogs.tif
176
     1
290
     0
176
     1
 40
1.0
176
     1
 40
1.0
176
     1
  0
VISUALSTYLE
  5
7F34
102
{ACAD_REACTORS
330
7F2F
102
}
330
7F2F
100
AcDbVisualStyle
  2
Basic
 70
     7
177
     3
291
     1
 70
    58
 90
        1
176
     1
 90
        0
176
     1
 90
        1
176
     1
 90
        0
176
     1
 40
0.6
176
     1
 40
30.0
176
     1
 62
     7
420
 16777215
176
     1
 90
        0
176
     1
 90
        4
176
     1
 62
     7
176
     1
 62
   257
176
     1
 90
        1
176
     1
 90
        1
176
     1
 40
1.0
176
     1
 90
        8
176
     1
 62
     7
176
     1
 40
1.0
176
     1
 90
        1
176
     1
 90
        6
176
     1
 90
        2
176
     1
 62
     7
176
     1
 90
        5
176
     1
 90
        0
176
     1
 90
        0
176
     1
290
     0
176
     1
 90
        1
176
     1
 40
0.0
176
     1
 90
        0
176
     1
290
     0
176
     1
290
     1
176
     1
290
     1
176
     1
290
     0
176
     1
290
     0
176
     1
290
     0
176
     1
290
     0
176
     1
290
     0
176
     1
290
     0
176
     1
 90
       50
176
     1
 40
0.0
176
     1
 40
1.0
176
     1
 90
        0
176
     1
 62
    18
420
        0
176
     1
 90
       50
176
     1
 90
        3
176
     1
 62
     5
420
      255
176
     1
290
     0
176
     1
 90
       50
176
     1
 90
       50
176
     1
 90
       50
176
     1
290
     0
176
     1
 90
       50
176
     1
 62
   256
176
     0
 40
1.0
176
     0
 90
        2
176
     1
  1
strokes_ogs.tif
176
     1
290
     0
176
     1
 40
1.0
176
     1
 40
1.0
176
     1
  0
VISUALSTYLE
  5
7F3B
102
{ACAD_REACTORS
330
7F2F
102
}
330
7F2F
100
AcDbVisualStyle
  2
Brighten
 70
    12
177
     3
291
     1
 70
    58
 90
        2
176
     1
 90
        2
176
     1
 90
        0
176
     1
 90
        0
176
     1
 40
0.6
176
     1
 40
30.0
176
     1
 62
     7
420
 16777215
176
     1
 90
        1
176
     1
 90
        4
176
     1
 62
     7
176
     1
 62
   257
176
     1
 90
        1
176
     1
 90
        1
176
     1
 40
1.0
176
     1
 90
        8
176
     1
 62
     7
176
     1
 40
1.0
176
     1
 90
        1
176
     1
 90
        6
176
     1
 90
        2
176
     1
 62
     7
176
     1
 90
        5
176
     1
 90
        0
176
     1
 90
        0
176
     1
290
     0
176
     1
 90
        1
176
     1
 40
50.0
176
     1
 90
        0
176
     1
290
     0
176
     1
290
     1
176
     1
290
     1
176
     1
290
     0
176
     1
290
     0
176
     1
290
     0
176
     1
290
     0
176
     1
290
     0
176
     1
290
     0
176
     1
 90
       50
176
     1
 40
0.0
176
     1
 40
1.0
176
     1
 90
        0
176
     1
 62
    18
420
        0
176
     1
 90
       50
176
     1
 90
        3
176
     1
 62
     5
420
      255
176
     1
290
     0
176
     1
 90
       50
176
     1
 90
       50
176
     1
 90
       50
176
     1
290
     0
176
     1
 90
       50
176
     1
 62
   256
176
     0
 40
1.0
176
     0
 90
        2
176
     1
  1
strokes_ogs.tif
176
     1
290
     0
176
     1
 40
1.0
176
     1
 40
1.0
176
     1
  0
VISUALSTYLE
  5
7F3F
102
{ACAD_REACTORS
330
7F2F
102
}
330
7F2F
100
AcDbVisualStyle
  2
ColorChange
 70
    16
177
     3
291
     1
 70
    58
 90
        2
176
     1
 90
        2
176
     1
 90
        3
176
     1
 90
        0
176
     1
 40
0.6
176
     1
 40
30.0
176
     1
 62
     8
420
  8421504
176
     1
 90
        1
176
     1
 90
        4
176
     1
 62
     7
176
     1
 62
   257
176
     1
 90
        1
176
     1
 90
        1
176
     1
 40
1.0
176
     1
 90
        8
176
     1
 62
     8
420
  8421504
176
     1
 40
1.0
176
     1
 90
        1
176
     1
 90
        6
176
     1
 90
        2
176
     1
 62
     7
176
     1
 90
        5
176
     1
 90
        0
176
     1
 90
        0
176
     1
290
     0
176
     1
 90
        1
176
     1
 40
0.0
176
     1
 90
        0
176
     1
290
     0
176
     1
290
     1
176
     1
290
     1
176
     1
290
     0
176
     1
290
     0
176
     1
290
     0
176
     1
290
     0
176
     1
290
     0
176
     1
290
     0
176
     1
 90
       50
176
     1
 40
0.0
176
     1
 40
1.0
176
     1
 90
        0
176
     1
 62
    18
420
        0
176
     1
 90
       50
176
     1
 90
        3
176
     1
 62
     5
420
      255
176
     1
290
     0
176
     1
 90
       50
176
     1
 90
       50
176
     1
 90
       50
176
     1
290
     0
176
     1
 90
       50
176
     1
 62
   256
176
     0
 40
1.0
176
     0
 90
        2
176
     1
  1
strokes_ogs.tif
176
     1
290
     0
176
     1
 40
1.0
176
     1
 40
1.0
176
     1
  0
VISUALSTYLE
  5
7F38
102
{ACAD_REACTORS
330
7F2F
102
}
330
7F2F
100
AcDbVisualStyle
  2
Conceptual
 70
     9
177
     3
291
     0
 70
    58
 90
        3
176
     1
 90
        2
176
     1
 90
        0
176
     1
 90
        0
176
     1
 40
0.6
176
     1
 40
30.0
176
     1
 62
     7
420
 16777215
176
     1
 90
        2
176
     1
 90
        2
176
     1
 62
     7
176
     1
 62
   257
176
     1
 90
        1
176
     1
 90
        1
176
     1
 40
179.0
176
     1
 90
        8
176
     1
 62
     7
176
     1
 40
1.0
176
     1
 90
        1
176
     1
 90
        6
176
     1
 90
        2
176
     1
 62
     7
176
     1
 90
        3
176
     1
 90
        0
176
     1
 90
        0
176
     1
290
     0
176
     1
 90
        1
176
     1
 40
0.0
176
     1
 90
        0
176
     1
290
     0
176
     1
290
     1
176
     1
290
     1
176
     1
290
     0
176
     1
290
     0
176
     1
290
     0
176
     1
290
     0
176
     1
290
     0
176
     1
290
     0
176
     1
 90
       50
176
     1
 40
0.0
176
     1
 40
1.0
176
     1
 90
        0
176
     1
 62
    18
420
        0
176
     1
 90
       50
176
     1
 90
        3
176
     1
 62
     5
420
      255
176
     1
290
     0
176
     1
 90
       50
176
     1
 90
       50
176
     1
 90
       50
176
     1
290
     0
176
     1
 90
       50
176
     1
 62
   256
176
     0
 40
1.0
176
     0
 90
        2
176
     1
  1
strokes_ogs.tif
176
     1
290
     0
176
     1
 40
1.0
176
     1
 40
1.0
176
     1
  0
VISUALSTYLE
  5
7F3A
102
{ACAD_REACTORS
330
7F2F
102
}
330
7F2F
100
AcDbVisualStyle
  2
Dim
 70
    11
177
     3
291
     1
 70
    58
 90
        2
176
     1
 90
        2
176
     1
 90
        0
176
     1
 90
        0
176
     1
 40
0.6
176
     1
 40
30.0
176
     1
 62
     7
420
 16777215
176
     1
 90
        1
176
     1
 90
        4
176
     1
 62
     7
176
     1
 62
   257
176
     1
 90
        1
176
     1
 90
        1
176
     1
 40
1.0
176
     1
 90
        8
176
     1
 62
     7
176
     1
 40
1.0
176
     1
 90
        1
176
     1
 90
        6
176
     1
 90
        2
176
     1
 62
     7
176
     1
 90
        5
176
     1
 90
        0
176
     1
 90
        0
176
     1
290
     0
176
     1
 90
        1
176
     1
 40
-50.0
176
     1
 90
        0
176
     1
290
     0
176
     1
290
     1
176
     1
290
     1
176
     1
290
     0
176
     1
290
     0
176
     1
290
     0
176
     1
290
     0
176
     1
290
     0
176
     1
290
     0
176
     1
 90
       50
176
     1
 40
0.0
176
     1
 40
1.0
176
     1
 90
        0
176
     1
 62
    18
420
        0
176
     1
 90
       50
176
     1
 90
        3
176
     1
 62
     5
420
      255
176
     1
290
     0
176
     1
 90
       50
176
     1
 90
       50
176
     1
 90
       50
176
     1
290
     0
176
     1
 90
       50
176
     1
 62
   256
176
     0
 40
1.0
176
     0
 90
        2
176
     1
  1
strokes_ogs.tif
176
     1
290
     0
176
     1
 40
1.0
176
     1
 40
1.0
176
     1
  0
VISUALSTYLE
  5
7F47
102
{ACAD_REACTORS
330
7F2F
102
}
330
7F2F
100
AcDbVisualStyle
  2
EdgeColorOff
 70
    22
177
     3
291
     1
 70
    58
 90
        2
176
     0
 90
        2
176
     0
 90
        0
176
     0
 90
        0
176
     0
 40
0.6
176
     0
 40
30.0
176
     0
 62
     7
420
 16777215
176
     0
 90
        1
176
     0
 90
        4
176
     0
 62
     7
176
     0
 62
   257
176
     0
 90
        1
176
     0
 90
        1
176
     0
 40
1.0
176
     0
 90
        8
176
     2
 62
     7
176
     0
 40
1.0
176
     0
 90
        1
176
     0
 90
        6
176
     0
 90
        2
176
     0
 62
     7
176
     0
 90
        5
176
     0
 90
        0
176
     0
 90
        0
176
     0
290
     0
176
     0
 90
        1
176
     0
 40
0.0
176
     0
 90
        0
176
     0
290
     0
176
     0
290
     1
176
     0
290
     1
176
     0
290
     0
176
     0
290
     0
176
     0
290
     0
176
     0
290
     0
176
     0
290
     0
176
     0
290
     0
176
     0
 90
       50
176
     0
 40
0.0
176
     0
 40
1.0
176
     0
 90
        0
176
     0
 62
    18
420
        0
176
     0
 90
       50
176
     0
 90
        3
176
     0
 62
     5
420
      255
176
     0
290
     0
176
     0
 90
       50
176
     0
 90
       50
176
     0
 90
       50
176
     0
290
     0
176
     0
 90
       50
176
     0
 62
   256
176
     0
 40
1.0
176
     0
 90
        2
176
     0
  1
strokes_ogs.tif
176
     0
290
     0
176
     0
 40
1.0
176
     0
 40
1.0
176
     0
  0
VISUALSTYLE
  5
7F3E
102
{ACAD_REACTORS
330
7F2F
102
}
330
7F2F
100
AcDbVisualStyle
  2
Facepattern
 70
    15
177
     3
291
     1
 70
    58
 90
        2
176
     1
 90
        2
176
     1
 90
        0
176
     1
 90
        0
176
     1
 40
0.6
176
     1
 40
30.0
176
     1
 62
     7
420
 16777215
176
     1
 90
        1
176
     1
 90
        4
176
     1
 62
     7
176
     1
 62
   257
176
     1
 90
        1
176
     1
 90
        1
176
     1
 40
1.0
176
     1
 90
        8
176
     1
 62
     7
176
     1
 40
1.0
176
     1
 90
        1
176
     1
 90
        6
176
     1
 90
        2
176
     1
 62
     7
176
     1
 90
        5
176
     1
 90
        0
176
     1
 90
        0
176
     1
290
     0
176
     1
 90
        1
176
     1
 40
0.0
176
     1
 90
        0
176
     1
290
     0
176
     1
290
     1
176
     1
290
     1
176
     1
290
     0
176
     1
290
     0
176
     1
290
     0
176
     1
290
     0
176
     1
290
     0
176
     1
290
     0
176
     1
 90
       50
176
     1
 40
0.0
176
     1
 40
1.0
176
     1
 90
        0
176
     1
 62
    18
420
        0
176
     1
 90
       50
176
     1
 90
        3
176
     1
 62
     5
420
      255
176
     1
290
     0
176
     1
 90
       50
176
     1
 90
       50
176
     1
 90
       50
176
     1
290
     0
176
     1
 90
       50
176
     1
 62
   256
176
     0
 40
1.0
176
     0
 90
        2
176
     1
  1
strokes_ogs.tif
176
     1
290
     0
176
     1
 40
1.0
176
     1
 40
1.0
176
     1
  0
VISUALSTYLE
  5
7F30
102
{ACAD_REACTORS
330
7F2F
102
}
330
7F2F
100
AcDbVisualStyle
  2
Flat
 70
     0
177
     3
291
     1
 70
    58
 90
        2
176
     1
 90
        1
176
     1
 90
        1
176
     1
 90
        2
176
     1
 40
0.6
176
     1
 40
30.0
176
     1
 62
     7
420
 16777215
176
     1
 90
        0
176
     1
 90
        0
176
     1
 62
     7
176
     1
 62
   257
176
     1
 90
        1
176
     1
 90
        1
176
     1
 40
1.0
176
     1
 90
        8
176
     1
 62
     7
176
     1
 40
1.0
176
     1
 90
        1
176
     1
 90
        6
176
     1
 90
        2
176
     1
 62
     7
176
     1
 90
        5
176
     1
 90
        0
176
     1
 90
        0
176
     1
290
     0
176
     1
 90
       13
176
     1
 40
0.0
176
     1
 90
        0
176
     1
290
     0
176
     1
290
     1
176
     1
290
     1
176
     1
290
     0
176
     1
290
     0
176
     1
290
     0
176
     1
290
     0
176
     1
290
     0
176
     1
290
     0
176
     1
 90
       50
176
     1
 40
0.0
176
     1
 40
1.0
176
     1
 90
        0
176
     1
 62
    18
420
        0
176
     1
 90
       50
176
     1
 90
        3
176
     1
 62
     5
420
      255
176
     1
290
     0
176
     1
 90
       50
176
     1
 90
       50
176
     1
 90
       50
176
     1
290
     0
176
     1
 90
       50
176
     1
 62
   256
176
     0
 40
1.0
176
     0
 90
        2
176
     1
  1
strokes_ogs.tif
176
     1
290
     0
176
     1
 40
1.0
176
     1
 40
1.0
176
     1
  0
VISUALSTYLE
  5
7F31
102
{ACAD_REACTORS
330
7F2F
102
}
330
7F2F
100
AcDbVisualStyle
  2
FlatWithEdges
 70
     1
177
     3
291
     1
 70
    58
 90
        2
176
     1
 90
        1
176
     1
 90
        1
176
     1
 90
        2
176
     1
 40
0.6
176
     1
 40
30.0
176
     1
 62
     7
420
 16777215
176
     1
 90
        1
176
     1
 90
        0
176
     1
 62
     7
176
     1
 62
   257
176
     1
 90
        1
176
     1
 90
        1
176
     1
 40
1.0
176
     1
 90
        0
176
     1
 62
   257
176
     1
 40
1.0
176
     1
 90
        1
176
     1
 90
        6
176
     1
 90
        2
176
     1
 62
     7
176
     1
 90
        5
176
     1
 90
        0
176
     1
 90
        0
176
     1
290
     0
176
     1
 90
       13
176
     1
 40
0.0
176
     1
 90
        0
176
     1
290
     0
176
     1
290
     1
176
     1
290
     1
176
     1
290
     0
176
     1
290
     0
176
     1
290
     0
176
     1
290
     0
176
     1
290
     0
176
     1
290
     0
176
     1
 90
       50
176
     1
 40
0.0
176
     1
 40
1.0
176
     1
 90
        0
176
     1
 62
    18
420
        0
176
     1
 90
       50
176
     1
 90
        3
176
     1
 62
     5
420
      255
176
     1
290
     0
176
     1
 90
       50
176
     1
 90
       50
176
     1
 90
       50
176
     1
290
     0
176
     1
 90
       50
176
     1
 62
   256
176
     0
 40
1.0
176
     0
 90
        2
176
     1
  1
strokes_ogs.tif
176
     1
290
     0
176
     1
 40
1.0
176
     1
 40
1.0
176
     1
  0
VISUALSTYLE
  5
7F32
102
{ACAD_REACTORS
330
7F2F
102
}
330
7F2F
100
AcDbVisualStyle
  2
Gouraud
 70
     2
177
     3
291
     1
 70
    58
 90
        2
176
     1
 90
        2
176
     1
 90
        1
176
     1
 90
        2
176
     1
 40
0.6
176
     1
 40
30.0
176
     1
 62
     7
420
 16777215
176
     1
 90
        0
176
     1
 90
        0
176
     1
 62
     7
176
     1
 62
   257
176
     1
 90
        1
176
     1
 90
        1
176
     1
 40
1.0
176
     1
 90
        0
176
     1
 62
     7
176
     1
 40
1.0
176
     1
 90
        1
176
     1
 90
        6
176
     1
 90
        2
176
     1
 62
     7
176
     1
 90
        5
176
     1
 90
        0
176
     1
 90
        0
176
     1
290
     0
176
     1
 90
       13
176
     1
 40
0.0
176
     1
 90
        0
176
     1
290
     0
176
     1
290
     1
176
     1
290
     1
176
     1
290
     0
176
     1
290
     0
176
     1
290
     0
176
     1
290
     0
176
     1
290
     0
176
     1
290
     0
176
     1
 90
       50
176
     1
 40
0.0
176
     1
 40
1.0
176
     1
 90
        0
176
     1
 62
    18
420
        0
176
     1
 90
       50
176
     1
 90
        3
176
     1
 62
     5
420
      255
176
     1
290
     0
176
     1
 90
       50
176
     1
 90
       50
176
     1
 90
       50
176
     1
290
     0
176
     1
 90
       50
176
     1
 62
   256
176
     0
 40
1.0
176
     0
 90
        2
176
     1
  1
strokes_ogs.tif
176
     1
290
     0
176
     1
 40
1.0
176
     1
 40
1.0
176
     1
  0
VISUALSTYLE
  5
7F33
102
{ACAD_REACTORS
330
7F2F
102
}
330
7F2F
100
AcDbVisualStyle
  2
GouraudWithEdges
 70
     3
177
     3
291
     1
 70
    58
 90
        2
176
     1
 90
        2
176
     1
 90
        1
176
     1
 90
        2
176
     1
 40
0.6
176
     1
 40
30.0
176
     1
 62
     7
420
 16777215
176
     1
 90
        1
176
     1
 90
        0
176
     1
 62
     7
176
     1
 62
   257
176
     1
 90
        1
176
     1
 90
        1
176
     1
 40
1.0
176
     1
 90
        0
176
     1
 62
   257
176
     1
 40
1.0
176
     1
 90
        1
176
     1
 90
        6
176
     1
 90
        2
176
     1
 62
     7
176
     1
 90
        5
176
     1
 90
        0
176
     1
 90
        0
176
     1
290
     0
176
     1
 90
       13
176
     1
 40
0.0
176
     1
 90
        0
176
     1
290
     0
176
     1
290
     1
176
     1
290
     1
176
     1
290
     0
176
     1
290
     0
176
     1
290
     0
176
     1
290
     0
176
     1
290
     0
176
     1
290
     0
176
     1
 90
       50
176
     1
 40
0.0
176
     1
 40
1.0
176
     1
 90
        0
176
     1
 62
    18
420
        0
176
     1
 90
       50
176
     1
 90
        3
176
     1
 62
     5
420
      255
176
     1
290
     0
176
     1
 90
       50
176
     1
 90
       50
176
     1
 90
       50
176
     1
290
     0
176
     1
 90
       50
176
     1
 62
   256
176
     0
 40
1.0
176
     0
 90
        2
176
     1
  1
strokes_ogs.tif
176
     1
290
     0
176
     1
 40
1.0
176
     1
 40
1.0
176
     1
  0
VISUALSTYLE
  5
7F37
102
{ACAD_REACTORS
330
7F2F
102
}
330
7F2F
100
AcDbVisualStyle
  2
Hidden
 70
     6
177
     3
291
     0
 70
    58
 90
        1
176
     1
 90
        2
176
     1
 90
        2
176
     1
 90
        0
176
     1
 40
0.6
176
     1
 40
30.0
176
     1
 62
     7
420
 16777215
176
     1
 90
        2
176
     1
 90
        2
176
     1
 62
     7
176
     1
 62
   257
176
     1
 90
        2
176
     1
 90
        1
176
     1
 40
40.0
176
     1
 90
        0
176
     1
 62
   257
176
     1
 40
1.0
176
     1
 90
        1
176
     1
 90
        6
176
     1
 90
        2
176
     1
 62
     7
176
     1
 90
        3
176
     1
 90
        0
176
     1
 90
        0
176
     1
290
     0
176
     1
 90
        1
176
     1
 40
0.0
176
     1
 90
        0
176
     1
290
     0
176
     1
290
     1
176
     1
290
     1
176
     1
290
     0
176
     1
290
     0
176
     1
290
     0
176
     1
290
     0
176
     1
290
     0
176
     1
290
     0
176
     1
 90
       50
176
     1
 40
0.0
176
     1
 40
1.0
176
     1
 90
        0
176
     1
 62
    18
420
        0
176
     1
 90
       50
176
     1
 90
        3
176
     1
 62
     5
420
      255
176
     1
290
     0
176
     1
 90
       50
176
     1
 90
       50
176
     1
 90
       50
176
     1
290
     0
176
     1
 90
       50
176
     1
 62
   256
176
     0
 40
1.0
176
     0
 90
        2
176
     1
  1
strokes_ogs.tif
176
     1
290
     0
176
     1
 40
1.0
176
     1
 40
1.0
176
     1
  0
VISUALSTYLE
  5
7F45
102
{ACAD_REACTORS
330
7F2F
102
}
330
7F2F
100
AcDbVisualStyle
  2
JitterOff
 70
    20
177
     3
291
     1
 70
    58
 90
        2
176
     0
 90
        2
176
     0
 90
        0
176
     0
 90
        0
176
     0
 40
0.6
176
     0
 40
30.0
176
     0
 62
     7
420
 16777215
176
     0
 90
        1
176
     0
 90
        4
176
     0
 62
     7
176
     0
 62
   257
176
     0
 90
        1
176
     0
 90
        1
176
     0
 40
1.0
176
     0
 90
       10
176
     2
 62
     7
176
     0
 40
1.0
176
     0
 90
        1
176
     0
 90
        6
176
     0
 90
        2
176
     0
 62
     7
176
     0
 90
        5
176
     0
 90
        0
176
     0
 90
        0
176
     0
290
     0
176
     0
 90
        1
176
     0
 40
0.0
176
     0
 90
        0
176
     0
290
     0
176
     0
290
     1
176
     0
290
     1
176
     0
290
     0
176
     0
290
     0
176
     0
290
     0
176
     0
290
     0
176
     0
290
     0
176
     0
290
     0
176
     0
 90
       50
176
     0
 40
0.0
176
     0
 40
1.0
176
     0
 90
        0
176
     0
 62
    18
420
        0
176
     0
 90
       50
176
     0
 90
        3
176
     0
 62
     5
420
      255
176
     0
290
     0
176
     0
 90
       50
176
     0
 90
       50
176
     0
 90
       50
176
     0
290
     0
176
     0
 90
       50
176
     0
 62
   256
176
     0
 40
1.0
176
     0
 90
        2
176
     0
  1
strokes_ogs.tif
176
     0
290
     0
176
     0
 40
1.0
176
     0
 40
1.0
176
     0
  0
VISUALSTYLE
  5
7F3D
102
{ACAD_REACTORS
330
7F2F
102
}
330
7F2F
100
AcDbVisualStyle
  2
Linepattern
 70
    14
177
     3
291
     1
 70
    58
 90
        2
176
     1
 90
        2
176
     1
 90
        0
176
     1
 90
        0
176
     1
 40
0.6
176
     1
 40
30.0
176
     1
 62
     7
420
 16777215
176
     1
 90
        1
176
     1
 90
        4
176
     1
 62
     7
176
     1
 62
   257
176
     1
 90
        7
176
     1
 90
        7
176
     1
 40
1.0
176
     1
 90
        8
176
     1
 62
     7
176
     1
 40
1.0
176
     1
 90
        1
176
     1
 90
        6
176
     1
 90
        2
176
     1
 62
     7
176
     1
 90
        5
176
     1
 90
        0
176
     1
 90
        0
176
     1
290
     0
176
     1
 90
        1
176
     1
 40
0.0
176
     1
 90
        0
176
     1
290
     0
176
     1
290
     1
176
     1
290
     1
176
     1
290
     0
176
     1
290
     0
176
     1
290
     0
176
     1
290
     0
176
     1
290
     0
176
     1
290
     0
176
     1
 90
       50
176
     1
 40
0.0
176
     1
 40
1.0
176
     1
 90
        0
176
     1
 62
    18
420
        0
176
     1
 90
       50
176
     1
 90
        3
176
     1
 62
     5
420
      255
176
     1
290
     0
176
     1
 90
       50
176
     1
 90
       50
176
     1
 90
       50
176
     1
290
     0
176
     1
 90
       50
176
     1
 62
   256
176
     0
 40
1.0
176
     0
 90
        2
176
     1
  1
strokes_ogs.tif
176
     1
290
     0
176
     1
 40
1.0
176
     1
 40
1.0
176
     1
  0
VISUALSTYLE
  5
7F46
102
{ACAD_REACTORS
330
7F2F
102
}
330
7F2F
100
AcDbVisualStyle
  2
OverhangOff
 70
    21
177
     3
291
     1
 70
    58
 90
        2
176
     0
 90
        2
176
     0
 90
        0
176
     0
 90
        0
176
     0
 40
0.6
176
     0
 40
30.0
176
     0
 62
     7
420
 16777215
176
     0
 90
        1
176
     0
 90
        4
176
     0
 62
     7
176
     0
 62
   257
176
     0
 90
        1
176
     0
 90
        1
176
     0
 40
1.0
176
     0
 90
        9
176
     2
 62
     7
176
     0
 40
1.0
176
     0
 90
        1
176
     0
 90
        6
176
     0
 90
        2
176
     0
 62
     7
176
     0
 90
        5
176
     0
 90
        0
176
     0
 90
        0
176
     0
290
     0
176
     0
 90
        1
176
     0
 40
0.0
176
     0
 90
        0
176
     0
290
     0
176
     0
290
     1
176
     0
290
     1
176
     0
290
     0
176
     0
290
     0
176
     0
290
     0
176
     0
290
     0
176
     0
290
     0
176
     0
290
     0
176
     0
 90
       50
176
     0
 40
0.0
176
     0
 40
1.0
176
     0
 90
        0
176
     0
 62
    18
420
        0
176
     0
 90
       50
176
     0
 90
        3
176
     0
 62
     5
420
      255
176
     0
290
     0
176
     0
 90
       50
176
     0
 90
       50
176
     0
 90
       50
176
     0
290
     0
176
     0
 90
       50
176
     0
 62
   256
176
     0
 40
1.0
176
     0
 90
        2
176
     0
  1
strokes_ogs.tif
176
     0
290
     0
176
     0
 40
1.0
176
     0
 40
1.0
176
     0
  0
VISUALSTYLE
  5
7F39
102
{ACAD_REACTORS
330
7F2F
102
}
330
7F2F
100
AcDbVisualStyle
  2
Realistic
 70
     8
177
     3
291
     0
 70
    58
 90
        2
176
     1
 90
        3
176
     1
 90
        0
176
     1
 90
        2
176
     1
 40
0.6
176
     1
 40
30.0
176
     1
 62
     7
420
 16777215
176
     1
 90
        0
176
     1
 90
        0
176
     1
 62
     7
176
     1
 62
   257
176
     1
 90
        1
176
     1
 90
        1
176
     1
 40
1.0
176
     1
 90
        8
176
     1
 62
   257
176
     1
 40
1.0
176
     1
 90
        1
176
     1
 90
        6
176
     1
 90
        2
176
     1
 62
     7
176
     1
 90
        3
176
     1
 90
        0
176
     1
 90
        0
176
     1
290
     0
176
     1
 90
       13
176
     1
 40
0.0
176
     1
 90
        0
176
     1
290
     0
176
     1
290
     1
176
     1
290
     1
176
     1
290
     0
176
     1
290
     0
176
     1
290
     0
176
     1
290
     0
176
     1
290
     0
176
     1
290
     0
176
     1
 90
       50
176
     1
 40
0.0
176
     1
 40
1.0
176
     1
 90
        0
176
     1
 62
    18
420
        0
176
     1
 90
       50
176
     1
 90
        3
176
     1
 62
     5
420
      255
176
     1
290
     0
176
     1
 90
       50
176
     1
 90
       50
176
     1
 90
       50
176
     1
290
     0
176
     1
 90
       50
176
     1
 62
   256
176
     0
 40
1.0
176
     0
 90
        2
176
     1
  1
strokes_ogs.tif
176
     1
290
     0
176
     1
 40
1.0
176
     1
 40
1.0
176
     1
  0
VISUALSTYLE
  5
7F44
102
{ACAD_REACTORS
330
7F2F
102
}
330
7F2F
100
AcDbVisualStyle
  2
Shaded
 70
    27
177
     3
291
     0
 70
    58
 90
        2
176
     1
 90
        2
176
     1
 90
        1
176
     1
 90
        2
176
     1
 40
0.6
176
     1
 40
30.0
176
     1
 62
     7
420
 16777215
176
     1
 90
        0
176
     1
 90
        4
176
     1
 62
     7
176
     1
 62
   257
176
     1
 90
        1
176
     1
 90
        1
176
     1
 40
1.0
176
     1
 90
        8
176
     1
 62
   257
176
     1
 40
1.0
176
     1
 90
        1
176
     1
 90
        6
176
     1
 90
        2
176
     1
 62
     8
420
  7895160
176
     1
 90
        3
176
     1
 90
        0
176
     1
 90
        0
176
     1
290
     0
176
     1
 90
        5
176
     1
 40
0.0
176
     1
 90
        0
176
     1
290
     0
176
     1
290
     1
176
     1
290
     1
176
     1
290
     0
176
     1
290
     0
176
     1
290
     0
176
     1
290
     0
176
     1
290
     0
176
     1
290
     0
176
     1
 90
       50
176
     1
 40
0.0
176
     1
 40
1.0
176
     1
 90
        0
176
     1
 62
    18
420
        0
176
     1
 90
       50
176
     1
 90
        3
176
     1
 62
     5
420
      255
176
     1
290
     0
176
     1
 90
       50
176
     1
 90
       50
176
     1
 90
       50
176
     1
290
     0
176
     1
 90
       50
176
     1
 62
   256
176
     0
 40
1.0
176
     0
 90
        2
176
     1
  1
strokes_ogs.tif
176
     1
290
     0
176
     1
 40
1.0
176
     1
 40
1.0
176
     1
  0
VISUALSTYLE
  5
7F43
102
{ACAD_REACTORS
330
7F2F
102
}
330
7F2F
100
AcDbVisualStyle
  2
Shaded with edges
 70
    26
177
     3
291
     0
 70
    58
 90
        2
176
     1
 90
        2
176
     1
 90
        1
176
     1
 90
        2
176
     1
 40
0.6
176
     1
 40
30.0
176
     1
 62
     7
420
 16777215
176
     1
 90
        1
176
     1
 90
       10
176
     1
 62
     7
176
     1
 62
   257
176
     1
 90
        2
176
     1
 90
        1
176
     1
 40
1.0
176
     1
 90
        8
176
     1
 62
   257
176
     1
 40
1.0
176
     1
 90
        1
176
     1
 90
        6
176
     1
 90
        2
176
     1
 62
     7
176
     1
 90
        3
176
     1
 90
        0
176
     1
 90
        0
176
     1
290
     0
176
     1
 90
        5
176
     1
 40
0.0
176
     1
 90
        0
176
     1
290
     0
176
     1
290
     1
176
     1
290
     1
176
     1
290
     0
176
     1
290
     0
176
     1
290
     0
176
     1
290
     0
176
     1
290
     0
176
     1
290
     0
176
     1
 90
       50
176
     1
 40
0.0
176
     1
 40
1.0
176
     1
 90
        0
176
     1
 62
    18
420
        0
176
     1
 90
       50
176
     1
 90
        3
176
     1
 62
     5
420
      255
176
     1
290
     0
176
     1
 90
       50
176
     1
 90
       50
176
     1
 90
       50
176
     1
290
     0
176
     1
 90
       50
176
     1
 62
   256
176
     0
 40
1.0
176
     0
 90
        2
176
     1
  1
strokes_ogs.tif
176
     1
290
     0
176
     1
 40
1.0
176
     1
 40
1.0
176
     1
  0
VISUALSTYLE
  5
7F40
102
{ACAD_REACTORS
330
7F2F
102
}
330
7F2F
100
AcDbVisualStyle
  2
Shades of Gray
 70
    23
177
     3
291
     0
 70
    58
 90
        2
176
     1
 90
        2
176
     1
 90
        3
176
     1
 90
        0
176
     1
 40
0.6
176
     1
 40
30.0
176
     1
 62
     7
420
 16777215
176
     1
 90
        2
176
     1
 90
        2
176
     1
 62
     7
176
     1
 62
     7
176
     1
 90
        1
176
     1
 90
        1
176
     1
 40
40.0
176
     1
 90
        8
176
     1
 62
     7
176
     1
 40
1.0
176
     1
 90
        1
176
     1
 90
        6
176
     1
 90
        2
176
     1
 62
     7
176
     1
 90
        3
176
     1
 90
        0
176
     1
 90
        0
176
     1
290
     0
176
     1
 90
        1
176
     1
 40
0.0
176
     1
 90
        0
176
     1
290
     0
176
     1
290
     1
176
     1
290
     1
176
     1
290
     0
176
     1
290
     0
176
     1
290
     0
176
     1
290
     0
176
     1
290
     0
176
     1
290
     0
176
     1
 90
       50
176
     1
 40
0.0
176
     1
 40
1.0
176
     1
 90
        0
176
     1
 62
    18
420
        0
176
     1
 90
       50
176
     1
 90
        3
176
     1
 62
     5
420
      255
176
     1
290
     0
176
     1
 90
       50
176
     1
 90
       50
176
     1
 90
       50
176
     1
290
     0
176
     1
 90
       50
176
     1
 62
   256
176
     0
 40
1.0
176
     0
 90
        2
176
     1
  1
strokes_ogs.tif
176
     1
290
     0
176
     1
 40
1.0
176
     1
 40
1.0
176
     1
  0
VISUALSTYLE
  5
7F41
102
{ACAD_REACTORS
330
7F2F
102
}
330
7F2F
100
AcDbVisualStyle
  2
Sketchy
 70
    24
177
     3
291
     0
 70
    58
 90
        1
176
     1
 90
        2
176
     1
 90
        2
176
     1
 90
        0
176
     1
 40
0.6
176
     1
 40
30.0
176
     1
 62
     7
420
 16777215
176
     1
 90
        2
176
     1
 90
        2
176
     1
 62
     7
176
     1
 62
     7
176
     1
 90
        1
176
     1
 90
        1
176
     1
 40
40.0
176
     1
 90
       11
176
     1
 62
     7
176
     1
 40
1.0
176
     1
 90
        1
176
     1
 90
        6
176
     1
 90
        2
176
     1
 62
     7
176
     1
 90
        6
176
     1
 90
        0
176
     1
 90
        0
176
     1
290
     0
176
     1
 90
        1
176
     1
 40
0.0
176
     1
 90
        0
176
     1
290
     0
176
     1
290
     1
176
     1
290
     1
176
     1
290
     0
176
     1
290
     0
176
     1
290
     0
176
     1
290
     0
176
     1
290
     0
176
     1
290
     0
176
     1
 90
       50
176
     1
 40
0.0
176
     1
 40
1.0
176
     1
 90
        0
176
     1
 62
    18
420
        0
176
     1
 90
       50
176
     1
 90
        3
176
     1
 62
     5
420
      255
176
     1
290
     0
176
     1
 90
       50
176
     1
 90
       50
176
     1
 90
       50
176
     1
290
     0
176
     1
 90
       50
176
     1
 62
   256
176
     0
 40
1.0
176
     0
 90
        2
176
     1
  1
strokes_ogs.tif
176
     1
290
     0
176
     1
 40
1.0
176
     1
 40
1.0
176
     1
  0
VISUALSTYLE
  5
7F3C
102
{ACAD_REACTORS
330
7F2F
102
}
330
7F2F
100
AcDbVisualStyle
  2
Thicken
 70
    13
177
     3
291
     1
 70
    58
 90
        2
176
     1
 90
        2
176
     1
 90
        0
176
     1
 90
        0
176
     1
 40
0.6
176
     1
 40
30.0
176
     1
 62
     7
420
 16777215
176
     1
 90
        1
176
     1
 90
        4
176
     1
 62
     7
176
     1
 62
   257
176
     1
 90
        1
176
     1
 90
        1
176
     1
 40
1.0
176
     1
 90
       12
176
     1
 62
     7
176
     1
 40
1.0
176
     1
 90
        1
176
     1
 90
        6
176
     1
 90
        2
176
     1
 62
     7
176
     1
 90
        5
176
     1
 90
        0
176
     1
 90
        0
176
     1
290
     0
176
     1
 90
        1
176
     1
 40
0.0
176
     1
 90
        0
176
     1
290
     0
176
     1
290
     1
176
     1
290
     1
176
     1
290
     0
176
     1
290
     0
176
     1
290
     0
176
     1
290
     0
176
     1
290
     0
176
     1
290
     0
176
     1
 90
       50
176
     1
 40
0.0
176
     1
 40
1.0
176
     1
 90
        0
176
     1
 62
    18
420
        0
176
     1
 90
       50
176
     1
 90
        3
176
     1
 62
     5
420
      255
176
     1
290
     0
176
     1
 90
       50
176
     1
 90
       50
176
     1
 90
       50
176
     1
290
     0
176
     1
 90
       50
176
     1
 62
   256
176
     0
 40
1.0
176
     0
 90
        2
176
     1
  1
strokes_ogs.tif
176
     1
290
     0
176
     1
 40
1.0
176
     1
 40
1.0
176
     1
  0
VISUALSTYLE
  5
7F36
102
{ACAD_REACTORS
330
7F2F
102
}
330
7F2F
100
AcDbVisualStyle
  2
Wireframe
 70
     5
177
     3
291
     0
 70
    58
 90
        0
176
     1
 90
        2
176
     1
 90
        0
176
     1
 90
        0
176
     1
 40
0.6
176
     1
 40
30.0
176
     1
 62
     7
420
 16777215
176
     1
 90
        1
176
     1
 90
        4
176
     1
 62
     7
176
     1
 62
   257
176
     1
 90
        1
176
     1
 90
        1
176
     1
 40
1.0
176
     1
 90
        0
176
     1
 62
   257
176
     1
 40
1.0
176
     1
 90
        1
176
     1
 90
        6
176
     1
 90
        2
176
     1
 62
     7
176
     1
 90
        3
176
     1
 90
        0
176
     1
 90
        0
176
     1
290
     0
176
     1
 90
        1
176
     1
 40
0.0
176
     1
 90
        0
176
     1
290
     0
176
     1
290
     1
176
     1
290
     1
176
     1
290
     0
176
     1
290
     0
176
     1
290
     0
176
     1
290
     0
176
     1
290
     0
176
     1
290
     0
176
     1
 90
       50
176
     1
 40
0.0
176
     1
 40
1.0
176
     1
 90
        0
176
     1
 62
    18
420
        0
176
     1
 90
       50
176
     1
 90
        3
176
     1
 62
     5
420
      255
176
     1
290
     0
176
     1
 90
       50
176
     1
 90
       50
176
     1
 90
       50
176
     1
290
     0
176
     1
 90
       50
176
     1
 62
   256
176
     0
 40
1.0
176
     0
 90
        2
176
     1
  1
strokes_ogs.tif
176
     1
290
     0
176
     1
 40
1.0
176
     1
 40
1.0
176
     1
  0
VISUALSTYLE
  5
7F42
102
{ACAD_REACTORS
330
7F2F
102
}
330
7F2F
100
AcDbVisualStyle
  2
X-Ray
 70
    25
177
     3
291
     0
 70
    58
 90
        2
176
     1
 90
        2
176
     1
 90
        1
176
     1
 90
        1
176
     1
 40
0.5
176
     1
 40
30.0
176
     1
 62
     7
420
 16777215
176
     1
 90
        1
176
     1
 90
        0
176
     1
 62
     7
176
     1
 62
   257
176
     1
 90
        1
176
     1
 90
        1
176
     1
 40
1.0
176
     1
 90
        8
176
     1
 62
     7
176
     1
 40
1.0
176
     1
 90
        1
176
     1
 90
        6
176
     1
 90
        2
176
     1
 62
     7
176
     1
 90
        3
176
     1
 90
        0
176
     1
 90
        0
176
     1
290
     0
176
     1
 90
       13
176
     1
 40
0.0
176
     1
 90
        0
176
     1
290
     0
176
     1
290
     1
176
     1
290
     1
176
     1
290
     0
176
     1
290
     0
176
     1
290
     0
176
     1
290
     0
176
     1
290
     0
176
     1
290
     0
176
     1
 90
       50
176
     1
 40
0.0
176
     1
 40
1.0
176
     1
 90
        0
176
     1
 62
    18
420
        0
176
     1
 90
       50
176
     1
 90
        3
176
     1
 62
     5
420
      255
176
     1
290
     0
176
     1
 90
       50
176
     1
 90
       50
176
     1
 90
       50
176
     1
290
     0
176
     1
 90
       50
176
     1
 62
   256
176
     0
 40
1.0
176
     0
 90
        2
176
     1
  1
strokes_ogs.tif
176
     1
290
     0
176
     1
 40
1.0
176
     1
 40
1.0
176
     1
  0
DICTIONARYVAR
  5
7FDB
102
{ACAD_REACTORS
330
7F09
102
}
330
7F09
100
DictionaryVariables
280
     0
  1
1:1
  0
DICTIONARYVAR
  5
7FD7
102
{ACAD_REACTORS
330
7F09
102
}
330
7F09
100
DictionaryVariables
280
     0
  1
STANDARD
  0
DICTIONARYVAR
  5
7FD6
102
{ACAD_REACTORS
330
7F09
102
}
330
7F09
100
DictionaryVariables
280
     0
  1
STANDARD
  0
DICTIONARYVAR
  5
7FD8
102
{ACAD_REACTORS
330
7F09
102
}
330
7F09
100
DictionaryVariables
280
     0
  1
Imperial24
  0
DICTIONARYVAR
  5
7FD9
102
{ACAD_REACTORS
330
7F09
102
}
330
7F09
100
DictionaryVariables
280
     0
  1
Imperial24
  0
DICTIONARYVAR
  5
7F0A
102
{ACAD_REACTORS
330
7F09
102
}
330
7F09
100
DictionaryVariables
280
     0
  1
1
  0
DICTIONARYVAR
  5
7FDD
102
{ACAD_REACTORS
330
7F09
102
}
330
7F09
100
DictionaryVariables
280
     0
  1
1
  0
DICTIONARYVAR
  5
7FDE
102
{ACAD_REACTORS
330
7F09
102
}
330
7F09
100
DictionaryVariables
280
     0
  1
15
  0
DICTIONARYVAR
  5
7FDC
102
{ACAD_REACTORS
330
7F09
102
}
330
7F09
100
DictionaryVariables
280
     0
  1
0
  0
DICTIONARYVAR
  5
7FDA
102
{ACAD_REACTORS
330
7F09
102
}
330
7F09
100
DictionaryVariables
280
     0
  1
0
  0
DICTIONARY
  5
7FD3
330
7F62
100
AcDbDictionary
280
     1
281
     1
  3
ACAD_XREC_ROUNDTRIP
360
8017
  0
DICTIONARY
  5
7F20
330
7F1F
100
AcDbDictionary
280
     1
281
     1
  3
BUMPTILE
360
7F22
  3
DIFFUSETILE
360
7F21
  3
OPACITYTILE
360
7F25
  3
REFLECTIONTILE
360
7F24
  3
REFRACTIONTILE
360
7F26
  3
SPECULARTILE
360
7F23
  0
DICTIONARY
  5
7F18
330
7F17
100
AcDbDictionary
280
     1
281
     1
  3
BUMPTILE
360
7F1A
  3
DIFFUSETILE
360
7F19
  3
OPACITYTILE
360
7F1D
  3
REFLECTIONTILE
360
7F1C
  3
REFRACTIONTILE
360
7F1E
  3
SPECULARTILE
360
7F1B
  0
DICTIONARY
  5
7F28
330
7F27
100
AcDbDictionary
280
     1
281
     1
  3
BUMPTILE
360
7F2A
  3
DIFFUSETILE
360
7F29
  3
OPACITYTILE
360
7F2D
  3
REFLECTIONTILE
360
7F2C
  3
REFRACTIONTILE
360
7F2E
  3
SPECULARTILE
360
7F2B
  0
DICTIONARY
  5
7FD1
330
7F60
100
AcDbDictionary
280
     1
281
     1
  3
ACAD_XREC_ROUNDTRIP
360
8016
  0
DICTIONARY
  5
8014
330
7F4A
100
AcDbDictionary
280
     1
281
     1
  3
ACAD_ROUNDTRIP_2008_TABLESTYLE_CELLSTYLEMAP
360
8015
  0
XRECORD
  5
8017
102
{ACAD_REACTORS
330
7FD3
102
}
330
7FD3
100
AcDbXrecord
280
     1
102
DISPLAYNAME
  1
Imperial24
102
FLAGS
 90
        0
  0
XRECORD
  5
7F22
102
{ACAD_REACTORS
330
7F20
102
}
330
7F20
100
AcDbXrecord
280
     1
270
     1
271
     1
  0
XRECORD
  5
7F21
102
{ACAD_REACTORS
330
7F20
102
}
330
7F20
100
AcDbXrecord
280
     1
270
     1
271
     1
  0
XRECORD
  5
7F25
102
{ACAD_REACTORS
330
7F20
102
}
330
7F20
100
AcDbXrecord
280
     1
270
     1
271
     1
  0
XRECORD
  5
7F24
102
{ACAD_REACTORS
330
7F20
102
}
330
7F20
100
AcDbXrecord
280
     1
270
     1
271
     1
  0
XRECORD
  5
7F26
102
{ACAD_REACTORS
330
7F20
102
}
330
7F20
100
AcDbXrecord
280
     1
270
     1
271
     1
  0
XRECORD
  5
7F23
102
{ACAD_REACTORS
330
7F20
102
}
330
7F20
100
AcDbXrecord
280
     1
270
     1
271
     1
  0
XRECORD
  5
7F1A
102
{ACAD_REACTORS
330
7F18
102
}
330
7F18
100
AcDbXrecord
280
     1
270
     1
271
     1
  0
XRECORD
  5
7F19
102
{ACAD_REACTORS
330
7F18
102
}
330
7F18
100
AcDbXrecord
280
     1
270
     1
271
     1
  0
XRECORD
  5
7F1D
102
{ACAD_REACTORS
330
7F18
102
}
330
7F18
100
AcDbXrecord
280
     1
270
     1
271
     1
  0
XRECORD
  5
7F1C
102
{ACAD_REACTORS
330
7F18
102
}
330
7F18
100
AcDbXrecord
280
     1
270
     1
271
     1
  0
XRECORD
  5
7F1E
102
{ACAD_REACTORS
330
7F18
102
}
330
7F18
100
AcDbXrecord
280
     1
270
     1
271
     1
  0
XRECORD
  5
7F1B
102
{ACAD_REACTORS
330
7F18
102
}
330
7F18
100
AcDbXrecord
280
     1
270
     1
271
     1
  0
XRECORD
  5
7F2A
102
{ACAD_REACTORS
330
7F28
102
}
330
7F28
100
AcDbXrecord
280
     1
270
     1
271
     1
  0
XRECORD
  5
7F29
102
{ACAD_REACTORS
330
7F28
102
}
330
7F28
100
AcDbXrecord
280
     1
270
     1
271
     1
  0
XRECORD
  5
7F2D
102
{ACAD_REACTORS
330
7F28
102
}
330
7F28
100
AcDbXrecord
280
     1
270
     1
271
     1
  0
XRECORD
  5
7F2C
102
{ACAD_REACTORS
330
7F28
102
}
330
7F28
100
AcDbXrecord
280
     1
270
     1
271
     1
  0
XRECORD
  5
7F2E
102
{ACAD_REACTORS
330
7F28
102
}
330
7F28
100
AcDbXrecord
280
     1
270
     1
271
     1
  0
XRECORD
  5
7F2B
102
{ACAD_REACTORS
330
7F28
102
}
330
7F28
100
AcDbXrecord
280
     1
270
     1
271
     1
  0
XRECORD
  5
8016
102
{ACAD_REACTORS
330
7FD1
102
}
330
7FD1
100
AcDbXrecord
280
     1
102
DISPLAYNAME
  1
Imperial24
102
FLAGS
 90
        0
  0
CELLSTYLEMAP
  5
8015
102
{ACAD_REACTORS
330
8014
102
}
330
8014
100
AcDbCellStyleMap
 90
        3
300
CELLSTYLE
  1
TABLEFORMAT_BEGIN
 90
        5
170
     1
 91
        0
 92
    32768
 62
   257
 93
        1
300
CONTENTFORMAT
  1
CONTENTFORMAT_BEGIN
 90
        0
 91
        0
 92
      512
 93
        0
300

 40
0.0
140
1.0
 94
        5
 62
     0
340
10
144
0.25
309
CONTENTFORMAT_END
171
     0
 94
        0
309
TABLEFORMAT_END
  1
CELLSTYLE_BEGIN
 90
        1
 91
        1
300
_TITLE
309
CELLSTYLE_END
300
CELLSTYLE
  1
TABLEFORMAT_BEGIN
 90
        5
170
     1
 91
        0
 92
        0
 62
   257
 93
        1
300
CONTENTFORMAT
  1
CONTENTFORMAT_BEGIN
 90
        0
 91
        0
 92
      512
 93
        0
300

 40
0.0
140
1.0
 94
        5
 62
     0
340
10
144
0.18
309
CONTENTFORMAT_END
171
     0
 94
        0
309
TABLEFORMAT_END
  1
CELLSTYLE_BEGIN
 90
        2
 91
        1
300
_HEADER
309
CELLSTYLE_END
300
CELLSTYLE
  1
TABLEFORMAT_BEGIN
 90
        5
170
     1
 91
        0
 92
        0
 62
   257
 93
        1
300
CONTENTFORMAT
  1
CONTENTFORMAT_BEGIN
 90
        0
 91
        0
 92
      512
 93
        0
300

 40
0.0
140
1.0
 94
        2
 62
     0
340
10
144
0.18
309
CONTENTFORMAT_END
171
     0
 94
        0
309
TABLEFORMAT_END
  1
CELLSTYLE_BEGIN
 90
        3
 91
        2
300
_DATA
309
CELLSTYLE_END
  0
ENDSEC
  0
SECTION
  2
ACDSDATA
 70
     2
 71
     8
  0
ACDSSCHEMA
 90
        0
  1
AcDb_Thumbnail_Schema
  2
AcDbDs::ID
280
    10
 91
        8
  2
Thumbnail_Data
280
    15
 91
        0
101
ACDSRECORD
 95
        0
 90
        1
  2
AcDbDs::TreatedAsObjectData
280
     1
291
     1
101
ACDSRECORD
 95
        0
 90
        2
  2
AcDbDs::Legacy
280
     1
291
     1
101
ACDSRECORD
  1
AcDbDs::ID
 90
        3
  2
AcDs:Indexable
280
     1
291
     1
101
ACDSRECORD
  1
AcDbDs::ID
 90
        4
  2
AcDbDs::HandleAttribute
280
     7
282
     1
  0
ACDSSCHEMA
 90
        1
  1
AcDbDs::TreatedAsObjectDataSchema
  2
AcDbDs::TreatedAsObjectData
280
     1
 91
        0
  0
ACDSSCHEMA
 90
        2
  1
AcDbDs::LegacySchema
  2
AcDbDs::Legacy
280
     1
 91
        0
  0
ACDSSCHEMA
 90
        3
  1
AcDbDs::IndexedPropertySchema
  2
AcDs:Indexable
280
     1
 91
        0
  0
ACDSSCHEMA
 90
        4
  1
AcDbDs::HandleAttributeSchema
  2
AcDbDs::HandleAttribute
280
     7
 91
        1
284
     1
  0
ACDSRECORD
 90
        0
  2
AcDbDs::ID
280
    10
320
7E3B
  2
Thumbnail_Data
280
    15
 94
     1788
310
89504E470D0A1A0A0000000D49484452000001000000007C0803000000B13B9E5A00000300504C5445000000000000C8C8C80000000000000000000000000000000000000000000000000000330000660000990000CC0000FF0033000033330033660033990033CC0033FF0066000066330066660066990066CC0066FF0099
310
000099330099660099990099CC0099FF00CC0000CC3300CC6600CC9900CCCC00CCFF00FF0000FF3300FF6600FF9900FFCC00FFFF3300003300333300663300993300CC3300FF3333003333333333663333993333CC3333FF3366003366333366663366993366CC3366FF3399003399333399663399993399CC3399FF33CC00
310
33CC3333CC6633CC9933CCCC33CCFF33FF0033FF3333FF6633FF9933FFCC33FFFF6600006600336600666600996600CC6600FF6633006633336633666633996633CC6633FF6666006666336666666666996666CC6666FF6699006699336699666699996699CC6699FF66CC0066CC3366CC6666CC9966CCCC66CCFF66FF0066
310
FF3366FF6666FF9966FFCC66FFFF9900009900339900669900999900CC9900FF9933009933339933669933999933CC9933FF9966009966339966669966999966CC9966FF9999009999339999669999999999CC9999FF99CC0099CC3399CC6699CC9999CCCC99CCFF99FF0099FF3399FF6699FF9999FFCC99FFFFCC0000CC00
310
33CC0066CC0099CC00CCCC00FFCC3300CC3333CC3366CC3399CC33CCCC33FFCC6600CC6633CC6666CC6699CC66CCCC66FFCC9900CC9933CC9966CC9999CC99CCCC99FFCCCC00CCCC33CCCC66CCCC99CCCCCCCCCCFFCCFF00CCFF33CCFF66CCFF99CCFFCCCCFFFFFF0000FF0033FF0066FF0099FF00CCFF00FFFF3300FF3333
310
FF3366FF3399FF33CCFF33FFFF6600FF6633FF6666FF6699FF66CCFF66FFFF9900FF9933FF9966FF9999FF99CCFF99FFFFCC00FFCC33FFCC66FFCC99FFCCCCFFCCFFFFFF00FFFF33FFFF66FFFF99FFFFCCFFFFFF0000000D0D0D1A1A1A2828283535354343435050505D5D5D6B6B6B787878868686939393A1A1A1AEAEAEBB
310
BBBBC9C9C9D6D6D6E4E4E4F1F1F1FFFFFF00000000000000000000000000000000000000000000000000000000000008F1915C0000037C4944415478DAED9D5B6E24210C45BD9CFA61FF9B611BFC27E2610C18BA461A29CDB56F263D9DAAEA483EF801051588BE4F491319527A790C17405AED350660757A731E3013F01C70
310
AB1FFF374134E3F7FC3A07F047008A2BA79CE7F20FE5C776A0460E0E806C229B2C035AFC4FEA89FA3BD2ED006AA3CF66CA03ED0A99EEAA4B50BA1C00B179AB07506F704ABDF4B7B3EC39D7E78021046A2FB7BD320E69376786C16AAF020EC07B823675B7E169CA73F2280D2541D8CA45A255D29B5B9FED94E35BCDBF5B4750
310
F49E4AA5A0AB012CFD3CDD036806C05E733B00E319C0E572B95C2E97CBB442389D8C45F6003CC3492B0042D7D3DE5803D0DE18F580FC2FBF980540D5ED4D01E0B8D7050FA0FAFDEFEB2604D0CBA000A027415300B432680780480915001904505E9F9E161C809D2AE000CC0210E31E25099AE90906ABA3C12D00336301EA6D
310
CD3DC1E2FE1600C4A30718B825A61BF71CCFC202E88D6D1E0019027016B95C2E97CBE572B95C2E976B1824620E947804781C0A46E2A122DA90F19D6162AC8C04E0DDED00E09B06B1376814B1BE009802060F403C035802063204DE00800C81F1ED0700546E1FE300E81323874C17791629D61994184000F01229CA5363DCB6
310
322D8AF9740A681E302F96E2B4488600D4A9D2323DFE16004A220CADF9B35D3915BC021050BCA0CE9453B3EB3D001C0FA0BA2EE2090C8066007D350D168062574D7F4F0906B50A708E8402302C100FF9FBF74BF401A2721DEB7E00A5F5695924B5F1005E558EE2013DA86B20D41C10C4ED0F6000C5CEB62C2A978287F60078
310
01254A1914ABC4427B6AE0A935B1460038806234D700E25562D5FE4F21707B4F300F7E28702F40F40318009D73C0ED15A0D43E126B431F6247D73C208001A0B630B20541CB01A47585013D40F66F450834CBB600FA92D2DBFBC063F7760C8105C0520580ECDFF404491D0B940B616E844D4303796EBDF71DE60B513D40DC12
310
8DFA670000D0C10368E30104E401E747667AFBC37A800E20CA6786460F50495D0C409FD5A8E686CDC4C84CEAE691C038D5278EF6768FCA07FAB9DBA747A3B45F00884700C3FA88BBC7821F1F9898CD437BAE62B70A844FAE00960BC11F2BF3E7665C2E97CBE5B221F31B2C687F6BBE1C7FF1517000728BA5610F9E71F30158
310
006D4B89CE40EE4004E401FFEEDF092A043C09EA16B1ABD7C3093609A67D0EE83B6EA99B8A580030ECAE62A00C2E2130ECB667C103BE2309FE001BBAFCD61CC346690000000049454E44AE4260826E9041D0B807FC4F80F31F035405684101A85D492302D051DF2B808F68C07715F8C656E00FEA3157FD2009C62E00000000
310
49454E44AE4260826082
  0
ENDSEC
  0
EOF
