  0
SECTION
  2
HEADER
  9
$ACADVER
  1
AC1027
  9
$ACADMAINTVER
 70
    81
  9
$DWGCODEPAGE
  3
ANSI_932
  9
$LASTSAVEDBY
  1
reiko.miyawaki
  9
$REQUIREDVERSIONS
160
                 0
  9
$INSBASE
 10
0.0
 20
0.0
 30
0.0
  9
$EXTMIN
 10
375.0
 20
450.0
 30
0.0
  9
$EXTMAX
 10
2775.0
 20
4179.978392
 30
0.0
  9
$LIMMIN
 10
0.0
 20
0.0
  9
$LIMMAX
 10
297.0
 20
210.0
  9
$ORTHOMODE
 70
     0
  9
$REGENMODE
 70
     1
  9
$FILLMODE
 70
     0
  9
$QTEXTMODE
 70
     0
  9
$MIRRTEXT
 70
     1
  9
$LTSCALE
 40
100.0
  9
$ATTMODE
 70
     1
  9
$TEXTSIZE
 40
180.0
  9
$TRACEWID
 40
0.05
  9
$TEXTSTYLE
  7
STANDARD
  9
$CLAYER
  8
3
  9
$CELTYPE
  6
BYLAYER
  9
$CECOLOR
 62
   256
  9
$CELTSCALE
 40
1.0
  9
$DISPSILH
 70
     0
  9
$DIMSCALE
 40
15.0
  9
$DIMASZ
 40
2.0
  9
$DIMEXO
 40
0.5
  9
$DIMDLI
 40
10.0
  9
$DIMRND
 40
0.0
  9
$DIMDLE
 40
0.0
  9
$DIMEXE
 40
1.0
  9
$DIMTP
 40
1.0
  9
$DIMTM
 40
1.0
  9
$DIMTXT
 40
3.0
  9
$DIMCEN
 40
0.0
  9
$DIMTSZ
 40
0.0
  9
$DIMTOL
 70
     0
  9
$DIMLIM
 70
     0
  9
$DIMTIH
 70
     0
  9
$DIMTOH
 70
     0
  9
$DIMSE1
 70
     0
  9
$DIMSE2
 70
     0
  9
$DIMTAD
 70
     1
  9
$DIMZIN
 70
     8
  9
$DIMBLK
  1

  9
$DIMASO
 70
     1
  9
$DIMSHO
 70
     1
  9
$DIMPOST
  1
(<>)
  9
$DIMAPOST
  1

  9
$DIMALT
 70
     0
  9
$DIMALTD
 70
     2
  9
$DIMALTF
 40
0.039
  9
$DIMLFAC
 40
1.0
  9
$DIMTOFL
 70
     1
  9
$DIMTVP
 40
0.0
  9
$DIMTIX
 70
     0
  9
$DIMSOXD
 70
     0
  9
$DIMSAH
 70
     1
  9
$DIMBLK1
  1
OPEN
  9
$DIMBLK2
  1
OPEN
  9
$DIMSTYLE
  2
IGA
  9
$DIMCLRD
 70
     0
  9
$DIMCLRE
 70
     0
  9
$DIMCLRT
 70
     0
  9
$DIMTFAC
 40
10.0
  9
$DIMGAP
 40
1.0
  9
$DIMJUST
 70
     0
  9
$DIMSD1
 70
     0
  9
$DIMSD2
 70
     0
  9
$DIMTOLJ
 70
     1
  9
$DIMTZIN
 70
     8
  9
$DIMALTZ
 70
     0
  9
$DIMALTTZ
 70
     0
  9
$DIMUPT
 70
     0
  9
$DIMDEC
 70
     0
  9
$DIMTDEC
 70
     0
  9
$DIMALTU
 70
     2
  9
$DIMALTTD
 70
     2
  9
$DIMTXSTY
  7
STANDARD
  9
$DIMAUNIT
 70
     0
  9
$DIMADEC
 70
     0
  9
$DIMALTRND
 40
0.0
  9
$DIMAZIN
 70
     0
  9
$DIMDSEP
 70
    46
  9
$DIMATFIT
 70
     3
  9
$DIMFRAC
 70
     0
  9
$DIMLDRBLK
  1
OPEN
  9
$DIMLUNIT
 70
     2
  9
$DIMLWD
 70
    -2
  9
$DIMLWE
 70
    -2
  9
$DIMTMOVE
 70
     0
  9
$DIMFXL
 40
1.0
  9
$DIMFXLON
 70
     0
  9
$DIMJOGANG
 40
0.7853981633974483
  9
$DIMTFILL
 70
     0
  9
$DIMTFILLCLR
 70
     0
  9
$DIMARCSYM
 70
     0
  9
$DIMLTYPE
  6

  9
$DIMLTEX1
  6

  9
$DIMLTEX2
  6

  9
$DIMTXTDIRECTION
 70
     0
  9
$LUNITS
 70
     2
  9
$LUPREC
 70
     3
  9
$SKETCHINC
 40
0.1
  9
$FILLETRAD
 40
50.0
  9
$AUNITS
 70
     0
  9
$AUPREC
 70
     0
  9
$MENU
  1
acad
  9
$ELEVATION
 40
0.0
  9
$PELEVATION
 40
0.0
  9
$THICKNESS
 40
0.0
  9
$LIMCHECK
 70
     0
  9
$CHAMFERA
 40
0.5
  9
$CHAMFERB
 40
0.5
  9
$CHAMFERC
 40
20.0
  9
$CHAMFERD
 40
0.0
  9
$SKPOLY
 70
     0
  9
$TDCREATE
 40
2450746.635466320
  9
$TDUCREATE
 40
2450746.260466320
  9
$TDUPDATE
 40
2459024.549904155
  9
$TDUUPDATE
 40
2459024.174904155
  9
$TDINDWG
 40
0.0107283218
  9
$TDUSRTIMER
 40
0.0107283218
  9
$USRTIMER
 70
     1
  9
$ANGBASE
 50
0.0
  9
$ANGDIR
 70
     0
  9
$PDMODE
 70
     0
  9
$PDSIZE
 40
0.0
  9
$PLINEWID
 40
0.0
  9
$SPLFRAME
 70
     0
  9
$SPLINETYPE
 70
     6
  9
$SPLINESEGS
 70
     8
  9
$HANDSEED
  5
80EE
  9
$SURFTAB1
 70
     6
  9
$SURFTAB2
 70
     6
  9
$SURFTYPE
 70
     6
  9
$SURFU
 70
     6
  9
$SURFV
 70
     6
  9
$UCSBASE
  2

  9
$UCSNAME
  2

  9
$UCSORG
 10
0.0
 20
0.0
 30
0.0
  9
$UCSXDIR
 10
1.0
 20
0.0
 30
0.0
  9
$UCSYDIR
 10
0.0
 20
1.0
 30
0.0
  9
$UCSORTHOREF
  2

  9
$UCSORTHOVIEW
 70
     0
  9
$UCSORGTOP
 10
0.0
 20
0.0
 30
0.0
  9
$UCSORGBOTTOM
 10
0.0
 20
0.0
 30
0.0
  9
$UCSORGLEFT
 10
0.0
 20
0.0
 30
0.0
  9
$UCSORGRIGHT
 10
0.0
 20
0.0
 30
0.0
  9
$UCSORGFRONT
 10
0.0
 20
0.0
 30
0.0
  9
$UCSORGBACK
 10
0.0
 20
0.0
 30
0.0
  9
$PUCSBASE
  2

  9
$PUCSNAME
  2

  9
$PUCSORG
 10
0.0
 20
0.0
 30
0.0
  9
$PUCSXDIR
 10
1.0
 20
0.0
 30
0.0
  9
$PUCSYDIR
 10
0.0
 20
1.0
 30
0.0
  9
$PUCSORTHOREF
  2

  9
$PUCSORTHOVIEW
 70
     0
  9
$PUCSORGTOP
 10
0.0
 20
0.0
 30
0.0
  9
$PUCSORGBOTTOM
 10
0.0
 20
0.0
 30
0.0
  9
$PUCSORGLEFT
 10
0.0
 20
0.0
 30
0.0
  9
$PUCSORGRIGHT
 10
0.0
 20
0.0
 30
0.0
  9
$PUCSORGFRONT
 10
0.0
 20
0.0
 30
0.0
  9
$PUCSORGBACK
 10
0.0
 20
0.0
 30
0.0
  9
$USERI1
 70
     0
  9
$USERI2
 70
     0
  9
$USERI3
 70
     0
  9
$USERI4
 70
     0
  9
$USERI5
 70
     0
  9
$USERR1
 40
0.0
  9
$USERR2
 40
0.0
  9
$USERR3
 40
0.0
  9
$USERR4
 40
0.0
  9
$USERR5
 40
0.0
  9
$WORLDVIEW
 70
     1
  9
$SHADEDGE
 70
     3
  9
$SHADEDIF
 70
    70
  9
$TILEMODE
 70
     1
  9
$MAXACTVP
 70
    16
  9
$PINSBASE
 10
0.0
 20
0.0
 30
0.0
  9
$PLIMCHECK
 70
     0
  9
$PEXTMIN
 10
1.000000000000000E+20
 20
1.000000000000000E+20
 30
1.000000000000000E+20
  9
$PEXTMAX
 10
-1.000000000000000E+20
 20
-1.000000000000000E+20
 30
-1.000000000000000E+20
  9
$PLIMMIN
 10
0.0
 20
0.0
  9
$PLIMMAX
 10
12.0
 20
9.0
  9
$UNITMODE
 70
     0
  9
$VISRETAIN
 70
     0
  9
$PLINEGEN
 70
     0
  9
$PSLTSCALE
 70
     1
  9
$TREEDEPTH
 70
  3020
  9
$CMLSTYLE
  2
STANDARD
  9
$CMLJUST
 70
     0
  9
$CMLSCALE
 40
20.0
  9
$PROXYGRAPHICS
 70
     1
  9
$MEASUREMENT
 70
     0
  9
$CELWEIGHT
370
    -1
  9
$ENDCAPS
280
     0
  9
$JOINSTYLE
280
     0
  9
$LWDISPLAY
290
     0
  9
$INSUNITS
 70
     0
  9
$HYPERLINKBASE
  1

  9
$STYLESHEET
  1

  9
$XEDIT
290
     1
  9
$CEPSNTYPE
380
     0
  9
$PSTYLEMODE
290
     1
  9
$FINGERPRINTGUID
  2
{CD14A51E-826D-4BED-A483-540ED64AC909}
  9
$VERSIONGUID
  2
{21584758-27BF-4CA4-A626-316CF2525E42}
  9
$EXTNAMES
290
     1
  9
$PSVPSCALE
 40
0.0
  9
$OLESTARTUP
290
     0
  9
$SORTENTS
280
   127
  9
$INDEXCTL
280
     0
  9
$HIDETEXT
280
     0
  9
$XCLIPFRAME
280
     2
  9
$HALOGAP
280
     0
  9
$OBSCOLOR
 70
   257
  9
$OBSLTYPE
280
     0
  9
$INTERSECTIONDISPLAY
280
     0
  9
$INTERSECTIONCOLOR
 70
   257
  9
$DIMASSOC
280
     1
  9
$PROJECTNAME
  1

  9
$CAMERADISPLAY
290
     0
  9
$LENSLENGTH
 40
50.0
  9
$CAMERAHEIGHT
 40
0.0
  9
$STEPSPERSEC
 40
2.0
  9
$STEPSIZE
 40
6.0
  9
$3DDWFPREC
 40
2.0
  9
$PSOLWIDTH
 40
0.25
  9
$PSOLHEIGHT
 40
4.0
  9
$LOFTANG1
 40
1.570796326794896
  9
$LOFTANG2
 40
1.570796326794896
  9
$LOFTMAG1
 40
0.0
  9
$LOFTMAG2
 40
0.0
  9
$LOFTPARAM
 70
     7
  9
$LOFTNORMALS
280
     1
  9
$LATITUDE
 40
37.795
  9
$LONGITUDE
 40
-122.394
  9
$NORTHDIRECTION
 40
0.0
  9
$TIMEZONE
 70
 -8000
  9
$LIGHTGLYPHDISPLAY
280
     1
  9
$TILEMODELIGHTSYNCH
280
     1
  9
$CMATERIAL
347
7FEC
  9
$SOLIDHIST
280
     0
  9
$SHOWHIST
280
     1
  9
$DWFFRAME
280
     2
  9
$DGNFRAME
280
     0
  9
$REALWORLDSCALE
290
     1
  9
$INTERFERECOLOR
 62
     1
  9
$INTERFEREOBJVS
345
800E
  9
$INTERFEREVPVS
346
800B
  9
$CSHADOW
280
     0
  9
$SHADOWPLANELOCATION
 40
0.0
  0
ENDSEC
  0
SECTION
  2
CLASSES
  0
CLASS
  1
ACDBDICTIONARYWDFLT
  2
AcDbDictionaryWithDefault
  3
ObjectDBX Classes
 90
        0
 91
        1
280
     0
281
     0
  0
CLASS
  1
DICTIONARYVAR
  2
AcDbDictionaryVar
  3
ObjectDBX Classes
 90
        0
 91
       10
280
     0
281
     0
  0
CLASS
  1
MATERIAL
  2
AcDbMaterial
  3
ObjectDBX Classes
 90
     1153
 91
        3
280
     0
281
     0
  0
CLASS
  1
VISUALSTYLE
  2
AcDbVisualStyle
  3
ObjectDBX Classes
 90
     4095
 91
       24
280
     0
281
     0
  0
CLASS
  1
TABLESTYLE
  2
AcDbTableStyle
  3
ObjectDBX Classes
 90
     4095
 91
        1
280
     0
281
     0
  0
CLASS
  1
SCALE
  2
AcDbScale
  3
ObjectDBX Classes
 90
     1153
 91
       17
280
     0
281
     0
  0
CLASS
  1
MLEADERSTYLE
  2
AcDbMLeaderStyle
  3
ACDB_MLEADERSTYLE_CLASS
 90
     4095
 91
        1
280
     0
281
     0
  0
CLASS
  1
ACDBSECTIONVIEWSTYLE
  2
AcDbSectionViewStyle
  3
ObjectDBX Classes
 90
     1025
 91
        1
280
     0
281
     0
  0
CLASS
  1
ACDBDETAILVIEWSTYLE
  2
AcDbDetailViewStyle
  3
ObjectDBX Classes
 90
     1025
 91
        1
280
     0
281
     0
  0
CLASS
  1
CELLSTYLEMAP
  2
AcDbCellStyleMap
  3
ObjectDBX Classes
 90
     1152
 91
        1
280
     0
281
     0
  0
ENDSEC
  0
SECTION
  2
TABLES
  0
TABLE
  2
VPORT
  5
8
330
0
100
AcDbSymbolTable
 70
     1
  0
VPORT
  5
7FE9
330
8
100
AcDbSymbolTableRecord
100
AcDbViewportTableRecord
  2
*Active
 70
     0
 10
0.0
 20
0.0
 11
1.0
 21
1.0
 12
1574.974257472756
 22
2404.300745763377
 13
0.0
 23
0.0
 14
10.0
 24
10.0
 15
10.0
 25
10.0
 16
0.0
 26
0.0
 36
1.0
 17
0.0
 27
0.0
 37
0.0
 40
3933.812846730623
 41
1.957107843137254
 42
50.0
 43
0.0
 44
0.0
 50
0.0
 51
0.0
 71
     0
 72
   100
 73
     1
 74
     0
 75
     0
 76
     0
 77
     0
 78
     0
281
     0
 65
     1
110
0.0
120
0.0
130
0.0
111
1.0
121
0.0
131
0.0
112
0.0
122
1.0
132
0.0
 79
     0
146
0.0
348
800A
 60
     3
 61
     5
292
     1
282
     1
141
0.0
142
0.0
 63
   250
421
  3355443
1001
ACAD_NAV_VCDISPLAY
1070
     3
  0
ENDTAB
  0
TABLE
  2
LTYPE
  5
5
330
0
100
AcDbSymbolTable
 70
     2
  0
LTYPE
  5
13
330
5
100
AcDbSymbolTableRecord
100
AcDbLinetypeTableRecord
  2
BYBLOCK
 70
     0
  3

 72
    65
 73
     0
 40
0.0
  0
LTYPE
  5
14
330
5
100
AcDbSymbolTableRecord
100
AcDbLinetypeTableRecord
  2
BYLAYER
 70
     0
  3

 72
    65
 73
     0
 40
0.0
  0
LTYPE
  5
15
330
5
100
AcDbSymbolTableRecord
100
AcDbLinetypeTableRecord
  2
CONTINUOUS
 70
     0
  3
Solid line
 72
    65
 73
     0
 40
0.0
  0
LTYPE
  5
1F
330
5
100
AcDbSymbolTableRecord
100
AcDbLinetypeTableRecord
  2
CENTER
 70
     0
  3
____ _ ____ _ ____ _ ____ _ ____ _ ____ _ ____ 
 72
    65
 73
     4
 40
2.0
 49
1.25
 74
     0
 49
-0.25
 74
     0
 49
0.25
 74
     0
 49
-0.25
 74
     0
  0
ENDTAB
  0
TABLE
  2
LAYER
  5
2
102
{ACAD_XDICTIONARY
360
803C
102
}
330
0
100
AcDbSymbolTable
 70
     6
  0
LAYER
  5
F
102
{ACAD_XDICTIONARY
360
8095
102
}
330
2
100
AcDbSymbolTableRecord
100
AcDbLayerTableRecord
  2
0
 70
     0
 62
     7
  6
CONTINUOUS
370
    -3
390
7F0D
347
7FFC
348
0
  0
LAYER
  5
31
102
{ACAD_XDICTIONARY
360
8097
102
}
330
2
100
AcDbSymbolTableRecord
100
AcDbLayerTableRecord
  2
3
 70
     0
 62
     2
  6
CONTINUOUS
370
    -3
390
7F0D
347
7FFC
348
0
  0
LAYER
  5
76D0
102
{ACAD_XDICTIONARY
360
8099
102
}
330
2
100
AcDbSymbolTableRecord
100
AcDbLayerTableRecord
  2
2
 70
     0
 62
     3
  6
CENTER
370
    -3
390
7F0D
347
7FFC
348
0
  0
LAYER
  5
76D1
102
{ACAD_XDICTIONARY
360
809B
102
}
330
2
100
AcDbSymbolTableRecord
100
AcDbLayerTableRecord
  2
1
 70
     0
 62
     4
  6
CONTINUOUS
370
    -3
390
7F0D
347
7FFC
348
0
  0
LAYER
  5
76D2
102
{ACAD_XDICTIONARY
360
809D
102
}
330
2
100
AcDbSymbolTableRecord
100
AcDbLayerTableRecord
  2
4
 70
     0
 62
     7
  6
CONTINUOUS
370
    -3
390
7F0D
347
7FFC
348
0
  0
LAYER
  5
7B65
330
2
100
AcDbSymbolTableRecord
100
AcDbLayerTableRecord
  2
DEFPOINTS
 70
     0
 62
     7
  6
CONTINUOUS
290
     0
370
    -3
390
7F0D
347
7FFC
348
0
  0
ENDTAB
  0
TABLE
  2
STYLE
  5
3
330
0
100
AcDbSymbolTable
 70
     1
  0
STYLE
  5
10
330
3
100
AcDbSymbolTableRecord
100
AcDbTextStyleTableRecord
  2
STANDARD
 70
     0
 40
0.0
 41
1.0
 50
0.0
 71
     0
 42
180.0
  3
simplex.shx
  4
extfont.shx
  0
ENDTAB
  0
TABLE
  2
VIEW
  5
6
330
0
100
AcDbSymbolTable
 70
     0
  0
ENDTAB
  0
TABLE
  2
UCS
  5
7
330
0
100
AcDbSymbolTable
 70
     0
  0
ENDTAB
  0
TABLE
  2
APPID
  5
9
330
0
100
AcDbSymbolTable
 70
     4
  0
APPID
  5
11
330
9
100
AcDbSymbolTableRecord
100
AcDbRegAppTableRecord
  2
ACAD
 70
     0
  0
APPID
  5
803B
330
9
100
AcDbSymbolTableRecord
100
AcDbRegAppTableRecord
  2
ACAD_NAV_VCDISPLAY
 70
     0
  0
APPID
  5
80B8
330
9
100
AcDbSymbolTableRecord
100
AcDbRegAppTableRecord
  2
AcadAnnoMonitorAlertIconDisabled
 70
     0
  0
APPID
  5
80B9
330
9
100
AcDbSymbolTableRecord
100
AcDbRegAppTableRecord
  2
ACAD_EXEMPT_FROM_CAD_STANDARDS
 70
     0
  0
ENDTAB
  0
TABLE
  2
DIMSTYLE
  5
A
330
0
100
AcDbSymbolTable
 70
     1
100
AcDbDimStyleTable
 71
     0
  0
DIMSTYLE
105
1D
102
{ACAD_REACTORS
330
7B83
330
7B90
330
7B9C
330
7C43
330
7C50
330
7C91
330
7C9F
330
7CAD
330
7CD4
330
7DE8
330
7DF4
330
7EA3
330
7EB0
330
7ECA
330
7ED9
330
7EE8
330
7EF7
330
7F04
102
}
330
A
100
AcDbSymbolTableRecord
100
AcDbDimStyleTableRecord
  2
IGA
 70
     0
 40
2.0
 41
2.0
 42
0.5
 43
10.0
 44
1.0
 47
1.0
 48
1.0
 73
     0
 74
     0
 77
     1
 78
     8
140
3.0
141
0.0
143
0.03937
146
10.0
147
1.0
173
     1
271
     1
272
     0
279
     2
284
     8
340
10
341
7B57
343
7B57
344
7B57
  0
ENDTAB
  0
TABLE
  2
BLOCK_RECORD
  5
1
330
0
100
AcDbSymbolTable
 70
    20
  0
BLOCK_RECORD
  5
19
102
{ACAD_XDICTIONARY
360
7F3B
102
}
330
1
100
AcDbSymbolTableRecord
100
AcDbBlockTableRecord
  2
*MODEL_SPACE
340
7F10
 70
     0
280
     1
281
     0
  0
BLOCK_RECORD
  5
16
102
{ACAD_XDICTIONARY
360
7F39
102
}
330
1
100
AcDbSymbolTableRecord
100
AcDbBlockTableRecord
  2
*PAPER_SPACE
340
7F11
 70
     0
280
     1
281
     0
  0
BLOCK_RECORD
  5
7B57
330
1
100
AcDbSymbolTableRecord
100
AcDbBlockTableRecord
  2
_OPEN
340
0
102
{BLKREFS
331
8055
331
8056
331
805E
331
805F
331
8067
331
8068
331
8070
331
8071
331
8079
331
807A
331
8085
331
8091
331
80C7
331
80C8
331
7F44
331
7F45
331
7F4D
331
7F4E
331
7F55
331
7F56
331
7F5E
331
7F5F
331
7F67
331
7F68
331
7F70
331
7F71
331
7F82
331
7F83
331
7F8A
331
7F8B
331
7F96
331
7F97
331
7F9E
331
7F9F
102
}
 70
     0
280
     1
281
     0
  0
BLOCK_RECORD
  5
7B77
330
1
100
AcDbSymbolTableRecord
100
AcDbBlockTableRecord
  2
*D1
340
0
 70
     0
280
     1
281
     0
  0
BLOCK_RECORD
  5
7B84
330
1
100
AcDbSymbolTableRecord
100
AcDbBlockTableRecord
  2
*D2
340
0
 70
     0
280
     1
281
     0
  0
BLOCK_RECORD
  5
7B91
330
1
100
AcDbSymbolTableRecord
100
AcDbBlockTableRecord
  2
*D3
340
0
 70
     0
280
     1
281
     0
  0
BLOCK_RECORD
  5
7C37
330
1
100
AcDbSymbolTableRecord
100
AcDbBlockTableRecord
  2
*D4
340
0
 70
     0
280
     1
281
     0
  0
BLOCK_RECORD
  5
7C44
330
1
100
AcDbSymbolTableRecord
100
AcDbBlockTableRecord
  2
*D5
340
0
 70
     0
280
     1
281
     0
  0
BLOCK_RECORD
  5
7C85
330
1
100
AcDbSymbolTableRecord
100
AcDbBlockTableRecord
  2
*D6
340
0
 70
     0
280
     1
281
     0
  0
BLOCK_RECORD
  5
7C93
330
1
100
AcDbSymbolTableRecord
100
AcDbBlockTableRecord
  2
*D7
340
0
 70
     0
280
     1
281
     0
  0
BLOCK_RECORD
  5
7CA0
330
1
100
AcDbSymbolTableRecord
100
AcDbBlockTableRecord
  2
*D8
340
0
 70
     0
280
     1
281
     0
  0
BLOCK_RECORD
  5
7CC8
330
1
100
AcDbSymbolTableRecord
100
AcDbBlockTableRecord
  2
*D9
340
0
 70
     0
280
     1
281
     0
  0
BLOCK_RECORD
  5
7D37
330
1
100
AcDbSymbolTableRecord
100
AcDbBlockTableRecord
  2
_DOT
340
0
102
{BLKREFS
331
8084
331
8090
102
}
 70
     0
280
     1
281
     0
  0
BLOCK_RECORD
  5
7DDC
330
1
100
AcDbSymbolTableRecord
100
AcDbBlockTableRecord
  2
*D11
340
0
 70
     0
280
     1
281
     0
  0
BLOCK_RECORD
  5
7DE9
330
1
100
AcDbSymbolTableRecord
100
AcDbBlockTableRecord
  2
*D12
340
0
 70
     0
280
     1
281
     0
  0
BLOCK_RECORD
  5
7E97
330
1
100
AcDbSymbolTableRecord
100
AcDbBlockTableRecord
  2
*D13
340
0
 70
     0
280
     1
281
     0
  0
BLOCK_RECORD
  5
7EA4
330
1
100
AcDbSymbolTableRecord
100
AcDbBlockTableRecord
  2
*D14
340
0
 70
     0
280
     1
281
     0
  0
BLOCK_RECORD
  5
7EBE
330
1
100
AcDbSymbolTableRecord
100
AcDbBlockTableRecord
  2
*D15
340
0
 70
     0
280
     1
281
     0
  0
BLOCK_RECORD
  5
7ECB
330
1
100
AcDbSymbolTableRecord
100
AcDbBlockTableRecord
  2
*D16
340
0
 70
     0
280
     1
281
     0
  0
BLOCK_RECORD
  5
7EDA
330
1
100
AcDbSymbolTableRecord
100
AcDbBlockTableRecord
  2
*D17
340
0
 70
     0
280
     1
281
     0
  0
BLOCK_RECORD
  5
7EE9
330
1
100
AcDbSymbolTableRecord
100
AcDbBlockTableRecord
  2
*D18
340
0
 70
     0
280
     1
281
     0
  0
BLOCK_RECORD
  5
7EF8
330
1
100
AcDbSymbolTableRecord
100
AcDbBlockTableRecord
  2
*D19
340
0
 70
     0
280
     1
281
     0
  0
ENDTAB
  0
ENDSEC
  0
SECTION
  2
BLOCKS
  0
BLOCK
  5
1A
330
19
100
AcDbEntity
  8
0
100
AcDbBlockBegin
  2
*MODEL_SPACE
 70
     0
 10
0.0
 20
0.0
 30
0.0
  3
*MODEL_SPACE
  1

  0
ENDBLK
  5
1B
330
19
100
AcDbEntity
  8
0
100
AcDbBlockEnd
  0
BLOCK
  5
17
330
16
100
AcDbEntity
 67
     1
  8
0
100
AcDbBlockBegin
  2
*PAPER_SPACE
 70
     0
 10
0.0
 20
0.0
 30
0.0
  3
*PAPER_SPACE
  1

  0
ENDBLK
  5
18
330
16
100
AcDbEntity
 67
     1
  8
0
100
AcDbBlockEnd
  0
BLOCK
  5
7B58
330
7B57
100
AcDbEntity
  8
0
100
AcDbBlockBegin
  2
_OPEN
 70
     0
 10
0.0
 20
0.0
 30
0.0
  3
_OPEN
  1

  0
LINE
  5
7B59
330
7B57
100
AcDbEntity
  8
0
  6
ByBlock
 62
     0
100
AcDbLine
 10
-1.0
 20
0.166667
 30
0.0
 11
0.0
 21
0.0
 31
0.0
  0
LINE
  5
7B5A
330
7B57
100
AcDbEntity
  8
0
  6
ByBlock
 62
     0
100
AcDbLine
 10
0.0
 20
0.0
 30
0.0
 11
-1.0
 21
-0.166667
 31
0.0
  0
LINE
  5
7B5B
330
7B57
100
AcDbEntity
  8
0
  6
ByBlock
 62
     0
100
AcDbLine
 10
0.0
 20
0.0
 30
0.0
 11
-1.0
 21
0.0
 31
0.0
  0
ENDBLK
  5
7B5C
330
7B57
100
AcDbEntity
  8
0
100
AcDbBlockEnd
  0
BLOCK
  5
7B78
330
7B77
100
AcDbEntity
  8
0
100
AcDbBlockBegin
  2
*D1
 70
     1
 10
0.0
 20
0.0
 30
0.0
  3
*D1
  1

  0
LINE
  5
7F41
330
7B77
100
AcDbEntity
  8
3
  6
Continuous
 62
     0
440
 16777216
100
AcDbLine
 10
1038.908434917929
 20
1978.950353
 30
0.0
 11
1038.908434917929
 21
2066.699875
 31
0.0
  0
LINE
  5
7F42
330
7B77
100
AcDbEntity
  8
3
  6
Continuous
 62
     0
440
 16777216
100
AcDbLine
 10
1353.908434917929
 20
1978.950353
 30
0.0
 11
1353.908434917929
 21
2066.699875
 31
0.0
  0
LINE
  5
7F43
330
7B77
100
AcDbEntity
  8
3
  6
Continuous
 62
     0
440
 16777216
100
AcDbLine
 10
1068.908434917929
 20
2051.699875
 30
0.0
 11
1323.908434917929
 21
2051.699875
 31
0.0
  0
INSERT
  5
7F44
330
7B77
100
AcDbEntity
  8
3
  6
Continuous
 62
     0
440
 16777216
100
AcDbBlockReference
  2
_OPEN
 10
1038.908434917929
 20
2051.699875
 30
0.0
 41
30.0
 42
30.0
 43
30.0
 50
180.0
  0
INSERT
  5
7F45
330
7B77
100
AcDbEntity
  8
3
  6
Continuous
 62
     0
440
 16777216
100
AcDbBlockReference
  2
_OPEN
 10
1353.908434917929
 20
2051.699875
 30
0.0
 41
30.0
 42
30.0
 43
30.0
  0
MTEXT
  5
7F46
330
7B77
100
AcDbEntity
  8
3
  6
Continuous
 62
     0
440
 16777216
100
AcDbMText
 10
1203.553915917929
 20
2089.199875
 30
0.0
 40
45.0
 41
0.0
 46
0.0
 71
     5
 72
     5
  1
\A1;315
 73
     1
 44
1.0
  0
POINT
  5
7F47
330
7B77
100
AcDbEntity
  8
DEFPOINTS
  6
Continuous
 62
     0
440
 16777216
100
AcDbPoint
 10
1038.908434917929
 20
1971.450353
 30
0.0
  0
POINT
  5
7F48
330
7B77
100
AcDbEntity
  8
DEFPOINTS
  6
Continuous
 62
     0
440
 16777216
100
AcDbPoint
 10
1353.908434917929
 20
1971.450353
 30
0.0
  0
POINT
  5
7F49
330
7B77
100
AcDbEntity
  8
DEFPOINTS
  6
Continuous
 62
     0
440
 16777216
100
AcDbPoint
 10
1353.908434917929
 20
2051.699875
 30
0.0
  0
ENDBLK
  5
7B82
330
7B77
100
AcDbEntity
  8
0
100
AcDbBlockEnd
  0
BLOCK
  5
7B85
330
7B84
100
AcDbEntity
  8
0
100
AcDbBlockBegin
  2
*D2
 70
     1
 10
0.0
 20
0.0
 30
0.0
  3
*D2
  1

  0
LINE
  5
7F4A
330
7B84
100
AcDbEntity
  8
3
  6
Continuous
 62
     0
440
 16777216
100
AcDbLine
 10
806.6632479179288
 20
1728.950353
 30
0.0
 11
806.6632479179288
 21
2148.889276
 31
0.0
  0
LINE
  5
7F4B
330
7B84
100
AcDbEntity
  8
3
  6
Continuous
 62
     0
440
 16777216
100
AcDbLine
 10
1038.908434917929
 20
1978.950353
 30
0.0
 11
1038.908434917929
 21
2148.889276
 31
0.0
  0
LINE
  5
7F4C
330
7B84
100
AcDbEntity
  8
3
  6
Continuous
 62
     0
440
 16777216
100
AcDbLine
 10
836.6632479179289
 20
2133.889276000001
 30
0.0
 11
1008.908434917929
 21
2133.889276000001
 31
0.0
  0
INSERT
  5
7F4D
330
7B84
100
AcDbEntity
  8
3
  6
Continuous
 62
     0
440
 16777216
100
AcDbBlockReference
  2
_OPEN
 10
806.6632479179288
 20
2133.889276000001
 30
0.0
 41
30.0
 42
30.0
 43
30.0
 50
180.0
  0
INSERT
  5
7F4E
330
7B84
100
AcDbEntity
  8
3
  6
Continuous
 62
     0
440
 16777216
100
AcDbBlockReference
  2
_OPEN
 10
1038.908434917929
 20
2133.889276000001
 30
0.0
 41
30.0
 42
30.0
 43
30.0
  0
MTEXT
  5
7F4F
330
7B84
100
AcDbEntity
  8
3
  6
Continuous
 62
     0
440
 16777216
100
AcDbMText
 10
936.0512919179287
 20
2171.389276000001
 30
0.0
 40
45.0
 41
0.0
 46
0.0
 71
     5
 72
     5
  1
\A1;232
 73
     1
 44
1.0
  0
POINT
  5
7F50
330
7B84
100
AcDbEntity
  8
DEFPOINTS
  6
Continuous
 62
     0
440
 16777216
100
AcDbPoint
 10
806.6632479179288
 20
1721.450353
 30
0.0
  0
POINT
  5
7F51
330
7B84
100
AcDbEntity
  8
DEFPOINTS
  6
Continuous
 62
     0
440
 16777216
100
AcDbPoint
 10
1038.908434917929
 20
1971.450353
 30
0.0
  0
POINT
  5
7F52
330
7B84
100
AcDbEntity
  8
DEFPOINTS
  6
Continuous
 62
     0
440
 16777216
100
AcDbPoint
 10
1038.908434917929
 20
2133.889276000001
 30
0.0
  0
ENDBLK
  5
7B8F
330
7B84
100
AcDbEntity
  8
0
100
AcDbBlockEnd
  0
BLOCK
  5
7B92
330
7B91
100
AcDbEntity
  8
0
100
AcDbBlockBegin
  2
*D3
 70
     1
 10
0.0
 20
0.0
 30
0.0
  3
*D3
  1

  0
LINE
  5
7F53
330
7B91
100
AcDbEntity
  8
3
  6
Continuous
 62
     0
440
 16777216
100
AcDbLine
 10
1363.908434917929
 20
1958.950353
 30
0.0
 11
1363.908434917929
 21
2148.889276
 31
0.0
  0
LINE
  5
7F54
330
7B91
100
AcDbEntity
  8
3
  6
Continuous
 62
     0
440
 16777216
100
AcDbLine
 10
1068.908434917929
 20
2133.889276000001
 30
0.0
 11
1333.908434917929
 21
2133.889276000001
 31
0.0
  0
INSERT
  5
7F55
330
7B91
100
AcDbEntity
  8
3
  6
Continuous
 62
     0
440
 16777216
100
AcDbBlockReference
  2
_OPEN
 10
1038.908434917929
 20
2133.889276000001
 30
0.0
 41
30.0
 42
30.0
 43
30.0
 50
180.0
  0
INSERT
  5
7F56
330
7B91
100
AcDbEntity
  8
3
  6
Continuous
 62
     0
440
 16777216
100
AcDbBlockReference
  2
_OPEN
 10
1363.908434917929
 20
2133.889276000001
 30
0.0
 41
30.0
 42
30.0
 43
30.0
  0
MTEXT
  5
7F57
330
7B91
100
AcDbEntity
  8
3
  6
Continuous
 62
     0
440
 16777216
100
AcDbMText
 10
1201.408434917929
 20
2171.389276000001
 30
0.0
 40
45.0
 41
0.0
 46
0.0
 71
     5
 72
     5
  1
\A1;325
 73
     1
 44
1.0
  0
POINT
  5
7F58
330
7B91
100
AcDbEntity
  8
DEFPOINTS
  6
Continuous
 62
     0
440
 16777216
100
AcDbPoint
 10
1038.908434917929
 20
1971.450353
 30
0.0
  0
POINT
  5
7F59
330
7B91
100
AcDbEntity
  8
DEFPOINTS
  6
Continuous
 62
     0
440
 16777216
100
AcDbPoint
 10
1363.908434917929
 20
1951.450353
 30
0.0
  0
POINT
  5
7F5A
330
7B91
100
AcDbEntity
  8
DEFPOINTS
  6
Continuous
 62
     0
440
 16777216
100
AcDbPoint
 10
1363.908434917929
 20
2133.889276000001
 30
0.0
  0
ENDBLK
  5
7B9B
330
7B91
100
AcDbEntity
  8
0
100
AcDbBlockEnd
  0
BLOCK
  5
7C38
330
7C37
100
AcDbEntity
  8
0
100
AcDbBlockBegin
  2
*D4
 70
     1
 10
0.0
 20
0.0
 30
0.0
  3
*D4
  1

  0
LINE
  5
7F5B
330
7C37
100
AcDbEntity
  8
3
  6
Continuous
 62
     0
440
 16777216
100
AcDbLine
 10
773.9084349179288
 20
2593.950353
 30
0.0
 11
773.9084349179288
 21
2462.338241
 31
0.0
  0
LINE
  5
7F5C
330
7C37
100
AcDbEntity
  8
3
  6
Continuous
 62
     0
440
 16777216
100
AcDbLine
 10
1683.908434917929
 20
2593.950353
 30
0.0
 11
1683.908434917929
 21
2462.338241
 31
0.0
  0
LINE
  5
7F5D
330
7C37
100
AcDbEntity
  8
3
  6
Continuous
 62
     0
440
 16777216
100
AcDbLine
 10
803.9084349179288
 20
2477.338241
 30
0.0
 11
1653.908434917928
 21
2477.338241
 31
0.0
  0
INSERT
  5
7F5E
330
7C37
100
AcDbEntity
  8
3
  6
Continuous
 62
     0
440
 16777216
100
AcDbBlockReference
  2
_OPEN
 10
773.9084349179288
 20
2477.338241
 30
0.0
 41
30.0
 42
30.0
 43
30.0
 50
180.0
  0
INSERT
  5
7F5F
330
7C37
100
AcDbEntity
  8
3
  6
Continuous
 62
     0
440
 16777216
100
AcDbBlockReference
  2
_OPEN
 10
1683.908434917929
 20
2477.338241
 30
0.0
 41
30.0
 42
30.0
 43
30.0
  0
MTEXT
  5
7F60
330
7C37
100
AcDbEntity
  8
3
  6
Continuous
 62
     0
440
 16777216
100
AcDbMText
 10
1240.028852917929
 20
2514.838241
 30
0.0
 40
45.0
 41
0.0
 46
0.0
 71
     5
 72
     5
  1
\A1;910
 73
     1
 44
1.0
  0
POINT
  5
7F61
330
7C37
100
AcDbEntity
  8
DEFPOINTS
  6
Continuous
 62
     0
440
 16777216
100
AcDbPoint
 10
773.9084349179288
 20
2601.450353000001
 30
0.0
  0
POINT
  5
7F62
330
7C37
100
AcDbEntity
  8
DEFPOINTS
  6
Continuous
 62
     0
440
 16777216
100
AcDbPoint
 10
1683.908434917929
 20
2601.450353000001
 30
0.0
  0
POINT
  5
7F63
330
7C37
100
AcDbEntity
  8
DEFPOINTS
  6
Continuous
 62
     0
440
 16777216
100
AcDbPoint
 10
1683.908434917929
 20
2477.338241
 30
0.0
  0
ENDBLK
  5
7C42
330
7C37
100
AcDbEntity
  8
0
100
AcDbBlockEnd
  0
BLOCK
  5
7C45
330
7C44
100
AcDbEntity
  8
0
100
AcDbBlockBegin
  2
*D5
 70
     1
 10
0.0
 20
0.0
 30
0.0
  3
*D5
  1

  0
LINE
  5
7F64
330
7C44
100
AcDbEntity
  8
3
  6
Continuous
 62
     0
440
 16777216
100
AcDbLine
 10
1691.408434917929
 20
3201.450353
 30
0.0
 11
1868.59217491793
 21
3201.450353
 31
0.0
  0
LINE
  5
7F65
330
7C44
100
AcDbEntity
  8
3
  6
Continuous
 62
     0
440
 16777216
100
AcDbLine
 10
1691.408434917929
 20
2601.450353000001
 30
0.0
 11
1868.59217491793
 21
2601.450353000001
 31
0.0
  0
LINE
  5
7F66
330
7C44
100
AcDbEntity
  8
3
  6
Continuous
 62
     0
440
 16777216
100
AcDbLine
 10
1853.592174917929
 20
3171.450353
 30
0.0
 11
1853.592174917929
 21
2631.450353
 31
0.0
  0
INSERT
  5
7F67
330
7C44
100
AcDbEntity
  8
3
  6
Continuous
 62
     0
440
 16777216
100
AcDbBlockReference
  2
_OPEN
 10
1853.592174917929
 20
3201.450353
 30
0.0
 41
30.0
 42
30.0
 43
30.0
 50
90.0
  0
INSERT
  5
7F68
330
7C44
100
AcDbEntity
  8
3
  6
Continuous
 62
     0
440
 16777216
100
AcDbBlockReference
  2
_OPEN
 10
1853.592174917929
 20
2601.450353000001
 30
0.0
 41
30.0
 42
30.0
 43
30.0
 50
270.0
  0
MTEXT
  5
7F69
330
7C44
100
AcDbEntity
  8
3
  6
Continuous
 62
     0
440
 16777216
100
AcDbMText
 10
1816.092174917929
 20
2893.37209
 30
0.0
 40
45.0
 41
0.0
 46
0.0
 71
     5
 72
     5
  1
\A1;600
 11
0.0000000000000001
 21
1.0
 31
0.0
 73
     1
 44
1.0
  0
POINT
  5
7F6A
330
7C44
100
AcDbEntity
  8
DEFPOINTS
  6
Continuous
 62
     0
440
 16777216
100
AcDbPoint
 10
1683.908434917929
 20
3201.450353
 30
0.0
  0
POINT
  5
7F6B
330
7C44
100
AcDbEntity
  8
DEFPOINTS
  6
Continuous
 62
     0
440
 16777216
100
AcDbPoint
 10
1683.908434917929
 20
2601.450353000001
 30
0.0
  0
POINT
  5
7F6C
330
7C44
100
AcDbEntity
  8
DEFPOINTS
  6
Continuous
 62
     0
440
 16777216
100
AcDbPoint
 10
1853.592174917929
 20
2601.450353000001
 30
0.0
  0
ENDBLK
  5
7C4F
330
7C44
100
AcDbEntity
  8
0
100
AcDbBlockEnd
  0
BLOCK
  5
7C86
330
7C85
100
AcDbEntity
  8
0
100
AcDbBlockBegin
  2
*D6
 70
     1
 10
0.0
 20
0.0
 30
0.0
  3
*D6
  1

  0
LINE
  5
7F6D
330
7C85
100
AcDbEntity
  8
3
  6
Continuous
 62
     0
440
 16777216
100
AcDbLine
 10
2304.645834993404
 20
1978.950353
 30
0.0
 11
2304.645834993404
 21
2052.585068
 31
0.0
  0
LINE
  5
7F6E
330
7C85
100
AcDbEntity
  8
3
  6
Continuous
 62
     0
440
 16777216
100
AcDbLine
 10
2528.645834993405
 20
1978.950353
 30
0.0
 11
2528.645834993405
 21
2052.585068
 31
0.0
  0
LINE
  5
7F6F
330
7C85
100
AcDbEntity
  8
3
  6
Continuous
 62
     0
440
 16777216
100
AcDbLine
 10
2334.645834993405
 20
2037.585068
 30
0.0
 11
2498.645834993405
 21
2037.585068
 31
0.0
  0
INSERT
  5
7F70
330
7C85
100
AcDbEntity
  8
3
  6
Continuous
 62
     0
440
 16777216
100
AcDbBlockReference
  2
_OPEN
 10
2304.645834993404
 20
2037.585068
 30
0.0
 41
30.0
 42
30.0
 43
30.0
 50
180.0
  0
INSERT
  5
7F71
330
7C85
100
AcDbEntity
  8
3
  6
Continuous
 62
     0
440
 16777216
100
AcDbBlockReference
  2
_OPEN
 10
2528.645834993405
 20
2037.585068
 30
0.0
 41
30.0
 42
30.0
 43
30.0
  0
MTEXT
  5
7F72
330
7C85
100
AcDbEntity
  8
3
  6
Continuous
 62
     0
440
 16777216
100
AcDbMText
 10
2408.574405993405
 20
2075.085068
 30
0.0
 40
45.0
 41
0.0
 46
0.0
 71
     5
 72
     5
  1
\A1;224
 73
     1
 44
1.0
  0
POINT
  5
7F73
330
7C85
100
AcDbEntity
  8
DEFPOINTS
  6
Continuous
 62
     0
440
 16777216
100
AcDbPoint
 10
2304.645834993404
 20
1971.450353
 30
0.0
  0
POINT
  5
7F74
330
7C85
100
AcDbEntity
  8
DEFPOINTS
  6
Continuous
 62
     0
440
 16777216
100
AcDbPoint
 10
2528.645834993405
 20
1971.450353
 30
0.0
  0
POINT
  5
7F75
330
7C85
100
AcDbEntity
  8
DEFPOINTS
  6
Continuous
 62
     0
440
 16777216
100
AcDbPoint
 10
2528.645834993405
 20
2037.585068
 30
0.0
  0
ENDBLK
  5
7C90
330
7C85
100
AcDbEntity
  8
0
100
AcDbBlockEnd
  0
BLOCK
  5
7E84
330
7C93
100
AcDbEntity
  8
0
100
AcDbBlockBegin
  2
*D7
 70
     1
 10
0.0
 20
0.0
 30
0.0
  3
*D7
  1

  0
LINE
  5
80C4
330
7C93
100
AcDbEntity
  8
3
  6
Continuous
 62
     0
440
 16777216
370
    -2
100
AcDbLine
 10
1996.645834993405
 20
1958.950353
 30
0.0
 11
1996.645834993405
 21
2143.247755
 31
0.0
  0
LINE
  5
80C5
330
7C93
100
AcDbEntity
  8
3
  6
Continuous
 62
     0
440
 16777216
370
    -2
100
AcDbLine
 10
2416.645834993405
 20
2111.211185
 30
0.0
 11
2416.645834993405
 21
2143.247755
 31
0.0
  0
LINE
  5
80C6
330
7C93
100
AcDbEntity
  8
3
  6
Continuous
 62
     0
440
 16777216
370
    -2
100
AcDbLine
 10
2026.645834993405
 20
2128.247755
 30
0.0
 11
2386.645834993405
 21
2128.247755
 31
0.0
  0
INSERT
  5
80C7
330
7C93
100
AcDbEntity
  8
3
  6
Continuous
 62
     0
440
 16777216
370
    -2
100
AcDbBlockReference
  2
_OPEN
 10
1996.645834993405
 20
2128.247755
 30
0.0
 41
30.0
 42
30.0
 43
30.0
 50
180.0
  0
INSERT
  5
80C8
330
7C93
100
AcDbEntity
  8
3
  6
Continuous
 62
     0
440
 16777216
370
    -2
100
AcDbBlockReference
  2
_OPEN
 10
2416.645834993405
 20
2128.247755
 30
0.0
 41
30.0
 42
30.0
 43
30.0
  0
MTEXT
  5
80C9
330
7C93
100
AcDbEntity
  8
3
  6
Continuous
 62
     0
440
 16777216
100
AcDbMText
 10
2196.201934993405
 20
2177.533469285714
 30
0.0
 40
45.0
 41
0.0
 46
0.0
 71
     5
 72
     1
  1
\A1;(420)
 73
     1
 44
1.0
  0
POINT
  5
80CA
330
7C93
100
AcDbEntity
  8
DEFPOINTS
  6
Continuous
 62
     0
440
 16777216
100
AcDbPoint
 10
1996.645834993405
 20
1951.450353
 30
0.0
  0
POINT
  5
80CB
330
7C93
100
AcDbEntity
  8
DEFPOINTS
  6
Continuous
 62
     0
440
 16777216
100
AcDbPoint
 10
2416.645834993405
 20
2103.711185
 30
0.0
  0
POINT
  5
80CC
330
7C93
100
AcDbEntity
  8
DEFPOINTS
  6
Continuous
 62
     0
440
 16777216
100
AcDbPoint
 10
2416.645834993405
 20
2128.247755
 30
0.0
  0
ENDBLK
  5
7E8E
330
7C93
100
AcDbEntity
  8
0
100
AcDbBlockEnd
  0
BLOCK
  5
7CE6
330
7CA0
100
AcDbEntity
  8
0
100
AcDbBlockBegin
  2
*D8
 70
     1
 10
0.0
 20
0.0
 30
0.0
  3
*D8
  1

  0
LINE
  5
7F7F
330
7CA0
100
AcDbEntity
  8
3
  6
Continuous
 62
     0
440
 16777216
100
AcDbLine
 10
2537.645834993405
 20
1911.450353
 30
0.0
 11
2537.645834993405
 21
2143.247755
 31
0.0
  0
LINE
  5
7F80
330
7CA0
100
AcDbEntity
  8
3
  6
Continuous
 62
     0
440
 16777216
100
AcDbLine
 10
2446.645834993405
 20
2128.247755
 30
0.0
 11
2507.645834993405
 21
2128.247755
 31
0.0
  0
MTEXT
  5
7F81
330
7CA0
100
AcDbEntity
  8
3
  6
Continuous
 62
     0
440
 16777216
100
AcDbMText
 10
2473.295045993405
 20
2165.747755
 30
0.0
 40
45.0
 41
0.0
 46
0.0
 71
     5
 72
     5
  1
\A1;121
 73
     1
 44
1.0
  0
INSERT
  5
7F82
330
7CA0
100
AcDbEntity
  8
3
  6
Continuous
 62
     0
440
 16777216
100
AcDbBlockReference
  2
_OPEN
 10
2416.645834993405
 20
2128.247755
 30
0.0
 41
30.0
 42
30.0
 43
30.0
 50
180.0
  0
INSERT
  5
7F83
330
7CA0
100
AcDbEntity
  8
3
  6
Continuous
 62
     0
440
 16777216
100
AcDbBlockReference
  2
_OPEN
 10
2537.645834993405
 20
2128.247755
 30
0.0
 41
30.0
 42
30.0
 43
30.0
  0
POINT
  5
7F84
330
7CA0
100
AcDbEntity
  8
DEFPOINTS
  6
Continuous
 62
     0
440
 16777216
100
AcDbPoint
 10
2416.645834993405
 20
2103.711185
 30
0.0
  0
POINT
  5
7F85
330
7CA0
100
AcDbEntity
  8
DEFPOINTS
  6
Continuous
 62
     0
440
 16777216
100
AcDbPoint
 10
2537.645834993405
 20
1903.950353
 30
0.0
  0
POINT
  5
7F86
330
7CA0
100
AcDbEntity
  8
DEFPOINTS
  6
Continuous
 62
     0
440
 16777216
100
AcDbPoint
 10
2537.645834993405
 20
2128.247755
 30
0.0
  0
ENDBLK
  5
7CEF
330
7CA0
100
AcDbEntity
  8
0
100
AcDbBlockEnd
  0
BLOCK
  5
7E6B
330
7CC8
100
AcDbEntity
  8
0
100
AcDbBlockBegin
  2
*D9
 70
     1
 10
0.0
 20
0.0
 30
0.0
  3
*D9
  1

  0
LINE
  5
7F87
330
7CC8
100
AcDbEntity
  8
3
  6
Continuous
 62
     0
440
 16777216
100
AcDbLine
 10
2545.145834993405
 20
1878.950353
 30
0.0
 11
2659.706563993405
 21
1878.950353
 31
0.0
  0
LINE
  5
7F88
330
7CC8
100
AcDbEntity
  8
3
  6
Continuous
 62
     0
440
 16777216
100
AcDbLine
 10
2545.145834993405
 20
1563.950353
 30
0.0
 11
2659.706563993405
 21
1563.950353
 31
0.0
  0
LINE
  5
7F89
330
7CC8
100
AcDbEntity
  8
3
  6
Continuous
 62
     0
440
 16777216
100
AcDbLine
 10
2644.706563993405
 20
1848.950353
 30
0.0
 11
2644.706563993405
 21
1593.950353
 31
0.0
  0
INSERT
  5
7F8A
330
7CC8
100
AcDbEntity
  8
3
  6
Continuous
 62
     0
440
 16777216
100
AcDbBlockReference
  2
_OPEN
 10
2644.706563993405
 20
1878.950353
 30
0.0
 41
30.0
 42
30.0
 43
30.0
 50
90.0
  0
INSERT
  5
7F8B
330
7CC8
100
AcDbEntity
  8
3
  6
Continuous
 62
     0
440
 16777216
100
AcDbBlockReference
  2
_OPEN
 10
2644.706563993405
 20
1563.950353
 30
0.0
 41
30.0
 42
30.0
 43
30.0
 50
270.0
  0
MTEXT
  5
7F8C
330
7CC8
100
AcDbEntity
  8
3
  6
Continuous
 62
     0
440
 16777216
100
AcDbMText
 10
2607.206563993405
 20
1729.457269
 30
0.0
 40
45.0
 41
0.0
 46
0.0
 71
     5
 72
     5
  1
\A1;φ315
 11
0.0000000000000001
 21
1.0
 31
0.0
 73
     1
 44
1.0
  0
POINT
  5
7F8D
330
7CC8
100
AcDbEntity
  8
DEFPOINTS
  6
Continuous
 62
     0
440
 16777216
100
AcDbPoint
 10
2537.645834993405
 20
1878.950353
 30
0.0
  0
POINT
  5
7F8E
330
7CC8
100
AcDbEntity
  8
DEFPOINTS
  6
Continuous
 62
     0
440
 16777216
100
AcDbPoint
 10
2537.645834993405
 20
1563.950353
 30
0.0
  0
POINT
  5
7F8F
330
7CC8
100
AcDbEntity
  8
DEFPOINTS
  6
Continuous
 62
     0
440
 16777216
100
AcDbPoint
 10
2644.706563993405
 20
1563.950353
 30
0.0
  0
ENDBLK
  5
7E75
330
7CC8
100
AcDbEntity
  8
0
100
AcDbBlockEnd
  0
BLOCK
  5
7D38
330
7D37
100
AcDbEntity
  8
0
100
AcDbBlockBegin
  2
_DOT
 70
     0
 10
0.0
 20
0.0
 30
0.0
  3
_DOT
  1

  0
LINE
  5
7D64
330
7D37
100
AcDbEntity
  8
0
  6
ByBlock
 62
     0
100
AcDbLine
 10
0.0
 20
0.0
 30
0.0
 11
-1.0
 21
-0.0000000000000284
 31
0.0
  0
LWPOLYLINE
  5
7D65
330
7D37
100
AcDbEntity
  8
0
  6
ByBlock
 62
     0
100
AcDbPolyline
 90
        2
 70
     1
 43
0.1666666666666666
 10
-0.0833333333333286
 20
-0.0000000000000284
 42
1.0
 10
0.0833333333333286
 20
-0.0000000000000284
 42
1.0
  0
ENDBLK
  5
7D3E
330
7D37
100
AcDbEntity
  8
0
100
AcDbBlockEnd
  0
BLOCK
  5
7DDD
330
7DDC
100
AcDbEntity
  8
0
100
AcDbBlockBegin
  2
*D11
 70
     1
 10
0.0
 20
0.0
 30
0.0
  3
*D11
  1

  0
LINE
  5
7F93
330
7DDC
100
AcDbEntity
  8
3
 62
     0
440
 16777216
100
AcDbLine
 10
1009.908434917929
 20
1971.450353
 30
0.0
 11
648.7434642278588
 21
1971.450353
 31
0.0
  0
LINE
  5
7F94
330
7DDC
100
AcDbEntity
  8
3
 62
     0
440
 16777216
100
AcDbLine
 10
747.9084349179288
 20
1721.450353
 30
0.0
 11
648.7434642278588
 21
1721.450353
 31
0.0
  0
LINE
  5
7F95
330
7DDC
100
AcDbEntity
  8
3
 62
     0
440
 16777216
100
AcDbLine
 10
663.7434642278589
 20
1941.450353
 30
0.0
 11
663.7434642278588
 21
1751.450353
 31
0.0
  0
INSERT
  5
7F96
330
7DDC
100
AcDbEntity
  8
3
 62
     0
440
 16777216
100
AcDbBlockReference
  2
_OPEN
 10
663.7434642278589
 20
1971.450353
 30
0.0
 41
30.0
 42
30.0
 43
30.0
 50
90.0
  0
INSERT
  5
7F97
330
7DDC
100
AcDbEntity
  8
3
 62
     0
440
 16777216
100
AcDbBlockReference
  2
_OPEN
 10
663.7434642278588
 20
1721.450353
 30
0.0
 41
30.0
 42
30.0
 43
30.0
 50
270.0
  0
MTEXT
  5
7F98
330
7DDC
100
AcDbEntity
  8
3
 62
     0
440
 16777216
100
AcDbMText
 10
626.2434642278585
 20
1824.307495857143
 30
0.0
 40
45.0
 41
0.0
 46
0.0
 71
     5
 72
     5
  1
\A1;250
 11
0.0000000000000001
 21
1.0
 31
0.0
 73
     1
 44
1.0
  0
POINT
  5
7F99
330
7DDC
100
AcDbEntity
  8
DEFPOINTS
 62
     0
440
 16777216
100
AcDbPoint
 10
1017.408434917929
 20
1971.450353
 30
0.0
  0
POINT
  5
7F9A
330
7DDC
100
AcDbEntity
  8
DEFPOINTS
 62
     0
440
 16777216
100
AcDbPoint
 10
755.4084349179288
 20
1721.450353
 30
0.0
  0
POINT
  5
7F9B
330
7DDC
100
AcDbEntity
  8
DEFPOINTS
 62
     0
440
 16777216
100
AcDbPoint
 10
663.7434642278588
 20
1721.450353
 30
0.0
  0
ENDBLK
  5
7DE7
330
7DDC
100
AcDbEntity
  8
0
100
AcDbBlockEnd
  0
BLOCK
  5
7DEA
330
7DE9
100
AcDbEntity
  8
0
100
AcDbBlockBegin
  2
*D12
 70
     1
 10
0.0
 20
0.0
 30
0.0
  3
*D12
  1

  0
LINE
  5
7F9C
330
7DE9
100
AcDbEntity
  8
3
 62
     0
440
 16777216
100
AcDbLine
 10
796.4084349179288
 20
1321.450353
 30
0.0
 11
648.7434642278586
 21
1321.450353
 31
0.0
  0
LINE
  5
7F9D
330
7DE9
100
AcDbEntity
  8
3
 62
     0
440
 16777216
100
AcDbLine
 10
663.7434642278585
 20
1691.450353
 30
0.0
 11
663.7434642278585
 21
1351.450353
 31
0.0
  0
INSERT
  5
7F9E
330
7DE9
100
AcDbEntity
  8
3
 62
     0
440
 16777216
100
AcDbBlockReference
  2
_OPEN
 10
663.7434642278585
 20
1721.450353
 30
0.0
 41
30.0
 42
30.0
 43
30.0
 50
90.0
  0
INSERT
  5
7F9F
330
7DE9
100
AcDbEntity
  8
3
 62
     0
440
 16777216
100
AcDbBlockReference
  2
_OPEN
 10
663.7434642278585
 20
1321.450353
 30
0.0
 41
30.0
 42
30.0
 43
30.0
 50
270.0
  0
MTEXT
  5
7FA0
330
7DE9
100
AcDbEntity
  8
3
 62
     0
440
 16777216
100
AcDbMText
 10
626.2434642278583
 20
1521.450353
 30
0.0
 40
45.0
 41
0.0
 46
0.0
 71
     5
 72
     5
  1
\A1;400
 11
0.0000000000000001
 21
1.0
 31
0.0
 73
     1
 44
1.0
  0
POINT
  5
7FA1
330
7DE9
100
AcDbEntity
  8
DEFPOINTS
 62
     0
440
 16777216
100
AcDbPoint
 10
755.4084349179288
 20
1721.450353
 30
0.0
  0
POINT
  5
7FA2
330
7DE9
100
AcDbEntity
  8
DEFPOINTS
 62
     0
440
 16777216
100
AcDbPoint
 10
803.9084349179288
 20
1321.450353
 30
0.0
  0
POINT
  5
7FA3
330
7DE9
100
AcDbEntity
  8
DEFPOINTS
 62
     0
440
 16777216
100
AcDbPoint
 10
663.7434642278585
 20
1321.450353
 30
0.0
  0
ENDBLK
  5
7DF3
330
7DE9
100
AcDbEntity
  8
0
100
AcDbBlockEnd
  0
BLOCK
  5
7E98
330
7E97
100
AcDbEntity
  8
0
100
AcDbBlockBegin
  2
*D13
 70
     1
 10
0.0
 20
0.0
 30
0.0
  3
*D13
  1

  0
LINE
  5
805B
330
7E97
100
AcDbEntity
  8
3
 62
     0
440
 16777216
370
    -2
100
AcDbLine
 10
773.9084349179288
 20
1183.950353
 30
0.0
 11
773.9084349179288
 21
1074.892995160295
 31
0.0
  0
LINE
  5
805C
330
7E97
100
AcDbEntity
  8
3
 62
     0
440
 16777216
370
    -2
100
AcDbLine
 10
1038.908434917928
 20
1213.950352999999
 30
0.0
 11
1038.908434917928
 21
1074.892995160295
 31
0.0
  0
LINE
  5
805D
330
7E97
100
AcDbEntity
  8
3
 62
     0
440
 16777216
370
    -2
100
AcDbLine
 10
803.9084349179288
 20
1089.892995160295
 30
0.0
 11
1008.908434917928
 21
1089.892995160295
 31
0.0
  0
INSERT
  5
805E
330
7E97
100
AcDbEntity
  8
3
 62
     0
440
 16777216
370
    -2
100
AcDbBlockReference
  2
_OPEN
 10
773.9084349179288
 20
1089.892995160295
 30
0.0
 41
30.0
 42
30.0
 43
30.0
 50
180.0
  0
INSERT
  5
805F
330
7E97
100
AcDbEntity
  8
3
 62
     0
440
 16777216
370
    -2
100
AcDbBlockReference
  2
_OPEN
 10
1038.908434917928
 20
1089.892995160295
 30
0.0
 41
30.0
 42
30.0
 43
30.0
  0
MTEXT
  5
8060
330
7E97
100
AcDbEntity
  8
3
 62
     0
440
 16777216
100
AcDbMText
 10
906.4084349179287
 20
1127.392995160295
 30
0.0
 40
45.0
 41
0.0
 46
0.0
 71
     5
 72
     1
  1
\A1;265
 73
     1
 44
1.0
  0
POINT
  5
8061
330
7E97
100
AcDbEntity
  8
DEFPOINTS
 62
     0
440
 16777216
100
AcDbPoint
 10
773.9084349179288
 20
1191.450353
 30
0.0
  0
POINT
  5
8062
330
7E97
100
AcDbEntity
  8
DEFPOINTS
 62
     0
440
 16777216
100
AcDbPoint
 10
1038.908434917928
 20
1221.450353
 30
0.0
  0
POINT
  5
8063
330
7E97
100
AcDbEntity
  8
DEFPOINTS
 62
     0
440
 16777216
100
AcDbPoint
 10
1038.908434917928
 20
1089.892995160295
 30
0.0
  0
ENDBLK
  5
7EA2
330
7E97
100
AcDbEntity
  8
0
100
AcDbBlockEnd
  0
BLOCK
  5
7EA5
330
7EA4
100
AcDbEntity
  8
0
100
AcDbBlockBegin
  2
*D14
 70
     1
 10
0.0
 20
0.0
 30
0.0
  3
*D14
  1

  0
LINE
  5
8064
330
7EA4
100
AcDbEntity
  8
3
 62
     0
440
 16777216
370
    -2
100
AcDbLine
 10
1038.908434917928
 20
1213.950352999999
 30
0.0
 11
1038.908434917928
 21
1074.892995160295
 31
0.0
  0
LINE
  5
8065
330
7EA4
100
AcDbEntity
  8
3
 62
     0
440
 16777216
370
    -2
100
AcDbLine
 10
1683.908434917929
 20
1183.950353
 30
0.0
 11
1683.908434917929
 21
1074.892995160295
 31
0.0
  0
LINE
  5
8066
330
7EA4
100
AcDbEntity
  8
3
 62
     0
440
 16777216
370
    -2
100
AcDbLine
 10
1068.908434917928
 20
1089.892995160295
 30
0.0
 11
1653.908434917928
 21
1089.892995160295
 31
0.0
  0
INSERT
  5
8067
330
7EA4
100
AcDbEntity
  8
3
 62
     0
440
 16777216
370
    -2
100
AcDbBlockReference
  2
_OPEN
 10
1038.908434917928
 20
1089.892995160295
 30
0.0
 41
30.0
 42
30.0
 43
30.0
 50
180.0
  0
INSERT
  5
8068
330
7EA4
100
AcDbEntity
  8
3
 62
     0
440
 16777216
370
    -2
100
AcDbBlockReference
  2
_OPEN
 10
1683.908434917929
 20
1089.892995160295
 30
0.0
 41
30.0
 42
30.0
 43
30.0
  0
MTEXT
  5
8069
330
7EA4
100
AcDbEntity
  8
3
 62
     0
440
 16777216
100
AcDbMText
 10
1361.408434917929
 20
1127.392995160295
 30
0.0
 40
45.0
 41
0.0
 46
0.0
 71
     5
 72
     1
  1
\A1;645
 73
     1
 44
1.0
  0
POINT
  5
806A
330
7EA4
100
AcDbEntity
  8
DEFPOINTS
 62
     0
440
 16777216
100
AcDbPoint
 10
1038.908434917928
 20
1221.450353
 30
0.0
  0
POINT
  5
806B
330
7EA4
100
AcDbEntity
  8
DEFPOINTS
 62
     0
440
 16777216
100
AcDbPoint
 10
1683.908434917929
 20
1191.450353
 30
0.0
  0
POINT
  5
806C
330
7EA4
100
AcDbEntity
  8
DEFPOINTS
 62
     0
440
 16777216
100
AcDbPoint
 10
1683.908434917929
 20
1089.892995160295
 30
0.0
  0
ENDBLK
  5
7EAF
330
7EA4
100
AcDbEntity
  8
0
100
AcDbBlockEnd
  0
BLOCK
  5
7EBF
330
7EBE
100
AcDbEntity
  8
0
100
AcDbBlockBegin
  2
*D15
 70
     1
 10
0.0
 20
0.0
 30
0.0
  3
*D15
  1

  0
LINE
  5
806D
330
7EBE
100
AcDbEntity
  8
3
 62
     0
440
 16777216
370
    -2
100
AcDbLine
 10
1996.645834993405
 20
1183.950353
 30
0.0
 11
1996.645834993405
 21
1074.892995160295
 31
0.0
  0
LINE
  5
806E
330
7EBE
100
AcDbEntity
  8
3
 62
     0
440
 16777216
370
    -2
100
AcDbLine
 10
2416.645834993405
 20
1183.950353
 30
0.0
 11
2416.645834993405
 21
1074.892995160295
 31
0.0
  0
LINE
  5
806F
330
7EBE
100
AcDbEntity
  8
3
 62
     0
440
 16777216
370
    -2
100
AcDbLine
 10
2026.645834993405
 20
1089.892995160295
 30
0.0
 11
2386.645834993405
 21
1089.892995160295
 31
0.0
  0
INSERT
  5
8070
330
7EBE
100
AcDbEntity
  8
3
 62
     0
440
 16777216
370
    -2
100
AcDbBlockReference
  2
_OPEN
 10
1996.645834993405
 20
1089.892995160295
 30
0.0
 41
30.0
 42
30.0
 43
30.0
 50
180.0
  0
INSERT
  5
8071
330
7EBE
100
AcDbEntity
  8
3
 62
     0
440
 16777216
370
    -2
100
AcDbBlockReference
  2
_OPEN
 10
2416.645834993405
 20
1089.892995160295
 30
0.0
 41
30.0
 42
30.0
 43
30.0
  0
MTEXT
  5
8072
330
7EBE
100
AcDbEntity
  8
3
 62
     0
440
 16777216
100
AcDbMText
 10
2206.645834993405
 20
1127.392995160295
 30
0.0
 40
45.0
 41
0.0
 46
0.0
 71
     5
 72
     1
  1
\A1;420
 73
     1
 44
1.0
  0
POINT
  5
8073
330
7EBE
100
AcDbEntity
  8
DEFPOINTS
 62
     0
440
 16777216
100
AcDbPoint
 10
1996.645834993405
 20
1191.450353
 30
0.0
  0
POINT
  5
8074
330
7EBE
100
AcDbEntity
  8
DEFPOINTS
 62
     0
440
 16777216
100
AcDbPoint
 10
2416.645834993405
 20
1191.450353
 30
0.0
  0
POINT
  5
8075
330
7EBE
100
AcDbEntity
  8
DEFPOINTS
 62
     0
440
 16777216
100
AcDbPoint
 10
2416.645834993405
 20
1089.892995160295
 30
0.0
  0
ENDBLK
  5
7EC9
330
7EBE
100
AcDbEntity
  8
0
100
AcDbBlockEnd
  0
BLOCK
  5
7ECC
330
7ECB
100
AcDbEntity
  8
0
100
AcDbBlockBegin
  2
*D16
 70
     1
 10
0.0
 20
0.0
 30
0.0
  3
*D16
  1

  0
LINE
  5
8076
330
7ECB
100
AcDbEntity
  8
3
 62
     0
440
 16777216
370
    -2
100
AcDbLine
 10
2416.645834993405
 20
1183.950353
 30
0.0
 11
2416.645834993405
 21
1074.892995160295
 31
0.0
  0
LINE
  5
8077
330
7ECB
100
AcDbEntity
  8
3
 62
     0
440
 16777216
370
    -2
100
AcDbLine
 10
2596.645834993405
 20
1183.950353
 30
0.0
 11
2596.645834993405
 21
1074.892995160295
 31
0.0
  0
LINE
  5
8078
330
7ECB
100
AcDbEntity
  8
3
 62
     0
440
 16777216
370
    -2
100
AcDbLine
 10
2446.645834993405
 20
1089.892995160295
 30
0.0
 11
2566.645834993405
 21
1089.892995160295
 31
0.0
  0
INSERT
  5
8079
330
7ECB
100
AcDbEntity
  8
3
 62
     0
440
 16777216
370
    -2
100
AcDbBlockReference
  2
_OPEN
 10
2416.645834993405
 20
1089.892995160295
 30
0.0
 41
30.0
 42
30.0
 43
30.0
 50
180.0
  0
INSERT
  5
807A
330
7ECB
100
AcDbEntity
  8
3
 62
     0
440
 16777216
370
    -2
100
AcDbBlockReference
  2
_OPEN
 10
2596.645834993405
 20
1089.892995160295
 30
0.0
 41
30.0
 42
30.0
 43
30.0
  0
MTEXT
  5
807B
330
7ECB
100
AcDbEntity
  8
3
 62
     0
440
 16777216
100
AcDbMText
 10
2506.645834993405
 20
1127.392995160295
 30
0.0
 40
45.0
 41
0.0
 46
0.0
 71
     5
 72
     1
  1
\A1;180
 73
     1
 44
1.0
  0
POINT
  5
807C
330
7ECB
100
AcDbEntity
  8
DEFPOINTS
 62
     0
440
 16777216
100
AcDbPoint
 10
2416.645834993405
 20
1191.450353
 30
0.0
  0
POINT
  5
807D
330
7ECB
100
AcDbEntity
  8
DEFPOINTS
 62
     0
440
 16777216
100
AcDbPoint
 10
2596.645834993405
 20
1191.450353
 30
0.0
  0
POINT
  5
807E
330
7ECB
100
AcDbEntity
  8
DEFPOINTS
 62
     0
440
 16777216
100
AcDbPoint
 10
2596.645834993405
 20
1089.892995160295
 30
0.0
  0
ENDBLK
  5
7ED8
330
7ECB
100
AcDbEntity
  8
0
100
AcDbBlockEnd
  0
BLOCK
  5
7EDB
330
7EDA
100
AcDbEntity
  8
0
100
AcDbBlockBegin
  2
*D17
 70
     1
 10
0.0
 20
0.0
 30
0.0
  3
*D17
  1

  0
LINE
  5
807F
330
7EDA
100
AcDbEntity
  8
3
 62
     0
440
 16777216
370
    -2
100
AcDbLine
 10
766.4084349179288
 20
1251.450353
 30
0.0
 11
649.2862362934884
 21
1251.450353
 31
0.0
  0
LINE
  5
8080
330
7EDA
100
AcDbEntity
  8
3
 62
     0
440
 16777216
370
    -2
100
AcDbLine
 10
766.4084349179288
 20
1191.450353
 30
0.0
 11
649.2862362934884
 21
1191.450353
 31
0.0
  0
LINE
  5
8081
330
7EDA
100
AcDbEntity
  8
3
 62
     0
440
 16777216
370
    -2
100
AcDbLine
 10
664.2862362934884
 20
1281.450353
 30
0.0
 11
664.2862362934884
 21
1311.450353
 31
0.0
  0
LINE
  5
8082
330
7EDA
100
AcDbEntity
  8
3
 62
     0
440
 16777216
370
    -2
100
AcDbLine
 10
664.2862362934883
 20
1161.450353
 30
0.0
 11
664.2862362934883
 21
1028.593210142857
 31
0.0
  0
LINE
  5
8083
330
7EDA
100
AcDbEntity
  8
3
 62
     0
440
 16777216
370
    -2
100
AcDbLine
 10
664.2862362934883
 20
1251.450353
 30
0.0
 11
664.2862362934883
 21
1191.450353
 31
0.0
  0
INSERT
  5
8084
330
7EDA
100
AcDbEntity
  8
3
 62
     0
440
 16777216
370
    -2
100
AcDbBlockReference
  2
_DOT
 10
664.2862362934883
 20
1251.450353
 30
0.0
 41
30.0
 42
30.0
 43
30.0
 50
270.0
  0
INSERT
  5
8085
330
7EDA
100
AcDbEntity
  8
3
 62
     0
440
 16777216
370
    -2
100
AcDbBlockReference
  2
_OPEN
 10
664.2862362934883
 20
1191.450353
 30
0.0
 41
30.0
 42
30.0
 43
30.0
 50
90.0
  0
MTEXT
  5
8086
330
7EDA
100
AcDbEntity
  8
3
 62
     0
440
 16777216
100
AcDbMText
 10
626.7862362934883
 20
1080.021781571429
 30
0.0
 40
45.0
 41
0.0
 46
0.0
 71
     5
 72
     1
  1
\A1;60
 11
0.0000000000000001
 21
1.0
 31
0.0
 73
     1
 44
1.0
  0
POINT
  5
8087
330
7EDA
100
AcDbEntity
  8
DEFPOINTS
 62
     0
440
 16777216
100
AcDbPoint
 10
773.9084349179288
 20
1251.450353
 30
0.0
  0
POINT
  5
8088
330
7EDA
100
AcDbEntity
  8
DEFPOINTS
 62
     0
440
 16777216
100
AcDbPoint
 10
773.9084349179288
 20
1191.450353
 30
0.0
  0
POINT
  5
8089
330
7EDA
100
AcDbEntity
  8
DEFPOINTS
 62
     0
440
 16777216
100
AcDbPoint
 10
664.2862362934883
 20
1191.450353
 30
0.0
  0
ENDBLK
  5
7EE7
330
7EDA
100
AcDbEntity
  8
0
100
AcDbBlockEnd
  0
BLOCK
  5
7EEA
330
7EE9
100
AcDbEntity
  8
0
100
AcDbBlockBegin
  2
*D18
 70
     1
 10
0.0
 20
0.0
 30
0.0
  3
*D18
  1

  0
LINE
  5
808A
330
7EE9
100
AcDbEntity
  8
3
 62
     0
440
 16777216
370
    -2
100
AcDbLine
 10
766.4084349179288
 20
1251.450353
 30
0.0
 11
649.2862362934882
 21
1251.450353
 31
0.0
  0
LINE
  5
808B
330
7EE9
100
AcDbEntity
  8
3
 62
     0
440
 16777216
370
    -2
100
AcDbLine
 10
796.4084349179288
 20
1321.450353
 30
0.0
 11
649.2862362934884
 21
1321.450353
 31
0.0
  0
LINE
  5
808C
330
7EE9
100
AcDbEntity
  8
3
 62
     0
440
 16777216
370
    -2
100
AcDbLine
 10
664.2862362934883
 20
1221.450353
 30
0.0
 11
664.2862362934883
 21
1191.450353
 31
0.0
  0
LINE
  5
808D
330
7EE9
100
AcDbEntity
  8
3
 62
     0
440
 16777216
370
    -2
100
AcDbLine
 10
664.2862362934883
 20
1351.450353
 30
0.0
 11
664.2862362934883
 21
1381.450353
 31
0.0
  0
MTEXT
  5
808E
330
7EE9
100
AcDbEntity
  8
3
 62
     0
440
 16777216
100
AcDbMText
 10
614.3159888882873
 20
1287.71770327066
 30
0.0
 40
45.0
 41
0.0
 46
0.0
 71
     5
 72
     1
  1
\A1;(70)
 11
0.0000000000000001
 21
1.0
 31
0.0
 73
     1
 44
1.0
  0
LINE
  5
808F
330
7EE9
100
AcDbEntity
  8
3
 62
     0
440
 16777216
370
    -2
100
AcDbLine
 10
664.2862362934883
 20
1251.450353
 30
0.0
 11
664.2862362934883
 21
1321.450353
 31
0.0
  0
INSERT
  5
8090
330
7EE9
100
AcDbEntity
  8
3
 62
     0
440
 16777216
370
    -2
100
AcDbBlockReference
  2
_DOT
 10
664.2862362934883
 20
1251.450353
 30
0.0
 41
30.0
 42
30.0
 43
30.0
 50
90.0
  0
INSERT
  5
8091
330
7EE9
100
AcDbEntity
  8
3
 62
     0
440
 16777216
370
    -2
100
AcDbBlockReference
  2
_OPEN
 10
664.2862362934883
 20
1321.450353
 30
0.0
 41
30.0
 42
30.0
 43
30.0
 50
270.0
  0
POINT
  5
8092
330
7EE9
100
AcDbEntity
  8
DEFPOINTS
 62
     0
440
 16777216
100
AcDbPoint
 10
773.9084349179288
 20
1251.450353
 30
0.0
  0
POINT
  5
8093
330
7EE9
100
AcDbEntity
  8
DEFPOINTS
 62
     0
440
 16777216
100
AcDbPoint
 10
803.9084349179288
 20
1321.450353
 30
0.0
  0
POINT
  5
8094
330
7EE9
100
AcDbEntity
  8
DEFPOINTS
 62
     0
440
 16777216
100
AcDbPoint
 10
664.2862362934883
 20
1321.450353
 30
0.0
  0
ENDBLK
  5
7EF6
330
7EE9
100
AcDbEntity
  8
0
100
AcDbBlockEnd
  0
BLOCK
  5
7EF9
330
7EF8
100
AcDbEntity
  8
0
100
AcDbBlockBegin
  2
*D19
 70
     1
 10
0.0
 20
0.0
 30
0.0
  3
*D19
  1

  0
LINE
  5
8052
330
7EF8
100
AcDbEntity
  8
3
 62
     0
440
 16777216
370
    -2
100
AcDbLine
 10
1009.908434917929
 20
1971.450353
 30
0.0
 11
506.1651827370699
 21
1971.450353
 31
0.0
  0
LINE
  5
8053
330
7EF8
100
AcDbEntity
  8
3
 62
     0
440
 16777216
370
    -2
100
AcDbLine
 10
766.4084349179288
 20
1191.450353
 30
0.0
 11
506.1651827370697
 21
1191.450353
 31
0.0
  0
LINE
  5
8054
330
7EF8
100
AcDbEntity
  8
3
 62
     0
440
 16777216
370
    -2
100
AcDbLine
 10
521.1651827370699
 20
1941.450353
 30
0.0
 11
521.1651827370697
 21
1221.450353
 31
0.0
  0
INSERT
  5
8055
330
7EF8
100
AcDbEntity
  8
3
 62
     0
440
 16777216
370
    -2
100
AcDbBlockReference
  2
_OPEN
 10
521.1651827370699
 20
1971.450353
 30
0.0
 41
30.0
 42
30.0
 43
30.0
 50
90.0
  0
INSERT
  5
8056
330
7EF8
100
AcDbEntity
  8
3
 62
     0
440
 16777216
370
    -2
100
AcDbBlockReference
  2
_OPEN
 10
521.1651827370697
 20
1191.450353
 30
0.0
 41
30.0
 42
30.0
 43
30.0
 50
270.0
  0
MTEXT
  5
8057
330
7EF8
100
AcDbEntity
  8
3
 62
     0
440
 16777216
100
AcDbMText
 10
471.8794684513553
 20
1581.450353
 30
0.0
 40
45.0
 41
0.0
 46
0.0
 71
     5
 72
     1
  1
\A1;(780)
 11
0.0000000000000001
 21
1.0
 31
0.0
 73
     1
 44
1.0
  0
POINT
  5
8058
330
7EF8
100
AcDbEntity
  8
DEFPOINTS
 62
     0
440
 16777216
100
AcDbPoint
 10
1017.408434917929
 20
1971.450353
 30
0.0
  0
POINT
  5
8059
330
7EF8
100
AcDbEntity
  8
DEFPOINTS
 62
     0
440
 16777216
100
AcDbPoint
 10
773.9084349179288
 20
1191.450353
 30
0.0
  0
POINT
  5
805A
330
7EF8
100
AcDbEntity
  8
DEFPOINTS
 62
     0
440
 16777216
100
AcDbPoint
 10
521.1651827370697
 20
1191.450353
 30
0.0
  0
ENDBLK
  5
7F03
330
7EF8
100
AcDbEntity
  8
0
100
AcDbBlockEnd
  0
ENDSEC
  0
SECTION
  2
ENTITIES
  0
LINE
  5
7A9C
330
19
100
AcDbEntity
  8
1
  6
Continuous
100
AcDbLine
 10
1683.908434917929
 20
1251.450353
 30
0.0
 11
773.9084349179288
 21
1251.450353
 31
0.0
  0
LINE
  5
7A9D
330
19
100
AcDbEntity
  8
1
  6
Continuous
100
AcDbLine
 10
1683.908434917929
 20
1221.450353
 30
0.0
 11
773.9084349179288
 21
1221.450353
 31
0.0
  0
LINE
  5
7A9E
330
19
100
AcDbEntity
  8
1
  6
Continuous
100
AcDbLine
 10
1624.408434917929
 20
2686.450353000001
 30
0.0
 11
894.4084349179288
 21
2686.450353000001
 31
0.0
  0
LINE
  5
7A9F
330
19
100
AcDbEntity
  8
1
  6
Continuous
100
AcDbLine
 10
1624.408434917929
 20
2601.450353000001
 30
0.0
 11
894.4084349179288
 21
2601.450353000001
 31
0.0
  0
LINE
  5
7AA0
330
19
100
AcDbEntity
  8
1
  6
Continuous
100
AcDbLine
 10
1497.908434917929
 20
2706.450353000001
 30
0.0
 11
1050.908434917928
 21
2706.450353000001
 31
0.0
  0
LINE
  5
7AA1
330
19
100
AcDbEntity
  8
1
  6
Continuous
100
AcDbLine
 10
1094.408434917929
 20
1951.450353
 30
0.0
 11
1624.408434917929
 21
1601.450353
 31
0.0
  0
LINE
  5
7AA2
330
19
100
AcDbEntity
  8
1
  6
Continuous
100
AcDbLine
 10
1653.908434917928
 20
1321.450353
 30
0.0
 11
803.9084349179288
 21
1321.450353
 31
0.0
  0
LINE
  5
7AA3
330
19
100
AcDbEntity
  8
1
  6
Continuous
100
AcDbLine
 10
1653.908434917928
 20
1391.450353
 30
0.0
 11
803.9084349179288
 21
1391.450353
 31
0.0
  0
LINE
  5
7AA4
330
19
100
AcDbEntity
  8
1
  6
Continuous
100
AcDbLine
 10
1017.408434917929
 20
1971.450353
 30
0.0
 11
1375.408434917929
 21
1971.450353
 31
0.0
  0
LINE
  5
7AA5
330
19
100
AcDbEntity
  8
1
  6
Continuous
100
AcDbLine
 10
1353.908434917929
 20
3133.450353000001
 30
0.0
 11
1038.908434917929
 21
2909.450353
 31
0.0
  0
LINE
  5
7AA6
330
19
100
AcDbEntity
  8
1
  6
Continuous
100
AcDbLine
 10
1353.908434917929
 20
2909.450353
 30
0.0
 11
1038.908434917929
 21
3133.450353000001
 31
0.0
  0
LINE
  5
7AA7
330
19
100
AcDbEntity
  8
1
  6
Continuous
100
AcDbLine
 10
1353.908434917929
 20
2909.450353
 30
0.0
 11
836.9084349179289
 21
2909.450353
 31
0.0
  0
LINE
  5
7AA8
330
19
100
AcDbEntity
  8
1
  6
Continuous
100
AcDbLine
 10
836.9084349179289
 20
3133.450353000001
 30
0.0
 11
1353.908434917929
 21
3133.450353000001
 31
0.0
  0
LINE
  5
7AA9
330
19
100
AcDbEntity
  8
1
  6
Continuous
100
AcDbLine
 10
1068.908434917929
 20
1951.450353
 30
0.0
 11
1323.908434917929
 21
1951.450353
 31
0.0
  0
ARC
  5
7AAA
330
19
100
AcDbEntity
  8
1
  6
Continuous
100
AcDbCircle
 10
1064.408434917929
 20
1746.950353
 30
0.0
 40
299.5
100
AcDbArc
 50
259.4
 51
0.0
  0
LINE
  5
7AAB
330
19
100
AcDbEntity
  8
1
  6
Continuous
100
AcDbLine
 10
1068.908434917929
 20
1951.450353
 30
0.0
 11
1323.908434917929
 21
1951.450353
 31
0.0
  0
LINE
  5
7AAC
330
19
100
AcDbEntity
  8
1
  6
Continuous
100
AcDbLine
 10
1533.308434917929
 20
1549.050353
 30
0.0
 11
1066.908434917928
 21
1778.450353
 31
0.0
  0
LINE
  5
7AAD
330
19
100
AcDbEntity
  8
1
  6
Continuous
100
AcDbLine
 10
1488.408434917929
 20
1452.950353
 30
0.0
 11
1013.208434917929
 21
1663.350353
 31
0.0
  0
LINE
  5
7AAE
330
19
100
AcDbEntity
  8
1
  6
Continuous
100
AcDbLine
 10
946.6084349179286
 20
1901.450353
 30
0.0
 11
833.9084349179287
 21
1806.850353
 31
0.0
  0
LINE
  5
7AAF
330
19
100
AcDbEntity
  8
1
  6
Continuous
100
AcDbLine
 10
1243.908434917929
 20
1684.950353
 30
0.0
 11
833.9084349179287
 21
1684.950353
 31
0.0
  0
ARC
  5
7AB0
330
19
100
AcDbEntity
  8
1
  6
Continuous
100
AcDbCircle
 10
1059.908434917929
 20
1700.450353
 30
0.0
 40
253.0
100
AcDbArc
 50
188.2
 51
258.4
  0
ARC
  5
7AB1
330
19
100
AcDbEntity
  8
1
  6
Continuous
100
AcDbCircle
 10
1020.908434917929
 20
1703.450353
 30
0.0
 40
215.0
100
AcDbArc
 50
98.59999999999999
 51
190.6
  0
LINE
  5
7AB2
330
19
100
AcDbEntity
  8
1
  6
Continuous
100
AcDbLine
 10
833.9084349179287
 20
1391.450353
 30
0.0
 11
833.9084349179287
 21
1806.850353
 31
0.0
  0
LINE
  5
7AB3
330
19
100
AcDbEntity
  8
1
  6
Continuous
100
AcDbLine
 10
773.9084349179288
 20
1191.450353
 30
0.0
 11
773.9084349179288
 21
1251.450353
 31
0.0
  0
LINE
  5
7AB4
330
19
100
AcDbEntity
  8
1
  6
Continuous
100
AcDbLine
 10
803.9084349179288
 20
1391.450353
 30
0.0
 11
803.9084349179288
 21
1321.450353
 31
0.0
  0
LINE
  5
7AB5
330
19
100
AcDbEntity
  8
1
  6
Continuous
100
AcDbLine
 10
803.9084349179288
 20
1221.450353
 30
0.0
 11
803.9084349179288
 21
1191.450353
 31
0.0
  0
LINE
  5
7AB6
330
19
100
AcDbEntity
  8
1
  6
Continuous
100
AcDbLine
 10
773.9084349179288
 20
1191.450353
 30
0.0
 11
803.9084349179288
 21
1191.450353
 31
0.0
  0
LINE
  5
7AB7
330
19
100
AcDbEntity
  8
1
  6
Continuous
100
AcDbLine
 10
894.4084349179288
 20
1821.450353
 30
0.0
 11
894.4084349179288
 21
1381.950353
 31
0.0
  0
LINE
  5
7AB8
330
19
100
AcDbEntity
  8
1
  6
Continuous
100
AcDbLine
 10
1243.908434917929
 20
1391.450353
 30
0.0
 11
1243.908434917929
 21
1806.850353
 31
0.0
  0
CIRCLE
  5
7AB9
330
19
100
AcDbEntity
  8
1
  6
Continuous
100
AcDbCircle
 10
1038.908434917929
 20
1721.450353
 30
0.0
 40
182.5
  0
CIRCLE
  5
7ABA
330
19
100
AcDbEntity
  8
1
  6
Continuous
100
AcDbCircle
 10
1038.908434917929
 20
1721.450353
 30
0.0
 40
157.5
  0
LINE
  5
7ABB
330
19
100
AcDbEntity
  8
1
  6
Continuous
100
AcDbLine
 10
1048.908434917929
 20
1971.450353
 30
0.0
 11
1068.908434917929
 21
1951.450353
 31
0.0
  0
LINE
  5
7ABC
330
19
100
AcDbEntity
  8
1
  6
Continuous
100
AcDbLine
 10
894.4084349179288
 20
1821.450353
 30
0.0
 11
1094.408434917929
 21
1951.450353
 31
0.0
  0
CIRCLE
  5
7ABD
330
19
100
AcDbEntity
  8
1
  6
Continuous
100
AcDbCircle
 10
1038.908434917929
 20
1721.450353
 30
0.0
 40
63.5
  0
LINE
  5
7ABE
330
19
100
AcDbEntity
  8
1
  6
Continuous
100
AcDbLine
 10
1131.208434917929
 20
1901.450353
 30
0.0
 11
946.6084349179286
 21
1901.450353
 31
0.0
  0
LINE
  5
7ABF
330
19
100
AcDbEntity
  8
2
  6
CENTER
100
AcDbLine
 10
2575.745834993405
 20
1721.450353
 30
0.0
 11
1921.267297993404
 21
1721.450353
 31
0.0
  0
LINE
  5
7AC0
330
19
100
AcDbEntity
  8
2
  6
CENTER
100
AcDbLine
 10
1038.908434917928
 20
1221.450353
 30
0.0
 11
1038.908434917929
 21
2005.37787
 31
0.0
  0
LINE
  5
7AC1
330
19
100
AcDbEntity
  8
1
  6
Continuous
100
AcDbLine
 10
1038.908434917929
 20
1951.450353
 30
0.0
 11
1038.908434917929
 21
1971.450353
 31
0.0
  0
LINE
  5
7AC2
330
19
100
AcDbEntity
  8
1
  6
Continuous
100
AcDbLine
 10
1030.008434917929
 20
1951.450353
 30
0.0
 11
1038.908434917929
 21
1951.450353
 31
0.0
  0
ARC
  5
7AC3
330
19
100
AcDbEntity
  8
1
  6
Continuous
100
AcDbCircle
 10
961.9084349179289
 20
1989.450353
 30
0.0
 40
78.0
100
AcDbArc
 50
288.8
 51
331.0
  0
LINE
  5
7AC4
330
19
100
AcDbEntity
  8
1
  6
Continuous
100
AcDbLine
 10
1131.208434917929
 20
1901.450353
 30
0.0
 11
1243.908434917929
 21
1806.850353
 31
0.0
  0
LINE
  5
7AC5
330
19
100
AcDbEntity
  8
1
  6
Continuous
100
AcDbLine
 10
1026.908434917929
 20
2736.450353
 30
0.0
 11
833.9084349179287
 21
2736.450353
 31
0.0
  0
LINE
  5
7AC6
330
19
100
AcDbEntity
  8
1
  6
Continuous
100
AcDbLine
 10
1026.908434917929
 20
2706.450353000001
 30
0.0
 11
773.9084349179288
 21
2706.450353000001
 31
0.0
  0
LINE
  5
7AC7
330
19
100
AcDbEntity
  8
1
  6
Continuous
100
AcDbLine
 10
833.9084349179287
 20
2899.650353
 30
0.0
 11
1243.908434917929
 21
2899.650353
 31
0.0
  0
LINE
  5
7AC8
330
19
100
AcDbEntity
  8
1
  6
Continuous
100
AcDbLine
 10
773.9084349179288
 20
2601.450353000001
 30
0.0
 11
773.9084349179288
 21
3201.450353
 31
0.0
  0
LINE
  5
7AC9
330
19
100
AcDbEntity
  8
1
  6
Continuous
100
AcDbLine
 10
816.9084349179287
 20
3113.450353000001
 30
0.0
 11
816.9084349179287
 21
2929.450353
 31
0.0
  0
LINE
  5
7ACA
330
19
100
AcDbEntity
  8
1
  6
Continuous
100
AcDbLine
 10
803.9084349179288
 20
2706.450353000001
 30
0.0
 11
803.9084349179288
 21
2601.450353000001
 31
0.0
  0
LINE
  5
7ACB
330
19
100
AcDbEntity
  8
1
  6
Continuous
100
AcDbLine
 10
773.9084349179288
 20
2601.450353000001
 30
0.0
 11
803.9084349179288
 21
2601.450353000001
 31
0.0
  0
LINE
  5
7ACC
330
19
100
AcDbEntity
  8
1
  6
Continuous
100
AcDbLine
 10
833.9084349179287
 20
2736.450353
 30
0.0
 11
833.9084349179287
 21
2899.650353
 31
0.0
  0
ARC
  5
7ACD
330
19
100
AcDbEntity
  8
1
  6
Continuous
100
AcDbCircle
 10
836.9084349179289
 20
2929.450353
 30
0.0
 40
20.0
100
AcDbArc
 50
180.0
 51
270.0
  0
LINE
  5
7ACE
330
19
100
AcDbEntity
  8
1
  6
Continuous
100
AcDbLine
 10
773.9084349179288
 20
3021.450353
 30
0.0
 11
816.9084349179287
 21
3021.450353
 31
0.0
  0
ARC
  5
7ACF
330
19
100
AcDbEntity
  8
1
  6
Continuous
100
AcDbCircle
 10
836.9084349179289
 20
3113.450353000001
 30
0.0
 40
20.0
100
AcDbArc
 50
90.0
 51
180.0
  0
LINE
  5
7AD0
330
19
100
AcDbEntity
  8
1
  6
Continuous
100
AcDbLine
 10
803.9084349179288
 20
3201.450353
 30
0.0
 11
803.9084349179288
 21
3021.450353
 31
0.0
  0
LINE
  5
7AD1
330
19
100
AcDbEntity
  8
1
  6
Continuous
100
AcDbLine
 10
773.9084349179288
 20
3201.450353
 30
0.0
 11
803.9084349179288
 21
3201.450353
 31
0.0
  0
LINE
  5
7AD2
330
19
100
AcDbEntity
  8
1
  6
Continuous
100
AcDbLine
 10
1038.908434917929
 20
3133.450353000001
 30
0.0
 11
1038.908434917929
 21
2909.450353
 31
0.0
  0
LINE
  5
7AD3
330
19
100
AcDbEntity
  8
1
  6
Continuous
100
AcDbLine
 10
1243.908434917929
 20
2736.450353
 30
0.0
 11
1050.908434917928
 21
2736.450353
 31
0.0
  0
LINE
  5
7AD4
330
19
100
AcDbEntity
  8
1
  6
Continuous
100
AcDbLine
 10
1102.408434917929
 20
2627.950353000001
 30
0.0
 11
975.4084349179288
 21
2627.950353000001
 31
0.0
  0
LINE
  5
7AD5
330
19
100
AcDbEntity
  8
1
  6
Continuous
100
AcDbLine
 10
975.4084349179288
 20
2662.950353
 30
0.0
 11
1102.408434917929
 21
2662.950353
 31
0.0
  0
LINE
  5
7AD6
330
19
100
AcDbEntity
  8
1
  6
Continuous
100
AcDbLine
 10
1221.408434917929
 20
2899.450353000001
 30
0.0
 11
856.4084349179289
 21
2899.450353000001
 31
0.0
  0
LINE
  5
7AD7
330
19
100
AcDbEntity
  8
1
  6
Continuous
100
AcDbLine
 10
1026.908434917929
 20
2899.650353
 30
0.0
 11
1026.908434917929
 21
2662.950353
 31
0.0
  0
LINE
  5
7AD8
330
19
100
AcDbEntity
  8
1
  6
Continuous
100
AcDbLine
 10
1050.908434917928
 20
2899.650353
 30
0.0
 11
1050.908434917928
 21
2662.950353
 31
0.0
  0
LINE
  5
7AD9
330
19
100
AcDbEntity
  8
1
  6
Continuous
100
AcDbLine
 10
894.4084349179288
 20
2686.450353000001
 30
0.0
 11
894.4084349179288
 21
2601.450353000001
 31
0.0
  0
LINE
  5
7ADA
330
19
100
AcDbEntity
  8
1
  6
Continuous
100
AcDbLine
 10
975.4084349179288
 20
2627.950353000001
 30
0.0
 11
975.4084349179288
 21
2662.950353
 31
0.0
  0
LINE
  5
7ADB
330
19
100
AcDbEntity
  8
1
  6
Continuous
100
AcDbLine
 10
856.4084349179289
 20
2899.450353000001
 30
0.0
 11
856.4084349179289
 21
2909.450353
 31
0.0
  0
LINE
  5
7ADC
330
19
100
AcDbEntity
  8
1
  6
Continuous
100
AcDbLine
 10
1102.408434917929
 20
2662.950353
 30
0.0
 11
1102.408434917929
 21
2627.950353000001
 31
0.0
  0
LINE
  5
7ADD
330
19
100
AcDbEntity
  8
1
  6
Continuous
100
AcDbLine
 10
1243.908434917929
 20
2736.450353
 30
0.0
 11
1243.908434917929
 21
2899.650353
 31
0.0
  0
LINE
  5
7ADE
330
19
100
AcDbEntity
  8
1
  6
Continuous
100
AcDbLine
 10
1221.408434917929
 20
2899.450353000001
 30
0.0
 11
1221.408434917929
 21
2909.450353
 31
0.0
  0
LINE
  5
7ADF
330
19
100
AcDbEntity
  8
1
  6
Continuous
100
AcDbLine
 10
856.4084349179289
 20
3142.450353
 30
0.0
 11
1221.408434917929
 21
3142.450353
 31
0.0
  0
LINE
  5
7AE0
330
19
100
AcDbEntity
  8
1
  6
Continuous
100
AcDbLine
 10
856.4084349179289
 20
3142.450353
 30
0.0
 11
856.4084349179289
 21
3133.450353000001
 31
0.0
  0
LINE
  5
7AE1
330
19
100
AcDbEntity
  8
1
  6
Continuous
100
AcDbLine
 10
1221.408434917929
 20
3142.450353
 30
0.0
 11
1221.408434917929
 21
3133.450353000001
 31
0.0
  0
LINE
  5
7AE2
330
19
100
AcDbEntity
  8
1
  6
Continuous
100
AcDbLine
 10
1624.408434917929
 20
1601.450353
 30
0.0
 11
1624.408434917929
 21
1391.450353
 31
0.0
  0
ARC
  5
7AE3
330
19
100
AcDbEntity
  8
1
  6
Continuous
100
AcDbCircle
 10
1509.908434917929
 20
1501.450353
 30
0.0
 40
101.0
100
AcDbArc
 50
322.9
 51
217.1
  0
CIRCLE
  5
7AE4
330
19
100
AcDbEntity
  8
1
  6
Continuous
100
AcDbCircle
 10
1509.908434917929
 20
1501.450353
 30
0.0
 40
53.0
  0
LINE
  5
7AE5
330
19
100
AcDbEntity
  8
2
  6
CENTER
100
AcDbLine
 10
1509.908434917929
 20
1448.450353
 30
0.0
 11
1509.908434917929
 21
1554.450353
 31
0.0
  0
LINE
  5
7AE6
330
19
100
AcDbEntity
  8
2
  6
CENTER
100
AcDbLine
 10
1562.908434917929
 20
1501.450353
 30
0.0
 11
1456.908434917929
 21
1501.450353
 31
0.0
  0
LINE
  5
7AE7
330
19
100
AcDbEntity
  8
1
  6
Continuous
100
AcDbLine
 10
1623.908434917929
 20
1411.450353
 30
0.0
 11
1308.908434917929
 21
1411.450353
 31
0.0
  0
LINE
  5
7AE8
330
19
100
AcDbEntity
  8
1
  6
Continuous
100
AcDbLine
 10
1308.908434917929
 20
1391.450353
 30
0.0
 11
1308.908434917929
 21
1411.450353
 31
0.0
  0
LINE
  5
7AE9
330
19
100
AcDbEntity
  8
1
  6
Continuous
100
AcDbLine
 10
1418.008434917928
 20
1411.450353
 30
0.0
 11
1429.408434917928
 21
1440.450353
 31
0.0
  0
LINE
  5
7AEA
330
19
100
AcDbEntity
  8
1
  6
Continuous
100
AcDbLine
 10
1601.808434917928
 20
1411.450353
 30
0.0
 11
1590.408434917929
 21
1440.450353
 31
0.0
  0
LINE
  5
7AEB
330
19
100
AcDbEntity
  8
1
  6
Continuous
100
AcDbLine
 10
1683.908434917929
 20
1191.450353
 30
0.0
 11
1683.908434917929
 21
1251.450353
 31
0.0
  0
LINE
  5
7AEC
330
19
100
AcDbEntity
  8
1
  6
Continuous
100
AcDbLine
 10
1623.908434917929
 20
1391.450353
 30
0.0
 11
1623.908434917929
 21
1411.450353
 31
0.0
  0
LINE
  5
7AED
330
19
100
AcDbEntity
  8
1
  6
Continuous
100
AcDbLine
 10
1653.908434917928
 20
1391.450353
 30
0.0
 11
1653.908434917928
 21
1321.450353
 31
0.0
  0
LINE
  5
7AEE
330
19
100
AcDbEntity
  8
1
  6
Continuous
100
AcDbLine
 10
1683.908434917929
 20
1191.450353
 30
0.0
 11
1653.908434917928
 21
1191.450353
 31
0.0
  0
LINE
  5
7AEF
330
19
100
AcDbEntity
  8
1
  6
Continuous
100
AcDbLine
 10
1653.908434917928
 20
1221.450353
 30
0.0
 11
1653.908434917928
 21
1191.450353
 31
0.0
  0
LINE
  5
7AF0
330
19
100
AcDbEntity
  8
1
  6
Continuous
100
AcDbLine
 10
1363.908434917929
 20
1951.450353
 30
0.0
 11
1363.908434917929
 21
1746.950353
 31
0.0
  0
LINE
  5
7AF1
330
19
100
AcDbEntity
  8
1
  6
Continuous
100
AcDbLine
 10
1343.908434917929
 20
1971.450353
 30
0.0
 11
1323.908434917929
 21
1951.450353
 31
0.0
  0
LINE
  5
7AF2
330
19
100
AcDbEntity
  8
1
  6
Continuous
100
AcDbLine
 10
1353.908434917929
 20
1971.450353
 30
0.0
 11
1353.908434917929
 21
1951.450353
 31
0.0
  0
LINE
  5
7AF3
330
19
100
AcDbEntity
  8
1
  6
Continuous
100
AcDbLine
 10
1353.908434917929
 20
1951.450353
 30
0.0
 11
1363.908434917929
 21
1951.450353
 31
0.0
  0
LINE
  5
7AF4
330
19
100
AcDbEntity
  8
1
  6
Continuous
100
AcDbLine
 10
1683.908434917929
 20
2601.450353000001
 30
0.0
 11
1683.908434917929
 21
3201.450353
 31
0.0
  0
LINE
  5
7AF5
330
19
100
AcDbEntity
  8
1
  6
Continuous
100
AcDbLine
 10
1408.908434917929
 20
2722.950353
 30
0.0
 11
1408.908434917929
 21
2994.950353
 31
0.0
  0
LINE
  5
7AF6
330
19
100
AcDbEntity
  8
1
  6
Continuous
100
AcDbLine
 10
1599.908434917929
 20
2994.950353
 30
0.0
 11
1599.908434917929
 21
2722.950353
 31
0.0
  0
LINE
  5
7AF7
330
19
100
AcDbEntity
  8
1
  6
Continuous
100
AcDbLine
 10
1353.908434917929
 20
3133.450353000001
 30
0.0
 11
1353.908434917929
 21
2909.450353
 31
0.0
  0
LINE
  5
7AF8
330
19
100
AcDbEntity
  8
1
  6
Continuous
100
AcDbLine
 10
1446.408434917929
 20
2662.950353
 30
0.0
 11
1573.408434917929
 21
2662.950353
 31
0.0
  0
LINE
  5
7AF9
330
19
100
AcDbEntity
  8
1
  6
Continuous
100
AcDbLine
 10
1573.408434917929
 20
2627.950353000001
 30
0.0
 11
1446.408434917929
 21
2627.950353000001
 31
0.0
  0
LINE
  5
7AFA
330
19
100
AcDbEntity
  8
1
  6
Continuous
100
AcDbLine
 10
1408.908434917929
 20
2722.950353
 30
0.0
 11
1599.908434917929
 21
2722.950353
 31
0.0
  0
LINE
  5
7AFB
330
19
100
AcDbEntity
  8
1
  6
Continuous
100
AcDbLine
 10
1446.408434917929
 20
2627.950353000001
 30
0.0
 11
1446.408434917929
 21
2662.950353
 31
0.0
  0
LINE
  5
7AFC
330
19
100
AcDbEntity
  8
1
  6
Continuous
100
AcDbLine
 10
1624.408434917929
 20
2686.450353000001
 30
0.0
 11
1624.408434917929
 21
2601.450353000001
 31
0.0
  0
LINE
  5
7AFD
330
19
100
AcDbEntity
  8
1
  6
Continuous
100
AcDbLine
 10
1521.908434917929
 20
2662.950353
 30
0.0
 11
1521.908434917929
 21
2722.950353
 31
0.0
  0
LINE
  5
7AFE
330
19
100
AcDbEntity
  8
1
  6
Continuous
100
AcDbLine
 10
1497.908434917929
 20
2662.950353
 30
0.0
 11
1497.908434917929
 21
2722.950353
 31
0.0
  0
LINE
  5
7AFF
330
19
100
AcDbEntity
  8
1
  6
Continuous
100
AcDbLine
 10
1653.908434917928
 20
2706.450353000001
 30
0.0
 11
1653.908434917928
 21
2601.450353000001
 31
0.0
  0
LINE
  5
7B00
330
19
100
AcDbEntity
  8
1
  6
Continuous
100
AcDbLine
 10
1573.408434917929
 20
2662.950353
 30
0.0
 11
1573.408434917929
 21
2627.950353000001
 31
0.0
  0
LINE
  5
7B01
330
19
100
AcDbEntity
  8
1
  6
Continuous
100
AcDbLine
 10
1497.908434917929
 20
2627.950353000001
 30
0.0
 11
1521.908434917929
 21
2627.950353000001
 31
0.0
  0
LINE
  5
7B02
330
19
100
AcDbEntity
  8
1
  6
Continuous
100
AcDbLine
 10
1683.908434917929
 20
2601.450353000001
 30
0.0
 11
1653.908434917928
 21
2601.450353000001
 31
0.0
  0
LINE
  5
7B03
330
19
100
AcDbEntity
  8
1
  6
Continuous
100
AcDbLine
 10
1683.908434917929
 20
2706.450353000001
 30
0.0
 11
1521.908434917929
 21
2706.450353000001
 31
0.0
  0
LINE
  5
7B04
330
19
100
AcDbEntity
  8
1
  6
Continuous
100
AcDbLine
 10
1408.908434917929
 20
2994.950353
 30
0.0
 11
1599.908434917929
 21
2994.950353
 31
0.0
  0
LINE
  5
7B05
330
19
100
AcDbEntity
  8
1
  6
Continuous
100
AcDbLine
 10
1353.908434917929
 20
3021.450353
 30
0.0
 11
1683.908434917929
 21
3021.450353
 31
0.0
  0
LINE
  5
7B06
330
19
100
AcDbEntity
  8
1
  6
Continuous
100
AcDbLine
 10
1683.908434917929
 20
3201.450353
 30
0.0
 11
1653.908434917928
 21
3201.450353
 31
0.0
  0
LINE
  5
7B07
330
19
100
AcDbEntity
  8
1
  6
Continuous
100
AcDbLine
 10
1653.908434917928
 20
3201.450353
 30
0.0
 11
1653.908434917928
 21
3021.450353
 31
0.0
  0
LINE
  5
7B08
330
19
100
AcDbEntity
  8
1
  6
Continuous
100
AcDbLine
 10
1996.645834993405
 20
1221.450353
 30
0.0
 11
2596.645834993405
 21
1221.450353
 31
0.0
  0
LINE
  5
7B09
330
19
100
AcDbEntity
  8
1
  6
Continuous
100
AcDbLine
 10
1996.645834993405
 20
1191.450353
 30
0.0
 11
2596.645834993405
 21
1191.450353
 31
0.0
  0
LINE
  5
7B0A
330
19
100
AcDbEntity
  8
1
  6
Continuous
100
AcDbLine
 10
2056.645834993405
 20
1489.550353
 30
0.0
 11
2130.645834993405
 21
1489.550353
 31
0.0
  0
LINE
  5
7B0B
330
19
100
AcDbEntity
  8
1
  6
Continuous
100
AcDbLine
 10
2056.645834993405
 20
1513.550353
 30
0.0
 11
2130.645834993405
 21
1513.550353
 31
0.0
  0
LINE
  5
7B0C
330
19
100
AcDbEntity
  8
1
  6
Continuous
100
AcDbLine
 10
2056.645834993405
 20
1734.050353
 30
0.0
 11
2197.645834993405
 21
1734.050353
 31
0.0
  0
LINE
  5
7B0D
330
19
100
AcDbEntity
  8
1
  6
Continuous
100
AcDbLine
 10
2056.645834993405
 20
1709.050353
 30
0.0
 11
2165.245834993405
 21
1709.050353
 31
0.0
  0
LINE
  5
7B0E
330
19
100
AcDbEntity
  8
1
  6
Continuous
100
AcDbLine
 10
2056.645834993405
 20
1438.050353
 30
0.0
 11
2056.645834993405
 21
1565.050353
 31
0.0
  0
LINE
  5
7B0F
330
19
100
AcDbEntity
  8
1
  6
Continuous
100
AcDbLine
 10
2021.645834993405
 20
1565.050353
 30
0.0
 11
2021.645834993405
 21
1438.050353
 31
0.0
  0
LINE
  5
7B10
330
19
100
AcDbEntity
  8
1
  6
Continuous
100
AcDbLine
 10
1996.645834993405
 20
1391.550353
 30
0.0
 11
1996.645834993405
 21
1951.450353
 31
0.0
  0
LINE
  5
7B11
330
19
100
AcDbEntity
  8
1
  6
Continuous
100
AcDbLine
 10
2081.645834993405
 20
1391.550353
 30
0.0
 11
2081.645834993405
 21
1951.450353
 31
0.0
  0
LINE
  5
7B15
330
19
100
AcDbEntity
  8
1
  6
Continuous
100
AcDbLine
 10
1996.645834993405
 20
1221.450353
 30
0.0
 11
1996.645834993405
 21
1191.450353
 31
0.0
  0
LINE
  5
7B16
330
19
100
AcDbEntity
  8
1
  6
Continuous
100
AcDbLine
 10
1996.645834993405
 20
1391.550353
 30
0.0
 11
2081.645834993405
 21
1391.550353
 31
0.0
  0
LINE
  5
7B17
330
19
100
AcDbEntity
  8
1
  6
Continuous
100
AcDbLine
 10
2021.645834993405
 20
1438.050353
 30
0.0
 11
2056.645834993405
 21
1438.050353
 31
0.0
  0
LINE
  5
7B18
330
19
100
AcDbEntity
  8
1
  6
Continuous
100
AcDbLine
 10
2021.645834993405
 20
1785.050353
 30
0.0
 11
2021.645834993405
 21
1658.050353
 31
0.0
  0
LINE
  5
7B19
330
19
100
AcDbEntity
  8
1
  6
Continuous
100
AcDbLine
 10
2056.645834993405
 20
1785.050353
 30
0.0
 11
2021.645834993405
 21
1785.050353
 31
0.0
  0
LINE
  5
7B1A
330
19
100
AcDbEntity
  8
1
  6
Continuous
100
AcDbLine
 10
2056.645834993405
 20
1658.050353
 30
0.0
 11
2056.645834993405
 21
1785.050353
 31
0.0
  0
LINE
  5
7B1B
330
19
100
AcDbEntity
  8
1
  6
Continuous
100
AcDbLine
 10
2021.645834993405
 20
1658.050353
 30
0.0
 11
2056.645834993405
 21
1658.050353
 31
0.0
  0
LINE
  5
7B1C
330
19
100
AcDbEntity
  8
1
  6
Continuous
100
AcDbLine
 10
2056.645834993405
 20
1565.050353
 30
0.0
 11
2021.645834993405
 21
1565.050353
 31
0.0
  0
LINE
  5
7B1D
330
19
100
AcDbEntity
  8
1
  6
Continuous
100
AcDbLine
 10
1996.645834993405
 20
1951.450353
 30
0.0
 11
2081.645834993405
 21
1951.450353
 31
0.0
  0
LINE
  5
7B1E
330
19
100
AcDbEntity
  8
1
  6
Continuous
100
AcDbLine
 10
2537.645834993405
 20
1903.950353
 30
0.0
 11
2529.445834993405
 21
1903.950353
 31
0.0
  0
ARC
  5
7B1F
330
19
100
AcDbEntity
  8
1
  6
Continuous
100
AcDbCircle
 10
2508.645834993405
 20
1453.450353
 30
0.0
 40
20.0
100
AcDbArc
 50
270.0
 51
0.0
  0
LINE
  5
7B20
330
19
100
AcDbEntity
  8
1
  6
Continuous
100
AcDbLine
 10
2537.645834993405
 20
1538.950353
 30
0.0
 11
2528.645834993405
 21
1538.950353
 31
0.0
  0
LINE
  5
7B21
330
19
100
AcDbEntity
  8
1
  6
Continuous
100
AcDbLine
 10
2283.645834993405
 20
1971.450353
 30
0.0
 11
2549.645834993405
 21
1971.450353
 31
0.0
  0
LINE
  5
7B22
330
19
100
AcDbEntity
  8
1
  6
Continuous
100
AcDbLine
 10
2528.645834993405
 20
1971.450353
 30
0.0
 11
2528.645834993405
 21
1453.450353
 31
0.0
  0
LINE
  5
7B23
330
19
100
AcDbEntity
  8
1
  6
Continuous
100
AcDbLine
 10
2304.645834993404
 20
1453.450353
 30
0.0
 11
2304.645834993404
 21
1971.450353
 31
0.0
  0
LINE
  5
7B24
330
19
100
AcDbEntity
  8
1
  6
Continuous
100
AcDbLine
 10
2294.645834993405
 20
1538.950353
 30
0.0
 11
2294.645834993405
 21
1903.950353
 31
0.0
  0
LINE
  5
7B25
330
19
100
AcDbEntity
  8
1
  6
Continuous
100
AcDbLine
 10
2294.645834993405
 20
1904.050353
 30
0.0
 11
2294.645834993405
 21
1391.450353
 31
0.0
  0
LINE
  5
7B26
330
19
100
AcDbEntity
  8
1
  6
Continuous
100
AcDbLine
 10
2130.645834993405
 20
1682.450353
 30
0.0
 11
2130.645834993405
 21
1391.450353
 31
0.0
  0
ARC
  5
7B27
330
19
100
AcDbEntity
  8
1
  6
Continuous
100
AcDbCircle
 10
2324.645834993404
 20
1453.450353
 30
0.0
 40
20.0
100
AcDbArc
 50
180.0
 51
270.0
  0
LINE
  5
7B28
330
19
100
AcDbEntity
  8
1
  6
Continuous
100
AcDbLine
 10
2416.445834993405
 20
1391.450353
 30
0.0
 11
2101.445834993404
 21
1391.450353
 31
0.0
  0
LINE
  5
7B29
330
19
100
AcDbEntity
  8
1
  6
Continuous
100
AcDbLine
 10
2101.445834993404
 20
1321.450353
 30
0.0
 11
2416.445834993405
 21
1321.450353
 31
0.0
  0
LINE
  5
7B2A
330
19
100
AcDbEntity
  8
1
  6
Continuous
100
AcDbLine
 10
2101.645834993405
 20
1251.450353
 30
0.0
 11
2416.645834993405
 21
1251.450353
 31
0.0
  0
LINE
  5
7B2B
330
19
100
AcDbEntity
  8
1
  6
Continuous
100
AcDbLine
 10
2101.445834993404
 20
1391.450353
 30
0.0
 11
2101.445834993404
 21
1321.450353
 31
0.0
  0
LINE
  5
7B2C
330
19
100
AcDbEntity
  8
1
  6
Continuous
100
AcDbLine
 10
2101.645834993405
 20
1251.450353
 30
0.0
 11
2101.645834993405
 21
1221.450353
 31
0.0
  0
LINE
  5
7B2D
330
19
100
AcDbEntity
  8
1
  6
Continuous
100
AcDbLine
 10
2294.645834993405
 20
1538.950353
 30
0.0
 11
2303.845834993405
 21
1538.950353
 31
0.0
  0
LINE
  5
7B2E
330
19
100
AcDbEntity
  8
1
  6
Continuous
100
AcDbLine
 10
2324.645834993404
 20
1433.450353
 30
0.0
 11
2508.645834993405
 21
1433.450353
 31
0.0
  0
LINE
  5
7B2F
330
19
100
AcDbEntity
  8
1
  6
Continuous
100
AcDbLine
 10
2416.445834993405
 20
1321.450353
 30
0.0
 11
2416.445834993405
 21
1391.450353
 31
0.0
  0
LINE
  5
7B30
330
19
100
AcDbEntity
  8
1
  6
Continuous
100
AcDbLine
 10
2416.645834993405
 20
1221.450353
 30
0.0
 11
2416.645834993405
 21
1251.450353
 31
0.0
  0
LINE
  5
7B31
330
19
100
AcDbEntity
  8
1
  6
Continuous
100
AcDbLine
 10
2294.645834993405
 20
1808.650353
 30
0.0
 11
2130.645834993405
 21
1682.450353
 31
0.0
  0
LINE
  5
7B32
330
19
100
AcDbEntity
  8
1
  6
Continuous
100
AcDbLine
 10
2294.645834993405
 20
1903.950353
 30
0.0
 11
2303.845834993405
 21
1903.950353
 31
0.0
  0
LINE
  5
7B33
330
19
100
AcDbEntity
  8
1
  6
Continuous
100
AcDbLine
 10
2333.645834993404
 20
1951.450353
 30
0.0
 11
2499.645834993405
 21
1951.450353
 31
0.0
  0
LINE
  5
7B34
330
19
100
AcDbEntity
  8
1
  6
Continuous
100
AcDbLine
 10
2313.645834993405
 20
1971.450353
 30
0.0
 11
2333.645834993404
 21
1951.450353
 31
0.0
  0
LINE
  5
7B35
330
19
100
AcDbEntity
  8
1
  6
Continuous
100
AcDbLine
 10
2519.645834993405
 20
1971.450353
 30
0.0
 11
2499.645834993405
 21
1951.450353
 31
0.0
  0
LINE
  5
7B36
330
19
100
AcDbEntity
  8
1
  6
Continuous
100
AcDbLine
 10
2537.645834993405
 20
1903.950353
 30
0.0
 11
2537.645834993405
 21
1538.950353
 31
0.0
  0
LINE
  5
7B37
330
19
100
AcDbEntity
  8
1
  6
Continuous
100
AcDbLine
 10
2596.645834993405
 20
1221.450353
 30
0.0
 11
2596.645834993405
 21
1191.450353
 31
0.0
  0
LINE
  5
7B38
330
19
100
AcDbEntity
  8
4
  6
Continuous
100
AcDbLine
 10
2775.0
 20
750.0
 30
0.0
 11
2775.0
 21
450.0
 31
0.0
  0
LINE
  5
7B39
330
19
100
AcDbEntity
  8
4
  6
Continuous
100
AcDbLine
 10
1725.0
 20
750.0
 30
0.0
 11
1725.0
 21
450.0
 31
0.0
  0
LINE
  5
7B3A
330
19
100
AcDbEntity
  8
4
  6
Continuous
100
AcDbLine
 10
975.0
 20
750.0
 30
0.0
 11
975.0
 21
450.0
 31
0.0
  0
LINE
  5
7B3D
330
19
100
AcDbEntity
  8
4
  6
Continuous
100
AcDbLine
 10
975.0
 20
450.0
 30
0.0
 11
2775.0
 21
450.0
 31
0.0
  0
LINE
  5
7B3E
330
19
100
AcDbEntity
  8
4
  6
Continuous
100
AcDbLine
 10
975.0
 20
600.0
 30
0.0
 11
2775.0
 21
600.0
 31
0.0
  0
TEXT
  5
7B3F
330
19
100
AcDbEntity
  8
4
  6
Continuous
100
AcDbText
 10
1032.753121
 20
647.3145389999999
 30
0.0
 40
75.0
  1
機器名称
100
AcDbText
  0
TEXT
  5
7B40
330
19
100
AcDbEntity
  8
4
  6
Continuous
100
AcDbText
 10
1029.387159
 20
482.4677349999999
 30
0.0
 40
75.0
  1
機器型番
100
AcDbText
  0
TEXT
  5
7B41
330
19
100
AcDbEntity
  8
4
  6
Continuous
100
AcDbText
 10
1766.518118
 20
633.857653
 30
0.0
 40
65.0
  1
ミツヤニューマルチファン
100
AcDbText
  0
TEXT
  5
7B42
330
19
100
AcDbEntity
  8
4
  6
Continuous
100
AcDbText
 10
1779.981743
 20
475.739376
 30
0.0
 40
75.0
  1
NM#2-1
100
AcDbText
  0
TEXT
  5
7B44
330
19
100
AcDbEntity
  8
4
  6
Continuous
100
AcDbText
 10
1167.178648
 20
3575.143262
 30
0.0
 40
81.0
  1
天井吊防振ベット
100
AcDbText
  0
TEXT
  5
7B45
330
19
100
AcDbEntity
  8
4
  6
Continuous
100
AcDbText
 10
474.25139
 20
3800.821464
 30
0.0
 40
108.0
  1
ベルト駆動式片吸込片持多翼ファン
100
AcDbText
  0
LINE
  5
7B46
330
19
100
AcDbEntity
  8
4
  6
Continuous
100
AcDbLine
 10
375.0
 20
3704.113131000001
 30
0.0
 11
2775.0
 21
3704.113131000001
 31
0.0
  0
LINE
  5
7B47
330
19
100
AcDbEntity
  8
4
  6
Continuous
100
AcDbLine
 10
375.0
 20
4004.113131
 30
0.0
 11
2775.0
 21
4004.113131
 31
0.0
  0
LINE
  5
7B48
330
19
100
AcDbEntity
  8
4
  6
Continuous
100
AcDbLine
 10
975.0
 20
750.0
 30
0.0
 11
2775.0
 21
750.0
 31
0.0
  0
LINE
  5
7B49
330
19
100
AcDbEntity
  8
4
  6
Continuous
100
AcDbLine
 10
375.0
 20
4004.113131
 30
0.0
 11
375.0
 21
3704.113131000001
 31
0.0
  0
TEXT
  5
7B4A
330
19
100
AcDbEntity
  8
4
  6
Continuous
100
AcDbText
 10
513.3904
 20
3573.479216
 30
0.0
 40
81.0
  1
左回転上向
100
AcDbText
  0
TEXT
  5
7B4B
330
19
100
AcDbEntity
  8
4
  6
Continuous
100
AcDbText
 10
2203.454339
 20
4059.091621999999
 30
0.0
 40
84.0
  1
No.
100
AcDbText
  0
TEXT
  5
7B4C
330
19
100
AcDbEntity
  8
4
  6
Continuous
100
AcDbText
 10
2136.944094
 20
3575.143262
 30
0.0
 40
81.0
  1
縮尺：1/15
100
AcDbText
  0
LINE
  5
7B4D
330
19
100
AcDbEntity
  8
4
  6
Continuous
100
AcDbLine
 10
2775.0
 20
4004.113131
 30
0.0
 11
2775.0
 21
3704.113131000001
 31
0.0
  0
LINE
  5
7B4F
330
19
100
AcDbEntity
  8
4
  6
Continuous
100
AcDbLine
 10
2160.926134
 20
4021.895375
 30
0.0
 11
2160.926134
 21
4179.978392
 31
0.0
  0
LINE
  5
7B50
330
19
100
AcDbEntity
  8
4
  6
Continuous
100
AcDbLine
 10
2160.926134
 20
4179.978392
 30
0.0
 11
2775.0
 21
4179.978392
 31
0.0
  0
LINE
  5
7B51
330
19
100
AcDbEntity
  8
4
  6
Continuous
100
AcDbLine
 10
2775.0
 20
4179.978392
 30
0.0
 11
2775.0
 21
4021.895375
 31
0.0
  0
LINE
  5
7B52
330
19
100
AcDbEntity
  8
4
  6
Continuous
100
AcDbLine
 10
2775.0
 20
4021.895375
 30
0.0
 11
2160.926134
 21
4021.895375
 31
0.0
  0
DIMENSION
  5
7B83
330
19
100
AcDbEntity
  8
3
  6
Continuous
100
AcDbDimension
280
     0
  2
*D1
 10
1353.908434917929
 20
2051.699875
 30
0.0
 11
1203.553915917929
 21
2051.699875
 31
0.0
 70
   160
 71
     5
 42
-1.0
 73
     0
 74
     0
 75
     0
  3
IGA
100
AcDbAlignedDimension
 13
1038.908434917929
 23
1971.450353
 33
0.0
 14
1353.908434917929
 24
1971.450353
 34
0.0
100
AcDbRotatedDimension
1001
ACAD
1000
DSTYLE
1002
{
1070
   287
1070
     3
1070
    40
1040
15.0
1070
   143
1040
0.039
1070
   172
1070
     1
1070
   271
1070
     0
1070
   279
1070
     0
1070
   288
1070
     1
1002
}
  0
DIMENSION
  5
7B90
330
19
100
AcDbEntity
  8
3
  6
Continuous
100
AcDbDimension
280
     0
  2
*D2
 10
1038.908434917929
 20
2133.889276000001
 30
0.0
 11
936.0512919179287
 21
2133.889276000001
 31
0.0
 70
   160
 71
     5
 42
-1.0
 73
     0
 74
     0
 75
     0
  3
IGA
100
AcDbAlignedDimension
 13
806.6632479179288
 23
1721.450353
 33
0.0
 14
1038.908434917929
 24
1971.450353
 34
0.0
100
AcDbRotatedDimension
1001
ACAD
1000
DSTYLE
1002
{
1070
   287
1070
     3
1070
    40
1040
15.0
1070
   143
1040
0.039
1070
   172
1070
     1
1070
   271
1070
     0
1070
   279
1070
     0
1070
   288
1070
     1
1002
}
  0
DIMENSION
  5
7B9C
330
19
100
AcDbEntity
  8
3
  6
Continuous
100
AcDbDimension
280
     0
  2
*D3
 10
1363.908434917929
 20
2133.889276000001
 30
0.0
 11
1201.408434917929
 21
2171.389276000001
 31
0.0
 70
    32
 71
     5
 42
-1.0
 73
     0
 74
     0
 75
     0
  3
IGA
100
AcDbAlignedDimension
 13
1038.908434917929
 23
1971.450353
 33
0.0
 14
1363.908434917929
 24
1951.450353
 34
0.0
100
AcDbRotatedDimension
1001
ACAD
1000
DSTYLE
1002
{
1070
   287
1070
     4
1070
    40
1040
15.0
1070
    75
1070
     1
1070
   143
1040
0.039
1070
   172
1070
     1
1070
   271
1070
     0
1070
   279
1070
     1
1070
   288
1070
     1
1002
}
  0
DIMENSION
  5
7C43
330
19
100
AcDbEntity
  8
3
  6
Continuous
100
AcDbDimension
280
     0
  2
*D4
 10
1683.908434917929
 20
2477.338241
 30
0.0
 11
1240.028852917929
 21
2477.338241
 31
0.0
 70
   160
 71
     5
 42
-1.0
 73
     0
 74
     0
 75
     0
  3
IGA
100
AcDbAlignedDimension
 13
773.9084349179288
 23
2601.450353000001
 33
0.0
 14
1683.908434917929
 24
2601.450353000001
 34
0.0
100
AcDbRotatedDimension
1001
ACAD
1000
DSTYLE
1002
{
1070
   287
1070
     3
1070
    40
1040
15.0
1070
   143
1040
0.039
1070
   172
1070
     1
1070
   271
1070
     0
1070
   279
1070
     0
1070
   288
1070
     1
1002
}
  0
DIMENSION
  5
7C50
330
19
100
AcDbEntity
  8
3
  6
Continuous
100
AcDbDimension
280
     0
  2
*D5
 10
1853.592174917929
 20
2601.450353000001
 30
0.0
 11
1853.592174917929
 21
2893.37209
 31
0.0
 70
   160
 71
     5
 42
-1.0
 73
     0
 74
     0
 75
     0
  3
IGA
100
AcDbAlignedDimension
 13
1683.908434917929
 23
3201.450353
 33
0.0
 14
1683.908434917929
 24
2601.450353000001
 34
0.0
 50
90.0
100
AcDbRotatedDimension
1001
ACAD
1000
DSTYLE
1002
{
1070
   287
1070
     3
1070
    40
1040
15.0
1070
   143
1040
0.039
1070
   172
1070
     1
1070
   271
1070
     0
1070
   279
1070
     0
1070
   288
1070
     1
1002
}
  0
LINE
  5
7C51
330
19
100
AcDbEntity
  8
2
  6
CENTER
100
AcDbLine
 10
774.4962189179286
 20
3021.450353
 30
0.0
 11
1389.885315917929
 21
3021.450353
 31
0.0
  0
LINE
  5
7C52
330
19
100
AcDbEntity
  8
2
  6
CENTER
100
AcDbLine
 10
1038.908434917929
 20
2550.492383
 30
0.0
 11
1038.908434917929
 21
3194.950353
 31
0.0
  0
LINE
  5
7C53
330
19
100
AcDbEntity
  8
2
  6
CENTER
100
AcDbLine
 10
2416.645834993405
 20
2043.960028
 30
0.0
 11
2416.645834993405
 21
1191.450353
 31
0.0
  0
DIMENSION
  5
7C91
330
19
100
AcDbEntity
  8
3
  6
Continuous
100
AcDbDimension
280
     0
  2
*D6
 10
2528.645834993405
 20
2037.585068
 30
0.0
 11
2408.574405993405
 21
2037.585068
 31
0.0
 70
   160
 71
     5
 42
-1.0
 73
     0
 74
     0
 75
     0
  3
IGA
100
AcDbAlignedDimension
 13
2304.645834993404
 23
1971.450353
 33
0.0
 14
2528.645834993405
 24
1971.450353
 34
0.0
100
AcDbRotatedDimension
1001
ACAD
1000
DSTYLE
1002
{
1070
   287
1070
     3
1070
    40
1040
15.0
1070
   143
1040
0.039
1070
   172
1070
     1
1070
   271
1070
     0
1070
   279
1070
     0
1070
   288
1070
     1
1002
}
  0
DIMENSION
  5
7C9F
330
19
100
AcDbEntity
  8
3
  6
Continuous
100
AcDbDimension
280
     0
  2
*D7
 10
2416.645834993405
 20
2128.247755
 30
0.0
 11
2196.201934993405
 21
2128.247755
 31
0.0
 70
   160
  1
(420)
 71
     5
 42
420.0
 73
     0
 74
     0
 75
     0
  3
IGA
100
AcDbAlignedDimension
 13
1996.645834993405
 23
1951.450353
 33
0.0
 14
2416.645834993405
 24
2103.711185
 34
0.0
100
AcDbRotatedDimension
1001
ACAD
1000
DSTYLE
1002
{
1070
   287
1070
     3
1070
    40
1040
15.0
1070
   143
1040
0.039
1070
   172
1070
     1
1070
   271
1070
     0
1070
   279
1070
     0
1070
   288
1070
     1
1002
}
  0
DIMENSION
  5
7CAD
330
19
100
AcDbEntity
  8
3
  6
Continuous
100
AcDbDimension
280
     0
  2
*D8
 10
2537.645834993405
 20
2128.247755
 30
0.0
 11
2473.295045993405
 21
2128.247755
 31
0.0
 70
   160
 71
     5
 42
-1.0
 73
     0
 74
     0
 75
     0
  3
IGA
100
AcDbAlignedDimension
 13
2416.645834993405
 23
2103.711185
 33
0.0
 14
2537.645834993405
 24
1903.950353
 34
0.0
100
AcDbRotatedDimension
1001
ACAD
1000
DSTYLE
1002
{
1070
   287
1070
     4
1070
    40
1040
15.0
1070
    75
1070
     1
1070
   143
1040
0.039
1070
   172
1070
     1
1070
   271
1070
     0
1070
   279
1070
     1
1070
   288
1070
     1
1002
}
  0
LINE
  5
7CC5
330
19
100
AcDbEntity
  8
3
  6
Continuous
100
AcDbLine
 10
2537.645834993405
 20
1878.950353
 30
0.0
 11
2553.781117993405
 21
1878.950353
 31
0.0
  0
LINE
  5
7CC7
330
19
100
AcDbEntity
  8
3
  6
Continuous
100
AcDbLine
 10
2537.645834993405
 20
1563.950353
 30
0.0
 11
2553.781117993405
 21
1563.950353
 31
0.0
  0
DIMENSION
  5
7CD4
330
19
100
AcDbEntity
  8
3
  6
Continuous
100
AcDbDimension
280
     0
  2
*D9
 10
2644.706563993405
 20
1563.950353
 30
0.0
 11
2644.706563993405
 21
1729.457269
 31
0.0
 70
   160
 71
     5
 42
-1.0
 73
     0
 74
     0
 75
     0
  3
IGA
100
AcDbAlignedDimension
 13
2537.645834993405
 23
1878.950353
 33
0.0
 14
2537.645834993405
 24
1563.950353
 34
0.0
 50
90.0
100
AcDbRotatedDimension
1001
ACAD
1000
DSTYLE
1002
{
1070
   287
1070
     3
1070
     3
1000
φ<>
1070
    40
1040
15.0
1070
   143
1040
0.039
1070
   172
1070
     1
1070
   271
1070
     0
1070
   279
1070
     0
1070
   288
1070
     1
1002
}
  0
LINE
  5
7CD6
330
19
100
AcDbEntity
  8
2
  6
CENTER
100
AcDbLine
 10
1505.392863917929
 20
1721.450353
 30
0.0
 11
755.4084349179288
 21
1721.450353
 31
0.0
  0
DIMENSION
  5
7DE8
330
19
100
AcDbEntity
  8
3
100
AcDbDimension
280
     0
  2
*D11
 10
663.7434642278588
 20
1721.450353
 30
0.0
 11
663.7434642278585
 21
1824.307495857143
 31
0.0
 70
   160
 71
     5
 42
-1.0
 73
     0
 74
     0
 75
     0
  3
IGA
100
AcDbAlignedDimension
 13
1017.408434917929
 23
1971.450353
 33
0.0
 14
755.4084349179288
 24
1721.450353
 34
0.0
 50
90.0
100
AcDbRotatedDimension
1001
ACAD
1000
DSTYLE
1002
{
1070
   287
1070
     3
1070
    40
1040
15.0
1070
   143
1040
0.039
1070
   172
1070
     1
1070
   271
1070
     0
1070
   279
1070
     0
1070
   288
1070
     1
1002
}
  0
DIMENSION
  5
7DF4
330
19
100
AcDbEntity
  8
3
100
AcDbDimension
280
     0
  2
*D12
 10
663.7434642278585
 20
1321.450353
 30
0.0
 11
626.2434642278583
 21
1521.450353
 31
0.0
 70
    32
 71
     5
 42
-1.0
 73
     0
 74
     0
 75
     0
  3
IGA
100
AcDbAlignedDimension
 13
755.4084349179288
 23
1721.450353
 33
0.0
 14
803.9084349179288
 24
1321.450353
 34
0.0
 50
90.0
100
AcDbRotatedDimension
1001
ACAD
1000
DSTYLE
1002
{
1070
   287
1070
     4
1070
    40
1040
15.0
1070
    75
1070
     1
1070
   143
1040
0.039
1070
   172
1070
     1
1070
   271
1070
     0
1070
   279
1070
     1
1070
   288
1070
     1
1002
}
  0
DIMENSION
  5
7EA3
330
19
100
AcDbEntity
  8
3
100
AcDbDimension
280
     0
  2
*D13
 10
1038.908434917928
 20
1089.892995160295
 30
0.0
 11
906.4084349179287
 21
1127.392995160295
 31
0.0
 70
    32
 71
     5
 42
264.9999999999998
 73
     0
 74
     0
 75
     0
  3
IGA
100
AcDbAlignedDimension
 13
773.9084349179288
 23
1191.450353
 33
0.0
 14
1038.908434917928
 24
1221.450353
 34
0.0
100
AcDbRotatedDimension
1001
ACAD
1000
DSTYLE
1002
{
1070
   287
1070
     3
1070
    40
1040
15.0
1070
   143
1040
0.039
1070
   172
1070
     1
1070
   271
1070
     0
1070
   279
1070
     0
1002
}
  0
DIMENSION
  5
7EB0
330
19
100
AcDbEntity
  8
3
100
AcDbDimension
280
     0
  2
*D14
 10
1683.908434917929
 20
1089.892995160295
 30
0.0
 11
1361.408434917929
 21
1127.392995160295
 31
0.0
 70
    32
 71
     5
 42
645.0000000000002
 73
     0
 74
     0
 75
     0
  3
IGA
100
AcDbAlignedDimension
 13
1038.908434917928
 23
1221.450353
 33
0.0
 14
1683.908434917929
 24
1191.450353
 34
0.0
100
AcDbRotatedDimension
1001
ACAD
1000
DSTYLE
1002
{
1070
   287
1070
     3
1070
    40
1040
15.0
1070
   143
1040
0.039
1070
   172
1070
     1
1070
   271
1070
     0
1070
   279
1070
     0
1002
}
  0
DIMENSION
  5
7ECA
330
19
100
AcDbEntity
  8
3
100
AcDbDimension
280
     0
  2
*D15
 10
2416.645834993405
 20
1089.892995160295
 30
0.0
 11
2206.645834993405
 21
1127.392995160295
 31
0.0
 70
    32
 71
     5
 42
420.0
 73
     0
 74
     0
 75
     0
  3
IGA
100
AcDbAlignedDimension
 13
1996.645834993405
 23
1191.450353
 33
0.0
 14
2416.645834993405
 24
1191.450353
 34
0.0
100
AcDbRotatedDimension
1001
ACAD
1000
DSTYLE
1002
{
1070
   287
1070
     3
1070
    40
1040
15.0
1070
   143
1040
0.039
1070
   172
1070
     1
1070
   271
1070
     0
1070
   279
1070
     0
1002
}
  0
DIMENSION
  5
7ED9
330
19
100
AcDbEntity
  8
3
100
AcDbDimension
280
     0
  2
*D16
 10
2596.645834993405
 20
1089.892995160295
 30
0.0
 11
2506.645834993405
 21
1127.392995160295
 31
0.0
 70
    32
 71
     5
 42
180.0
 73
     0
 74
     0
 75
     0
  3
IGA
100
AcDbAlignedDimension
 13
2416.645834993405
 23
1191.450353
 33
0.0
 14
2596.645834993405
 24
1191.450353
 34
0.0
100
AcDbRotatedDimension
1001
ACAD
1000
DSTYLE
1002
{
1070
   287
1070
     3
1070
    40
1040
15.0
1070
   143
1040
0.039
1070
   172
1070
     1
1070
   271
1070
     0
1070
   279
1070
     0
1002
}
  0
DIMENSION
  5
7EE8
330
19
100
AcDbEntity
  8
3
100
AcDbDimension
280
     0
  2
*D17
 10
664.2862362934883
 20
1191.450353
 30
0.0
 11
626.7862362934883
 21
1080.021781571429
 31
0.0
 70
    32
 71
     5
 42
60.0
 73
     0
 74
     0
 75
     0
  3
IGA
100
AcDbAlignedDimension
 13
773.9084349179288
 23
1251.450353
 33
0.0
 14
773.9084349179288
 24
1191.450353
 34
0.0
 50
90.0
100
AcDbRotatedDimension
1001
ACAD
1000
DSTYLE
1002
{
1070
   287
1070
     3
1070
    40
1040
15.0
1070
   143
1040
0.039
1070
   172
1070
     1
1070
   271
1070
     0
1070
   279
1070
     0
1070
     6
1000
DOT
1002
}
  0
DIMENSION
  5
7EF7
330
19
100
AcDbEntity
  8
3
100
AcDbDimension
280
     0
  2
*D18
 10
664.2862362934883
 20
1321.450353
 30
0.0
 11
614.3159888882873
 21
1287.71770327066
 31
0.0
 70
   160
 71
     5
 42
69.99999999999977
 73
     0
 74
     0
 75
     0
  3
IGA
100
AcDbAlignedDimension
 13
773.9084349179288
 23
1251.450353
 33
0.0
 14
803.9084349179288
 24
1321.450353
 34
0.0
 50
90.0
100
AcDbRotatedDimension
1001
ACAD
1000
DSTYLE
1002
{
1070
     3
1000
(<>)
1070
    40
1040
15.0
1070
   143
1040
0.039
1070
   172
1070
     1
1070
   271
1070
     0
1070
   343
1005
7D37
1002
}
  0
DIMENSION
  5
7F04
330
19
100
AcDbEntity
  8
3
100
AcDbDimension
280
     0
  2
*D19
 10
521.1651827370697
 20
1191.450353
 30
0.0
 11
471.8794684513553
 21
1581.450353
 31
0.0
 70
    32
 71
     5
 42
780.0
 73
     0
 74
     0
 75
     0
  3
IGA
100
AcDbAlignedDimension
 13
1017.408434917929
 23
1971.450353
 33
0.0
 14
773.9084349179288
 24
1191.450353
 34
0.0
 50
90.0
100
AcDbRotatedDimension
1001
ACAD
1000
DSTYLE
1002
{
1070
   287
1070
     3
1070
     3
1000
(<>)
1070
    40
1040
15.0
1070
   143
1040
0.039
1070
   172
1070
     1
1070
   271
1070
     0
1070
   279
1070
     0
1002
}
  0
ENDSEC
  0
SECTION
  2
OBJECTS
  0
DICTIONARY
  5
C
330
0
100
AcDbDictionary
281
     1
  3
ACAD_CIP_PREVIOUS_PRODUCT_INFO
350
803A
  3
ACAD_COLOR
350
801D
  3
ACAD_DETAILVIEWSTYLE
350
8036
  3
ACAD_GROUP
350
D
  3
ACAD_LAYOUT
350
7F0E
  3
ACAD_MATERIAL
350
7FEB
  3
ACAD_MLEADERSTYLE
350
8032
  3
ACAD_MLINESTYLE
350
E
  3
ACAD_PLOTSETTINGS
350
7F0F
  3
ACAD_PLOTSTYLENAME
350
7F0C
  3
ACAD_SCALELIST
350
8020
  3
ACAD_SECTIONVIEWSTYLE
350
8034
  3
ACAD_TABLESTYLE
350
801E
  3
ACAD_VISUALSTYLE
350
8004
  3
ACDB_RECOMPOSE_DATA
350
80ED
  3
AcDbVariableDictionary
350
7FDE
  0
DICTIONARY
  5
803C
330
2
100
AcDbDictionary
280
     1
281
     1
  3
ACAD_LAYERSTATES
360
803D
  0
DICTIONARY
  5
8095
330
F
100
AcDbDictionary
280
     1
281
     1
  3
ADSK_XREC_LAYER_RECONCILED
360
8096
  0
DICTIONARY
  5
8097
330
31
100
AcDbDictionary
280
     1
281
     1
  3
ADSK_XREC_LAYER_RECONCILED
360
8098
  0
DICTIONARY
  5
8099
330
76D0
100
AcDbDictionary
280
     1
281
     1
  3
ADSK_XREC_LAYER_RECONCILED
360
809A
  0
DICTIONARY
  5
809B
330
76D1
100
AcDbDictionary
280
     1
281
     1
  3
ADSK_XREC_LAYER_RECONCILED
360
809C
  0
DICTIONARY
  5
809D
330
76D2
100
AcDbDictionary
280
     1
281
     1
  3
ADSK_XREC_LAYER_RECONCILED
360
809E
  0
DICTIONARY
  5
7F3B
330
19
100
AcDbDictionary
280
     1
281
     1
  3
ACAD_LAYOUTSELFREF
360
7F3C
  0
DICTIONARY
  5
7F39
330
16
100
AcDbDictionary
280
     1
281
     1
  3
ACAD_LAYOUTSELFREF
360
7F3A
  0
XRECORD
  5
803A
102
{ACAD_REACTORS
330
C
102
}
330
C
100
AcDbXrecord
280
     1
300
ACDLT
300
2015
300
INVLTS_F_S
  0
DICTIONARY
  5
801D
102
{ACAD_REACTORS
330
C
102
}
330
C
100
AcDbDictionary
281
     1
  0
DICTIONARY
  5
8036
102
{ACAD_REACTORS
330
C
102
}
330
C
100
AcDbDictionary
281
     1
  3
Imperial24
350
8037
  0
DICTIONARY
  5
D
102
{ACAD_REACTORS
330
C
102
}
330
0
100
AcDbDictionary
281
     1
  0
DICTIONARY
  5
7F0E
102
{ACAD_REACTORS
330
C
102
}
330
C
100
AcDbDictionary
281
     1
  3
Model
350
7F10
  3
ﾚｲｱｳﾄ1
350
7F11
  0
DICTIONARY
  5
7FEB
102
{ACAD_REACTORS
330
C
102
}
330
C
100
AcDbDictionary
281
     1
  3
ByBlock
350
7FF4
  3
ByLayer
350
7FEC
  3
Global
350
7FFC
  0
DICTIONARY
  5
8032
102
{ACAD_REACTORS
330
C
102
}
330
C
100
AcDbDictionary
281
     1
  3
Standard
350
8033
  0
DICTIONARY
  5
E
102
{ACAD_REACTORS
330
C
102
}
330
0
100
AcDbDictionary
281
     1
  3
STANDARD
350
1C
  0
DICTIONARY
  5
7F0F
102
{ACAD_REACTORS
330
C
102
}
330
C
100
AcDbDictionary
281
     1
  0
ACDBDICTIONARYWDFLT
  5
7F0C
102
{ACAD_REACTORS
330
C
102
}
330
C
100
AcDbDictionary
281
     1
  3
Normal
350
7F0D
100
AcDbDictionaryWithDefault
340
7F0D
1001
ACAD
1000
TREAT_AS_HARD
1070
     0
  0
DICTIONARY
  5
8020
102
{ACAD_REACTORS
330
C
102
}
330
C
100
AcDbDictionary
281
     1
  3
A0
350
8021
  3
A1
350
8022
  3
A2
350
8023
  3
A3
350
8024
  3
A4
350
8025
  3
A5
350
8026
  3
A6
350
8027
  3
A7
350
8028
  3
A8
350
8029
  3
A9
350
802A
  3
B0
350
802B
  3
B1
350
802C
  3
B2
350
802D
  3
B3
350
802E
  3
B4
350
802F
  3
B5
350
8030
  3
B6
350
8031
  0
DICTIONARY
  5
8034
102
{ACAD_REACTORS
330
C
102
}
330
C
100
AcDbDictionary
281
     1
  3
Imperial24
350
8035
  0
DICTIONARY
  5
801E
102
{ACAD_REACTORS
330
C
102
}
330
C
100
AcDbDictionary
281
     1
  3
Standard
350
801F
  0
DICTIONARY
  5
8004
102
{ACAD_REACTORS
330
C
102
}
330
C
100
AcDbDictionary
281
     1
  3
2dWireframe
350
800A
  3
Basic
350
8009
  3
Brighten
350
8010
  3
ColorChange
350
8014
  3
Conceptual
350
800D
  3
Dim
350
800F
  3
EdgeColorOff
350
801C
  3
Facepattern
350
8013
  3
Flat
350
8005
  3
FlatWithEdges
350
8006
  3
Gouraud
350
8007
  3
GouraudWithEdges
350
8008
  3
Hidden
350
800C
  3
JitterOff
350
801A
  3
Linepattern
350
8012
  3
OverhangOff
350
801B
  3
Realistic
350
800E
  3
Shaded
350
8019
  3
Shaded with edges
350
8018
  3
Shades of Gray
350
8015
  3
Sketchy
350
8016
  3
Thicken
350
8011
  3
Wireframe
350
800B
  3
X-Ray
350
8017
  0
XRECORD
  5
80ED
102
{ACAD_REACTORS
330
C
102
}
330
C
100
AcDbXrecord
280
     1
 90
        1
330
801F
330
8035
330
8037
  0
DICTIONARY
  5
7FDE
102
{ACAD_REACTORS
330
C
102
}
330
C
100
AcDbDictionary
281
     1
  3
CANNOSCALE
350
80B0
  3
CMLEADERSTYLE
350
80AC
  3
CTABLESTYLE
350
80AB
  3
CVIEWDETAILSTYLE
350
80AD
  3
CVIEWSECTIONSTYLE
350
80AE
  3
DIMASSOC
350
7FDF
  3
LAYEREVAL
350
80B2
  3
LAYERNOTIFY
350
80B3
  3
LIGHTINGUNITS
350
80B1
  3
MSLTSCALE
350
80AF
  0
DICTIONARY
  5
803D
102
{ACAD_REACTORS
330
803C
102
}
330
803C
100
AcDbDictionary
281
     1
  0
XRECORD
  5
8096
102
{ACAD_REACTORS
330
8095
102
}
330
8095
100
AcDbXrecord
280
     1
290
     1
  0
XRECORD
  5
8098
102
{ACAD_REACTORS
330
8097
102
}
330
8097
100
AcDbXrecord
280
     1
290
     1
  0
XRECORD
  5
809A
102
{ACAD_REACTORS
330
8099
102
}
330
8099
100
AcDbXrecord
280
     1
290
     1
  0
XRECORD
  5
809C
102
{ACAD_REACTORS
330
809B
102
}
330
809B
100
AcDbXrecord
280
     1
290
     1
  0
XRECORD
  5
809E
102
{ACAD_REACTORS
330
809D
102
}
330
809D
100
AcDbXrecord
280
     1
290
     1
  0
XRECORD
  5
7F3C
102
{ACAD_REACTORS
330
7F3B
102
}
330
7F3B
100
AcDbXrecord
280
     1
340
19
  0
XRECORD
  5
7F3A
102
{ACAD_REACTORS
330
7F39
102
}
330
7F39
100
AcDbXrecord
280
     1
340
16
  0
ACDBDETAILVIEWSTYLE
  5
8037
102
{ACAD_XDICTIONARY
360
80A8
102
}
102
{ACAD_REACTORS
330
8036
102
}
330
8036
100
AcDbModelDocViewStyle
 70
     0
  3
Imperial24
290
     0
100
AcDbDetailViewStyle
 70
     0
 71
     0
 90
        3
 71
     1
340
10
 62
   256
 40
0.24
340
0
 62
   256
 40
0.24
300

 40
0.36
280
     3
 71
     2
340
15
 90
       25
 62
   256
 71
     3
340
10
 62
   256
 40
0.24
 90
        1
 40
0.75
 90
        1
300
%<\AcVar ViewType \f "%tc1">% %<\AcVar ViewDetailId>%\PSCALE %<\AcVar ViewScale \f "%sn">%
 71
     4
340
15
 90
       25
 62
   256
340
15
 90
       25
 62
   256
280
     0
  0
LAYOUT
  5
7F10
102
{ACAD_REACTORS
330
7F0E
102
}
330
7F0E
100
AcDbPlotSettings
  1

  2
\\Txbo34x8944cqyd\EPSON LP-6100
  4

  6

 40
0.0
 41
0.0
 42
0.0
 43
0.0
 44
0.0
 45
0.0
 46
0.0
 47
0.0
 48
0.0
 49
0.0
140
0.0
141
0.0
142
1.0
143
1.0
 70
  1712
 72
     0
 73
     0
 74
     0
  7
GOD2000TABLE.ctb
 75
     0
147
1.0
 76
     0
 77
     2
 78
   300
148
0.0
149
0.0
100
AcDbLayout
  1
Model
 70
     1
 71
     0
 10
0.0
 20
0.0
 11
12.0
 21
9.0
 12
0.0
 22
0.0
 32
0.0
 14
0.0
 24
0.0
 34
0.0
 15
0.0
 25
0.0
 35
0.0
146
0.0
 13
0.0
 23
0.0
 33
0.0
 16
1.0
 26
0.0
 36
0.0
 17
0.0
 27
1.0
 37
0.0
 76
     0
330
19
331
7FE9
  0
LAYOUT
  5
7F11
102
{ACAD_REACTORS
330
7F0E
102
}
330
7F0E
100
AcDbPlotSettings
  1

  2
\\Txbo34x8944cqyd\EPSON LP-6100
  4

  6

 40
0.0
 41
0.0
 42
0.0
 43
0.0
 44
0.0
 45
0.0
 46
0.0
 47
0.0
 48
0.0
 49
0.0
140
0.0
141
0.0
142
1.0
143
1.0
 70
   688
 72
     0
 73
     0
 74
     5
  7
GOD2000TABLE.ctb
 75
    16
147
1.0
 76
     0
 77
     2
 78
   300
148
0.0
149
0.0
100
AcDbLayout
  1
ﾚｲｱｳﾄ1
 70
     1
 71
     1
 10
0.0
 20
0.0
 11
12.0
 21
9.0
 12
0.0
 22
0.0
 32
0.0
 14
1.000000000000000E+20
 24
1.000000000000000E+20
 34
1.000000000000000E+20
 15
-1.000000000000000E+20
 25
-1.000000000000000E+20
 35
-1.000000000000000E+20
146
0.0
 13
0.0
 23
0.0
 33
0.0
 16
1.0
 26
0.0
 36
0.0
 17
0.0
 27
1.0
 37
0.0
 76
     0
330
16
  0
MATERIAL
  5
7FF4
102
{ACAD_XDICTIONARY
360
7FF5
102
}
102
{ACAD_REACTORS
330
7FEB
102
}
330
7FEB
100
AcDbMaterial
  1
ByBlock
 72
     0
 43
0.0208333333333333
 43
0.0
 43
0.0
 43
0.0
 43
0.0
 43
0.0208333333333333
 43
0.0
 43
0.0
 43
0.0
 43
0.0
 43
1.0
 43
0.0
 43
0.0
 43
0.0
 43
0.0
 43
1.0
 77
     0
 47
0.0208333333333333
 47
0.0
 47
0.0
 47
0.0
 47
0.0
 47
0.0208333333333333
 47
0.0
 47
0.0
 47
0.0
 47
0.0
 47
1.0
 47
0.0
 47
0.0
 47
0.0
 47
0.0
 47
1.0
171
     0
 49
0.0208333333333333
 49
0.0
 49
0.0
 49
0.0
 49
0.0
 49
0.0208333333333333
 49
0.0
 49
0.0
 49
0.0
 49
0.0
 49
1.0
 49
0.0
 49
0.0
 49
0.0
 49
0.0
 49
1.0
175
     0
142
0.0208333333333333
142
0.0
142
0.0
142
0.0
142
0.0
142
0.0208333333333333
142
0.0
142
0.0
142
0.0
142
0.0
142
1.0
142
0.0
142
0.0
142
0.0
142
0.0
142
1.0
179
     0
144
0.0208333333333333
144
0.0
144
0.0
144
0.0
144
0.0
144
0.0208333333333333
144
0.0
144
0.0
144
0.0
144
0.0
144
1.0
144
0.0
144
0.0
144
0.0
144
0.0
144
1.0
147
0.0208333333333333
147
0.0
147
0.0
147
0.0
147
0.0
147
0.0208333333333333
147
0.0
147
0.0
147
0.0
147
0.0
147
1.0
147
0.0
147
0.0
147
0.0
147
0.0
147
1.0
  0
MATERIAL
  5
7FEC
102
{ACAD_XDICTIONARY
360
7FED
102
}
102
{ACAD_REACTORS
330
7FEB
102
}
330
7FEB
100
AcDbMaterial
  1
ByLayer
 72
     0
 43
0.0208333333333333
 43
0.0
 43
0.0
 43
0.0
 43
0.0
 43
0.0208333333333333
 43
0.0
 43
0.0
 43
0.0
 43
0.0
 43
1.0
 43
0.0
 43
0.0
 43
0.0
 43
0.0
 43
1.0
 77
     0
 47
0.0208333333333333
 47
0.0
 47
0.0
 47
0.0
 47
0.0
 47
0.0208333333333333
 47
0.0
 47
0.0
 47
0.0
 47
0.0
 47
1.0
 47
0.0
 47
0.0
 47
0.0
 47
0.0
 47
1.0
171
     0
 49
0.0208333333333333
 49
0.0
 49
0.0
 49
0.0
 49
0.0
 49
0.0208333333333333
 49
0.0
 49
0.0
 49
0.0
 49
0.0
 49
1.0
 49
0.0
 49
0.0
 49
0.0
 49
0.0
 49
1.0
175
     0
142
0.0208333333333333
142
0.0
142
0.0
142
0.0
142
0.0
142
0.0208333333333333
142
0.0
142
0.0
142
0.0
142
0.0
142
1.0
142
0.0
142
0.0
142
0.0
142
0.0
142
1.0
179
     0
144
0.0208333333333333
144
0.0
144
0.0
144
0.0
144
0.0
144
0.0208333333333333
144
0.0
144
0.0
144
0.0
144
0.0
144
1.0
144
0.0
144
0.0
144
0.0
144
0.0
144
1.0
147
0.0208333333333333
147
0.0
147
0.0
147
0.0
147
0.0
147
0.0208333333333333
147
0.0
147
0.0
147
0.0
147
0.0
147
1.0
147
0.0
147
0.0
147
0.0
147
0.0
147
1.0
  0
MATERIAL
  5
7FFC
102
{ACAD_XDICTIONARY
360
7FFD
102
}
102
{ACAD_REACTORS
330
7FEB
102
}
330
7FEB
100
AcDbMaterial
  1
Global
 72
     0
 43
0.0208333333333333
 43
0.0
 43
0.0
 43
0.0
 43
0.0
 43
0.0208333333333333
 43
0.0
 43
0.0
 43
0.0
 43
0.0
 43
1.0
 43
0.0
 43
0.0
 43
0.0
 43
0.0
 43
1.0
 77
     0
 47
0.0208333333333333
 47
0.0
 47
0.0
 47
0.0
 47
0.0
 47
0.0208333333333333
 47
0.0
 47
0.0
 47
0.0
 47
0.0
 47
1.0
 47
0.0
 47
0.0
 47
0.0
 47
0.0
 47
1.0
171
     0
 49
0.0208333333333333
 49
0.0
 49
0.0
 49
0.0
 49
0.0
 49
0.0208333333333333
 49
0.0
 49
0.0
 49
0.0
 49
0.0
 49
1.0
 49
0.0
 49
0.0
 49
0.0
 49
0.0
 49
1.0
175
     0
142
0.0208333333333333
142
0.0
142
0.0
142
0.0
142
0.0
142
0.0208333333333333
142
0.0
142
0.0
142
0.0
142
0.0
142
1.0
142
0.0
142
0.0
142
0.0
142
0.0
142
1.0
179
     0
144
0.0208333333333333
144
0.0
144
0.0
144
0.0
144
0.0
144
0.0208333333333333
144
0.0
144
0.0
144
0.0
144
0.0
144
1.0
144
0.0
144
0.0
144
0.0
144
0.0
144
1.0
147
0.0208333333333333
147
0.0
147
0.0
147
0.0
147
0.0
147
0.0208333333333333
147
0.0
147
0.0
147
0.0
147
0.0
147
1.0
147
0.0
147
0.0
147
0.0
147
0.0
147
1.0
  0
MLEADERSTYLE
  5
8033
102
{ACAD_REACTORS
330
8032
102
}
330
8032
100
AcDbMLeaderStyle
179
     2
170
     2
171
     1
172
     0
 90
        2
 40
0.0
 41
0.0
173
     1
 91
-1056964608
340
13
 92
       -2
290
     1
 42
0.09
291
     1
 43
0.36
  3
Standard
 44
0.18
300

342
10
174
     1
178
     6
175
     1
176
     0
 93
-1056964608
 45
0.18
292
     0
297
     0
 46
0.18
 94
-1056964608
 47
1.0
 49
1.0
140
1.0
293
     1
141
0.0
294
     1
177
     0
142
1.0
295
     1
296
     0
143
0.125
271
     0
272
     9
273
     9
298
     1
  0
MLINESTYLE
  5
1C
102
{ACAD_REACTORS
330
E
102
}
330
0
100
AcDbMlineStyle
  2
STANDARD
 70
     0
  3

 62
     0
 51
90.0
 52
90.0
 71
     2
 49
0.5
 62
   256
  6
BYLAYER
 49
-0.5
 62
   256
  6
BYLAYER
  0
ACDBPLACEHOLDER
  5
7F0D
102
{ACAD_REACTORS
330
7F0C
102
}
330
7F0C
  0
SCALE
  5
8021
102
{ACAD_REACTORS
330
8020
102
}
330
8020
100
AcDbScale
 70
     0
300
1:1
140
1.0
141
1.0
290
     1
  0
SCALE
  5
8022
102
{ACAD_REACTORS
330
8020
102
}
330
8020
100
AcDbScale
 70
     0
300
1/128" = 1'-0"
140
0.0078125
141
12.0
290
     0
  0
SCALE
  5
8023
102
{ACAD_REACTORS
330
8020
102
}
330
8020
100
AcDbScale
 70
     0
300
1/64" = 1'-0"
140
0.015625
141
12.0
290
     0
  0
SCALE
  5
8024
102
{ACAD_REACTORS
330
8020
102
}
330
8020
100
AcDbScale
 70
     0
300
1/32" = 1'-0"
140
0.03125
141
12.0
290
     0
  0
SCALE
  5
8025
102
{ACAD_REACTORS
330
8020
102
}
330
8020
100
AcDbScale
 70
     0
300
1/16" = 1'-0"
140
0.0625
141
12.0
290
     0
  0
SCALE
  5
8026
102
{ACAD_REACTORS
330
8020
102
}
330
8020
100
AcDbScale
 70
     0
300
3/32" = 1'-0"
140
0.09375
141
12.0
290
     0
  0
SCALE
  5
8027
102
{ACAD_REACTORS
330
8020
102
}
330
8020
100
AcDbScale
 70
     0
300
1/8" = 1'-0"
140
0.125
141
12.0
290
     0
  0
SCALE
  5
8028
102
{ACAD_REACTORS
330
8020
102
}
330
8020
100
AcDbScale
 70
     0
300
3/16" = 1'-0"
140
0.1875
141
12.0
290
     0
  0
SCALE
  5
8029
102
{ACAD_REACTORS
330
8020
102
}
330
8020
100
AcDbScale
 70
     0
300
1/4" = 1'-0"
140
0.25
141
12.0
290
     0
  0
SCALE
  5
802A
102
{ACAD_REACTORS
330
8020
102
}
330
8020
100
AcDbScale
 70
     0
300
3/8" = 1'-0"
140
0.375
141
12.0
290
     0
  0
SCALE
  5
802B
102
{ACAD_REACTORS
330
8020
102
}
330
8020
100
AcDbScale
 70
     0
300
1/2" = 1'-0"
140
0.5
141
12.0
290
     0
  0
SCALE
  5
802C
102
{ACAD_REACTORS
330
8020
102
}
330
8020
100
AcDbScale
 70
     0
300
3/4" = 1'-0"
140
0.75
141
12.0
290
     0
  0
SCALE
  5
802D
102
{ACAD_REACTORS
330
8020
102
}
330
8020
100
AcDbScale
 70
     0
300
1" = 1'-0"
140
1.0
141
12.0
290
     0
  0
SCALE
  5
802E
102
{ACAD_REACTORS
330
8020
102
}
330
8020
100
AcDbScale
 70
     0
300
1-1/2" = 1'-0"
140
1.5
141
12.0
290
     0
  0
SCALE
  5
802F
102
{ACAD_REACTORS
330
8020
102
}
330
8020
100
AcDbScale
 70
     0
300
3" = 1'-0"
140
3.0
141
12.0
290
     0
  0
SCALE
  5
8030
102
{ACAD_REACTORS
330
8020
102
}
330
8020
100
AcDbScale
 70
     0
300
6" = 1'-0"
140
6.0
141
12.0
290
     0
  0
SCALE
  5
8031
102
{ACAD_REACTORS
330
8020
102
}
330
8020
100
AcDbScale
 70
     0
300
1'-0" = 1'-0"
140
12.0
141
12.0
290
     0
  0
ACDBSECTIONVIEWSTYLE
  5
8035
102
{ACAD_XDICTIONARY
360
80A6
102
}
102
{ACAD_REACTORS
330
8034
102
}
330
8034
100
AcDbModelDocViewStyle
 70
     0
  3
Imperial24
290
     0
100
AcDbSectionViewStyle
 70
     0
 71
     0
 90
       78
 71
     1
340
10
 62
   256
 40
0.24
340
0
340
0
 62
   256
 40
0.24
300
I, O, Q, S, X, Z
 40
0.48
 90
        3
 40
0.18
 90
        1
 71
     2
340
15
 90
       25
 62
   256
340
15
 90
       50
 62
   256
 40
0.24
 40
0.0
 40
0.24
 71
     3
340
10
 62
   256
 40
0.24
 90
        1
 40
0.75
 90
        1
300
%<\AcVar ViewType \f "%tc1">% %<\AcVar ViewSectionStartId>%-%<\AcVar ViewSectionEndId>%\PSCALE %<\AcVar ViewScale \f "%sn">%
 71
     4
 62
   256
 62
   257
300
ANSI31
 40
1.0
 90
        0
290
     0
290
     0
 90
        6
 40
0.0
 40
1.570796326794896
 40
0.2617993877991494
 40
1.308996938995747
 40
-0.2617993877991494
 40
1.832595714594046
  0
TABLESTYLE
  5
801F
102
{ACAD_XDICTIONARY
360
80E9
102
}
102
{ACAD_REACTORS
330
801E
102
}
330
801E
100
AcDbTableStyle
280
     0
  3
Standard
 70
     0
 71
     0
 40
0.06
 41
0.06
280
     0
281
     0
  7
STANDARD
140
0.18
170
     2
 62
     0
 63
     7
283
     0
 90
      512
 91
        0
  1

274
    -2
284
     1
 64
     0
275
    -2
285
     1
 65
     0
276
    -2
286
     1
 66
     0
277
    -2
287
     1
 67
     0
278
    -2
288
     1
 68
     0
279
    -2
289
     1
 69
     0
  7
STANDARD
140
0.25
170
     5
 62
     0
 63
     7
283
     0
 90
      512
 91
        0
  1

274
    -2
284
     1
 64
     0
275
    -2
285
     1
 65
     0
276
    -2
286
     1
 66
     0
277
    -2
287
     1
 67
     0
278
    -2
288
     1
 68
     0
279
    -2
289
     1
 69
     0
  7
STANDARD
140
0.18
170
     5
 62
     0
 63
     7
283
     0
 90
      512
 91
        0
  1

274
    -2
284
     1
 64
     0
275
    -2
285
     1
 65
     0
276
    -2
286
     1
 66
     0
277
    -2
287
     1
 67
     0
278
    -2
288
     1
 68
     0
279
    -2
289
     1
 69
     0
  0
VISUALSTYLE
  5
800A
102
{ACAD_REACTORS
330
8004
102
}
330
8004
100
AcDbVisualStyle
  2
2dWireframe
 70
     4
177
     3
291
     0
 70
    58
 90
        0
176
     1
 90
        2
176
     1
 90
        0
176
     1
 90
        0
176
     1
 40
0.6
176
     1
 40
30.0
176
     1
 62
     7
420
 16777215
176
     1
 90
        1
176
     1
 90
        4
176
     1
 62
     7
176
     1
 62
   257
176
     1
 90
        1
176
     1
 90
        1
176
     1
 40
1.0
176
     1
 90
        0
176
     1
 62
   257
176
     1
 40
1.0
176
     1
 90
        1
176
     1
 90
        6
176
     1
 90
        2
176
     1
 62
     7
176
     1
 90
        5
176
     1
 90
        0
176
     1
 90
        0
176
     1
290
     0
176
     1
 90
        1
176
     1
 40
0.0
176
     1
 90
        0
176
     1
290
     1
176
     1
290
     1
176
     1
290
     0
176
     1
290
     0
176
     1
290
     0
176
     1
290
     0
176
     1
290
     0
176
     1
290
     0
176
     1
290
     0
176
     1
 90
       50
176
     1
 40
0.0
176
     1
 40
1.0
176
     1
 90
        0
176
     1
 62
    18
420
        0
176
     1
 90
       50
176
     1
 90
        3
176
     1
 62
     5
420
      255
176
     1
290
     0
176
     1
 90
       50
176
     1
 90
       50
176
     1
 90
       50
176
     1
290
     0
176
     1
 90
       50
176
     1
 62
   256
176
     0
 40
1.0
176
     0
 90
        2
176
     1
  1
strokes_ogs.tif
176
     1
290
     0
176
     1
 40
1.0
176
     1
 40
1.0
176
     1
  0
VISUALSTYLE
  5
8009
102
{ACAD_REACTORS
330
8004
102
}
330
8004
100
AcDbVisualStyle
  2
Basic
 70
     7
177
     3
291
     1
 70
    58
 90
        1
176
     1
 90
        0
176
     1
 90
        1
176
     1
 90
        0
176
     1
 40
0.6
176
     1
 40
30.0
176
     1
 62
     7
420
 16777215
176
     1
 90
        0
176
     1
 90
        4
176
     1
 62
     7
176
     1
 62
   257
176
     1
 90
        1
176
     1
 90
        1
176
     1
 40
1.0
176
     1
 90
        8
176
     1
 62
     7
176
     1
 40
1.0
176
     1
 90
        1
176
     1
 90
        6
176
     1
 90
        2
176
     1
 62
     7
176
     1
 90
        5
176
     1
 90
        0
176
     1
 90
        0
176
     1
290
     0
176
     1
 90
        1
176
     1
 40
0.0
176
     1
 90
        0
176
     1
290
     0
176
     1
290
     1
176
     1
290
     1
176
     1
290
     0
176
     1
290
     0
176
     1
290
     0
176
     1
290
     0
176
     1
290
     0
176
     1
290
     0
176
     1
 90
       50
176
     1
 40
0.0
176
     1
 40
1.0
176
     1
 90
        0
176
     1
 62
    18
420
        0
176
     1
 90
       50
176
     1
 90
        3
176
     1
 62
     5
420
      255
176
     1
290
     0
176
     1
 90
       50
176
     1
 90
       50
176
     1
 90
       50
176
     1
290
     0
176
     1
 90
       50
176
     1
 62
   256
176
     0
 40
1.0
176
     0
 90
        2
176
     1
  1
strokes_ogs.tif
176
     1
290
     0
176
     1
 40
1.0
176
     1
 40
1.0
176
     1
  0
VISUALSTYLE
  5
8010
102
{ACAD_REACTORS
330
8004
102
}
330
8004
100
AcDbVisualStyle
  2
Brighten
 70
    12
177
     3
291
     1
 70
    58
 90
        2
176
     1
 90
        2
176
     1
 90
        0
176
     1
 90
        0
176
     1
 40
0.6
176
     1
 40
30.0
176
     1
 62
     7
420
 16777215
176
     1
 90
        1
176
     1
 90
        4
176
     1
 62
     7
176
     1
 62
   257
176
     1
 90
        1
176
     1
 90
        1
176
     1
 40
1.0
176
     1
 90
        8
176
     1
 62
     7
176
     1
 40
1.0
176
     1
 90
        1
176
     1
 90
        6
176
     1
 90
        2
176
     1
 62
     7
176
     1
 90
        5
176
     1
 90
        0
176
     1
 90
        0
176
     1
290
     0
176
     1
 90
        1
176
     1
 40
50.0
176
     1
 90
        0
176
     1
290
     0
176
     1
290
     1
176
     1
290
     1
176
     1
290
     0
176
     1
290
     0
176
     1
290
     0
176
     1
290
     0
176
     1
290
     0
176
     1
290
     0
176
     1
 90
       50
176
     1
 40
0.0
176
     1
 40
1.0
176
     1
 90
        0
176
     1
 62
    18
420
        0
176
     1
 90
       50
176
     1
 90
        3
176
     1
 62
     5
420
      255
176
     1
290
     0
176
     1
 90
       50
176
     1
 90
       50
176
     1
 90
       50
176
     1
290
     0
176
     1
 90
       50
176
     1
 62
   256
176
     0
 40
1.0
176
     0
 90
        2
176
     1
  1
strokes_ogs.tif
176
     1
290
     0
176
     1
 40
1.0
176
     1
 40
1.0
176
     1
  0
VISUALSTYLE
  5
8014
102
{ACAD_REACTORS
330
8004
102
}
330
8004
100
AcDbVisualStyle
  2
ColorChange
 70
    16
177
     3
291
     1
 70
    58
 90
        2
176
     1
 90
        2
176
     1
 90
        3
176
     1
 90
        0
176
     1
 40
0.6
176
     1
 40
30.0
176
     1
 62
     8
420
  8421504
176
     1
 90
        1
176
     1
 90
        4
176
     1
 62
     7
176
     1
 62
   257
176
     1
 90
        1
176
     1
 90
        1
176
     1
 40
1.0
176
     1
 90
        8
176
     1
 62
     8
420
  8421504
176
     1
 40
1.0
176
     1
 90
        1
176
     1
 90
        6
176
     1
 90
        2
176
     1
 62
     7
176
     1
 90
        5
176
     1
 90
        0
176
     1
 90
        0
176
     1
290
     0
176
     1
 90
        1
176
     1
 40
0.0
176
     1
 90
        0
176
     1
290
     0
176
     1
290
     1
176
     1
290
     1
176
     1
290
     0
176
     1
290
     0
176
     1
290
     0
176
     1
290
     0
176
     1
290
     0
176
     1
290
     0
176
     1
 90
       50
176
     1
 40
0.0
176
     1
 40
1.0
176
     1
 90
        0
176
     1
 62
    18
420
        0
176
     1
 90
       50
176
     1
 90
        3
176
     1
 62
     5
420
      255
176
     1
290
     0
176
     1
 90
       50
176
     1
 90
       50
176
     1
 90
       50
176
     1
290
     0
176
     1
 90
       50
176
     1
 62
   256
176
     0
 40
1.0
176
     0
 90
        2
176
     1
  1
strokes_ogs.tif
176
     1
290
     0
176
     1
 40
1.0
176
     1
 40
1.0
176
     1
  0
VISUALSTYLE
  5
800D
102
{ACAD_REACTORS
330
8004
102
}
330
8004
100
AcDbVisualStyle
  2
Conceptual
 70
     9
177
     3
291
     0
 70
    58
 90
        3
176
     1
 90
        2
176
     1
 90
        0
176
     1
 90
        0
176
     1
 40
0.6
176
     1
 40
30.0
176
     1
 62
     7
420
 16777215
176
     1
 90
        2
176
     1
 90
        2
176
     1
 62
     7
176
     1
 62
   257
176
     1
 90
        1
176
     1
 90
        1
176
     1
 40
179.0
176
     1
 90
        8
176
     1
 62
     7
176
     1
 40
1.0
176
     1
 90
        1
176
     1
 90
        6
176
     1
 90
        2
176
     1
 62
     7
176
     1
 90
        3
176
     1
 90
        0
176
     1
 90
        0
176
     1
290
     0
176
     1
 90
        1
176
     1
 40
0.0
176
     1
 90
        0
176
     1
290
     0
176
     1
290
     1
176
     1
290
     1
176
     1
290
     0
176
     1
290
     0
176
     1
290
     0
176
     1
290
     0
176
     1
290
     0
176
     1
290
     0
176
     1
 90
       50
176
     1
 40
0.0
176
     1
 40
1.0
176
     1
 90
        0
176
     1
 62
    18
420
        0
176
     1
 90
       50
176
     1
 90
        3
176
     1
 62
     5
420
      255
176
     1
290
     0
176
     1
 90
       50
176
     1
 90
       50
176
     1
 90
       50
176
     1
290
     0
176
     1
 90
       50
176
     1
 62
   256
176
     0
 40
1.0
176
     0
 90
        2
176
     1
  1
strokes_ogs.tif
176
     1
290
     0
176
     1
 40
1.0
176
     1
 40
1.0
176
     1
  0
VISUALSTYLE
  5
800F
102
{ACAD_REACTORS
330
8004
102
}
330
8004
100
AcDbVisualStyle
  2
Dim
 70
    11
177
     3
291
     1
 70
    58
 90
        2
176
     1
 90
        2
176
     1
 90
        0
176
     1
 90
        0
176
     1
 40
0.6
176
     1
 40
30.0
176
     1
 62
     7
420
 16777215
176
     1
 90
        1
176
     1
 90
        4
176
     1
 62
     7
176
     1
 62
   257
176
     1
 90
        1
176
     1
 90
        1
176
     1
 40
1.0
176
     1
 90
        8
176
     1
 62
     7
176
     1
 40
1.0
176
     1
 90
        1
176
     1
 90
        6
176
     1
 90
        2
176
     1
 62
     7
176
     1
 90
        5
176
     1
 90
        0
176
     1
 90
        0
176
     1
290
     0
176
     1
 90
        1
176
     1
 40
-50.0
176
     1
 90
        0
176
     1
290
     0
176
     1
290
     1
176
     1
290
     1
176
     1
290
     0
176
     1
290
     0
176
     1
290
     0
176
     1
290
     0
176
     1
290
     0
176
     1
290
     0
176
     1
 90
       50
176
     1
 40
0.0
176
     1
 40
1.0
176
     1
 90
        0
176
     1
 62
    18
420
        0
176
     1
 90
       50
176
     1
 90
        3
176
     1
 62
     5
420
      255
176
     1
290
     0
176
     1
 90
       50
176
     1
 90
       50
176
     1
 90
       50
176
     1
290
     0
176
     1
 90
       50
176
     1
 62
   256
176
     0
 40
1.0
176
     0
 90
        2
176
     1
  1
strokes_ogs.tif
176
     1
290
     0
176
     1
 40
1.0
176
     1
 40
1.0
176
     1
  0
VISUALSTYLE
  5
801C
102
{ACAD_REACTORS
330
8004
102
}
330
8004
100
AcDbVisualStyle
  2
EdgeColorOff
 70
    22
177
     3
291
     1
 70
    58
 90
        2
176
     0
 90
        2
176
     0
 90
        0
176
     0
 90
        0
176
     0
 40
0.6
176
     0
 40
30.0
176
     0
 62
     7
420
 16777215
176
     0
 90
        1
176
     0
 90
        4
176
     0
 62
     7
176
     0
 62
   257
176
     0
 90
        1
176
     0
 90
        1
176
     0
 40
1.0
176
     0
 90
        8
176
     2
 62
     7
176
     0
 40
1.0
176
     0
 90
        1
176
     0
 90
        6
176
     0
 90
        2
176
     0
 62
     7
176
     0
 90
        5
176
     0
 90
        0
176
     0
 90
        0
176
     0
290
     0
176
     0
 90
        1
176
     0
 40
0.0
176
     0
 90
        0
176
     0
290
     0
176
     0
290
     1
176
     0
290
     1
176
     0
290
     0
176
     0
290
     0
176
     0
290
     0
176
     0
290
     0
176
     0
290
     0
176
     0
290
     0
176
     0
 90
       50
176
     0
 40
0.0
176
     0
 40
1.0
176
     0
 90
        0
176
     0
 62
    18
420
        0
176
     0
 90
       50
176
     0
 90
        3
176
     0
 62
     5
420
      255
176
     0
290
     0
176
     0
 90
       50
176
     0
 90
       50
176
     0
 90
       50
176
     0
290
     0
176
     0
 90
       50
176
     0
 62
   256
176
     0
 40
1.0
176
     0
 90
        2
176
     0
  1
strokes_ogs.tif
176
     0
290
     0
176
     0
 40
1.0
176
     0
 40
1.0
176
     0
  0
VISUALSTYLE
  5
8013
102
{ACAD_REACTORS
330
8004
102
}
330
8004
100
AcDbVisualStyle
  2
Facepattern
 70
    15
177
     3
291
     1
 70
    58
 90
        2
176
     1
 90
        2
176
     1
 90
        0
176
     1
 90
        0
176
     1
 40
0.6
176
     1
 40
30.0
176
     1
 62
     7
420
 16777215
176
     1
 90
        1
176
     1
 90
        4
176
     1
 62
     7
176
     1
 62
   257
176
     1
 90
        1
176
     1
 90
        1
176
     1
 40
1.0
176
     1
 90
        8
176
     1
 62
     7
176
     1
 40
1.0
176
     1
 90
        1
176
     1
 90
        6
176
     1
 90
        2
176
     1
 62
     7
176
     1
 90
        5
176
     1
 90
        0
176
     1
 90
        0
176
     1
290
     0
176
     1
 90
        1
176
     1
 40
0.0
176
     1
 90
        0
176
     1
290
     0
176
     1
290
     1
176
     1
290
     1
176
     1
290
     0
176
     1
290
     0
176
     1
290
     0
176
     1
290
     0
176
     1
290
     0
176
     1
290
     0
176
     1
 90
       50
176
     1
 40
0.0
176
     1
 40
1.0
176
     1
 90
        0
176
     1
 62
    18
420
        0
176
     1
 90
       50
176
     1
 90
        3
176
     1
 62
     5
420
      255
176
     1
290
     0
176
     1
 90
       50
176
     1
 90
       50
176
     1
 90
       50
176
     1
290
     0
176
     1
 90
       50
176
     1
 62
   256
176
     0
 40
1.0
176
     0
 90
        2
176
     1
  1
strokes_ogs.tif
176
     1
290
     0
176
     1
 40
1.0
176
     1
 40
1.0
176
     1
  0
VISUALSTYLE
  5
8005
102
{ACAD_REACTORS
330
8004
102
}
330
8004
100
AcDbVisualStyle
  2
Flat
 70
     0
177
     3
291
     1
 70
    58
 90
        2
176
     1
 90
        1
176
     1
 90
        1
176
     1
 90
        2
176
     1
 40
0.6
176
     1
 40
30.0
176
     1
 62
     7
420
 16777215
176
     1
 90
        0
176
     1
 90
        0
176
     1
 62
     7
176
     1
 62
   257
176
     1
 90
        1
176
     1
 90
        1
176
     1
 40
1.0
176
     1
 90
        8
176
     1
 62
     7
176
     1
 40
1.0
176
     1
 90
        1
176
     1
 90
        6
176
     1
 90
        2
176
     1
 62
     7
176
     1
 90
        5
176
     1
 90
        0
176
     1
 90
        0
176
     1
290
     0
176
     1
 90
       13
176
     1
 40
0.0
176
     1
 90
        0
176
     1
290
     0
176
     1
290
     1
176
     1
290
     1
176
     1
290
     0
176
     1
290
     0
176
     1
290
     0
176
     1
290
     0
176
     1
290
     0
176
     1
290
     0
176
     1
 90
       50
176
     1
 40
0.0
176
     1
 40
1.0
176
     1
 90
        0
176
     1
 62
    18
420
        0
176
     1
 90
       50
176
     1
 90
        3
176
     1
 62
     5
420
      255
176
     1
290
     0
176
     1
 90
       50
176
     1
 90
       50
176
     1
 90
       50
176
     1
290
     0
176
     1
 90
       50
176
     1
 62
   256
176
     0
 40
1.0
176
     0
 90
        2
176
     1
  1
strokes_ogs.tif
176
     1
290
     0
176
     1
 40
1.0
176
     1
 40
1.0
176
     1
  0
VISUALSTYLE
  5
8006
102
{ACAD_REACTORS
330
8004
102
}
330
8004
100
AcDbVisualStyle
  2
FlatWithEdges
 70
     1
177
     3
291
     1
 70
    58
 90
        2
176
     1
 90
        1
176
     1
 90
        1
176
     1
 90
        2
176
     1
 40
0.6
176
     1
 40
30.0
176
     1
 62
     7
420
 16777215
176
     1
 90
        1
176
     1
 90
        0
176
     1
 62
     7
176
     1
 62
   257
176
     1
 90
        1
176
     1
 90
        1
176
     1
 40
1.0
176
     1
 90
        0
176
     1
 62
   257
176
     1
 40
1.0
176
     1
 90
        1
176
     1
 90
        6
176
     1
 90
        2
176
     1
 62
     7
176
     1
 90
        5
176
     1
 90
        0
176
     1
 90
        0
176
     1
290
     0
176
     1
 90
       13
176
     1
 40
0.0
176
     1
 90
        0
176
     1
290
     0
176
     1
290
     1
176
     1
290
     1
176
     1
290
     0
176
     1
290
     0
176
     1
290
     0
176
     1
290
     0
176
     1
290
     0
176
     1
290
     0
176
     1
 90
       50
176
     1
 40
0.0
176
     1
 40
1.0
176
     1
 90
        0
176
     1
 62
    18
420
        0
176
     1
 90
       50
176
     1
 90
        3
176
     1
 62
     5
420
      255
176
     1
290
     0
176
     1
 90
       50
176
     1
 90
       50
176
     1
 90
       50
176
     1
290
     0
176
     1
 90
       50
176
     1
 62
   256
176
     0
 40
1.0
176
     0
 90
        2
176
     1
  1
strokes_ogs.tif
176
     1
290
     0
176
     1
 40
1.0
176
     1
 40
1.0
176
     1
  0
VISUALSTYLE
  5
8007
102
{ACAD_REACTORS
330
8004
102
}
330
8004
100
AcDbVisualStyle
  2
Gouraud
 70
     2
177
     3
291
     1
 70
    58
 90
        2
176
     1
 90
        2
176
     1
 90
        1
176
     1
 90
        2
176
     1
 40
0.6
176
     1
 40
30.0
176
     1
 62
     7
420
 16777215
176
     1
 90
        0
176
     1
 90
        0
176
     1
 62
     7
176
     1
 62
   257
176
     1
 90
        1
176
     1
 90
        1
176
     1
 40
1.0
176
     1
 90
        0
176
     1
 62
     7
176
     1
 40
1.0
176
     1
 90
        1
176
     1
 90
        6
176
     1
 90
        2
176
     1
 62
     7
176
     1
 90
        5
176
     1
 90
        0
176
     1
 90
        0
176
     1
290
     0
176
     1
 90
       13
176
     1
 40
0.0
176
     1
 90
        0
176
     1
290
     0
176
     1
290
     1
176
     1
290
     1
176
     1
290
     0
176
     1
290
     0
176
     1
290
     0
176
     1
290
     0
176
     1
290
     0
176
     1
290
     0
176
     1
 90
       50
176
     1
 40
0.0
176
     1
 40
1.0
176
     1
 90
        0
176
     1
 62
    18
420
        0
176
     1
 90
       50
176
     1
 90
        3
176
     1
 62
     5
420
      255
176
     1
290
     0
176
     1
 90
       50
176
     1
 90
       50
176
     1
 90
       50
176
     1
290
     0
176
     1
 90
       50
176
     1
 62
   256
176
     0
 40
1.0
176
     0
 90
        2
176
     1
  1
strokes_ogs.tif
176
     1
290
     0
176
     1
 40
1.0
176
     1
 40
1.0
176
     1
  0
VISUALSTYLE
  5
8008
102
{ACAD_REACTORS
330
8004
102
}
330
8004
100
AcDbVisualStyle
  2
GouraudWithEdges
 70
     3
177
     3
291
     1
 70
    58
 90
        2
176
     1
 90
        2
176
     1
 90
        1
176
     1
 90
        2
176
     1
 40
0.6
176
     1
 40
30.0
176
     1
 62
     7
420
 16777215
176
     1
 90
        1
176
     1
 90
        0
176
     1
 62
     7
176
     1
 62
   257
176
     1
 90
        1
176
     1
 90
        1
176
     1
 40
1.0
176
     1
 90
        0
176
     1
 62
   257
176
     1
 40
1.0
176
     1
 90
        1
176
     1
 90
        6
176
     1
 90
        2
176
     1
 62
     7
176
     1
 90
        5
176
     1
 90
        0
176
     1
 90
        0
176
     1
290
     0
176
     1
 90
       13
176
     1
 40
0.0
176
     1
 90
        0
176
     1
290
     0
176
     1
290
     1
176
     1
290
     1
176
     1
290
     0
176
     1
290
     0
176
     1
290
     0
176
     1
290
     0
176
     1
290
     0
176
     1
290
     0
176
     1
 90
       50
176
     1
 40
0.0
176
     1
 40
1.0
176
     1
 90
        0
176
     1
 62
    18
420
        0
176
     1
 90
       50
176
     1
 90
        3
176
     1
 62
     5
420
      255
176
     1
290
     0
176
     1
 90
       50
176
     1
 90
       50
176
     1
 90
       50
176
     1
290
     0
176
     1
 90
       50
176
     1
 62
   256
176
     0
 40
1.0
176
     0
 90
        2
176
     1
  1
strokes_ogs.tif
176
     1
290
     0
176
     1
 40
1.0
176
     1
 40
1.0
176
     1
  0
VISUALSTYLE
  5
800C
102
{ACAD_REACTORS
330
8004
102
}
330
8004
100
AcDbVisualStyle
  2
Hidden
 70
     6
177
     3
291
     0
 70
    58
 90
        1
176
     1
 90
        2
176
     1
 90
        2
176
     1
 90
        0
176
     1
 40
0.6
176
     1
 40
30.0
176
     1
 62
     7
420
 16777215
176
     1
 90
        2
176
     1
 90
        2
176
     1
 62
     7
176
     1
 62
   257
176
     1
 90
        2
176
     1
 90
        1
176
     1
 40
40.0
176
     1
 90
        0
176
     1
 62
   257
176
     1
 40
1.0
176
     1
 90
        1
176
     1
 90
        6
176
     1
 90
        2
176
     1
 62
     7
176
     1
 90
        3
176
     1
 90
        0
176
     1
 90
        0
176
     1
290
     0
176
     1
 90
        1
176
     1
 40
0.0
176
     1
 90
        0
176
     1
290
     0
176
     1
290
     1
176
     1
290
     1
176
     1
290
     0
176
     1
290
     0
176
     1
290
     0
176
     1
290
     0
176
     1
290
     0
176
     1
290
     0
176
     1
 90
       50
176
     1
 40
0.0
176
     1
 40
1.0
176
     1
 90
        0
176
     1
 62
    18
420
        0
176
     1
 90
       50
176
     1
 90
        3
176
     1
 62
     5
420
      255
176
     1
290
     0
176
     1
 90
       50
176
     1
 90
       50
176
     1
 90
       50
176
     1
290
     0
176
     1
 90
       50
176
     1
 62
   256
176
     0
 40
1.0
176
     0
 90
        2
176
     1
  1
strokes_ogs.tif
176
     1
290
     0
176
     1
 40
1.0
176
     1
 40
1.0
176
     1
  0
VISUALSTYLE
  5
801A
102
{ACAD_REACTORS
330
8004
102
}
330
8004
100
AcDbVisualStyle
  2
JitterOff
 70
    20
177
     3
291
     1
 70
    58
 90
        2
176
     0
 90
        2
176
     0
 90
        0
176
     0
 90
        0
176
     0
 40
0.6
176
     0
 40
30.0
176
     0
 62
     7
420
 16777215
176
     0
 90
        1
176
     0
 90
        4
176
     0
 62
     7
176
     0
 62
   257
176
     0
 90
        1
176
     0
 90
        1
176
     0
 40
1.0
176
     0
 90
       10
176
     2
 62
     7
176
     0
 40
1.0
176
     0
 90
        1
176
     0
 90
        6
176
     0
 90
        2
176
     0
 62
     7
176
     0
 90
        5
176
     0
 90
        0
176
     0
 90
        0
176
     0
290
     0
176
     0
 90
        1
176
     0
 40
0.0
176
     0
 90
        0
176
     0
290
     0
176
     0
290
     1
176
     0
290
     1
176
     0
290
     0
176
     0
290
     0
176
     0
290
     0
176
     0
290
     0
176
     0
290
     0
176
     0
290
     0
176
     0
 90
       50
176
     0
 40
0.0
176
     0
 40
1.0
176
     0
 90
        0
176
     0
 62
    18
420
        0
176
     0
 90
       50
176
     0
 90
        3
176
     0
 62
     5
420
      255
176
     0
290
     0
176
     0
 90
       50
176
     0
 90
       50
176
     0
 90
       50
176
     0
290
     0
176
     0
 90
       50
176
     0
 62
   256
176
     0
 40
1.0
176
     0
 90
        2
176
     0
  1
strokes_ogs.tif
176
     0
290
     0
176
     0
 40
1.0
176
     0
 40
1.0
176
     0
  0
VISUALSTYLE
  5
8012
102
{ACAD_REACTORS
330
8004
102
}
330
8004
100
AcDbVisualStyle
  2
Linepattern
 70
    14
177
     3
291
     1
 70
    58
 90
        2
176
     1
 90
        2
176
     1
 90
        0
176
     1
 90
        0
176
     1
 40
0.6
176
     1
 40
30.0
176
     1
 62
     7
420
 16777215
176
     1
 90
        1
176
     1
 90
        4
176
     1
 62
     7
176
     1
 62
   257
176
     1
 90
        7
176
     1
 90
        7
176
     1
 40
1.0
176
     1
 90
        8
176
     1
 62
     7
176
     1
 40
1.0
176
     1
 90
        1
176
     1
 90
        6
176
     1
 90
        2
176
     1
 62
     7
176
     1
 90
        5
176
     1
 90
        0
176
     1
 90
        0
176
     1
290
     0
176
     1
 90
        1
176
     1
 40
0.0
176
     1
 90
        0
176
     1
290
     0
176
     1
290
     1
176
     1
290
     1
176
     1
290
     0
176
     1
290
     0
176
     1
290
     0
176
     1
290
     0
176
     1
290
     0
176
     1
290
     0
176
     1
 90
       50
176
     1
 40
0.0
176
     1
 40
1.0
176
     1
 90
        0
176
     1
 62
    18
420
        0
176
     1
 90
       50
176
     1
 90
        3
176
     1
 62
     5
420
      255
176
     1
290
     0
176
     1
 90
       50
176
     1
 90
       50
176
     1
 90
       50
176
     1
290
     0
176
     1
 90
       50
176
     1
 62
   256
176
     0
 40
1.0
176
     0
 90
        2
176
     1
  1
strokes_ogs.tif
176
     1
290
     0
176
     1
 40
1.0
176
     1
 40
1.0
176
     1
  0
VISUALSTYLE
  5
801B
102
{ACAD_REACTORS
330
8004
102
}
330
8004
100
AcDbVisualStyle
  2
OverhangOff
 70
    21
177
     3
291
     1
 70
    58
 90
        2
176
     0
 90
        2
176
     0
 90
        0
176
     0
 90
        0
176
     0
 40
0.6
176
     0
 40
30.0
176
     0
 62
     7
420
 16777215
176
     0
 90
        1
176
     0
 90
        4
176
     0
 62
     7
176
     0
 62
   257
176
     0
 90
        1
176
     0
 90
        1
176
     0
 40
1.0
176
     0
 90
        9
176
     2
 62
     7
176
     0
 40
1.0
176
     0
 90
        1
176
     0
 90
        6
176
     0
 90
        2
176
     0
 62
     7
176
     0
 90
        5
176
     0
 90
        0
176
     0
 90
        0
176
     0
290
     0
176
     0
 90
        1
176
     0
 40
0.0
176
     0
 90
        0
176
     0
290
     0
176
     0
290
     1
176
     0
290
     1
176
     0
290
     0
176
     0
290
     0
176
     0
290
     0
176
     0
290
     0
176
     0
290
     0
176
     0
290
     0
176
     0
 90
       50
176
     0
 40
0.0
176
     0
 40
1.0
176
     0
 90
        0
176
     0
 62
    18
420
        0
176
     0
 90
       50
176
     0
 90
        3
176
     0
 62
     5
420
      255
176
     0
290
     0
176
     0
 90
       50
176
     0
 90
       50
176
     0
 90
       50
176
     0
290
     0
176
     0
 90
       50
176
     0
 62
   256
176
     0
 40
1.0
176
     0
 90
        2
176
     0
  1
strokes_ogs.tif
176
     0
290
     0
176
     0
 40
1.0
176
     0
 40
1.0
176
     0
  0
VISUALSTYLE
  5
800E
102
{ACAD_REACTORS
330
8004
102
}
330
8004
100
AcDbVisualStyle
  2
Realistic
 70
     8
177
     3
291
     0
 70
    58
 90
        2
176
     1
 90
        3
176
     1
 90
        0
176
     1
 90
        2
176
     1
 40
0.6
176
     1
 40
30.0
176
     1
 62
     7
420
 16777215
176
     1
 90
        0
176
     1
 90
        0
176
     1
 62
     7
176
     1
 62
   257
176
     1
 90
        1
176
     1
 90
        1
176
     1
 40
1.0
176
     1
 90
        8
176
     1
 62
   257
176
     1
 40
1.0
176
     1
 90
        1
176
     1
 90
        6
176
     1
 90
        2
176
     1
 62
     7
176
     1
 90
        3
176
     1
 90
        0
176
     1
 90
        0
176
     1
290
     0
176
     1
 90
       13
176
     1
 40
0.0
176
     1
 90
        0
176
     1
290
     0
176
     1
290
     1
176
     1
290
     1
176
     1
290
     0
176
     1
290
     0
176
     1
290
     0
176
     1
290
     0
176
     1
290
     0
176
     1
290
     0
176
     1
 90
       50
176
     1
 40
0.0
176
     1
 40
1.0
176
     1
 90
        0
176
     1
 62
    18
420
        0
176
     1
 90
       50
176
     1
 90
        3
176
     1
 62
     5
420
      255
176
     1
290
     0
176
     1
 90
       50
176
     1
 90
       50
176
     1
 90
       50
176
     1
290
     0
176
     1
 90
       50
176
     1
 62
   256
176
     0
 40
1.0
176
     0
 90
        2
176
     1
  1
strokes_ogs.tif
176
     1
290
     0
176
     1
 40
1.0
176
     1
 40
1.0
176
     1
  0
VISUALSTYLE
  5
8019
102
{ACAD_REACTORS
330
8004
102
}
330
8004
100
AcDbVisualStyle
  2
Shaded
 70
    27
177
     3
291
     0
 70
    58
 90
        2
176
     1
 90
        2
176
     1
 90
        1
176
     1
 90
        2
176
     1
 40
0.6
176
     1
 40
30.0
176
     1
 62
     7
420
 16777215
176
     1
 90
        0
176
     1
 90
        4
176
     1
 62
     7
176
     1
 62
   257
176
     1
 90
        1
176
     1
 90
        1
176
     1
 40
1.0
176
     1
 90
        8
176
     1
 62
   257
176
     1
 40
1.0
176
     1
 90
        1
176
     1
 90
        6
176
     1
 90
        2
176
     1
 62
     8
420
  7895160
176
     1
 90
        3
176
     1
 90
        0
176
     1
 90
        0
176
     1
290
     0
176
     1
 90
        5
176
     1
 40
0.0
176
     1
 90
        0
176
     1
290
     0
176
     1
290
     1
176
     1
290
     1
176
     1
290
     0
176
     1
290
     0
176
     1
290
     0
176
     1
290
     0
176
     1
290
     0
176
     1
290
     0
176
     1
 90
       50
176
     1
 40
0.0
176
     1
 40
1.0
176
     1
 90
        0
176
     1
 62
    18
420
        0
176
     1
 90
       50
176
     1
 90
        3
176
     1
 62
     5
420
      255
176
     1
290
     0
176
     1
 90
       50
176
     1
 90
       50
176
     1
 90
       50
176
     1
290
     0
176
     1
 90
       50
176
     1
 62
   256
176
     0
 40
1.0
176
     0
 90
        2
176
     1
  1
strokes_ogs.tif
176
     1
290
     0
176
     1
 40
1.0
176
     1
 40
1.0
176
     1
  0
VISUALSTYLE
  5
8018
102
{ACAD_REACTORS
330
8004
102
}
330
8004
100
AcDbVisualStyle
  2
Shaded with edges
 70
    26
177
     3
291
     0
 70
    58
 90
        2
176
     1
 90
        2
176
     1
 90
        1
176
     1
 90
        2
176
     1
 40
0.6
176
     1
 40
30.0
176
     1
 62
     7
420
 16777215
176
     1
 90
        1
176
     1
 90
       10
176
     1
 62
     7
176
     1
 62
   257
176
     1
 90
        2
176
     1
 90
        1
176
     1
 40
1.0
176
     1
 90
        8
176
     1
 62
   257
176
     1
 40
1.0
176
     1
 90
        1
176
     1
 90
        6
176
     1
 90
        2
176
     1
 62
     7
176
     1
 90
        3
176
     1
 90
        0
176
     1
 90
        0
176
     1
290
     0
176
     1
 90
        5
176
     1
 40
0.0
176
     1
 90
        0
176
     1
290
     0
176
     1
290
     1
176
     1
290
     1
176
     1
290
     0
176
     1
290
     0
176
     1
290
     0
176
     1
290
     0
176
     1
290
     0
176
     1
290
     0
176
     1
 90
       50
176
     1
 40
0.0
176
     1
 40
1.0
176
     1
 90
        0
176
     1
 62
    18
420
        0
176
     1
 90
       50
176
     1
 90
        3
176
     1
 62
     5
420
      255
176
     1
290
     0
176
     1
 90
       50
176
     1
 90
       50
176
     1
 90
       50
176
     1
290
     0
176
     1
 90
       50
176
     1
 62
   256
176
     0
 40
1.0
176
     0
 90
        2
176
     1
  1
strokes_ogs.tif
176
     1
290
     0
176
     1
 40
1.0
176
     1
 40
1.0
176
     1
  0
VISUALSTYLE
  5
8015
102
{ACAD_REACTORS
330
8004
102
}
330
8004
100
AcDbVisualStyle
  2
Shades of Gray
 70
    23
177
     3
291
     0
 70
    58
 90
        2
176
     1
 90
        2
176
     1
 90
        3
176
     1
 90
        0
176
     1
 40
0.6
176
     1
 40
30.0
176
     1
 62
     7
420
 16777215
176
     1
 90
        2
176
     1
 90
        2
176
     1
 62
     7
176
     1
 62
     7
176
     1
 90
        1
176
     1
 90
        1
176
     1
 40
40.0
176
     1
 90
        8
176
     1
 62
     7
176
     1
 40
1.0
176
     1
 90
        1
176
     1
 90
        6
176
     1
 90
        2
176
     1
 62
     7
176
     1
 90
        3
176
     1
 90
        0
176
     1
 90
        0
176
     1
290
     0
176
     1
 90
        1
176
     1
 40
0.0
176
     1
 90
        0
176
     1
290
     0
176
     1
290
     1
176
     1
290
     1
176
     1
290
     0
176
     1
290
     0
176
     1
290
     0
176
     1
290
     0
176
     1
290
     0
176
     1
290
     0
176
     1
 90
       50
176
     1
 40
0.0
176
     1
 40
1.0
176
     1
 90
        0
176
     1
 62
    18
420
        0
176
     1
 90
       50
176
     1
 90
        3
176
     1
 62
     5
420
      255
176
     1
290
     0
176
     1
 90
       50
176
     1
 90
       50
176
     1
 90
       50
176
     1
290
     0
176
     1
 90
       50
176
     1
 62
   256
176
     0
 40
1.0
176
     0
 90
        2
176
     1
  1
strokes_ogs.tif
176
     1
290
     0
176
     1
 40
1.0
176
     1
 40
1.0
176
     1
  0
VISUALSTYLE
  5
8016
102
{ACAD_REACTORS
330
8004
102
}
330
8004
100
AcDbVisualStyle
  2
Sketchy
 70
    24
177
     3
291
     0
 70
    58
 90
        1
176
     1
 90
        2
176
     1
 90
        2
176
     1
 90
        0
176
     1
 40
0.6
176
     1
 40
30.0
176
     1
 62
     7
420
 16777215
176
     1
 90
        2
176
     1
 90
        2
176
     1
 62
     7
176
     1
 62
     7
176
     1
 90
        1
176
     1
 90
        1
176
     1
 40
40.0
176
     1
 90
       11
176
     1
 62
     7
176
     1
 40
1.0
176
     1
 90
        1
176
     1
 90
        6
176
     1
 90
        2
176
     1
 62
     7
176
     1
 90
        6
176
     1
 90
        0
176
     1
 90
        0
176
     1
290
     0
176
     1
 90
        1
176
     1
 40
0.0
176
     1
 90
        0
176
     1
290
     0
176
     1
290
     1
176
     1
290
     1
176
     1
290
     0
176
     1
290
     0
176
     1
290
     0
176
     1
290
     0
176
     1
290
     0
176
     1
290
     0
176
     1
 90
       50
176
     1
 40
0.0
176
     1
 40
1.0
176
     1
 90
        0
176
     1
 62
    18
420
        0
176
     1
 90
       50
176
     1
 90
        3
176
     1
 62
     5
420
      255
176
     1
290
     0
176
     1
 90
       50
176
     1
 90
       50
176
     1
 90
       50
176
     1
290
     0
176
     1
 90
       50
176
     1
 62
   256
176
     0
 40
1.0
176
     0
 90
        2
176
     1
  1
strokes_ogs.tif
176
     1
290
     0
176
     1
 40
1.0
176
     1
 40
1.0
176
     1
  0
VISUALSTYLE
  5
8011
102
{ACAD_REACTORS
330
8004
102
}
330
8004
100
AcDbVisualStyle
  2
Thicken
 70
    13
177
     3
291
     1
 70
    58
 90
        2
176
     1
 90
        2
176
     1
 90
        0
176
     1
 90
        0
176
     1
 40
0.6
176
     1
 40
30.0
176
     1
 62
     7
420
 16777215
176
     1
 90
        1
176
     1
 90
        4
176
     1
 62
     7
176
     1
 62
   257
176
     1
 90
        1
176
     1
 90
        1
176
     1
 40
1.0
176
     1
 90
       12
176
     1
 62
     7
176
     1
 40
1.0
176
     1
 90
        1
176
     1
 90
        6
176
     1
 90
        2
176
     1
 62
     7
176
     1
 90
        5
176
     1
 90
        0
176
     1
 90
        0
176
     1
290
     0
176
     1
 90
        1
176
     1
 40
0.0
176
     1
 90
        0
176
     1
290
     0
176
     1
290
     1
176
     1
290
     1
176
     1
290
     0
176
     1
290
     0
176
     1
290
     0
176
     1
290
     0
176
     1
290
     0
176
     1
290
     0
176
     1
 90
       50
176
     1
 40
0.0
176
     1
 40
1.0
176
     1
 90
        0
176
     1
 62
    18
420
        0
176
     1
 90
       50
176
     1
 90
        3
176
     1
 62
     5
420
      255
176
     1
290
     0
176
     1
 90
       50
176
     1
 90
       50
176
     1
 90
       50
176
     1
290
     0
176
     1
 90
       50
176
     1
 62
   256
176
     0
 40
1.0
176
     0
 90
        2
176
     1
  1
strokes_ogs.tif
176
     1
290
     0
176
     1
 40
1.0
176
     1
 40
1.0
176
     1
  0
VISUALSTYLE
  5
800B
102
{ACAD_REACTORS
330
8004
102
}
330
8004
100
AcDbVisualStyle
  2
Wireframe
 70
     5
177
     3
291
     0
 70
    58
 90
        0
176
     1
 90
        2
176
     1
 90
        0
176
     1
 90
        0
176
     1
 40
0.6
176
     1
 40
30.0
176
     1
 62
     7
420
 16777215
176
     1
 90
        1
176
     1
 90
        4
176
     1
 62
     7
176
     1
 62
   257
176
     1
 90
        1
176
     1
 90
        1
176
     1
 40
1.0
176
     1
 90
        0
176
     1
 62
   257
176
     1
 40
1.0
176
     1
 90
        1
176
     1
 90
        6
176
     1
 90
        2
176
     1
 62
     7
176
     1
 90
        3
176
     1
 90
        0
176
     1
 90
        0
176
     1
290
     0
176
     1
 90
        1
176
     1
 40
0.0
176
     1
 90
        0
176
     1
290
     0
176
     1
290
     1
176
     1
290
     1
176
     1
290
     0
176
     1
290
     0
176
     1
290
     0
176
     1
290
     0
176
     1
290
     0
176
     1
290
     0
176
     1
 90
       50
176
     1
 40
0.0
176
     1
 40
1.0
176
     1
 90
        0
176
     1
 62
    18
420
        0
176
     1
 90
       50
176
     1
 90
        3
176
     1
 62
     5
420
      255
176
     1
290
     0
176
     1
 90
       50
176
     1
 90
       50
176
     1
 90
       50
176
     1
290
     0
176
     1
 90
       50
176
     1
 62
   256
176
     0
 40
1.0
176
     0
 90
        2
176
     1
  1
strokes_ogs.tif
176
     1
290
     0
176
     1
 40
1.0
176
     1
 40
1.0
176
     1
  0
VISUALSTYLE
  5
8017
102
{ACAD_REACTORS
330
8004
102
}
330
8004
100
AcDbVisualStyle
  2
X-Ray
 70
    25
177
     3
291
     0
 70
    58
 90
        2
176
     1
 90
        2
176
     1
 90
        1
176
     1
 90
        1
176
     1
 40
0.5
176
     1
 40
30.0
176
     1
 62
     7
420
 16777215
176
     1
 90
        1
176
     1
 90
        0
176
     1
 62
     7
176
     1
 62
   257
176
     1
 90
        1
176
     1
 90
        1
176
     1
 40
1.0
176
     1
 90
        8
176
     1
 62
     7
176
     1
 40
1.0
176
     1
 90
        1
176
     1
 90
        6
176
     1
 90
        2
176
     1
 62
     7
176
     1
 90
        3
176
     1
 90
        0
176
     1
 90
        0
176
     1
290
     0
176
     1
 90
       13
176
     1
 40
0.0
176
     1
 90
        0
176
     1
290
     0
176
     1
290
     1
176
     1
290
     1
176
     1
290
     0
176
     1
290
     0
176
     1
290
     0
176
     1
290
     0
176
     1
290
     0
176
     1
290
     0
176
     1
 90
       50
176
     1
 40
0.0
176
     1
 40
1.0
176
     1
 90
        0
176
     1
 62
    18
420
        0
176
     1
 90
       50
176
     1
 90
        3
176
     1
 62
     5
420
      255
176
     1
290
     0
176
     1
 90
       50
176
     1
 90
       50
176
     1
 90
       50
176
     1
290
     0
176
     1
 90
       50
176
     1
 62
   256
176
     0
 40
1.0
176
     0
 90
        2
176
     1
  1
strokes_ogs.tif
176
     1
290
     0
176
     1
 40
1.0
176
     1
 40
1.0
176
     1
  0
DICTIONARYVAR
  5
80B0
102
{ACAD_REACTORS
330
7FDE
102
}
330
7FDE
100
DictionaryVariables
280
     0
  1
1:1
  0
DICTIONARYVAR
  5
80AC
102
{ACAD_REACTORS
330
7FDE
102
}
330
7FDE
100
DictionaryVariables
280
     0
  1
STANDARD
  0
DICTIONARYVAR
  5
80AB
102
{ACAD_REACTORS
330
7FDE
102
}
330
7FDE
100
DictionaryVariables
280
     0
  1
STANDARD
  0
DICTIONARYVAR
  5
80AD
102
{ACAD_REACTORS
330
7FDE
102
}
330
7FDE
100
DictionaryVariables
280
     0
  1
Imperial24
  0
DICTIONARYVAR
  5
80AE
102
{ACAD_REACTORS
330
7FDE
102
}
330
7FDE
100
DictionaryVariables
280
     0
  1
Imperial24
  0
DICTIONARYVAR
  5
7FDF
102
{ACAD_REACTORS
330
7FDE
102
}
330
7FDE
100
DictionaryVariables
280
     0
  1
1
  0
DICTIONARYVAR
  5
80B2
102
{ACAD_REACTORS
330
7FDE
102
}
330
7FDE
100
DictionaryVariables
280
     0
  1
1
  0
DICTIONARYVAR
  5
80B3
102
{ACAD_REACTORS
330
7FDE
102
}
330
7FDE
100
DictionaryVariables
280
     0
  1
15
  0
DICTIONARYVAR
  5
80B1
102
{ACAD_REACTORS
330
7FDE
102
}
330
7FDE
100
DictionaryVariables
280
     0
  1
0
  0
DICTIONARYVAR
  5
80AF
102
{ACAD_REACTORS
330
7FDE
102
}
330
7FDE
100
DictionaryVariables
280
     0
  1
0
  0
DICTIONARY
  5
80A8
330
8037
100
AcDbDictionary
280
     1
281
     1
  3
ACAD_XREC_ROUNDTRIP
360
80EC
  0
DICTIONARY
  5
7FF5
330
7FF4
100
AcDbDictionary
280
     1
281
     1
  3
BUMPTILE
360
7FF7
  3
DIFFUSETILE
360
7FF6
  3
OPACITYTILE
360
7FFA
  3
REFLECTIONTILE
360
7FF9
  3
REFRACTIONTILE
360
7FFB
  3
SPECULARTILE
360
7FF8
  0
DICTIONARY
  5
7FED
330
7FEC
100
AcDbDictionary
280
     1
281
     1
  3
BUMPTILE
360
7FEF
  3
DIFFUSETILE
360
7FEE
  3
OPACITYTILE
360
7FF2
  3
REFLECTIONTILE
360
7FF1
  3
REFRACTIONTILE
360
7FF3
  3
SPECULARTILE
360
7FF0
  0
DICTIONARY
  5
7FFD
330
7FFC
100
AcDbDictionary
280
     1
281
     1
  3
BUMPTILE
360
7FFF
  3
DIFFUSETILE
360
7FFE
  3
OPACITYTILE
360
8002
  3
REFLECTIONTILE
360
8001
  3
REFRACTIONTILE
360
8003
  3
SPECULARTILE
360
8000
  0
DICTIONARY
  5
80A6
330
8035
100
AcDbDictionary
280
     1
281
     1
  3
ACAD_XREC_ROUNDTRIP
360
80EB
  0
DICTIONARY
  5
80E9
330
801F
100
AcDbDictionary
280
     1
281
     1
  3
ACAD_ROUNDTRIP_2008_TABLESTYLE_CELLSTYLEMAP
360
80EA
  0
XRECORD
  5
80EC
102
{ACAD_REACTORS
330
80A8
102
}
330
80A8
100
AcDbXrecord
280
     1
102
DISPLAYNAME
  1
Imperial24
102
FLAGS
 90
        0
  0
XRECORD
  5
7FF7
102
{ACAD_REACTORS
330
7FF5
102
}
330
7FF5
100
AcDbXrecord
280
     1
270
     1
271
     1
  0
XRECORD
  5
7FF6
102
{ACAD_REACTORS
330
7FF5
102
}
330
7FF5
100
AcDbXrecord
280
     1
270
     1
271
     1
  0
XRECORD
  5
7FFA
102
{ACAD_REACTORS
330
7FF5
102
}
330
7FF5
100
AcDbXrecord
280
     1
270
     1
271
     1
  0
XRECORD
  5
7FF9
102
{ACAD_REACTORS
330
7FF5
102
}
330
7FF5
100
AcDbXrecord
280
     1
270
     1
271
     1
  0
XRECORD
  5
7FFB
102
{ACAD_REACTORS
330
7FF5
102
}
330
7FF5
100
AcDbXrecord
280
     1
270
     1
271
     1
  0
XRECORD
  5
7FF8
102
{ACAD_REACTORS
330
7FF5
102
}
330
7FF5
100
AcDbXrecord
280
     1
270
     1
271
     1
  0
XRECORD
  5
7FEF
102
{ACAD_REACTORS
330
7FED
102
}
330
7FED
100
AcDbXrecord
280
     1
270
     1
271
     1
  0
XRECORD
  5
7FEE
102
{ACAD_REACTORS
330
7FED
102
}
330
7FED
100
AcDbXrecord
280
     1
270
     1
271
     1
  0
XRECORD
  5
7FF2
102
{ACAD_REACTORS
330
7FED
102
}
330
7FED
100
AcDbXrecord
280
     1
270
     1
271
     1
  0
XRECORD
  5
7FF1
102
{ACAD_REACTORS
330
7FED
102
}
330
7FED
100
AcDbXrecord
280
     1
270
     1
271
     1
  0
XRECORD
  5
7FF3
102
{ACAD_REACTORS
330
7FED
102
}
330
7FED
100
AcDbXrecord
280
     1
270
     1
271
     1
  0
XRECORD
  5
7FF0
102
{ACAD_REACTORS
330
7FED
102
}
330
7FED
100
AcDbXrecord
280
     1
270
     1
271
     1
  0
XRECORD
  5
7FFF
102
{ACAD_REACTORS
330
7FFD
102
}
330
7FFD
100
AcDbXrecord
280
     1
270
     1
271
     1
  0
XRECORD
  5
7FFE
102
{ACAD_REACTORS
330
7FFD
102
}
330
7FFD
100
AcDbXrecord
280
     1
270
     1
271
     1
  0
XRECORD
  5
8002
102
{ACAD_REACTORS
330
7FFD
102
}
330
7FFD
100
AcDbXrecord
280
     1
270
     1
271
     1
  0
XRECORD
  5
8001
102
{ACAD_REACTORS
330
7FFD
102
}
330
7FFD
100
AcDbXrecord
280
     1
270
     1
271
     1
  0
XRECORD
  5
8003
102
{ACAD_REACTORS
330
7FFD
102
}
330
7FFD
100
AcDbXrecord
280
     1
270
     1
271
     1
  0
XRECORD
  5
8000
102
{ACAD_REACTORS
330
7FFD
102
}
330
7FFD
100
AcDbXrecord
280
     1
270
     1
271
     1
  0
XRECORD
  5
80EB
102
{ACAD_REACTORS
330
80A6
102
}
330
80A6
100
AcDbXrecord
280
     1
102
DISPLAYNAME
  1
Imperial24
102
FLAGS
 90
        0
  0
CELLSTYLEMAP
  5
80EA
102
{ACAD_REACTORS
330
80E9
102
}
330
80E9
100
AcDbCellStyleMap
 90
        3
300
CELLSTYLE
  1
TABLEFORMAT_BEGIN
 90
        5
170
     1
 91
        0
 92
    32768
 62
   257
 93
        1
300
CONTENTFORMAT
  1
CONTENTFORMAT_BEGIN
 90
        0
 91
        0
 92
      512
 93
        0
300

 40
0.0
140
1.0
 94
        5
 62
     0
340
10
144
0.25
309
CONTENTFORMAT_END
171
     0
 94
        0
309
TABLEFORMAT_END
  1
CELLSTYLE_BEGIN
 90
        1
 91
        1
300
_TITLE
309
CELLSTYLE_END
300
CELLSTYLE
  1
TABLEFORMAT_BEGIN
 90
        5
170
     1
 91
        0
 92
        0
 62
   257
 93
        1
300
CONTENTFORMAT
  1
CONTENTFORMAT_BEGIN
 90
        0
 91
        0
 92
      512
 93
        0
300

 40
0.0
140
1.0
 94
        5
 62
     0
340
10
144
0.18
309
CONTENTFORMAT_END
171
     0
 94
        0
309
TABLEFORMAT_END
  1
CELLSTYLE_BEGIN
 90
        2
 91
        1
300
_HEADER
309
CELLSTYLE_END
300
CELLSTYLE
  1
TABLEFORMAT_BEGIN
 90
        5
170
     1
 91
        0
 92
        0
 62
   257
 93
        1
300
CONTENTFORMAT
  1
CONTENTFORMAT_BEGIN
 90
        0
 91
        0
 92
      512
 93
        0
300

 40
0.0
140
1.0
 94
        2
 62
     0
340
10
144
0.18
309
CONTENTFORMAT_END
171
     0
 94
        0
309
TABLEFORMAT_END
  1
CELLSTYLE_BEGIN
 90
        3
 91
        2
300
_DATA
309
CELLSTYLE_END
  0
ENDSEC
  0
SECTION
  2
ACDSDATA
 70
     2
 71
     8
  0
ACDSSCHEMA
 90
        0
  1
AcDb_Thumbnail_Schema
  2
AcDbDs::ID
280
    10
 91
        8
  2
Thumbnail_Data
280
    15
 91
        0
101
ACDSRECORD
 95
        0
 90
        1
  2
AcDbDs::TreatedAsObjectData
280
     1
291
     1
101
ACDSRECORD
 95
        0
 90
        2
  2
AcDbDs::Legacy
280
     1
291
     1
101
ACDSRECORD
  1
AcDbDs::ID
 90
        3
  2
AcDs:Indexable
280
     1
291
     1
101
ACDSRECORD
  1
AcDbDs::ID
 90
        4
  2
AcDbDs::HandleAttribute
280
     7
282
     1
  0
ACDSSCHEMA
 90
        1
  1
AcDbDs::TreatedAsObjectDataSchema
  2
AcDbDs::TreatedAsObjectData
280
     1
 91
        0
  0
ACDSSCHEMA
 90
        2
  1
AcDbDs::LegacySchema
  2
AcDbDs::Legacy
280
     1
 91
        0
  0
ACDSSCHEMA
 90
        3
  1
AcDbDs::IndexedPropertySchema
  2
AcDs:Indexable
280
     1
 91
        0
  0
ACDSSCHEMA
 90
        4
  1
AcDbDs::HandleAttributeSchema
  2
AcDbDs::HandleAttribute
280
     7
 91
        1
284
     1
  0
ACDSRECORD
 90
        0
  2
AcDbDs::ID
280
    10
320
7F10
  2
Thumbnail_Data
280
    15
 94
     1804
310
89504E470D0A1A0A0000000D49484452000001000000007C0803000000B13B9E5A00000300504C5445000000000000C8C8C80000000000000000000000000000000000000000000000000000330000660000990000CC0000FF0033000033330033660033990033CC0033FF0066000066330066660066990066CC0066FF0099
310
000099330099660099990099CC0099FF00CC0000CC3300CC6600CC9900CCCC00CCFF00FF0000FF3300FF6600FF9900FFCC00FFFF3300003300333300663300993300CC3300FF3333003333333333663333993333CC3333FF3366003366333366663366993366CC3366FF3399003399333399663399993399CC3399FF33CC00
310
33CC3333CC6633CC9933CCCC33CCFF33FF0033FF3333FF6633FF9933FFCC33FFFF6600006600336600666600996600CC6600FF6633006633336633666633996633CC6633FF6666006666336666666666996666CC6666FF6699006699336699666699996699CC6699FF66CC0066CC3366CC6666CC9966CCCC66CCFF66FF0066
310
FF3366FF6666FF9966FFCC66FFFF9900009900339900669900999900CC9900FF9933009933339933669933999933CC9933FF9966009966339966669966999966CC9966FF9999009999339999669999999999CC9999FF99CC0099CC3399CC6699CC9999CCCC99CCFF99FF0099FF3399FF6699FF9999FFCC99FFFFCC0000CC00
310
33CC0066CC0099CC00CCCC00FFCC3300CC3333CC3366CC3399CC33CCCC33FFCC6600CC6633CC6666CC6699CC66CCCC66FFCC9900CC9933CC9966CC9999CC99CCCC99FFCCCC00CCCC33CCCC66CCCC99CCCCCCCCCCFFCCFF00CCFF33CCFF66CCFF99CCFFCCCCFFFFFF0000FF0033FF0066FF0099FF00CCFF00FFFF3300FF3333
310
FF3366FF3399FF33CCFF33FFFF6600FF6633FF6666FF6699FF66CCFF66FFFF9900FF9933FF9966FF9999FF99CCFF99FFFFCC00FFCC33FFCC66FFCC99FFCCCCFFCCFFFFFF00FFFF33FFFF66FFFF99FFFFCCFFFFFF0000000D0D0D1A1A1A2828283535354343435050505D5D5D6B6B6B787878868686939393A1A1A1AEAEAEBB
310
BBBBC9C9C9D6D6D6E4E4E4F1F1F1FFFFFF00000000000000000000000000000000000000000000000000000000000008F1915C0000039F4944415478DAED5D5B8E2C21086539FEB0FFCDB80DFF6FB782E2ABAC4926B9237032D3F5B0AA134E1D81523A02FC3DA415C010D2CB737A0948B3BDC60898456F4E012303EE036ED5
310
F1AF41C563FC3B5FE704FC27028A9453F673F9A01CF209EA397A08C82656936587165B5836D077A4DB09A0873E9A294FF015D2DD9124205D4E0054F36605407BE0905AE8E7D6AA9CEB7D40D70528CBE5CF4A87B4BB7A86CE6A8F024E8067824671B5E569F2732B6D70B04BDD5D9C05B4F6AB1900A1E395BE39119C08A01879
310
BD02D24400C8B4684140D24080710FE070381C0E87C3E17000E253632C304140D8376A27003342D91824003B023A128C2880BA00EDD925E0B30FF9DF16016185A137D88902C562768B550CF6BA00790363040827D811A03D11824518344640D9063EE60F27C009B0E1049D0027A08F02E20DC9481E308741B4960A7FFF30C8
310
B1004A079C000304442473975DC0C09860352E3CB65A21607CDC960800AB043CC39A020CFA0087C3E170388C83339E53EAA335396A56BD274011112F13E0EFC9DC50765411C03CF073DD10A0F53D21B62D9B150F6F05E53A75041CBAC02C067D0AE83B8513B025A00C1FDD4DC0C2A78991D0D50DB5780A6319418D78BDEF8F
310
E2D17E6CAAC5122BCB44F1146A50007404F0B0789B147C2000B510C0399DAC149573A34702EE76848D009A030C3C4FF89600BC5B058280D2F74B991C609D303F13A04701E404A9507059415FA78A510D01EC0449F501EA74E88A01AC4D9A08F820ECD05DDDAA67BF7B544F1B742800A70A9165241031428102E45B1FD9557D
310
40EDEB6702E062029A0280A340E9DECD09F69EA0D5106B08831301D926D23F5621A06E02B80753314CA02D19190609CC5DE0E64C702220D708B5232A19C2930FB8FA65B811D03241AA99FA7CE4403812806A08909960497EB1A5C2C5DA00A89D00E1044B18A4DFCB900FC0BD0FE05747550440AD15C6C50F08BB28009B9232
310
2599E05C290BF232BA5801011CC51E7F3BBC3B54A1806130F4A0805E055A08E85EF87E72B72605BC2897D7A880E602EA6CC0330183135CF5900B09C80A106161728262BAA8AF222F9FF7CB40D81D77C172D51CF7B75C980B505580F40E3B026A810828981EA55121F206CD9C28773BB5B4A12415F3C3BD2DA76A7185B5E426
310
8AE1CF3EC0E170381C0E87C33ACC2FB0302EB6D3CEBFB85539017289255E8D66B5F88056023A9BA15B63208D2BEE5C4DC0CFF59D54750177826B8BAAD4E97452EB04D3DE07889568925102E49A3C16C2E0D405BAD5F62C28E06F38C17FA32204D3ABD852160000000049454E44AE42608280ED4AEA11008FFA5601DCA201DB
310
2EF08B59E00FE8F35D436B0045CC0000000049454E44AE426082
  0
ENDSEC
  0
EOF
