  0
SECTION
  2
HEADER
  9
$ACADVER
  1
AC1009
  9
$INSBASE
 10
0.0
 20
0.0
 30
0.0
  9
$EXTMIN
 10
375.0
 20
450.0
 30
0.0
  9
$EXTMAX
 10
2775.0
 20
4179.978392
 30
0.0
  9
$LIMMIN
 10
0.0
 20
0.0
  9
$LIMMAX
 10
297.0
 20
210.0
  9
$ORTHOMODE
 70
     0
  9
$REGENMODE
 70
     1
  9
$FILLMODE
 70
     0
  9
$QTEXTMODE
 70
     0
  9
$MIRRTEXT
 70
     1
  9
$DRAGMODE
 70
     2
  9
$LTSCALE
 40
100.0
  9
$OSMODE
 70
    37
  9
$ATTMODE
 70
     1
  9
$TEXTSIZE
 40
180.0
  9
$TRACEWID
 40
0.05
  9
$TEXTSTYLE
  7
STANDARD
  9
$CLAYER
  8
3
  9
$CELTYPE
  6
BYLAYER
  9
$CECOLOR
 62
   256
  9
$DIMSCALE
 40
15.0
  9
$DIMASZ
 40
2.0
  9
$DIMEXO
 40
0.5
  9
$DIMDLI
 40
10.0
  9
$DIMRND
 40
0.0
  9
$DIMDLE
 40
0.0
  9
$DIMEXE
 40
1.0
  9
$DIMTP
 40
1.0
  9
$DIMTM
 40
1.0
  9
$DIMTXT
 40
3.0
  9
$DIMCEN
 40
0.0
  9
$DIMTSZ
 40
0.0
  9
$DIMTOL
 70
     0
  9
$DIMLIM
 70
     0
  9
$DIMTIH
 70
     0
  9
$DIMTOH
 70
     0
  9
$DIMSE1
 70
     0
  9
$DIMSE2
 70
     0
  9
$DIMTAD
 70
     1
  9
$DIMZIN
 70
     8
  9
$DIMBLK
  1

  9
$DIMASO
 70
     1
  9
$DIMSHO
 70
     1
  9
$DIMPOST
  1

  9
$DIMAPOST
  1

  9
$DIMALT
 70
     0
  9
$DIMALTD
 70
     2
  9
$DIMALTF
 40
0.039
  9
$DIMLFAC
 40
1.0
  9
$DIMTOFL
 70
     1
  9
$DIMTVP
 40
0.0
  9
$DIMTIX
 70
     0
  9
$DIMSOXD
 70
     0
  9
$DIMSAH
 70
     1
  9
$DIMBLK1
  1
OPEN
  9
$DIMBLK2
  1
OPEN
  9
$DIMSTYLE
  2
IGA
  9
$DIMCLRD
 70
     0
  9
$DIMCLRE
 70
     0
  9
$DIMCLRT
 70
     0
  9
$DIMTFAC
 40
10.0
  9
$DIMGAP
 40
1.0
  9
$LUNITS
 70
     2
  9
$LUPREC
 70
     3
  9
$SKETCHINC
 40
0.1
  9
$FILLETRAD
 40
50.0
  9
$AUNITS
 70
     0
  9
$AUPREC
 70
     0
  9
$MENU
  1
acad
  9
$ELEVATION
 40
0.0
  9
$PELEVATION
 40
0.0
  9
$THICKNESS
 40
0.0
  9
$LIMCHECK
 70
     0
  9
$BLIPMODE
 70
     0
  9
$CHAMFERA
 40
0.5
  9
$CHAMFERB
 40
0.5
  9
$SKPOLY
 70
     0
  9
$TDCREATE
 40
2450746.6618622681
  9
$TDUPDATE
 40
2454953.865384039
  9
$TDINDWG
 40
0.0044210532
  9
$TDUSRTIMER
 40
0.0044210532
  9
$USRTIMER
 70
     1
  9
$ANGBASE
 50
0.0
  9
$ANGDIR
 70
     0
  9
$PDMODE
 70
     0
  9
$PDSIZE
 40
0.0
  9
$PLINEWID
 40
0.0
  9
$COORDS
 70
     1
  9
$SPLFRAME
 70
     0
  9
$SPLINETYPE
 70
     6
  9
$SPLINESEGS
 70
     8
  9
$ATTDIA
 70
     0
  9
$ATTREQ
 70
     1
  9
$HANDLING
 70
 10241
  9
$HANDSEED
  5
8029
  9
$SURFTAB1
 70
     6
  9
$SURFTAB2
 70
     6
  9
$SURFTYPE
 70
     6
  9
$SURFU
 70
     6
  9
$SURFV
 70
     6
  9
$UCSNAME
  2

  9
$UCSORG
 10
0.0
 20
0.0
 30
0.0
  9
$UCSXDIR
 10
1.0
 20
0.0
 30
0.0
  9
$UCSYDIR
 10
0.0
 20
1.0
 30
0.0
  9
$PUCSNAME
  2

  9
$PUCSORG
 10
0.0
 20
0.0
 30
0.0
  9
$PUCSXDIR
 10
1.0
 20
0.0
 30
0.0
  9
$PUCSYDIR
 10
0.0
 20
1.0
 30
0.0
  9
$USERI1
 70
     0
  9
$USERI2
 70
     0
  9
$USERI3
 70
     0
  9
$USERI4
 70
     0
  9
$USERI5
 70
     0
  9
$USERR1
 40
0.0
  9
$USERR2
 40
0.0
  9
$USERR3
 40
0.0
  9
$USERR4
 40
0.0
  9
$USERR5
 40
0.0
  9
$WORLDVIEW
 70
     1
  9
$SHADEDGE
 70
     3
  9
$SHADEDIF
 70
    70
  9
$TILEMODE
 70
     1
  9
$MAXACTVP
 70
    16
  9
$PLIMCHECK
 70
     0
  9
$PEXTMIN
 10
1.0000000000000000E+020
 20
1.0000000000000000E+020
 30
1.0000000000000000E+020
  9
$PEXTMAX
 10
-1.0000000000000000E+020
 20
-1.0000000000000000E+020
 30
-1.0000000000000000E+020
  9
$PLIMMIN
 10
0.0
 20
0.0
  9
$PLIMMAX
 10
12.0
 20
9.0
  9
$UNITMODE
 70
     0
  9
$VISRETAIN
 70
     0
  9
$PLINEGEN
 70
     0
  9
$PSLTSCALE
 70
     1
  0
ENDSEC
  0
SECTION
  2
TABLES
  0
TABLE
  2
VPORT
 70
     2
  0
VPORT
  2
*ACTIVE
 70
     0
 10
0.0
 20
0.0
 11
1.0
 21
1.0
 12
4336.3582310895299
 22
2891.4516029495298
 13
0.0
 23
0.0
 14
10.0
 24
10.0
 15
10.0
 25
10.0
 16
0.0
 26
0.0
 36
1.0
 17
0.0
 27
0.0
 37
0.0
 40
5790.646323821431
 41
1.5051150895140659
 42
50.0
 43
0.0
 44
0.0
 50
0.0
 51
0.0
 71
     0
 72
   100
 73
     1
 74
     0
 75
     0
 76
     0
 77
     0
 78
     0
  0
ENDTAB
  0
TABLE
  2
LTYPE
 70
     2
  0
LTYPE
  2
CONTINUOUS
 70
     0
  3
Solid line
 72
    65
 73
     0
 40
0.0
  0
LTYPE
  2
CENTER
 70
     0
  3
____ _ ____ _ ____ _ ____ _ ____ _ ____ _ ____ 
 72
    65
 73
     4
 40
2.0
 49
1.25
 49
-0.25
 49
0.25
 49
-0.25
  0
ENDTAB
  0
TABLE
  2
LAYER
 70
     6
  0
LAYER
  2
0
 70
     0
 62
     7
  6
CONTINUOUS
  0
LAYER
  2
3
 70
     0
 62
     2
  6
CONTINUOUS
  0
LAYER
  2
2
 70
     0
 62
     3
  6
CENTER
  0
LAYER
  2
1
 70
     0
 62
     4
  6
CONTINUOUS
  0
LAYER
  2
4
 70
     0
 62
     7
  6
CONTINUOUS
  0
LAYER
  2
DEFPOINTS
 70
     0
 62
     7
  6
CONTINUOUS
  0
ENDTAB
  0
TABLE
  2
STYLE
 70
     1
  0
STYLE
  2
STANDARD
 70
     0
 40
0.0
 41
1.0
 50
0.0
 71
     0
 42
180.0
  3
simplex.shx
  4
extfont.shx
  0
ENDTAB
  0
TABLE
  2
VIEW
 70
     0
  0
ENDTAB
  0
TABLE
  2
UCS
 70
     0
  0
ENDTAB
  0
TABLE
  2
APPID
 70
     1
  0
APPID
  2
ACAD
 70
     0
  0
ENDTAB
  0
TABLE
  2
DIMSTYLE
 70
     1
  0
DIMSTYLE
  2
IGA
 70
     0
  3

  4

  5

  6
OPEN
  7
OPEN
 40
2.0
 41
2.0
 42
0.5
 43
10.0
 44
1.0
 45
0.0
 46
0.0
 47
1.0
 48
1.0
140
3.0
141
0.0
142
0.0
143
0.03937
144
1.0
145
0.0
146
10.0
147
1.0
 71
     0
 72
     0
 73
     0
 74
     0
 75
     0
 76
     0
 77
     1
 78
     8
170
     0
171
     2
172
     0
173
     1
174
     0
175
     0
176
     0
177
     0
178
     0
  0
ENDTAB
  0
ENDSEC
  0
SECTION
  2
BLOCKS
  0
BLOCK
  8
0
  2
$MODEL_SPACE
 70
     0
 10
0.0
 20
0.0
 30
0.0
  3
$MODEL_SPACE
  1

  0
ENDBLK
  5
1B
  8
0
  0
BLOCK
 67
     1
  8
0
  2
$PAPER_SPACE
 70
     0
 10
0.0
 20
0.0
 30
0.0
  3
$PAPER_SPACE
  1

  0
ENDBLK
  5
18
 67
     1
  8
0
  0
BLOCK
  8
0
  2
_OPEN
 70
     0
 10
0.0
 20
0.0
 30
0.0
  3
_OPEN
  1

  0
LINE
  5
7B59
  8
0
  6
BYBLOCK
 62
     0
 10
-1.0
 20
0.166667
 30
0.0
 11
0.0
 21
0.0
 31
0.0
  0
LINE
  5
7B5A
  8
0
  6
BYBLOCK
 62
     0
 10
0.0
 20
0.0
 30
0.0
 11
-1.0
 21
-0.166667
 31
0.0
  0
LINE
  5
7B5B
  8
0
  6
BYBLOCK
 62
     0
 10
0.0
 20
0.0
 30
0.0
 11
-1.0
 21
0.0
 31
0.0
  0
ENDBLK
  5
7B5C
  8
0
  0
BLOCK
  8
0
  2
*D1
 70
     1
 10
0.0
 20
0.0
 30
0.0
  3
*D1
  1

  0
LINE
  5
7F5D
  8
3
  6
CONTINUOUS
 62
     0
 10
793.31157499999972
 20
1170.288455490821
 30
0.0
 11
793.31157499999972
 21
1089.562581490821
 31
0.0
  0
LINE
  5
7F5E
  8
3
  6
CONTINUOUS
 62
     0
 10
1058.311574999999
 20
1153.9847374908211
 30
0.0
 11
1058.311574999999
 21
1089.562581490821
 31
0.0
  0
LINE
  5
7F5F
  8
3
  6
CONTINUOUS
 62
     0
 10
823.31157499999972
 20
1104.562581490821
 30
0.0
 11
1028.311574999999
 21
1104.562581490821
 31
0.0
  0
INSERT
  5
7F60
  8
3
  6
CONTINUOUS
 62
     0
  2
_OPEN
 10
793.31157499999972
 20
1104.562581490821
 30
0.0
 41
30.0
 42
30.0
 43
30.0
 50
180.0
  0
INSERT
  5
7F61
  8
3
  6
CONTINUOUS
 62
     0
  2
_OPEN
 10
1058.311574999999
 20
1104.562581490821
 30
0.0
 41
30.0
 42
30.0
 43
30.0
  0
TEXT
  8
3
  40
45
  5
8014
  62
0
  72
0
  71
0
 10
845.004
 20
1062.41
 30
0.000000
  1
265
  0
POINT
  5
7F63
  8
DEFPOINTS
  6
CONTINUOUS
 62
     0
 10
793.31157499999972
 20
1177.7884554908219
 30
0.0
  0
POINT
  5
7F64
  8
DEFPOINTS
  6
CONTINUOUS
 62
     0
 10
1058.311574999999
 20
1161.4847374908211
 30
0.0
  0
POINT
  5
7F65
  8
DEFPOINTS
  6
CONTINUOUS
 62
     0
 10
1058.311574999999
 20
1104.562581490821
 30
0.0
  0
ENDBLK
  5
7B69
  8
0
  0
BLOCK
  8
0
  2
*D2
 70
     1
 10
0.0
 20
0.0
 30
0.0
  3
*D2
  1

  0
LINE
  5
7F66
  8
3
  6
CONTINUOUS
 62
     0
 10
1703.3115749999999
 20
1170.288455490821
 30
0.0
 11
1703.3115749999999
 21
1089.562581490821
 31
0.0
  0
LINE
  5
7F67
  8
3
  6
CONTINUOUS
 62
     0
 10
1088.311574999999
 20
1104.562581490821
 30
0.0
 11
1673.3115749999999
 21
1104.562581490821
 31
0.0
  0
INSERT
  5
7F68
  8
3
  6
CONTINUOUS
 62
     0
  2
_OPEN
 10
1058.311574999999
 20
1104.562581490821
 30
0.0
 41
30.0
 42
30.0
 43
30.0
 50
180.0
  0
INSERT
  5
7F69
  8
3
  6
CONTINUOUS
 62
     0
  2
_OPEN
 10
1703.3115749999999
 20
1104.562581490821
 30
0.0
 41
30.0
 42
30.0
 43
30.0
  0
TEXT
  8
3
  40
45
  5
8015
  62
0
  72
0
  71
0
 10
1290.81
 20
1062.41
 30
0.000000
  1
645
  0
POINT
  5
7F6B
  8
DEFPOINTS
  6
CONTINUOUS
 62
     0
 10
1058.311574999999
 20
1161.4847374908211
 30
0.0
  0
POINT
  5
7F6C
  8
DEFPOINTS
  6
CONTINUOUS
 62
     0
 10
1703.3115749999999
 20
1177.7884554908219
 30
0.0
  0
POINT
  5
7F6D
  8
DEFPOINTS
  6
CONTINUOUS
 62
     0
 10
1703.3115749999999
 20
1104.562581490821
 30
0.0
  0
ENDBLK
  5
7B75
  8
0
  0
BLOCK
  8
0
  2
*D3
 70
     1
 10
0.0
 20
0.0
 30
0.0
  3
*D3
  1

  0
LINE
  5
7F6E
  8
3
  6
CONTINUOUS
 62
     0
 10
800.81157499999983
 20
1659.788455490821
 30
0.0
 11
724.19837591921191
 21
1659.788455490821
 31
0.0
  0
LINE
  5
7F6F
  8
3
  6
CONTINUOUS
 62
     0
 10
800.81157499999983
 20
1344.7884554908219
 30
0.0
 11
724.19837591921191
 21
1344.7884554908219
 31
0.0
  0
LINE
  5
7F70
  8
3
  6
CONTINUOUS
 62
     0
 10
739.19837591921191
 20
1629.788455490821
 30
0.0
 11
739.19837591921191
 21
1374.7884554908219
 31
0.0
  0
INSERT
  5
7F71
  8
3
  6
CONTINUOUS
 62
     0
  2
_OPEN
 10
739.19837591921191
 20
1659.788455490821
 30
0.0
 41
30.0
 42
30.0
 43
30.0
 50
90.0
  0
INSERT
  5
7F72
  8
3
  6
CONTINUOUS
 62
     0
  2
_OPEN
 10
739.19837591921191
 20
1344.7884554908219
 30
0.0
 41
30.0
 42
30.0
 43
30.0
 50
270.0
  0
TEXT
  8
3
  40
45
  5
8016
  62
0
  72
0
  71
0
 10
611.698
 20
1436.21
 30
0.000000
  1
315
  0
POINT
  5
7F74
  8
DEFPOINTS
  6
CONTINUOUS
 62
     0
 10
808.31157499999972
 20
1659.788455490821
 30
0.0
  0
POINT
  5
7F75
  8
DEFPOINTS
  6
CONTINUOUS
 62
     0
 10
808.31157499999972
 20
1344.7884554908219
 30
0.0
  0
POINT
  5
7F76
  8
DEFPOINTS
  6
CONTINUOUS
 62
     0
 10
739.19837591921191
 20
1344.7884554908219
 30
0.0
  0
ENDBLK
  5
7DE2
  8
0
  0
BLOCK
  8
0
  2
*D4
 70
     1
 10
0.0
 20
0.0
 30
0.0
  3
*D4
  1

  0
LINE
  5
7F77
  8
3
  6
CONTINUOUS
 62
     0
 10
1050.811574999999
 20
1892.033642490821
 30
0.0
 11
563.29850700959685
 21
1892.033642490821
 31
0.0
  0
LINE
  5
7F78
  8
3
  6
CONTINUOUS
 62
     0
 10
800.81157499999983
 20
1659.788455490821
 30
0.0
 11
563.29850700959673
 21
1659.788455490821
 31
0.0
  0
LINE
  5
7F79
  8
3
  6
CONTINUOUS
 62
     0
 10
578.29850700959685
 20
1862.033642490821
 30
0.0
 11
578.29850700959673
 21
1689.7884554908219
 31
0.0
  0
INSERT
  5
7F7A
  8
3
  6
CONTINUOUS
 62
     0
  2
_OPEN
 10
578.29850700959685
 20
1892.033642490821
 30
0.0
 41
30.0
 42
30.0
 43
30.0
 50
90.0
  0
INSERT
  5
7F7B
  8
3
  6
CONTINUOUS
 62
     0
  2
_OPEN
 10
578.29850700959673
 20
1659.788455490821
 30
0.0
 41
30.0
 42
30.0
 43
30.0
 50
270.0
  0
TEXT
  8
3
  40
45
  5
8017
  62
0
  72
0
  71
0
 10
450.799
 20
1709.53
 30
0.000000
  1
232
  0
POINT
  5
7F7D
  8
DEFPOINTS
  6
CONTINUOUS
 62
     0
 10
1058.311574999999
 20
1892.033642490821
 30
0.0
  0
POINT
  5
7F7E
  8
DEFPOINTS
  6
CONTINUOUS
 62
     0
 10
808.31157499999972
 20
1659.788455490821
 30
0.0
  0
POINT
  5
7F7F
  8
DEFPOINTS
  6
CONTINUOUS
 62
     0
 10
578.29850700959673
 20
1659.788455490821
 30
0.0
  0
ENDBLK
  5
7D9F
  8
0
  0
BLOCK
  8
0
  2
*D5
 70
     1
 10
0.0
 20
0.0
 30
0.0
  3
*D5
  1

  0
LINE
  5
7F80
  8
3
  6
CONTINUOUS
 62
     0
 10
815.81157499999961
 20
1259.7884554908219
 30
0.0
 11
563.29850700959651
 21
1259.7884554908219
 31
0.0
  0
LINE
  5
7F81
  8
3
  6
CONTINUOUS
 62
     0
 10
578.29850700959662
 20
1629.788455490821
 30
0.0
 11
578.29850700959662
 21
1289.788455490821
 31
0.0
  0
INSERT
  5
7F82
  8
3
  6
CONTINUOUS
 62
     0
  2
_OPEN
 10
578.29850700959662
 20
1659.788455490821
 30
0.0
 41
30.0
 42
30.0
 43
30.0
 50
90.0
  0
INSERT
  5
7F83
  8
3
  6
CONTINUOUS
 62
     0
  2
_OPEN
 10
578.29850700959651
 20
1259.7884554908219
 30
0.0
 41
30.0
 42
30.0
 43
30.0
 50
270.0
  0
TEXT
  8
3
  40
45
  5
8018
  62
0
  72
0
  71
0
 10
450.799
 20
1380.14
 30
0.000000
  1
400
  0
POINT
  5
7F85
  8
DEFPOINTS
  6
CONTINUOUS
 62
     0
 10
808.31157499999972
 20
1659.788455490821
 30
0.0
  0
POINT
  5
7F86
  8
DEFPOINTS
  6
CONTINUOUS
 62
     0
 10
823.31157499999972
 20
1259.7884554908219
 30
0.0
  0
POINT
  5
7F87
  8
DEFPOINTS
  6
CONTINUOUS
 62
     0
 10
578.29850700959651
 20
1259.7884554908219
 30
0.0
  0
ENDBLK
  5
7DA9
  8
0
  0
BLOCK
  8
0
  2
*D6
 70
     1
 10
0.0
 20
0.0
 30
0.0
  3
*D6
  1

  0
LINE
  5
7F88
  8
3
  6
CONTINUOUS
 62
     0
 10
785.81157499999961
 20
1207.7884554908219
 30
0.0
 11
563.29850700959651
 21
1207.7884554908219
 31
0.0
  0
LINE
  5
7F89
  8
3
  6
CONTINUOUS
 62
     0
 10
578.29850700959662
 20
1289.788455490821
 30
0.0
 11
578.29850700959662
 21
1319.788455490821
 31
0.0
  0
LINE
  5
7F8A
  8
3
  6
CONTINUOUS
 62
     0
 10
578.29850700959651
 20
1177.7884554908219
 30
0.0
 11
578.29850700959651
 21
1147.788455490821
 31
0.0
  0
TEXT
  8
3
  40
45
  5
8019
  62
0
  72
0
  71
0
 10
439.034
 20
1165.93
 30
0.000000
  1
52
  0
LINE
  5
7F8C
  8
3
  6
CONTINUOUS
 62
     0
 10
578.29850700959651
 20
1259.7884554908219
 30
0.0
 11
578.29850700959651
 21
1207.7884554908219
 31
0.0
  0
INSERT
  5
7F8D
  8
3
  6
CONTINUOUS
 62
     0
  2
_OPEN
 10
578.29850700959651
 20
1259.7884554908219
 30
0.0
 41
30.0
 42
30.0
 43
30.0
 50
270.0
  0
INSERT
  5
7F8E
  8
3
  6
CONTINUOUS
 62
     0
  2
_DOT
 10
578.29850700959651
 20
1207.7884554908219
 30
0.0
 41
30.0
 42
30.0
 43
30.0
 50
90.0
  0
POINT
  5
7F8F
  8
DEFPOINTS
  6
CONTINUOUS
 62
     0
 10
823.31157499999972
 20
1259.7884554908219
 30
0.0
  0
POINT
  5
7F90
  8
DEFPOINTS
  6
CONTINUOUS
 62
     0
 10
793.31157499999972
 20
1207.7884554908219
 30
0.0
  0
POINT
  5
7F91
  8
DEFPOINTS
  6
CONTINUOUS
 62
     0
 10
578.29850700959651
 20
1207.7884554908219
 30
0.0
  0
ENDBLK
  5
7E10
  8
0
  0
BLOCK
  8
0
  2
*D7
 70
     1
 10
0.0
 20
0.0
 30
0.0
  3
*D7
  1

  0
LINE
  5
7F92
  8
3
  6
CONTINUOUS
 62
     0
 10
785.81157499999961
 20
1207.7884554908219
 30
0.0
 11
563.29850700959662
 21
1207.7884554908219
 31
0.0
  0
LINE
  5
7F93
  8
3
  6
CONTINUOUS
 62
     0
 10
785.81157499999961
 20
1177.7884554908219
 30
0.0
 11
563.29850700959662
 21
1177.7884554908219
 31
0.0
  0
LINE
  5
7F94
  8
3
  6
CONTINUOUS
 62
     0
 10
578.29850700959662
 20
1237.7884554908219
 30
0.0
 11
578.29850700959662
 21
1267.7884554908219
 31
0.0
  0
LINE
  5
7F95
  8
3
  6
CONTINUOUS
 62
     0
 10
578.29850700959662
 20
1147.788455490821
 30
0.0
 11
578.29850700959662
 21
1014.931312633679
 31
0.0
  0
LINE
  5
7F96
  8
3
  6
CONTINUOUS
 62
     0
 10
578.29850700959662
 20
1207.7884554908219
 30
0.0
 11
578.29850700959662
 21
1177.7884554908219
 31
0.0
  0
INSERT
  5
7F97
  8
3
  6
CONTINUOUS
 62
     0
  2
_DOT
 10
578.29850700959662
 20
1207.7884554908219
 30
0.0
 41
30.0
 42
30.0
 43
30.0
 50
270.0
  0
INSERT
  5
7F98
  8
3
  6
CONTINUOUS
 62
     0
  2
_OPEN
 10
578.29850700959662
 20
1177.7884554908219
 30
0.0
 41
30.0
 42
30.0
 43
30.0
 50
90.0
  0
TEXT
  8
3
  40
45
  5
801A
  62
0
  72
0
  71
0
 10
450.799
 20
986.710
 30
0.000000
  1
30
  0
POINT
  5
7F9A
  8
DEFPOINTS
  6
CONTINUOUS
 62
     0
 10
793.31157499999972
 20
1207.7884554908219
 30
0.0
  0
POINT
  5
7F9B
  8
DEFPOINTS
  6
CONTINUOUS
 62
     0
 10
793.31157499999972
 20
1177.7884554908219
 30
0.0
  0
POINT
  5
7F9C
  8
DEFPOINTS
  6
CONTINUOUS
 62
     0
 10
578.29850700959662
 20
1177.7884554908219
 30
0.0
  0
ENDBLK
  5
7E1D
  8
0
  0
BLOCK
  8
0
  2
*D8
 70
     1
 10
0.0
 20
0.0
 30
0.0
  3
*D8
  1

  0
LINE
  5
7F9D
  8
3
  6
CONTINUOUS
 62
     0
 10
1050.811574999999
 20
1892.033642490821
 30
0.0
 11
455.0682880095967
 21
1892.033642490821
 31
0.0
  0
LINE
  5
7F9E
  8
3
  6
CONTINUOUS
 62
     0
 10
785.81157499999961
 20
1177.7884554908219
 30
0.0
 11
455.06828800959659
 21
1177.7884554908219
 31
0.0
  0
LINE
  5
7F9F
  8
3
  6
CONTINUOUS
 62
     0
 10
470.0682880095967
 20
1862.0336424908221
 30
0.0
 11
470.06828800959659
 21
1207.7884554908219
 31
0.0
  0
INSERT
  5
7FA0
  8
3
  6
CONTINUOUS
 62
     0
  2
_OPEN
 10
470.0682880095967
 20
1892.033642490821
 30
0.0
 41
30.0
 42
30.0
 43
30.0
 50
90.0
  0
INSERT
  5
7FA1
  8
3
  6
CONTINUOUS
 62
     0
  2
_OPEN
 10
470.06828800959659
 20
1177.7884554908219
 30
0.0
 41
30.0
 42
30.0
 43
30.0
 50
270.0
  0
TEXT
  8
3
  40
45
  5
801B
  62
0
  72
0
  71
0
 10
342.568
 20
1459.72
 30
0.000000
  1
714
  0
POINT
  5
7FA3
  8
DEFPOINTS
  6
CONTINUOUS
 62
     0
 10
1058.311574999999
 20
1892.033642490821
 30
0.0
  0
POINT
  5
7FA4
  8
DEFPOINTS
  6
CONTINUOUS
 62
     0
 10
793.31157499999972
 20
1177.7884554908219
 30
0.0
  0
POINT
  5
7FA5
  8
DEFPOINTS
  6
CONTINUOUS
 62
     0
 10
470.06828800959659
 20
1177.7884554908219
 30
0.0
  0
ENDBLK
  5
7DCC
  8
0
  0
BLOCK
  8
0
  2
*D9
 70
     1
 10
0.0
 20
0.0
 30
0.0
  3
*D9
  1

  0
LINE
  5
7FA6
  8
3
  6
CONTINUOUS
 62
     0
 10
808.31157499999972
 20
1688.788455490821
 30
0.0
 11
808.31157499999972
 21
1947.332483490821
 31
0.0
  0
LINE
  5
7FA7
  8
3
  6
CONTINUOUS
 62
     0
 10
1058.311574999999
 20
1899.533642490821
 30
0.0
 11
1058.311574999999
 21
1947.332483490821
 31
0.0
  0
LINE
  5
7FA8
  8
3
  6
CONTINUOUS
 62
     0
 10
838.31157499999983
 20
1932.332483490821
 30
0.0
 11
1028.311574999999
 21
1932.332483490821
 31
0.0
  0
INSERT
  5
7FA9
  8
3
  6
CONTINUOUS
 62
     0
  2
_OPEN
 10
808.31157499999972
 20
1932.332483490821
 30
0.0
 41
30.0
 42
30.0
 43
30.0
 50
180.0
  0
INSERT
  5
7FAA
  8
3
  6
CONTINUOUS
 62
     0
  2
_OPEN
 10
1058.311574999999
 20
1932.332483490821
 30
0.0
 41
30.0
 42
30.0
 43
30.0
  0
TEXT
  8
3
  40
45
  5
801C
  62
0
  72
0
  71
0
 10
845.004
 20
1890.18
 30
0.000000
  1
250
  0
POINT
  5
7FAC
  8
DEFPOINTS
  6
CONTINUOUS
 62
     0
 10
808.31157499999972
 20
1681.2884554908219
 30
0.0
  0
POINT
  5
7FAD
  8
DEFPOINTS
  6
CONTINUOUS
 62
     0
 10
1058.311574999999
 20
1892.033642490821
 30
0.0
  0
POINT
  5
7FAE
  8
DEFPOINTS
  6
CONTINUOUS
 62
     0
 10
1058.311574999999
 20
1932.332483490821
 30
0.0
  0
ENDBLK
  5
7C3E
  8
0
  0
BLOCK
  8
0
  2
*D10
 70
     1
 10
0.0
 20
0.0
 30
0.0
  3
*D10
  1

  0
LINE
  5
7FAF
  8
3
  6
CONTINUOUS
 62
     0
 10
1332.311574999999
 20
1641.788455490821
 30
0.0
 11
1332.311574999999
 21
1947.332483490821
 31
0.0
  0
LINE
  5
7FB0
  8
3
  6
CONTINUOUS
 62
     0
 10
1088.311574999999
 20
1932.332483490821
 30
0.0
 11
1302.311574999999
 21
1932.332483490821
 31
0.0
  0
INSERT
  5
7FB1
  8
3
  6
CONTINUOUS
 62
     0
  2
_OPEN
 10
1058.311574999999
 20
1932.332483490821
 30
0.0
 41
30.0
 42
30.0
 43
30.0
 50
180.0
  0
INSERT
  5
7FB2
  8
3
  6
CONTINUOUS
 62
     0
  2
_OPEN
 10
1332.311574999999
 20
1932.332483490821
 30
0.0
 41
30.0
 42
30.0
 43
30.0
  0
TEXT
  8
3
  40
45
  5
801D
  62
0
  72
0
  71
0
 10
1105.31
 20
1890.18
 30
0.000000
  1
274
  0
POINT
  5
7FB4
  8
DEFPOINTS
  6
CONTINUOUS
 62
     0
 10
1058.311574999999
 20
1892.033642490821
 30
0.0
  0
POINT
  5
7FB5
  8
DEFPOINTS
  6
CONTINUOUS
 62
     0
 10
1332.311574999999
 20
1634.2884554908219
 30
0.0
  0
POINT
  5
7FB6
  8
DEFPOINTS
  6
CONTINUOUS
 62
     0
 10
1332.311574999999
 20
1932.332483490821
 30
0.0
  0
ENDBLK
  5
7E53
  8
0
  0
BLOCK
  8
0
  2
*D11
 70
     1
 10
0.0
 20
0.0
 30
0.0
  3
*D11
  1

  0
LINE
  5
7FB7
  8
3
  6
CONTINUOUS
 62
     0
 10
793.31157499999995
 20
2573.4542939211092
 30
0.0
 11
793.31157499999995
 21
2431.7514569211089
 31
0.0
  0
LINE
  5
7FB8
  8
3
  6
CONTINUOUS
 62
     0
 10
1703.3115749999999
 20
2573.4542939211092
 30
0.0
 11
1703.3115749999999
 21
2431.7514569211089
 31
0.0
  0
LINE
  5
7FB9
  8
3
  6
CONTINUOUS
 62
     0
 10
823.31157499999995
 20
2446.7514569211089
 30
0.0
 11
1673.3115749999999
 21
2446.7514569211089
 31
0.0
  0
INSERT
  5
7FBA
  8
3
  6
CONTINUOUS
 62
     0
  2
_OPEN
 10
793.31157499999995
 20
2446.7514569211089
 30
0.0
 41
30.0
 42
30.0
 43
30.0
 50
180.0
  0
INSERT
  5
7FBB
  8
3
  6
CONTINUOUS
 62
     0
  2
_OPEN
 10
1703.3115749999999
 20
2446.7514569211089
 30
0.0
 41
30.0
 42
30.0
 43
30.0
  0
TEXT
  8
3
  40
45
  5
801E
  62
0
  72
0
  71
0
 10
1157.93
 20
2404.60
 30
0.000000
  1
910
  0
POINT
  5
7FBD
  8
DEFPOINTS
  6
CONTINUOUS
 62
     0
 10
793.31157499999995
 20
2580.9542939211092
 30
0.0
  0
POINT
  5
7FBE
  8
DEFPOINTS
  6
CONTINUOUS
 62
     0
 10
1703.3115749999999
 20
2580.9542939211092
 30
0.0
  0
POINT
  5
7FBF
  8
DEFPOINTS
  6
CONTINUOUS
 62
     0
 10
1703.3115749999999
 20
2446.7514569211089
 30
0.0
  0
ENDBLK
  5
7C57
  8
0
  0
BLOCK
  8
0
  2
*D12
 70
     1
 10
0.0
 20
0.0
 30
0.0
  3
*D12
  1

  0
LINE
  5
7FC0
  8
3
  6
CONTINUOUS
 62
     0
 10
1710.8115749999999
 20
3180.9542939211092
 30
0.0
 11
1877.4896570000001
 21
3180.9542939211092
 31
0.0
  0
LINE
  5
7FC1
  8
3
  6
CONTINUOUS
 62
     0
 10
1710.8115749999999
 20
2580.9542939211092
 30
0.0
 11
1877.4896570000001
 21
2580.9542939211092
 31
0.0
  0
LINE
  5
7FC2
  8
3
  6
CONTINUOUS
 62
     0
 10
1862.4896570000001
 20
3150.9542939211101
 30
0.0
 11
1862.4896570000001
 21
2610.9542939211092
 31
0.0
  0
INSERT
  5
7FC3
  8
3
  6
CONTINUOUS
 62
     0
  2
_OPEN
 10
1862.4896570000001
 20
3180.9542939211092
 30
0.0
 41
30.0
 42
30.0
 43
30.0
 50
90.0
  0
INSERT
  5
7FC4
  8
3
  6
CONTINUOUS
 62
     0
  2
_OPEN
 10
1862.4896570000001
 20
2580.9542939211092
 30
0.0
 41
30.0
 42
30.0
 43
30.0
 50
270.0
  0
TEXT
  8
3
  40
45
  5
801F
  62
0
  72
0
  71
0
 10
1734.99
 20
2797.67
 30
0.000000
  1
600
  0
POINT
  5
7FC6
  8
DEFPOINTS
  6
CONTINUOUS
 62
     0
 10
1703.3115749999999
 20
3180.9542939211092
 30
0.0
  0
POINT
  5
7FC7
  8
DEFPOINTS
  6
CONTINUOUS
 62
     0
 10
1703.3115749999999
 20
2580.9542939211092
 30
0.0
  0
POINT
  5
7FC8
  8
DEFPOINTS
  6
CONTINUOUS
 62
     0
 10
1862.4896570000001
 20
2580.9542939211092
 30
0.0
  0
ENDBLK
  5
7C64
  8
0
  0
BLOCK
  8
0
  2
*D13
 70
     1
 10
0.0
 20
0.0
 30
0.0
  3
*D13
  1

  0
LINE
  5
7FC9
  8
3
  6
CONTINUOUS
 62
     0
 10
2065.4088772169962
 20
1170.288455490821
 30
0.0
 11
2065.4088772169962
 21
1063.7154084908209
 31
0.0
  0
LINE
  5
7FCA
  8
3
  6
CONTINUOUS
 62
     0
 10
2485.4088772169962
 20
1170.288455490821
 30
0.0
 11
2485.4088772169962
 21
1063.7154084908209
 31
0.0
  0
LINE
  5
7FCB
  8
3
  6
CONTINUOUS
 62
     0
 10
2095.4088772169962
 20
1078.7154084908209
 30
0.0
 11
2455.4088772169962
 21
1078.7154084908209
 31
0.0
  0
INSERT
  5
7FCC
  8
3
  6
CONTINUOUS
 62
     0
  2
_OPEN
 10
2065.4088772169962
 20
1078.7154084908209
 30
0.0
 41
30.0
 42
30.0
 43
30.0
 50
180.0
  0
INSERT
  5
7FCD
  8
3
  6
CONTINUOUS
 62
     0
  2
_OPEN
 10
2485.4088772169962
 20
1078.7154084908209
 30
0.0
 41
30.0
 42
30.0
 43
30.0
  0
TEXT
  8
3
  40
45
  5
8020
  62
0
  72
0
  71
0
 10
2187.03
 20
1036.57
 30
0.000000
  1
420
  0
POINT
  5
7FCF
  8
DEFPOINTS
  6
CONTINUOUS
 62
     0
 10
2065.4088772169962
 20
1177.7884554908219
 30
0.0
  0
POINT
  5
7FD0
  8
DEFPOINTS
  6
CONTINUOUS
 62
     0
 10
2485.4088772169962
 20
1177.7884554908219
 30
0.0
  0
POINT
  5
7FD1
  8
DEFPOINTS
  6
CONTINUOUS
 62
     0
 10
2485.4088772169962
 20
1078.7154084908209
 30
0.0
  0
ENDBLK
  5
7C74
  8
0
  0
BLOCK
  8
0
  2
*D14
 70
     1
 10
0.0
 20
0.0
 30
0.0
  3
*D14
  1

  0
LINE
  5
7FD2
  8
3
  6
CONTINUOUS
 62
     0
 10
2665.4088772169971
 20
1170.288455490821
 30
0.0
 11
2665.4088772169971
 21
1063.7154084908209
 31
0.0
  0
LINE
  5
7FD3
  8
3
  6
CONTINUOUS
 62
     0
 10
2515.4088772169962
 20
1078.7154084908209
 30
0.0
 11
2635.4088772169962
 21
1078.7154084908209
 31
0.0
  0
TEXT
  8
3
  40
45
  5
8021
  62
0
  72
0
  71
0
 10
2483.48
 20
1036.33
 30
0.000000
  1
180
  0
INSERT
  5
7FD5
  8
3
  6
CONTINUOUS
 62
     0
  2
_OPEN
 10
2485.4088772169962
 20
1078.7154084908209
 30
0.0
 41
30.0
 42
30.0
 43
30.0
 50
180.0
  0
INSERT
  5
7FD6
  8
3
  6
CONTINUOUS
 62
     0
  2
_OPEN
 10
2665.4088772169971
 20
1078.7154084908209
 30
0.0
 41
30.0
 42
30.0
 43
30.0
  0
POINT
  5
7FD7
  8
DEFPOINTS
  6
CONTINUOUS
 62
     0
 10
2485.4088772169962
 20
1177.7884554908219
 30
0.0
  0
POINT
  5
7FD8
  8
DEFPOINTS
  6
CONTINUOUS
 62
     0
 10
2665.4088772169971
 20
1177.7884554908219
 30
0.0
  0
POINT
  5
7FD9
  8
DEFPOINTS
  6
CONTINUOUS
 62
     0
 10
2665.4088772169971
 20
1078.7154084908209
 30
0.0
  0
ENDBLK
  5
7C99
  8
0
  0
BLOCK
  8
0
  2
*D15
 70
     1
 10
0.0
 20
0.0
 30
0.0
  3
*D15
  1

  0
LINE
  5
7FDA
  8
3
  6
CONTINUOUS
 62
     0
 10
2373.608877216996
 20
1883.2098024908221
 30
0.0
 11
2373.608877216996
 21
1949.688857490821
 31
0.0
  0
LINE
  5
7FDB
  8
3
  6
CONTINUOUS
 62
     0
 10
2597.4088772169962
 20
1880.3884554908209
 30
0.0
 11
2597.4088772169962
 21
1949.688857490821
 31
0.0
  0
LINE
  5
7FDC
  8
3
  6
CONTINUOUS
 62
     0
 10
2343.608877216996
 20
1934.6888574908221
 30
0.0
 11
2313.608877216996
 21
1934.6888574908221
 31
0.0
  0
LINE
  5
7FDD
  8
3
  6
CONTINUOUS
 62
     0
 10
2627.4088772169962
 20
1934.6888574908221
 30
0.0
 11
2657.4088772169971
 21
1934.6888574908221
 31
0.0
  0
LINE
  5
7FDE
  8
3
  6
CONTINUOUS
 62
     0
 10
2373.608877216996
 20
1934.6888574908221
 30
0.0
 11
2597.4088772169962
 21
1934.6888574908221
 31
0.0
  0
INSERT
  5
7FDF
  8
3
  6
CONTINUOUS
 62
     0
  2
_OPEN
 10
2373.608877216996
 20
1934.6888574908221
 30
0.0
 41
30.0
 42
30.0
 43
30.0
  0
INSERT
  5
7FE0
  8
3
  6
CONTINUOUS
 62
     0
  2
_OPEN
 10
2597.4088772169962
 20
1934.6888574908221
 30
0.0
 41
30.0
 42
30.0
 43
30.0
 50
180.0
  0
TEXT
  8
3
  40
45
  5
8022
  62
0
  72
0
  71
0
 10
2387.54
 20
1892.54
 30
0.000000
  1
224
  0
POINT
  5
7FE2
  8
DEFPOINTS
  6
CONTINUOUS
 62
     0
 10
2373.608877216996
 20
1875.7098024908221
 30
0.0
  0
POINT
  5
7FE3
  8
DEFPOINTS
  6
CONTINUOUS
 62
     0
 10
2597.4088772169962
 20
1872.8884554908209
 30
0.0
  0
POINT
  5
7FE4
  8
DEFPOINTS
  6
CONTINUOUS
 62
     0
 10
2597.4088772169962
 20
1934.6888574908221
 30
0.0
  0
ENDBLK
  5
7CA5
  8
0
  0
BLOCK
  8
0
  2
*D16
 70
     1
 10
0.0
 20
0.0
 30
0.0
  3
*D16
  1

  0
LINE
  5
7FE5
  8
3
  6
CONTINUOUS
 62
     0
 10
2065.4088772169962
 20
1906.788455490821
 30
0.0
 11
2065.4088772169962
 21
2050.7513524908209
 31
0.0
  0
LINE
  5
7FE6
  8
3
  6
CONTINUOUS
 62
     0
 10
2485.4088772169962
 20
2022.4944224908211
 30
0.0
 11
2485.4088772169962
 21
2050.7513524908209
 31
0.0
  0
LINE
  5
7FE7
  8
3
  6
CONTINUOUS
 62
     0
 10
2095.4088772169962
 20
2035.7513524908211
 30
0.0
 11
2455.4088772169962
 21
2035.7513524908211
 31
0.0
  0
INSERT
  5
7FE8
  8
3
  6
CONTINUOUS
 62
     0
  2
_OPEN
 10
2065.4088772169962
 20
2035.7513524908211
 30
0.0
 41
30.0
 42
30.0
 43
30.0
 50
180.0
  0
INSERT
  5
7FE9
  8
3
  6
CONTINUOUS
 62
     0
  2
_OPEN
 10
2485.4088772169962
 20
2035.7513524908211
 30
0.0
 41
30.0
 42
30.0
 43
30.0
  0
TEXT
  8
3
  40
45
  5
8023
  62
0
  72
0
  71
0
 10
2191.73
 20
2031.10
 30
0.000000
  1
MAX
  0
TEXT
  8
3
  40
45
  5
8024
  62
0
  72
0
  71
0
 10
2191.73
 20
1972.60
 30
0.000000
  1
420
  0
POINT
  5
7FEB
  8
DEFPOINTS
  6
CONTINUOUS
 62
     0
 10
2065.4088772169962
 20
1899.2884554908219
 30
0.0
  0
POINT
  5
7FEC
  8
DEFPOINTS
  6
CONTINUOUS
 62
     0
 10
2485.4088772169962
 20
2014.994422490822
 30
0.0
  0
POINT
  5
7FED
  8
DEFPOINTS
  6
CONTINUOUS
 62
     0
 10
2485.4088772169962
 20
2035.7513524908211
 30
0.0
  0
ENDBLK
  5
7E3A
  8
0
  0
BLOCK
  8
0
  2
*D17
 70
     1
 10
0.0
 20
0.0
 30
0.0
  3
*D17
  1

  0
LINE
  5
7FEE
  8
3
  6
CONTINUOUS
 62
     0
 10
2606.4088772169962
 20
1849.788455490821
 30
0.0
 11
2606.4088772169962
 21
2050.7513524908209
 31
0.0
  0
LINE
  5
7FEF
  8
3
  6
CONTINUOUS
 62
     0
 10
2515.4088772169962
 20
2035.7513524908211
 30
0.0
 11
2576.4088772169962
 21
2035.7513524908211
 31
0.0
  0
TEXT
  8
3
  40
45
  5
8025
  62
0
  72
0
  71
0
 10
2457.60
 20
1991.48
 30
0.000000
  1
121
  0
INSERT
  5
7FF1
  8
3
  6
CONTINUOUS
 62
     0
  2
_OPEN
 10
2485.4088772169962
 20
2035.7513524908211
 30
0.0
 41
30.0
 42
30.0
 43
30.0
 50
180.0
  0
INSERT
  5
7FF2
  8
3
  6
CONTINUOUS
 62
     0
  2
_OPEN
 10
2606.4088772169962
 20
2035.7513524908211
 30
0.0
 41
30.0
 42
30.0
 43
30.0
  0
POINT
  5
7FF3
  8
DEFPOINTS
  6
CONTINUOUS
 62
     0
 10
2485.4088772169962
 20
2014.994422490822
 30
0.0
  0
POINT
  5
7FF4
  8
DEFPOINTS
  6
CONTINUOUS
 62
     0
 10
2606.4088772169962
 20
1842.288455490821
 30
0.0
  0
POINT
  5
7FF5
  8
DEFPOINTS
  6
CONTINUOUS
 62
     0
 10
2606.4088772169962
 20
2035.7513524908211
 30
0.0
  0
ENDBLK
  5
7D52
  8
0
  0
BLOCK
  8
0
  2
*D18
 70
     1
 10
0.0
 20
0.0
 30
0.0
  3
*D18
  1

  0
LINE
  5
7FF6
  8
3
  6
CONTINUOUS
 62
     0
 10
2613.9088772169962
 20
1817.288455490821
 30
0.0
 11
2732.7790272169968
 21
1817.288455490821
 31
0.0
  0
LINE
  5
7FF7
  8
3
  6
CONTINUOUS
 62
     0
 10
2613.9088772169962
 20
1502.2884554908219
 30
0.0
 11
2732.7790272169968
 21
1502.2884554908219
 31
0.0
  0
LINE
  5
7FF8
  8
3
  6
CONTINUOUS
 62
     0
 10
2717.7790272169959
 20
1787.288455490821
 30
0.0
 11
2717.7790272169959
 21
1532.2884554908219
 31
0.0
  0
INSERT
  5
7FF9
  8
3
  6
CONTINUOUS
 62
     0
  2
_OPEN
 10
2717.7790272169959
 20
1817.288455490821
 30
0.0
 41
30.0
 42
30.0
 43
30.0
 50
90.0
  0
INSERT
  5
7FFA
  8
3
  6
CONTINUOUS
 62
     0
  2
_OPEN
 10
2717.7790272169959
 20
1502.2884554908219
 30
0.0
 41
30.0
 42
30.0
 43
30.0
 50
270.0
  0
TEXT
  8
3
  40
45
  5
8026
  62
0
  72
0
  71
0
 10
2590.28
 20
1568.11
 30
0.000000
  1
φ315
  0
POINT
  5
7FFC
  8
DEFPOINTS
  6
CONTINUOUS
 62
     0
 10
2606.4088772169962
 20
1817.288455490821
 30
0.0
  0
POINT
  5
7FFD
  8
DEFPOINTS
  6
CONTINUOUS
 62
     0
 10
2606.4088772169962
 20
1502.2884554908219
 30
0.0
  0
POINT
  5
7FFE
  8
DEFPOINTS
  6
CONTINUOUS
 62
     0
 10
2717.7790272169959
 20
1502.2884554908219
 30
0.0
  0
ENDBLK
  5
7E45
  8
0
  0
BLOCK
  8
0
  2
*D19
 70
     1
 10
0.0
 20
0.0
 30
0.0
  3
*D19
  1

  0
LINE
  5
7FFF
  8
3
  6
CONTINUOUS
 62
     0
 10
800.81157499999983
 20
1659.788455490821
 30
0.0
 11
636.55240491921199
 21
1659.788455490821
 31
0.0
  0
LINE
  5
8000
  8
3
  6
CONTINUOUS
 62
     0
 10
820.81157499999972
 20
1334.7884554908219
 30
0.0
 11
636.55240491921199
 21
1334.7884554908219
 31
0.0
  0
LINE
  5
8001
  8
3
  6
CONTINUOUS
 62
     0
 10
651.55240491921188
 20
1629.788455490821
 30
0.0
 11
651.55240491921188
 21
1364.788455490821
 31
0.0
  0
INSERT
  5
8002
  8
3
  6
CONTINUOUS
 62
     0
  2
_OPEN
 10
651.55240491921188
 20
1659.788455490821
 30
0.0
 41
30.0
 42
30.0
 43
30.0
 50
90.0
  0
INSERT
  5
8003
  8
3
  6
CONTINUOUS
 62
     0
  2
_OPEN
 10
651.55240491921188
 20
1334.7884554908219
 30
0.0
 41
30.0
 42
30.0
 43
30.0
 50
270.0
  0
TEXT
  8
3
  40
45
  5
8027
  62
0
  72
0
  71
0
 10
524.052
 20
1430.05
 30
0.000000
  1
325
  0
POINT
  5
8005
  8
DEFPOINTS
  6
CONTINUOUS
 62
     0
 10
808.31157499999972
 20
1659.788455490821
 30
0.0
  0
POINT
  5
8006
  8
DEFPOINTS
  6
CONTINUOUS
 62
     0
 10
828.31157499999961
 20
1334.7884554908219
 30
0.0
  0
POINT
  5
8007
  8
DEFPOINTS
  6
CONTINUOUS
 62
     0
 10
651.55240491921188
 20
1334.7884554908219
 30
0.0
  0
ENDBLK
  5
7DD7
  8
0
  0
BLOCK
  8
0
  2
_DOT
 70
     0
 10
0.0
 20
0.0
 30
0.0
  3
_DOT
  1

  0
LINE
  5
7E1E
  8
0
  6
BYBLOCK
 62
     0
 10
0.0
 20
0.0
 30
0.0
 11
-1.0
 21
-0.0000000000000284
 31
0.0
  0
POLYLINE
  5
7E1F
  8
0
  6
BYBLOCK
 62
     0
 66
     1
 10
0.0
 20
0.0
 30
0.0
 70
     1
 40
0.1666666666666666
 41
0.1666666666666666
  0
VERTEX
  5
8008
  8
0
  6
BYBLOCK
 62
     0
 10
-0.0833333333333286
 20
-0.0000000000000284
 30
0.0
 42
1.0
  0
VERTEX
  5
8009
  8
0
  6
BYBLOCK
 62
     0
 10
0.0833333333333286
 20
-0.0000000000000284
 30
0.0
 42
1.0
  0
SEQEND
  5
800A
  8
0
  6
BYBLOCK
 62
     0
  0
ENDBLK
  5
7E04
  8
0
  0
BLOCK
  8
0
  2
*D21
 70
     1
 10
0.0
 20
0.0
 30
0.0
  3
*D21
  1

  0
LINE
  5
800B
  8
3
 62
     0
 10
808.31157499999972
 20
1688.788455490821
 30
0.0
 11
808.31157499999972
 21
2029.3895762167911
 31
0.0
  0
LINE
  5
800C
  8
3
 62
     0
 10
1703.3115749999999
 20
1245.2884554908219
 30
0.0
 11
1703.3115749999999
 21
2029.3895762167911
 31
0.0
  0
LINE
  5
800D
  8
3
 62
     0
 10
838.31157499999983
 20
2014.3895762167911
 30
0.0
 11
1673.3115749999999
 21
2014.3895762167911
 31
0.0
  0
INSERT
  5
800E
  8
3
 62
     0
  2
_OPEN
 10
808.31157499999972
 20
2014.3895762167911
 30
0.0
 41
30.0
 42
30.0
 43
30.0
 50
180.0
  0
INSERT
  5
800F
  8
3
 62
     0
  2
_OPEN
 10
1703.3115749999999
 20
2014.3895762167911
 30
0.0
 41
30.0
 42
30.0
 43
30.0
  0
TEXT
  8
3
  40
45
  5
8028
  62
0
  72
0
  71
0
 10
1154.57
 20
1972.24
 30
0.000000
  1
895
  0
POINT
  5
8011
  8
DEFPOINTS
 62
     0
 10
808.31157499999972
 20
1681.2884554908219
 30
0.0
  0
POINT
  5
8012
  8
DEFPOINTS
 62
     0
 10
1703.3115749999999
 20
1237.7884554908219
 30
0.0
  0
POINT
  5
8013
  8
DEFPOINTS
 62
     0
 10
1703.3115749999999
 20
2014.3895762167911
 30
0.0
  0
ENDBLK
  5
7E2E
  8
0
  0
ENDSEC
  0
SECTION
  2
ENTITIES
  0
LINE
  5
7A9C
  8
1
  6
CONTINUOUS
 10
1346.3115749999999
 20
3000.9542939211092
 30
0.0
 11
1703.3115749999999
 21
3000.9542939211092
 31
0.0
  0
LINE
  5
7A9D
  8
1
  6
CONTINUOUS
 10
1703.3115749999999
 20
1237.7884554908219
 30
0.0
 11
793.31157499999972
 21
1237.7884554908219
 31
0.0
  0
LINE
  5
7A9E
  8
1
  6
CONTINUOUS
 10
1703.3115749999999
 20
1207.7884554908219
 30
0.0
 11
793.31157499999972
 21
1207.7884554908219
 31
0.0
  0
LINE
  5
7A9F
  8
1
  6
CONTINUOUS
 10
1673.311574999999
 20
1329.788455490821
 30
0.0
 11
823.31157499999972
 21
1329.788455490821
 31
0.0
  0
LINE
  5
7AA0
  8
1
  6
CONTINUOUS
 10
1673.311574999999
 20
1259.7884554908219
 30
0.0
 11
823.31157499999972
 21
1259.7884554908219
 31
0.0
  0
LINE
  5
7AA1
  8
1
  6
CONTINUOUS
 10
1643.3115749999999
 20
1349.7884554908219
 30
0.0
 11
1328.311574999999
 21
1349.7884554908219
 31
0.0
  0
LINE
  5
7AA2
  8
1
  6
CONTINUOUS
 10
1703.3115749999999
 20
2685.9542939211092
 30
0.0
 11
1541.311574999999
 21
2685.9542939211092
 31
0.0
  0
LINE
  5
7AA3
  8
1
  6
CONTINUOUS
 10
1113.811574999999
 20
1899.2884554908219
 30
0.0
 11
1643.811574999999
 21
1549.288455490821
 31
0.0
  0
LINE
  5
7AA4
  8
1
  6
CONTINUOUS
 10
1643.8115749999999
 20
2580.9542939211092
 30
0.0
 11
913.81157499999983
 21
2580.9542939211092
 31
0.0
  0
LINE
  5
7AA5
  8
1
  6
CONTINUOUS
 10
1643.8115749999999
 20
2665.9542939211092
 30
0.0
 11
913.81157499999983
 21
2665.9542939211092
 31
0.0
  0
CIRCLE
  5
7AA6
  8
1
  6
CONTINUOUS
 10
1058.311574999999
 20
1659.788455490821
 30
0.0
 40
157.5
  0
LINE
  5
7AA7
  8
1
  6
CONTINUOUS
 10
1263.311574999999
 20
1623.288455490821
 30
0.0
 11
853.31157499999961
 21
1623.288455490821
 31
0.0
  0
LINE
  5
7AA8
  8
1
  6
CONTINUOUS
 10
1150.611574999999
 20
1839.7884554908219
 30
0.0
 11
1263.311574999999
 21
1745.1884554908211
 31
0.0
  0
CIRCLE
  5
7AA9
  8
1
  6
CONTINUOUS
 10
1058.311574999999
 20
1659.788455490821
 30
0.0
 40
182.5
  0
ARC
  5
7AAA
  8
1
  6
CONTINUOUS
 10
1079.311574999999
 20
1638.788455490821
 30
0.0
 40
253.0
 50
11.599999999999991
 51
81.799999999999983
  0
ARC
  5
7AAB
  8
1
  6
CONTINUOUS
 10
1032.811574999999
 20
1634.2884554908219
 30
0.0
 40
299.5
 50
270.0
 51
10.6
  0
LINE
  5
7AAC
  8
1
  6
CONTINUOUS
 10
1552.711575
 20
1487.3884554908209
 30
0.0
 11
1086.311574999999
 21
1716.7884554908219
 31
0.0
  0
LINE
  5
7AAD
  8
1
  6
CONTINUOUS
 10
1507.811574999999
 20
1391.2884554908219
 30
0.0
 11
1032.6115749999999
 21
1601.688455490822
 31
0.0
  0
LINE
  5
7AAE
  8
1
  6
CONTINUOUS
 10
808.31157499999972
 20
1681.2884554908219
 30
0.0
 11
808.31157499999972
 21
1323.288455490821
 31
0.0
  0
LINE
  5
7AAF
  8
1
  6
CONTINUOUS
 10
853.31157499999961
 20
1329.788455490821
 30
0.0
 11
853.31157499999961
 21
1745.1884554908211
 31
0.0
  0
LINE
  5
7AB0
  8
1
  6
CONTINUOUS
 10
913.81157499999972
 20
1769.288455490821
 30
0.0
 11
913.81157499999972
 21
1329.788455490821
 31
0.0
  0
LINE
  5
7AB1
  8
1
  6
CONTINUOUS
 10
828.31157499999961
 20
1629.788455490821
 30
0.0
 11
828.31157499999961
 21
1374.7884554908219
 31
0.0
  0
LINE
  5
7AB2
  8
1
  6
CONTINUOUS
 10
828.31157499999961
 20
1334.7884554908219
 30
0.0
 11
1032.811574999999
 21
1334.7884554908219
 31
0.0
  0
LINE
  5
7AB3
  8
1
  6
CONTINUOUS
 10
793.31157499999972
 20
1177.7884554908219
 30
0.0
 11
793.31157499999972
 21
1237.7884554908219
 31
0.0
  0
LINE
  5
7AB4
  8
1
  6
CONTINUOUS
 10
808.31157499999972
 20
1344.7884554908219
 30
0.0
 11
828.31157499999961
 21
1344.7884554908219
 31
0.0
  0
LINE
  5
7AB5
  8
1
  6
CONTINUOUS
 10
823.31157499999972
 20
1329.788455490821
 30
0.0
 11
823.31157499999972
 21
1259.7884554908219
 31
0.0
  0
LINE
  5
7AB6
  8
1
  6
CONTINUOUS
 10
808.31157499999972
 20
1354.7884554908219
 30
0.0
 11
828.31157499999961
 21
1374.7884554908219
 31
0.0
  0
LINE
  5
7AB7
  8
1
  6
CONTINUOUS
 10
828.31157499999961
 20
1344.7884554908219
 30
0.0
 11
828.31157499999961
 21
1334.7884554908219
 31
0.0
  0
LINE
  5
7AB8
  8
1
  6
CONTINUOUS
 10
823.31157499999972
 20
1177.7884554908219
 30
0.0
 11
823.31157499999972
 21
1207.7884554908219
 31
0.0
  0
LINE
  5
7AB9
  8
1
  6
CONTINUOUS
 10
823.31157499999972
 20
1177.7884554908219
 30
0.0
 11
793.31157499999972
 21
1177.7884554908219
 31
0.0
  0
LINE
  5
7ABA
  8
1
  6
CONTINUOUS
 10
1150.611574999999
 20
1839.7884554908219
 30
0.0
 11
966.01157500000011
 21
1839.7884554908219
 31
0.0
  0
LINE
  5
7ABB
  8
1
  6
CONTINUOUS
 10
913.81157499999972
 20
1769.288455490821
 30
0.0
 11
1113.811574999999
 21
1899.2884554908219
 31
0.0
  0
ARC
  5
7ABC
  8
1
  6
CONTINUOUS
 10
1076.311574999999
 20
1677.7884554908219
 30
0.0
 40
215.0
 50
79.400000000000006
 51
171.40000000000001
  0
LINE
  5
7ABD
  8
1
  6
CONTINUOUS
 10
966.01157500000011
 20
1839.7884554908219
 30
0.0
 11
853.31157499999961
 21
1745.1884554908211
 31
0.0
  0
LINE
  5
7ABE
  8
1
  6
CONTINUOUS
 10
828.31157499999961
 20
1659.788455490821
 30
0.0
 11
808.31157499999972
 21
1659.788455490821
 31
0.0
  0
LINE
  5
7ABF
  8
1
  6
CONTINUOUS
 10
808.31157499999972
 20
1649.788455490821
 30
0.0
 11
828.31157499999961
 21
1629.788455490821
 31
0.0
  0
ARC
  5
7AC0
  8
1
  6
CONTINUOUS
 10
790.31157499999972
 20
1736.788455490821
 30
0.0
 40
78.0
 50
299.19999999999987
 51
341.19999999999987
  0
LINE
  5
7AC1
  8
1
  6
CONTINUOUS
 10
828.31157499999961
 20
1668.688455490822
 30
0.0
 11
828.31157499999961
 21
1659.788455490821
 31
0.0
  0
LINE
  5
7AC2
  8
2
  6
CENTER
 10
2624.5345462169962
 20
1659.788455490821
 30
0.0
 11
2041.634745216996
 21
1659.788455490821
 31
0.0
  0
CIRCLE
  5
7AC3
  8
1
  6
CONTINUOUS
 10
1058.311574999999
 20
1659.788455490821
 30
0.0
 40
63.5
  0
LINE
  5
7AC4
  8
2
  6
CENTER
 10
1058.311574999999
 20
1161.4847374908211
 30
0.0
 11
1058.311574999999
 21
1917.523260490821
 31
0.0
  0
LINE
  5
7AC5
  8
1
  6
CONTINUOUS
 10
1263.311574999999
 20
1329.788455490821
 30
0.0
 11
1263.311574999999
 21
1745.1884554908211
 31
0.0
  0
LINE
  5
7AC6
  8
2
  6
CENTER
 10
1529.311574999999
 20
1386.7884554908219
 30
0.0
 11
1529.311574999999
 21
1492.788455490821
 31
0.0
  0
CIRCLE
  5
7AC7
  8
1
  6
CONTINUOUS
 10
1529.311574999999
 20
1439.7884554908219
 30
0.0
 40
53.0
  0
ARC
  5
7AC8
  8
1
  6
CONTINUOUS
 10
1529.311574999999
 20
1439.7884554908219
 30
0.0
 40
101.0
 50
322.89999999999992
 51
217.09999999999991
  0
LINE
  5
7AC9
  8
1
  6
CONTINUOUS
 10
1328.311574999999
 20
1329.788455490821
 30
0.0
 11
1328.311574999999
 21
1349.7884554908219
 31
0.0
  0
LINE
  5
7ACA
  8
2
  6
CENTER
 10
1582.311574999999
 20
1439.7884554908219
 30
0.0
 11
1476.311574999999
 21
1439.7884554908219
 31
0.0
  0
LINE
  5
7ACB
  8
1
  6
CONTINUOUS
 10
1437.4115750000001
 20
1349.7884554908219
 30
0.0
 11
1448.811574999999
 21
1378.7884554908219
 31
0.0
  0
LINE
  5
7ACC
  8
1
  6
CONTINUOUS
 10
1621.211575
 20
1349.7884554908219
 30
0.0
 11
1609.811574999999
 21
1378.7884554908219
 31
0.0
  0
LINE
  5
7ACD
  8
1
  6
CONTINUOUS
 10
1239.3115749999999
 20
2879.154293921109
 30
0.0
 11
1077.3115749999999
 21
2879.154293921109
 31
0.0
  0
LINE
  5
7ACE
  8
1
  6
CONTINUOUS
 10
1240.8115749999999
 20
3121.9542939211101
 30
0.0
 11
875.81157499999995
 21
3121.9542939211101
 31
0.0
  0
LINE
  5
7ACF
  8
1
  6
CONTINUOUS
 10
1263.3115749999999
 20
2879.154293921109
 30
0.0
 11
853.31157499999995
 21
2879.154293921109
 31
0.0
  0
LINE
  5
7AD0
  8
1
  6
CONTINUOUS
 10
1326.3115749999999
 20
3112.9542939211092
 30
0.0
 11
808.31157499999995
 21
3112.9542939211092
 31
0.0
  0
LINE
  5
7AD1
  8
1
  6
CONTINUOUS
 10
808.31157499999995
 20
2888.9542939211092
 30
0.0
 11
1326.3115749999999
 21
2888.9542939211092
 31
0.0
  0
LINE
  5
7AD2
  8
1
  6
CONTINUOUS
 10
1263.3115749999999
 20
2715.9542939211092
 30
0.0
 11
1070.3115749999999
 21
2715.9542939211092
 31
0.0
  0
LINE
  5
7AD3
  8
1
  6
CONTINUOUS
 10
1517.311574999999
 20
2685.9542939211092
 30
0.0
 11
1070.3115749999999
 21
2685.9542939211092
 31
0.0
  0
LINE
  5
7AD4
  8
1
  6
CONTINUOUS
 10
793.31157499999995
 20
2580.9542939211092
 30
0.0
 11
793.31157499999995
 21
3180.9542939211092
 31
0.0
  0
LINE
  5
7AD5
  8
1
  6
CONTINUOUS
 10
808.31157499999995
 20
3133.9542939211092
 30
0.0
 11
808.31157499999995
 21
2867.9542939211092
 31
0.0
  0
LINE
  5
7AD6
  8
1
  6
CONTINUOUS
 10
828.31157499999995
 20
3083.9542939211092
 30
0.0
 11
828.31157499999995
 21
2917.9542939211092
 31
0.0
  0
LINE
  5
7AD7
  8
1
  6
CONTINUOUS
 10
1046.3115749999999
 20
2685.9542939211092
 30
0.0
 11
793.31157499999995
 21
2685.9542939211092
 31
0.0
  0
LINE
  5
7AD8
  8
1
  6
CONTINUOUS
 10
1046.3115749999999
 20
2715.9542939211092
 30
0.0
 11
853.31157499999995
 21
2715.9542939211092
 31
0.0
  0
LINE
  5
7AD9
  8
1
  6
CONTINUOUS
 10
913.81157499999983
 20
2665.9542939211092
 30
0.0
 11
913.81157499999983
 21
2580.9542939211092
 31
0.0
  0
LINE
  5
7ADA
  8
1
  6
CONTINUOUS
 10
823.31157499999995
 20
2685.9542939211092
 30
0.0
 11
823.31157499999995
 21
2580.9542939211092
 31
0.0
  0
LINE
  5
7ADB
  8
1
  6
CONTINUOUS
 10
793.31157499999995
 20
2580.9542939211092
 30
0.0
 11
823.31157499999995
 21
2580.9542939211092
 31
0.0
  0
LINE
  5
7ADC
  8
1
  6
CONTINUOUS
 10
853.31157499999995
 20
2715.9542939211092
 30
0.0
 11
853.31157499999995
 21
2879.154293921109
 31
0.0
  0
LINE
  5
7ADD
  8
1
  6
CONTINUOUS
 10
808.31157499999995
 20
2897.9542939211101
 30
0.0
 11
828.31157499999995
 21
2917.9542939211092
 31
0.0
  0
LINE
  5
7ADE
  8
1
  6
CONTINUOUS
 10
875.81157499999995
 20
2879.154293921109
 30
0.0
 11
875.81157499999995
 21
2888.9542939211092
 31
0.0
  0
LINE
  5
7ADF
  8
1
  6
CONTINUOUS
 10
1070.3115749999999
 20
2879.154293921109
 30
0.0
 11
1070.3115749999999
 21
2642.4542939211092
 31
0.0
  0
LINE
  5
7AE0
  8
1
  6
CONTINUOUS
 10
1046.3115749999999
 20
2879.154293921109
 30
0.0
 11
1046.3115749999999
 21
2642.4542939211092
 31
0.0
  0
LINE
  5
7AE1
  8
1
  6
CONTINUOUS
 10
994.81157499999995
 20
2642.4542939211092
 30
0.0
 11
1121.811574999999
 21
2642.4542939211092
 31
0.0
  0
LINE
  5
7AE2
  8
1
  6
CONTINUOUS
 10
1121.811574999999
 20
2607.4542939211092
 30
0.0
 11
994.81157499999995
 21
2607.4542939211092
 31
0.0
  0
LINE
  5
7AE3
  8
1
  6
CONTINUOUS
 10
994.81157499999995
 20
2607.4542939211092
 30
0.0
 11
994.81157499999995
 21
2642.4542939211092
 31
0.0
  0
LINE
  5
7AE4
  8
1
  6
CONTINUOUS
 10
1121.811574999999
 20
2642.4542939211092
 30
0.0
 11
1121.811574999999
 21
2607.4542939211092
 31
0.0
  0
LINE
  5
7AE5
  8
1
  6
CONTINUOUS
 10
793.31157499999995
 20
3000.9542939211092
 30
0.0
 11
808.31157499999995
 21
3000.9542939211092
 31
0.0
  0
LINE
  5
7AE6
  8
1
  6
CONTINUOUS
 10
808.31157499999995
 20
3103.9542939211092
 30
0.0
 11
828.31157499999995
 21
3083.9542939211092
 31
0.0
  0
LINE
  5
7AE7
  8
1
  6
CONTINUOUS
 10
823.31157499999995
 20
3180.9542939211092
 30
0.0
 11
823.31157499999995
 21
3112.9542939211092
 31
0.0
  0
LINE
  5
7AE8
  8
1
  6
CONTINUOUS
 10
793.31157499999995
 20
3180.9542939211092
 30
0.0
 11
823.31157499999995
 21
3180.9542939211092
 31
0.0
  0
LINE
  5
7AE9
  8
1
  6
CONTINUOUS
 10
875.81157499999995
 20
3121.9542939211101
 30
0.0
 11
875.81157499999995
 21
3113.7542939211089
 31
0.0
  0
LINE
  5
7AEA
  8
1
  6
CONTINUOUS
 10
1346.3115749999999
 20
3092.9542939211092
 30
0.0
 11
1346.3115749999999
 21
2908.9542939211092
 31
0.0
  0
LINE
  5
7AEB
  8
1
  6
CONTINUOUS
 10
1619.3115749999999
 20
2974.4542939211092
 30
0.0
 11
1619.3115749999999
 21
2702.4542939211101
 31
0.0
  0
LINE
  5
7AEC
  8
1
  6
CONTINUOUS
 10
1428.3115749999999
 20
2702.4542939211101
 30
0.0
 11
1428.3115749999999
 21
2974.4542939211092
 31
0.0
  0
LINE
  5
7AED
  8
1
  6
CONTINUOUS
 10
1240.8115749999999
 20
2879.154293921109
 30
0.0
 11
1240.8115749999999
 21
2888.9542939211092
 31
0.0
  0
LINE
  5
7AEE
  8
1
  6
CONTINUOUS
 10
1263.3115749999999
 20
2715.9542939211092
 30
0.0
 11
1263.3115749999999
 21
2879.154293921109
 31
0.0
  0
ARC
  5
7AEF
  8
1
  6
CONTINUOUS
 10
1326.3115749999999
 20
2908.9542939211092
 30
0.0
 40
20.0
 50
270.0
 51
0.0
  0
LINE
  5
7AF0
  8
1
  6
CONTINUOUS
 10
1517.311574999999
 20
2642.4542939211092
 30
0.0
 11
1517.311574999999
 21
2702.4542939211101
 31
0.0
  0
LINE
  5
7AF1
  8
1
  6
CONTINUOUS
 10
1541.311574999999
 20
2642.4542939211092
 30
0.0
 11
1541.311574999999
 21
2702.4542939211101
 31
0.0
  0
LINE
  5
7AF2
  8
1
  6
CONTINUOUS
 10
1517.311574999999
 20
2607.4542939211092
 30
0.0
 11
1541.311574999999
 21
2607.4542939211092
 31
0.0
  0
LINE
  5
7AF3
  8
1
  6
CONTINUOUS
 10
1592.811574999999
 20
2607.4542939211092
 30
0.0
 11
1465.8115749999999
 21
2607.4542939211092
 31
0.0
  0
LINE
  5
7AF4
  8
1
  6
CONTINUOUS
 10
1465.8115749999999
 20
2642.4542939211092
 30
0.0
 11
1592.811574999999
 21
2642.4542939211092
 31
0.0
  0
LINE
  5
7AF5
  8
1
  6
CONTINUOUS
 10
1465.8115749999999
 20
2607.4542939211092
 30
0.0
 11
1465.8115749999999
 21
2642.4542939211092
 31
0.0
  0
LINE
  5
7AF6
  8
1
  6
CONTINUOUS
 10
1592.811574999999
 20
2642.4542939211092
 30
0.0
 11
1592.811574999999
 21
2607.4542939211092
 31
0.0
  0
LINE
  5
7AF7
  8
1
  6
CONTINUOUS
 10
1428.3115749999999
 20
2702.4542939211101
 30
0.0
 11
1619.3115749999999
 21
2702.4542939211101
 31
0.0
  0
LINE
  5
7AF8
  8
1
  6
CONTINUOUS
 10
1240.8115749999999
 20
3121.9542939211101
 30
0.0
 11
1240.8115749999999
 21
3113.7542939211089
 31
0.0
  0
ARC
  5
7AF9
  8
1
  6
CONTINUOUS
 10
1326.3115749999999
 20
3092.9542939211092
 30
0.0
 40
20.0
 50
0.0
 51
90.0
  0
LINE
  5
7AFA
  8
1
  6
CONTINUOUS
 10
1428.3115749999999
 20
2974.4542939211092
 30
0.0
 11
1619.3115749999999
 21
2974.4542939211092
 31
0.0
  0
LINE
  5
7AFB
  8
1
  6
CONTINUOUS
 10
1643.811574999999
 20
1549.288455490821
 30
0.0
 11
1643.811574999999
 21
1339.288455490821
 31
0.0
  0
LINE
  5
7AFC
  8
1
  6
CONTINUOUS
 10
1703.3115749999999
 20
1177.7884554908219
 30
0.0
 11
1703.3115749999999
 21
1237.7884554908219
 31
0.0
  0
LINE
  5
7AFD
  8
1
  6
CONTINUOUS
 10
1673.311574999999
 20
1329.788455490821
 30
0.0
 11
1673.311574999999
 21
1259.7884554908219
 31
0.0
  0
LINE
  5
7AFE
  8
1
  6
CONTINUOUS
 10
1643.3115749999999
 20
1329.788455490821
 30
0.0
 11
1643.3115749999999
 21
1349.7884554908219
 31
0.0
  0
LINE
  5
7AFF
  8
1
  6
CONTINUOUS
 10
1703.3115749999999
 20
1177.7884554908219
 30
0.0
 11
1673.311574999999
 21
1177.7884554908219
 31
0.0
  0
LINE
  5
7B00
  8
1
  6
CONTINUOUS
 10
1673.311574999999
 20
1177.7884554908219
 30
0.0
 11
1673.311574999999
 21
1207.7884554908219
 31
0.0
  0
LINE
  5
7B01
  8
1
  6
CONTINUOUS
 10
1703.3115749999999
 20
2580.9542939211092
 30
0.0
 11
1703.3115749999999
 21
3180.9542939211092
 31
0.0
  0
LINE
  5
7B02
  8
1
  6
CONTINUOUS
 10
1643.8115749999999
 20
2665.9542939211092
 30
0.0
 11
1643.8115749999999
 21
2580.9542939211092
 31
0.0
  0
LINE
  5
7B03
  8
1
  6
CONTINUOUS
 10
1673.3115749999999
 20
2685.9542939211092
 30
0.0
 11
1673.3115749999999
 21
2580.9542939211092
 31
0.0
  0
LINE
  5
7B04
  8
1
  6
CONTINUOUS
 10
1703.3115749999999
 20
2580.9542939211092
 30
0.0
 11
1673.3115749999999
 21
2580.9542939211092
 31
0.0
  0
LINE
  5
7B05
  8
1
  6
CONTINUOUS
 10
1703.3115749999999
 20
3180.9542939211092
 30
0.0
 11
1673.3115749999999
 21
3180.9542939211092
 31
0.0
  0
LINE
  5
7B06
  8
1
  6
CONTINUOUS
 10
1673.3115749999999
 20
3180.9542939211092
 30
0.0
 11
1673.3115749999999
 21
3000.9542939211092
 31
0.0
  0
LINE
  5
7B07
  8
1
  6
CONTINUOUS
 10
2065.4088772169962
 20
1207.7884554908219
 30
0.0
 11
2665.4088772169971
 21
1207.7884554908219
 31
0.0
  0
LINE
  5
7B08
  8
1
  6
CONTINUOUS
 10
2065.4088772169962
 20
1177.7884554908219
 30
0.0
 11
2665.4088772169971
 21
1177.7884554908219
 31
0.0
  0
LINE
  5
7B09
  8
1
  6
CONTINUOUS
 10
2597.4088772169962
 20
1343.8884554908209
 30
0.0
 11
2373.4088772169962
 21
1343.8884554908209
 31
0.0
  0
LINE
  5
7B0A
  8
1
  6
CONTINUOUS
 10
2597.4088772169962
 20
1660.888455490822
 30
0.0
 11
2373.4088772169962
 21
1660.888455490822
 31
0.0
  0
LINE
  5
7B0B
  8
1
  6
CONTINUOUS
 10
2577.4088772169962
 20
1892.888455490822
 30
0.0
 11
2393.4088772169962
 21
1892.888455490822
 31
0.0
  0
LINE
  5
7B0C
  8
1
  6
CONTINUOUS
 10
2373.4088772169962
 20
1343.8884554908209
 30
0.0
 11
2597.4088772169962
 21
1660.888455490822
 31
0.0
  0
LINE
  5
7B0D
  8
1
  6
CONTINUOUS
 10
2597.4088772169962
 20
1343.8884554908209
 30
0.0
 11
2373.4088772169962
 21
1660.888455490822
 31
0.0
  0
LINE
  5
7B11
  8
1
  6
CONTINUOUS
 10
2150.4088772169962
 20
1329.8884554908209
 30
0.0
 11
2150.4088772169962
 21
1899.2884554908219
 31
0.0
  0
LINE
  5
7B12
  8
1
  6
CONTINUOUS
 10
2065.4088772169962
 20
1329.8884554908209
 30
0.0
 11
2065.4088772169962
 21
1899.2884554908219
 31
0.0
  0
LINE
  5
7B13
  8
1
  6
CONTINUOUS
 10
2090.4088772169962
 20
1503.3884554908209
 30
0.0
 11
2090.4088772169962
 21
1376.3884554908209
 31
0.0
  0
LINE
  5
7B14
  8
1
  6
CONTINUOUS
 10
2125.4088772169971
 20
1376.3884554908209
 30
0.0
 11
2125.4088772169971
 21
1503.3884554908209
 31
0.0
  0
LINE
  5
7B15
  8
1
  6
CONTINUOUS
 10
2199.608877216996
 20
1620.7884554908219
 30
0.0
 11
2199.608877216996
 21
1329.788455490821
 31
0.0
  0
LINE
  5
7B16
  8
1
  6
CONTINUOUS
 10
2363.608877216996
 20
1842.3884554908209
 30
0.0
 11
2363.608877216996
 21
1329.788455490821
 31
0.0
  0
LINE
  5
7B17
  8
1
  6
CONTINUOUS
 10
2373.4088772169962
 20
1343.8884554908209
 30
0.0
 11
2373.4088772169962
 21
1872.8884554908209
 31
0.0
  0
LINE
  5
7B18
  8
1
  6
CONTINUOUS
 10
2170.4088772169962
 20
1259.7884554908219
 30
0.0
 11
2485.4088772169962
 21
1259.7884554908219
 31
0.0
  0
LINE
  5
7B19
  8
1
  6
CONTINUOUS
 10
2485.4088772169962
 20
1329.788455490821
 30
0.0
 11
2170.4088772169962
 21
1329.788455490821
 31
0.0
  0
LINE
  5
7B1A
  8
1
  6
CONTINUOUS
 10
2170.4088772169962
 20
1237.7884554908219
 30
0.0
 11
2485.4088772169962
 21
1237.7884554908219
 31
0.0
  0
LINE
  5
7B1B
  8
1
  6
CONTINUOUS
 10
2125.4088772169971
 20
1451.888455490822
 30
0.0
 11
2199.608877216996
 21
1451.888455490822
 31
0.0
  0
LINE
  5
7B1C
  8
1
  6
CONTINUOUS
 10
2125.4088772169971
 20
1427.888455490822
 30
0.0
 11
2199.608877216996
 21
1427.888455490822
 31
0.0
  0
LINE
  5
7B1D
  8
1
  6
CONTINUOUS
 10
2065.4088772169962
 20
1207.7884554908219
 30
0.0
 11
2065.4088772169962
 21
1177.7884554908219
 31
0.0
  0
LINE
  5
7B1E
  8
1
  6
CONTINUOUS
 10
2090.4088772169962
 20
1376.3884554908209
 30
0.0
 11
2125.4088772169971
 21
1376.3884554908209
 31
0.0
  0
LINE
  5
7B1F
  8
1
  6
CONTINUOUS
 10
2065.4088772169962
 20
1329.8884554908209
 30
0.0
 11
2150.4088772169962
 21
1329.8884554908209
 31
0.0
  0
LINE
  5
7B20
  8
1
  6
CONTINUOUS
 10
2170.4088772169962
 20
1329.788455490821
 30
0.0
 11
2170.4088772169962
 21
1259.7884554908219
 31
0.0
  0
LINE
  5
7B21
  8
1
  6
CONTINUOUS
 10
2170.4088772169962
 20
1237.7884554908219
 30
0.0
 11
2170.4088772169962
 21
1207.7884554908219
 31
0.0
  0
LINE
  5
7B22
  8
1
  6
CONTINUOUS
 10
2363.608877216996
 20
1477.288455490821
 30
0.0
 11
2373.608877216996
 21
1477.288455490821
 31
0.0
  0
LINE
  5
7B23
  8
1
  6
CONTINUOUS
 10
2485.4088772169962
 20
1259.7884554908219
 30
0.0
 11
2485.4088772169962
 21
1329.788455490821
 31
0.0
  0
LINE
  5
7B24
  8
1
  6
CONTINUOUS
 10
2485.4088772169962
 20
1207.7884554908219
 30
0.0
 11
2485.4088772169962
 21
1237.7884554908219
 31
0.0
  0
LINE
  5
7B25
  8
1
  6
CONTINUOUS
 10
2363.608877216996
 20
1746.988455490821
 30
0.0
 11
2199.608877216996
 21
1620.7884554908219
 31
0.0
  0
LINE
  5
7B26
  8
1
  6
CONTINUOUS
 10
2125.4088772169971
 20
1647.388455490822
 30
0.0
 11
2234.2088772169959
 21
1647.388455490822
 31
0.0
  0
LINE
  5
7B27
  8
1
  6
CONTINUOUS
 10
2125.4088772169971
 20
1672.388455490822
 30
0.0
 11
2266.608877216996
 21
1672.388455490822
 31
0.0
  0
LINE
  5
7B28
  8
1
  6
CONTINUOUS
 10
2125.4088772169971
 20
1503.3884554908209
 30
0.0
 11
2090.4088772169962
 21
1503.3884554908209
 31
0.0
  0
LINE
  5
7B29
  8
1
  6
CONTINUOUS
 10
2090.4088772169962
 20
1596.388455490822
 30
0.0
 11
2125.4088772169971
 21
1596.388455490822
 31
0.0
  0
LINE
  5
7B2A
  8
1
  6
CONTINUOUS
 10
2125.4088772169971
 20
1596.388455490822
 30
0.0
 11
2125.4088772169971
 21
1723.388455490822
 31
0.0
  0
LINE
  5
7B2B
  8
1
  6
CONTINUOUS
 10
2125.4088772169971
 20
1723.388455490822
 30
0.0
 11
2090.4088772169962
 21
1723.388455490822
 31
0.0
  0
LINE
  5
7B2C
  8
1
  6
CONTINUOUS
 10
2090.4088772169962
 20
1723.388455490822
 30
0.0
 11
2090.4088772169962
 21
1596.388455490822
 31
0.0
  0
LINE
  5
7B2D
  8
1
  6
CONTINUOUS
 10
2065.4088772169962
 20
1899.2884554908219
 30
0.0
 11
2150.4088772169962
 21
1899.2884554908219
 31
0.0
  0
LINE
  5
7B2E
  8
1
  6
CONTINUOUS
 10
2363.608877216996
 20
1840.788455490821
 30
0.0
 11
2363.608877216996
 21
1678.7884554908219
 31
0.0
  0
ARC
  5
7B2F
  8
1
  6
CONTINUOUS
 10
2393.4088772169962
 20
1872.8884554908209
 30
0.0
 40
20.0
 50
90.0
 51
180.0
  0
LINE
  5
7B30
  8
1
  6
CONTINUOUS
 10
2373.608877216996
 20
1877.888455490822
 30
0.0
 11
2373.608877216996
 21
1843.888455490822
 31
0.0
  0
LINE
  5
7B31
  8
1
  6
CONTINUOUS
 10
2363.608877216996
 20
1842.288455490821
 30
0.0
 11
2373.608877216996
 21
1842.288455490821
 31
0.0
  0
LINE
  5
7B32
  8
1
  6
CONTINUOUS
 10
2606.4088772169962
 20
1842.288455490821
 30
0.0
 11
2606.4088772169962
 21
1477.288455490821
 31
0.0
  0
LINE
  5
7B33
  8
1
  6
CONTINUOUS
 10
2597.4088772169962
 20
1872.8884554908209
 30
0.0
 11
2597.4088772169962
 21
1343.8884554908209
 31
0.0
  0
LINE
  5
7B34
  8
1
  6
CONTINUOUS
 10
2606.4088772169962
 20
1477.288455490821
 30
0.0
 11
2597.2088772169959
 21
1477.288455490821
 31
0.0
  0
LINE
  5
7B35
  8
1
  6
CONTINUOUS
 10
2665.4088772169971
 20
1207.7884554908219
 30
0.0
 11
2665.4088772169971
 21
1177.7884554908219
 31
0.0
  0
LINE
  5
7B36
  8
1
  6
CONTINUOUS
 10
2606.4088772169962
 20
1842.288455490821
 30
0.0
 11
2597.4088772169962
 21
1842.288455490821
 31
0.0
  0
ARC
  5
7B37
  8
1
  6
CONTINUOUS
 10
2577.4088772169962
 20
1872.8884554908209
 30
0.0
 40
20.0
 50
0.0
 51
90.0
  0
LINE
  5
7B38
  8
4
  6
CONTINUOUS
 10
2775.0
 20
750.0
 30
0.0
 11
2775.0
 21
450.0
 31
0.0
  0
LINE
  5
7B39
  8
4
  6
CONTINUOUS
 10
1725.0
 20
750.0
 30
0.0
 11
1725.0
 21
450.0
 31
0.0
  0
LINE
  5
7B3A
  8
4
  6
CONTINUOUS
 10
975.0
 20
750.0
 30
0.0
 11
975.0
 21
450.0
 31
0.0
  0
LINE
  5
7B3D
  8
4
  6
CONTINUOUS
 10
975.0
 20
450.0
 30
0.0
 11
2775.0
 21
450.0
 31
0.0
  0
LINE
  5
7B3E
  8
4
  6
CONTINUOUS
 10
975.0
 20
600.0
 30
0.0
 11
2775.0
 21
600.0
 31
0.0
  0
TEXT
  5
7B3F
  8
4
  6
CONTINUOUS
 10
1032.753121
 20
647.31453899999985
 30
0.0
 40
75.0
  1
機器名称
  0
TEXT
  5
7B40
  8
4
  6
CONTINUOUS
 10
1029.387158999999
 20
482.46773499999989
 30
0.0
 40
75.0
  1
機器型番
  0
TEXT
  5
7B41
  8
4
  6
CONTINUOUS
 10
1766.518118
 20
633.85765300000003
 30
0.0
 40
65.0
  1
ミツヤニューマルチファン
  0
TEXT
  5
7B42
  8
4
  6
CONTINUOUS
 10
1779.9817430000001
 20
475.73937599999999
 30
0.0
 40
75.0
  1
NM#2-1
  0
TEXT
  5
7B44
  8
4
  6
CONTINUOUS
 10
1165.5595209999999
 20
3575.1432619999991
 30
0.0
 40
81.0
  1
天井吊防振ベット
  0
TEXT
  5
7B45
  8
4
  6
CONTINUOUS
 10
474.25139000000001
 20
3800.8214640000001
 30
0.0
 40
108.0
  1
ベルト駆動式片吸込片持多翼ファン
  0
LINE
  5
7B46
  8
4
  6
CONTINUOUS
 10
375.0
 20
3704.1131310000001
 30
0.0
 11
2775.0
 21
3704.1131310000001
 31
0.0
  0
LINE
  5
7B47
  8
4
  6
CONTINUOUS
 10
375.0
 20
4004.1131310000001
 30
0.0
 11
2775.0
 21
4004.1131310000001
 31
0.0
  0
LINE
  5
7B48
  8
4
  6
CONTINUOUS
 10
975.0
 20
750.0
 30
0.0
 11
2775.0
 21
750.0
 31
0.0
  0
LINE
  5
7B49
  8
4
  6
CONTINUOUS
 10
375.0
 20
4004.1131310000001
 30
0.0
 11
375.0
 21
3704.1131310000001
 31
0.0
  0
TEXT
  5
7B4A
  8
4
  6
CONTINUOUS
 10
511.7712719999999
 20
3573.4792159999988
 30
0.0
 40
81.0
  1
右回転左横向
  0
TEXT
  5
7B4B
  8
4
  6
CONTINUOUS
 10
2203.454338999999
 20
4059.091621999999
 30
0.0
 40
84.0
  1
No.
  0
TEXT
  5
7B4C
  8
4
  6
CONTINUOUS
 10
2136.0197979999998
 20
3575.1432619999991
 30
0.0
 40
81.0
  1
縮尺：1/15
  0
LINE
  5
7B4D
  8
4
  6
CONTINUOUS
 10
2775.0
 20
4004.1131310000001
 30
0.0
 11
2775.0
 21
3704.1131310000001
 31
0.0
  0
LINE
  5
7B4F
  8
4
  6
CONTINUOUS
 10
2160.9261339999989
 20
4021.8953750000001
 30
0.0
 11
2160.9261339999989
 21
4179.978392
 31
0.0
  0
LINE
  5
7B50
  8
4
  6
CONTINUOUS
 10
2160.9261339999989
 20
4179.978392
 30
0.0
 11
2775.0
 21
4179.978392
 31
0.0
  0
LINE
  5
7B51
  8
4
  6
CONTINUOUS
 10
2775.0
 20
4179.978392
 30
0.0
 11
2775.0
 21
4021.8953750000001
 31
0.0
  0
LINE
  5
7B52
  8
4
  6
CONTINUOUS
 10
2775.0
 20
4021.8953750000001
 30
0.0
 11
2160.9261339999989
 21
4021.8953750000001
 31
0.0
  0
DIMENSION
  5
7B6A
  8
3
  6
CONTINUOUS
  2
*D1
 10
1058.311574999999
 20
1104.562581490821
 30
0.0
 11
935.00425600000017
 21
1104.562581490821
 31
0.0
 70
   128
 13
793.31157499999972
 23
1177.7884554908219
 33
0.0
 14
1058.311574999999
 24
1161.4847374908211
 34
0.0
1001
ACAD
1000
DSTYLE
1002
{
1070
   287
1070
     3
1070
   287
1070
     3
1070
    40
1040
15.0
1070
   143
1040
0.039
1070
   172
1070
     1
1070
   271
1070
     0
1070
   279
1070
     0
1070
   288
1070
     1
1002
}
  0
DIMENSION
  5
7B76
  8
3
  6
CONTINUOUS
  2
*D2
 10
1703.3115749999999
 20
1104.562581490821
 30
0.0
 11
1380.811574999999
 21
1142.062581490821
 31
0.0
 70
     0
 13
1058.311574999999
 23
1161.4847374908211
 33
0.0
 14
1703.3115749999999
 24
1177.7884554908219
 34
0.0
1001
ACAD
1000
DSTYLE
1002
{
1070
   287
1070
     4
1070
   287
1070
     4
1070
    40
1040
15.0
1070
    75
1070
     1
1070
   143
1040
0.039
1070
   172
1070
     1
1070
   271
1070
     0
1070
   279
1070
     1
1070
   288
1070
     1
1002
}
  0
DIMENSION
  5
7B83
  8
3
  6
CONTINUOUS
  2
*D3
 10
739.19837591921191
 20
1344.7884554908219
 30
0.0
 11
739.19837591921157
 21
1515.8634154908209
 31
0.0
 70
   128
 13
808.31157499999972
 23
1659.788455490821
 33
0.0
 14
808.31157499999972
 24
1344.7884554908219
 34
0.0
 50
90.0
1001
ACAD
1000
DSTYLE
1002
{
1070
   287
1070
     3
1070
   287
1070
     3
1070
    40
1040
15.0
1070
   143
1040
0.039
1070
   172
1070
     1
1070
   271
1070
     0
1070
   279
1070
     0
1070
   288
1070
     1
1002
}
  0
DIMENSION
  5
7B90
  8
3
  6
CONTINUOUS
  2
*D4
 10
578.29850700959673
 20
1659.788455490821
 30
0.0
 11
578.29850700959651
 21
1789.1764996336781
 31
0.0
 70
   128
 13
1058.311574999999
 23
1892.033642490821
 33
0.0
 14
808.31157499999972
 24
1659.788455490821
 34
0.0
 50
90.0
1001
ACAD
1000
DSTYLE
1002
{
1070
   287
1070
     3
1070
   287
1070
     3
1070
    40
1040
15.0
1070
   143
1040
0.039
1070
   172
1070
     1
1070
   271
1070
     0
1070
   279
1070
     0
1070
   288
1070
     1
1002
}
  0
DIMENSION
  5
7B9D
  8
3
  6
CONTINUOUS
  2
*D5
 10
578.29850700959651
 20
1259.7884554908219
 30
0.0
 11
540.79850700959628
 21
1459.7884554908219
 31
0.0
 70
     0
 13
808.31157499999972
 23
1659.788455490821
 33
0.0
 14
823.31157499999972
 24
1259.7884554908219
 34
0.0
 50
90.0
1001
ACAD
1000
DSTYLE
1002
{
1070
   287
1070
     4
1070
   287
1070
     4
1070
    40
1040
15.0
1070
    75
1070
     1
1070
   143
1040
0.039
1070
   172
1070
     1
1070
   271
1070
     0
1070
   279
1070
     1
1070
   288
1070
     1
1002
}
  0
DIMENSION
  5
7BAD
  8
3
  6
CONTINUOUS
  2
*D6
 10
578.29850700959651
 20
1207.7884554908219
 30
0.0
 11
566.53436500959651
 21
1245.580008490821
 31
0.0
 70
   128
 13
823.31157499999972
 23
1259.7884554908219
 33
0.0
 14
793.31157499999972
 24
1207.7884554908219
 34
0.0
 50
90.0
1001
ACAD
1000
DSTYLE
1002
{
1070
   287
1070
     4
1070
   287
1070
     4
1070
    40
1040
15.0
1070
    75
1070
     1
1070
   143
1040
0.039
1070
   172
1070
     1
1070
   271
1070
     0
1070
   279
1070
     1
1070
   288
1070
     1
1070
     7
1000
DOT
1002
}
  0
DIMENSION
  5
7BBD
  8
3
  6
CONTINUOUS
  2
*D7
 10
578.29850700959662
 20
1177.7884554908219
 30
0.0
 11
578.29850700959651
 21
1066.359884062251
 31
0.0
 70
   128
 13
793.31157499999972
 23
1207.7884554908219
 33
0.0
 14
793.31157499999972
 24
1177.7884554908219
 34
0.0
 50
90.0
1001
ACAD
1000
DSTYLE
1002
{
1070
   287
1070
     3
1070
   287
1070
     3
1070
    40
1040
15.0
1070
   143
1040
0.039
1070
   172
1070
     1
1070
   271
1070
     0
1070
   279
1070
     0
1070
   288
1070
     1
1070
     6
1000
DOT
1002
}
  0
DIMENSION
  5
7C32
  8
3
  6
CONTINUOUS
  2
*D8
 10
470.06828800959659
 20
1177.7884554908219
 30
0.0
 11
470.06828800959642
 21
1539.366320490821
 31
0.0
 70
   128
 13
1058.311574999999
 23
1892.033642490821
 33
0.0
 14
793.31157499999972
 24
1177.7884554908219
 34
0.0
 50
90.0
1001
ACAD
1000
DSTYLE
1002
{
1070
   287
1070
     3
1070
   287
1070
     3
1070
    40
1040
15.0
1070
   143
1040
0.039
1070
   172
1070
     1
1070
   271
1070
     0
1070
   279
1070
     0
1070
   288
1070
     1
1002
}
  0
DIMENSION
  5
7C3F
  8
3
  6
CONTINUOUS
  2
*D9
 10
1058.311574999999
 20
1932.332483490821
 30
0.0
 11
935.0042739999999
 21
1932.332483490821
 31
0.0
 70
   128
 13
808.31157499999972
 23
1681.2884554908219
 33
0.0
 14
1058.311574999999
 24
1892.033642490821
 34
0.0
1001
ACAD
1000
DSTYLE
1002
{
1070
   287
1070
     3
1070
   287
1070
     3
1070
    40
1040
15.0
1070
   143
1040
0.039
1070
   172
1070
     1
1070
   271
1070
     0
1070
   279
1070
     0
1070
   288
1070
     1
1002
}
  0
DIMENSION
  5
7C4B
  8
3
  6
CONTINUOUS
  2
*D10
 10
1332.311574999999
 20
1932.332483490821
 30
0.0
 11
1195.311574999999
 21
1969.832483490821
 31
0.0
 70
     0
 13
1058.311574999999
 23
1892.033642490821
 33
0.0
 14
1332.311574999999
 24
1634.2884554908219
 34
0.0
1001
ACAD
1000
DSTYLE
1002
{
1070
   287
1070
     4
1070
   287
1070
     4
1070
    40
1040
15.0
1070
    75
1070
     1
1070
   143
1040
0.039
1070
   172
1070
     1
1070
   271
1070
     0
1070
   279
1070
     1
1070
   288
1070
     1
1002
}
  0
DIMENSION
  5
7C58
  8
3
  6
CONTINUOUS
  2
*D11
 10
1703.3115749999999
 20
2446.7514569211089
 30
0.0
 11
1247.930826
 21
2446.7514569211089
 31
0.0
 70
   128
 13
793.31157499999995
 23
2580.9542939211092
 33
0.0
 14
1703.3115749999999
 24
2580.9542939211092
 34
0.0
1001
ACAD
1000
DSTYLE
1002
{
1070
   287
1070
     3
1070
   287
1070
     3
1070
    40
1040
15.0
1070
   143
1040
0.039
1070
   172
1070
     1
1070
   271
1070
     0
1070
   279
1070
     0
1070
   288
1070
     1
1002
}
  0
DIMENSION
  5
7C65
  8
3
  6
CONTINUOUS
  2
*D12
 10
1862.4896570000001
 20
2580.9542939211092
 30
0.0
 11
1862.4896570000001
 21
2877.3222779211092
 31
0.0
 70
   128
 13
1703.3115749999999
 23
3180.9542939211092
 33
0.0
 14
1703.3115749999999
 24
2580.9542939211092
 34
0.0
 50
90.0
1001
ACAD
1000
DSTYLE
1002
{
1070
   287
1070
     3
1070
   287
1070
     3
1070
    40
1040
15.0
1070
   143
1040
0.039
1070
   172
1070
     1
1070
   271
1070
     0
1070
   279
1070
     0
1070
   288
1070
     1
1002
}
  0
LINE
  5
7C66
  8
2
  6
CENTER
 10
1391.015359999999
 20
3000.9542939211092
 30
0.0
 11
744.89482399999986
 21
3000.9542939211092
 31
0.0
  0
LINE
  5
7C67
  8
2
  6
CENTER
 10
1058.3115749999999
 20
2552.2807119211102
 30
0.0
 11
1058.3115749999999
 21
3186.0435829211092
 31
0.0
  0
LINE
  5
7C68
  8
2
  6
CENTER
 10
2485.4088772169962
 20
1941.738786490821
 30
0.0
 11
2485.4088772169962
 21
1116.320055490821
 31
0.0
  0
DIMENSION
  5
7C75
  8
3
  6
CONTINUOUS
  2
*D13
 10
2485.4088772169962
 20
1078.7154084908209
 30
0.0
 11
2277.0270942169959
 21
1078.7154084908209
 31
0.0
 70
   128
 13
2065.4088772169962
 23
1177.7884554908219
 33
0.0
 14
2485.4088772169962
 24
1177.7884554908219
 34
0.0
1001
ACAD
1000
DSTYLE
1002
{
1070
   287
1070
     3
1070
   287
1070
     3
1070
    40
1040
15.0
1070
   143
1040
0.039
1070
   172
1070
     1
1070
   271
1070
     0
1070
   279
1070
     0
1070
   288
1070
     1
1002
}
  0
DIMENSION
  5
7C83
  8
3
  6
CONTINUOUS
  2
*D14
 10
2665.4088772169971
 20
1078.7154084908209
 30
0.0
 11
2573.483833216997
 21
1078.4815874908211
 31
0.0
 70
   128
 13
2485.4088772169962
 23
1177.7884554908219
 33
0.0
 14
2665.4088772169971
 24
1177.7884554908219
 34
0.0
1001
ACAD
1000
DSTYLE
1002
{
1070
   287
1070
     4
1070
   287
1070
     4
1070
    40
1040
15.0
1070
    75
1070
     1
1070
   143
1040
0.039
1070
   172
1070
     1
1070
   271
1070
     0
1070
   279
1070
     1
1070
   288
1070
     1
1002
}
  0
DIMENSION
  5
7CA6
  8
3
  6
CONTINUOUS
  2
*D15
 10
2597.4088772169962
 20
1934.6888574908221
 30
0.0
 11
2477.5374482169959
 21
1934.6888574908221
 31
0.0
 70
   128
 13
2373.608877216996
 23
1875.7098024908221
 33
0.0
 14
2597.4088772169962
 24
1872.8884554908209
 34
0.0
1001
ACAD
1000
DSTYLE
1002
{
1070
   287
1070
     3
1070
   287
1070
     3
1070
    40
1040
15.0
1070
   143
1040
0.039
1070
   172
1070
     1
1070
   271
1070
     0
1070
   279
1070
     0
1070
   288
1070
     1
1002
}
  0
DIMENSION
  5
7CB3
  8
3
  6
CONTINUOUS
  2
*D16
 10
2485.4088772169962
 20
2035.7513524908211
 30
0.0
 11
2281.7327472169959
 21
2035.7513524908211
 31
0.0
 70
   128
  1
MAX\P420
 13
2065.4088772169962
 23
1899.2884554908219
 33
0.0
 14
2485.4088772169962
 24
2014.994422490822
 34
0.0
1001
ACAD
1000
DSTYLE
1002
{
1070
   287
1070
     3
1070
   287
1070
     3
1070
    40
1040
15.0
1070
   143
1040
0.039
1070
   172
1070
     1
1070
   271
1070
     0
1070
   279
1070
     0
1070
   288
1070
     1
1002
}
  0
DIMENSION
  5
7CC1
  8
3
  6
CONTINUOUS
  2
*D17
 10
2606.4088772169962
 20
2035.7513524908211
 30
0.0
 11
2547.6026782169961
 21
2033.6348984908209
 31
0.0
 70
   128
 13
2485.4088772169962
 23
2014.994422490822
 33
0.0
 14
2606.4088772169962
 24
1842.288455490821
 34
0.0
1001
ACAD
1000
DSTYLE
1002
{
1070
   287
1070
     4
1070
   287
1070
     4
1070
    40
1040
15.0
1070
    75
1070
     1
1070
   143
1040
0.039
1070
   172
1070
     1
1070
   271
1070
     0
1070
   279
1070
     1
1070
   288
1070
     1
1002
}
  0
LINE
  5
7CD9
  8
3
  6
CONTINUOUS
 10
2606.4088772169962
 20
1817.288455490821
 30
0.0
 11
2624.384191216996
 21
1817.288455490821
 31
0.0
  0
LINE
  5
7CDB
  8
3
  6
CONTINUOUS
 10
2606.4088772169962
 20
1502.2884554908219
 30
0.0
 11
2625.5516332169959
 21
1502.2884554908219
 31
0.0
  0
DIMENSION
  5
7CE8
  8
3
  6
CONTINUOUS
  2
*D18
 10
2717.7790272169959
 20
1502.2884554908219
 30
0.0
 11
2717.7790272169959
 21
1647.7644494908211
 31
0.0
 70
   128
 13
2606.4088772169962
 23
1817.288455490821
 33
0.0
 14
2606.4088772169962
 24
1502.2884554908219
 34
0.0
 50
90.0
1001
ACAD
1000
DSTYLE
1002
{
1070
   287
1070
     3
1070
   287
1070
     3
1070
     3
1000
φ<>
1070
    40
1040
15.0
1070
   143
1040
0.039
1070
   172
1070
     1
1070
   271
1070
     0
1070
   279
1070
     0
1070
   288
1070
     1
1002
}
  0
LINE
  5
7CE9
  8
2
  6
CENTER
 10
1588.619668
 20
1659.788455490821
 30
0.0
 11
783.05678900000009
 21
1659.788455490821
 31
0.0
  0
DIMENSION
  5
7D38
  8
3
  6
CONTINUOUS
  2
*D19
 10
651.55240491921188
 20
1334.7884554908219
 30
0.0
 11
651.55240491921177
 21
1509.7018114908219
 31
0.0
 70
   128
 13
808.31157499999972
 23
1659.788455490821
 33
0.0
 14
828.31157499999961
 24
1334.7884554908219
 34
0.0
 50
90.0
1001
ACAD
1000
DSTYLE
1002
{
1070
   287
1070
     3
1070
   287
1070
     3
1070
    40
1040
15.0
1070
   143
1040
0.039
1070
   172
1070
     1
1070
   271
1070
     0
1070
   279
1070
     0
1070
   288
1070
     1
1002
}
  0
DIMENSION
  5
7E2F
  8
3
  2
*D21
 10
1703.3115749999999
 20
2014.3895762167911
 30
0.0
 11
1244.5744127048961
 21
2014.3895762167911
 31
0.0
 70
   128
 13
808.31157499999972
 23
1681.2884554908219
 33
0.0
 14
1703.3115749999999
 24
1237.7884554908219
 34
0.0
1001
ACAD
1000
DSTYLE
1002
{
1070
   287
1070
     3
1070
   287
1070
     3
1070
    40
1040
15.0
1070
   143
1040
0.039
1070
   172
1070
     1
1070
   271
1070
     0
1070
   279
1070
     0
1070
   288
1070
     1
1002
}
  0
ENDSEC
  0
EOF
