  0
SECTION
  2
HEADER
  9
$ACADVER
  1
AC1009
  9
$INSBASE
 10
0.0
 20
0.0
 30
0.0
  9
$EXTMIN
 10
375.0
 20
450.0
 30
0.0
  9
$EXTMAX
 10
2775.0
 20
4179.978392
 30
0.0
  9
$LIMMIN
 10
0.0
 20
0.0
  9
$LIMMAX
 10
297.0
 20
210.0
  9
$ORTHOMODE
 70
     0
  9
$REGENMODE
 70
     1
  9
$FILLMODE
 70
     0
  9
$QTEXTMODE
 70
     0
  9
$MIRRTEXT
 70
     1
  9
$DRAGMODE
 70
     2
  9
$LTSCALE
 40
100.0
  9
$OSMODE
 70
    37
  9
$ATTMODE
 70
     1
  9
$TEXTSIZE
 40
180.0
  9
$TRACEWID
 40
0.05
  9
$TEXTSTYLE
  7
STANDARD
  9
$CLAYER
  8
3
  9
$CELTYPE
  6
BYLAYER
  9
$CECOLOR
 62
   256
  9
$DIMSCALE
 40
15.0
  9
$DIMASZ
 40
2.0
  9
$DIMEXO
 40
0.5
  9
$DIMDLI
 40
10.0
  9
$DIMRND
 40
0.0
  9
$DIMDLE
 40
0.0
  9
$DIMEXE
 40
1.0
  9
$DIMTP
 40
1.0
  9
$DIMTM
 40
1.0
  9
$DIMTXT
 40
3.0
  9
$DIMCEN
 40
0.0
  9
$DIMTSZ
 40
0.0
  9
$DIMTOL
 70
     0
  9
$DIMLIM
 70
     0
  9
$DIMTIH
 70
     0
  9
$DIMTOH
 70
     0
  9
$DIMSE1
 70
     0
  9
$DIMSE2
 70
     0
  9
$DIMTAD
 70
     1
  9
$DIMZIN
 70
     8
  9
$DIMBLK
  1

  9
$DIMASO
 70
     1
  9
$DIMSHO
 70
     1
  9
$DIMPOST
  1

  9
$DIMAPOST
  1

  9
$DIMALT
 70
     0
  9
$DIMALTD
 70
     2
  9
$DIMALTF
 40
0.039
  9
$DIMLFAC
 40
1.0
  9
$DIMTOFL
 70
     1
  9
$DIMTVP
 40
0.0
  9
$DIMTIX
 70
     0
  9
$DIMSOXD
 70
     0
  9
$DIMSAH
 70
     1
  9
$DIMBLK1
  1
OPEN
  9
$DIMBLK2
  1
OPEN
  9
$DIMSTYLE
  2
IGA
  9
$DIMCLRD
 70
     0
  9
$DIMCLRE
 70
     0
  9
$DIMCLRT
 70
     0
  9
$DIMTFAC
 40
10.0
  9
$DIMGAP
 40
1.0
  9
$LUNITS
 70
     2
  9
$LUPREC
 70
     3
  9
$SKETCHINC
 40
0.1
  9
$FILLETRAD
 40
50.0
  9
$AUNITS
 70
     0
  9
$AUPREC
 70
     0
  9
$MENU
  1
acad
  9
$ELEVATION
 40
0.0
  9
$PELEVATION
 40
0.0
  9
$THICKNESS
 40
0.0
  9
$LIMCHECK
 70
     0
  9
$BLIPMODE
 70
     0
  9
$CHAMFERA
 40
0.5
  9
$CHAMFERB
 40
0.5
  9
$SKPOLY
 70
     0
  9
$TDCREATE
 40
2450746.6496953699
  9
$TDUPDATE
 40
2454953.8653233331
  9
$TDINDWG
 40
0.0063104282
  9
$TDUSRTIMER
 40
0.0063104282
  9
$USRTIMER
 70
     1
  9
$ANGBASE
 50
0.0
  9
$ANGDIR
 70
     0
  9
$PDMODE
 70
     0
  9
$PDSIZE
 40
0.0
  9
$PLINEWID
 40
0.0
  9
$COORDS
 70
     1
  9
$SPLFRAME
 70
     0
  9
$SPLINETYPE
 70
     6
  9
$SPLINESEGS
 70
     8
  9
$ATTDIA
 70
     0
  9
$ATTREQ
 70
     1
  9
$HANDLING
 70
 10241
  9
$HANDSEED
  5
7F74
  9
$SURFTAB1
 70
     6
  9
$SURFTAB2
 70
     6
  9
$SURFTYPE
 70
     6
  9
$SURFU
 70
     6
  9
$SURFV
 70
     6
  9
$UCSNAME
  2

  9
$UCSORG
 10
0.0
 20
0.0
 30
0.0
  9
$UCSXDIR
 10
1.0
 20
0.0
 30
0.0
  9
$UCSYDIR
 10
0.0
 20
1.0
 30
0.0
  9
$PUCSNAME
  2

  9
$PUCSORG
 10
0.0
 20
0.0
 30
0.0
  9
$PUCSXDIR
 10
1.0
 20
0.0
 30
0.0
  9
$PUCSYDIR
 10
0.0
 20
1.0
 30
0.0
  9
$USERI1
 70
     0
  9
$USERI2
 70
     0
  9
$USERI3
 70
     0
  9
$USERI4
 70
     0
  9
$USERI5
 70
     0
  9
$USERR1
 40
0.0
  9
$USERR2
 40
0.0
  9
$USERR3
 40
0.0
  9
$USERR4
 40
0.0
  9
$USERR5
 40
0.0
  9
$WORLDVIEW
 70
     1
  9
$SHADEDGE
 70
     3
  9
$SHADEDIF
 70
    70
  9
$TILEMODE
 70
     1
  9
$MAXACTVP
 70
    16
  9
$PLIMCHECK
 70
     0
  9
$PEXTMIN
 10
1.0000000000000000E+020
 20
1.0000000000000000E+020
 30
1.0000000000000000E+020
  9
$PEXTMAX
 10
-1.0000000000000000E+020
 20
-1.0000000000000000E+020
 30
-1.0000000000000000E+020
  9
$PLIMMIN
 10
0.0
 20
0.0
  9
$PLIMMAX
 10
12.0
 20
9.0
  9
$UNITMODE
 70
     0
  9
$VISRETAIN
 70
     0
  9
$PLINEGEN
 70
     0
  9
$PSLTSCALE
 70
     1
  0
ENDSEC
  0
SECTION
  2
TABLES
  0
TABLE
  2
VPORT
 70
     2
  0
VPORT
  2
*ACTIVE
 70
     0
 10
0.0
 20
0.0
 11
1.0
 21
1.0
 12
4332.2366114931001
 22
2981.2318457869619
 13
0.0
 23
0.0
 14
10.0
 24
10.0
 15
10.0
 25
10.0
 16
0.0
 26
0.0
 36
1.0
 17
0.0
 27
0.0
 37
0.0
 40
5790.646336085927
 41
1.5051150895140659
 42
50.0
 43
0.0
 44
0.0
 50
0.0
 51
0.0
 71
     0
 72
   100
 73
     1
 74
     0
 75
     0
 76
     0
 77
     0
 78
     0
  0
ENDTAB
  0
TABLE
  2
LTYPE
 70
     2
  0
LTYPE
  2
CONTINUOUS
 70
     0
  3
Solid line
 72
    65
 73
     0
 40
0.0
  0
LTYPE
  2
CENTER
 70
     0
  3
____ _ ____ _ ____ _ ____ _ ____ _ ____ _ ____ 
 72
    65
 73
     4
 40
2.0
 49
1.25
 49
-0.25
 49
0.25
 49
-0.25
  0
ENDTAB
  0
TABLE
  2
LAYER
 70
     6
  0
LAYER
  2
0
 70
     0
 62
     7
  6
CONTINUOUS
  0
LAYER
  2
3
 70
     0
 62
     2
  6
CONTINUOUS
  0
LAYER
  2
2
 70
     0
 62
     3
  6
CENTER
  0
LAYER
  2
1
 70
     0
 62
     4
  6
CONTINUOUS
  0
LAYER
  2
4
 70
     0
 62
     7
  6
CONTINUOUS
  0
LAYER
  2
DEFPOINTS
 70
     0
 62
     7
  6
CONTINUOUS
  0
ENDTAB
  0
TABLE
  2
STYLE
 70
     1
  0
STYLE
  2
STANDARD
 70
     0
 40
0.0
 41
1.0
 50
0.0
 71
     0
 42
180.0
  3
simplex.shx
  4
extfont.shx
  0
ENDTAB
  0
TABLE
  2
VIEW
 70
     0
  0
ENDTAB
  0
TABLE
  2
UCS
 70
     0
  0
ENDTAB
  0
TABLE
  2
APPID
 70
     1
  0
APPID
  2
ACAD
 70
     0
  0
ENDTAB
  0
TABLE
  2
DIMSTYLE
 70
     1
  0
DIMSTYLE
  2
IGA
 70
     0
  3

  4

  5

  6
OPEN
  7
OPEN
 40
2.0
 41
2.0
 42
0.5
 43
10.0
 44
1.0
 45
0.0
 46
0.0
 47
1.0
 48
1.0
140
3.0
141
0.0
142
0.0
143
0.03937
144
1.0
145
0.0
146
10.0
147
1.0
 71
     0
 72
     0
 73
     0
 74
     0
 75
     0
 76
     0
 77
     1
 78
     8
170
     0
171
     2
172
     0
173
     1
174
     0
175
     0
176
     0
177
     0
178
     0
  0
ENDTAB
  0
ENDSEC
  0
SECTION
  2
BLOCKS
  0
BLOCK
  8
0
  2
$MODEL_SPACE
 70
     0
 10
0.0
 20
0.0
 30
0.0
  3
$MODEL_SPACE
  1

  0
ENDBLK
  5
1B
  8
0
  0
BLOCK
 67
     1
  8
0
  2
$PAPER_SPACE
 70
     0
 10
0.0
 20
0.0
 30
0.0
  3
$PAPER_SPACE
  1

  0
ENDBLK
  5
18
 67
     1
  8
0
  0
BLOCK
  8
0
  2
_OPEN
 70
     0
 10
0.0
 20
0.0
 30
0.0
  3
_OPEN
  1

  0
LINE
  5
7B59
  8
0
  6
BYBLOCK
 62
     0
 10
-1.0
 20
0.166667
 30
0.0
 11
0.0
 21
0.0
 31
0.0
  0
LINE
  5
7B5A
  8
0
  6
BYBLOCK
 62
     0
 10
0.0
 20
0.0
 30
0.0
 11
-1.0
 21
-0.166667
 31
0.0
  0
LINE
  5
7B5B
  8
0
  6
BYBLOCK
 62
     0
 10
0.0
 20
0.0
 30
0.0
 11
-1.0
 21
0.0
 31
0.0
  0
ENDBLK
  5
7B5C
  8
0
  0
BLOCK
  8
0
  2
*D1
 70
     1
 10
0.0
 20
0.0
 30
0.0
  3
*D1
  1

  0
LINE
  5
7EBD
  8
3
  6
CONTINUOUS
 62
     0
 10
573.6077286901608
 20
1175.6526429999999
 30
0.0
 11
573.6077286901608
 21
1075.47857
 31
0.0
  0
LINE
  5
7EBE
  8
3
  6
CONTINUOUS
 62
     0
 10
1218.6077286901609
 20
1149.5471399999999
 30
0.0
 11
1218.6077286901609
 21
1075.47857
 31
0.0
  0
LINE
  5
7EBF
  8
3
  6
CONTINUOUS
 62
     0
 10
603.60772869016068
 20
1090.4785699999991
 30
0.0
 11
1188.60772869016
 21
1090.4785699999991
 31
0.0
  0
INSERT
  5
7EC0
  8
3
  6
CONTINUOUS
 62
     0
  2
_OPEN
 10
573.6077286901608
 20
1090.4785699999991
 30
0.0
 41
30.0
 42
30.0
 43
30.0
 50
180.0
  0
INSERT
  5
7EC1
  8
3
  6
CONTINUOUS
 62
     0
  2
_OPEN
 10
1218.6077286901609
 20
1090.4785699999991
 30
0.0
 41
30.0
 42
30.0
 43
30.0
  0
TEXT
  8
3
  40
45
  5
7F61
  62
0
  72
0
  71
0
 10
831.004
 20
1048.33
 30
0.000000
  1
645
  0
POINT
  5
7EC3
  8
DEFPOINTS
  6
CONTINUOUS
 62
     0
 10
573.6077286901608
 20
1183.152642999999
 30
0.0
  0
POINT
  5
7EC4
  8
DEFPOINTS
  6
CONTINUOUS
 62
     0
 10
1218.6077286901609
 20
1157.0471399999999
 30
0.0
  0
POINT
  5
7EC5
  8
DEFPOINTS
  6
CONTINUOUS
 62
     0
 10
1218.6077286901609
 20
1090.4785699999991
 30
0.0
  0
ENDBLK
  5
7B69
  8
0
  0
BLOCK
  8
0
  2
*D2
 70
     1
 10
0.0
 20
0.0
 30
0.0
  3
*D2
  1

  0
LINE
  5
7EC6
  8
3
  6
CONTINUOUS
 62
     0
 10
1483.60772869016
 20
1175.6526429999999
 30
0.0
 11
1483.60772869016
 21
1075.47857
 31
0.0
  0
LINE
  5
7EC7
  8
3
  6
CONTINUOUS
 62
     0
 10
1248.6077286901609
 20
1090.4785699999991
 30
0.0
 11
1453.60772869016
 21
1090.4785699999991
 31
0.0
  0
INSERT
  5
7EC8
  8
3
  6
CONTINUOUS
 62
     0
  2
_OPEN
 10
1218.6077286901609
 20
1090.4785699999991
 30
0.0
 41
30.0
 42
30.0
 43
30.0
 50
180.0
  0
INSERT
  5
7EC9
  8
3
  6
CONTINUOUS
 62
     0
  2
_OPEN
 10
1483.60772869016
 20
1090.4785699999991
 30
0.0
 41
30.0
 42
30.0
 43
30.0
  0
TEXT
  8
3
  40
45
  5
7F62
  62
0
  72
0
  71
0
 10
1261.11
 20
1048.33
 30
0.000000
  1
265
  0
POINT
  5
7ECB
  8
DEFPOINTS
  6
CONTINUOUS
 62
     0
 10
1218.6077286901609
 20
1157.0471399999999
 30
0.0
  0
POINT
  5
7ECC
  8
DEFPOINTS
  6
CONTINUOUS
 62
     0
 10
1483.60772869016
 20
1183.152642999999
 30
0.0
  0
POINT
  5
7ECD
  8
DEFPOINTS
  6
CONTINUOUS
 62
     0
 10
1483.60772869016
 20
1090.4785699999991
 30
0.0
  0
ENDBLK
  5
7B75
  8
0
  0
BLOCK
  8
0
  2
*D3
 70
     1
 10
0.0
 20
0.0
 30
0.0
  3
*D3
  1

  0
LINE
  5
7ECE
  8
3
  6
CONTINUOUS
 62
     0
 10
903.6077286901608
 20
1922.6526429999999
 30
0.0
 11
903.6077286901608
 21
1988.2265440000001
 31
0.0
  0
LINE
  5
7ECF
  8
3
  6
CONTINUOUS
 62
     0
 10
1218.6077286901609
 20
1922.6526429999999
 30
0.0
 11
1218.6077286901609
 21
1988.2265440000001
 31
0.0
  0
LINE
  5
7ED0
  8
3
  6
CONTINUOUS
 62
     0
 10
933.60772869016068
 20
1973.2265440000001
 30
0.0
 11
1188.60772869016
 21
1973.2265440000001
 31
0.0
  0
INSERT
  5
7ED1
  8
3
  6
CONTINUOUS
 62
     0
  2
_OPEN
 10
903.6077286901608
 20
1973.2265440000001
 30
0.0
 41
30.0
 42
30.0
 43
30.0
 50
180.0
  0
INSERT
  5
7ED2
  8
3
  6
CONTINUOUS
 62
     0
  2
_OPEN
 10
1218.6077286901609
 20
1973.2265440000001
 30
0.0
 41
30.0
 42
30.0
 43
30.0
  0
TEXT
  8
3
  40
45
  5
7F63
  62
0
  72
0
  71
0
 10
980.195
 20
1931.08
 30
0.000000
  1
315
  0
POINT
  5
7ED4
  8
DEFPOINTS
  6
CONTINUOUS
 62
     0
 10
903.6077286901608
 20
1915.1526429999999
 30
0.0
  0
POINT
  5
7ED5
  8
DEFPOINTS
  6
CONTINUOUS
 62
     0
 10
1218.6077286901609
 20
1915.1526429999999
 30
0.0
  0
POINT
  5
7ED6
  8
DEFPOINTS
  6
CONTINUOUS
 62
     0
 10
1218.6077286901609
 20
1973.2265440000001
 30
0.0
  0
ENDBLK
  5
7B82
  8
0
  0
BLOCK
  8
0
  2
*D4
 70
     1
 10
0.0
 20
0.0
 30
0.0
  3
*D4
  1

  0
LINE
  5
7ED7
  8
3
  6
CONTINUOUS
 62
     0
 10
893.60772869016068
 20
1902.6526429999999
 30
0.0
 11
893.60772869016068
 21
2062.7414319999998
 31
0.0
  0
LINE
  5
7ED8
  8
3
  6
CONTINUOUS
 62
     0
 10
1218.6077286901609
 20
1922.6526429999999
 30
0.0
 11
1218.6077286901609
 21
2062.7414319999998
 31
0.0
  0
LINE
  5
7ED9
  8
3
  6
CONTINUOUS
 62
     0
 10
923.6077286901608
 20
2047.741432
 30
0.0
 11
1188.60772869016
 21
2047.741432
 31
0.0
  0
INSERT
  5
7EDA
  8
3
  6
CONTINUOUS
 62
     0
  2
_OPEN
 10
893.60772869016068
 20
2047.741432
 30
0.0
 41
30.0
 42
30.0
 43
30.0
 50
180.0
  0
INSERT
  5
7EDB
  8
3
  6
CONTINUOUS
 62
     0
  2
_OPEN
 10
1218.6077286901609
 20
2047.741432
 30
0.0
 41
30.0
 42
30.0
 43
30.0
  0
TEXT
  8
3
  40
45
  5
7F64
  62
0
  72
0
  71
0
 10
977.709
 20
2005.59
 30
0.000000
  1
325
  0
POINT
  5
7EDD
  8
DEFPOINTS
  6
CONTINUOUS
 62
     0
 10
893.60772869016068
 20
1895.152642999999
 30
0.0
  0
POINT
  5
7EDE
  8
DEFPOINTS
  6
CONTINUOUS
 62
     0
 10
1218.6077286901609
 20
1915.1526429999999
 30
0.0
  0
POINT
  5
7EDF
  8
DEFPOINTS
  6
CONTINUOUS
 62
     0
 10
1218.6077286901609
 20
2047.741432
 30
0.0
  0
ENDBLK
  5
7B8F
  8
0
  0
BLOCK
  8
0
  2
*D5
 70
     1
 10
0.0
 20
0.0
 30
0.0
  3
*D5
  1

  0
LINE
  5
7EE0
  8
3
  6
CONTINUOUS
 62
     0
 10
1450.852914690161
 20
1672.6526429999999
 30
0.0
 11
1450.852914690161
 21
2062.7414319999998
 31
0.0
  0
LINE
  5
7EE1
  8
3
  6
CONTINUOUS
 62
     0
 10
1248.6077286901609
 20
2047.741432
 30
0.0
 11
1420.8529146901601
 21
2047.741432
 31
0.0
  0
INSERT
  5
7EE2
  8
3
  6
CONTINUOUS
 62
     0
  2
_OPEN
 10
1218.6077286901609
 20
2047.741432
 30
0.0
 41
30.0
 42
30.0
 43
30.0
 50
180.0
  0
INSERT
  5
7EE3
  8
3
  6
CONTINUOUS
 62
     0
  2
_OPEN
 10
1450.852914690161
 20
2047.741432
 30
0.0
 41
30.0
 42
30.0
 43
30.0
  0
TEXT
  8
3
  40
45
  5
7F65
  62
0
  72
0
  71
0
 10
1244.73
 20
2005.59
 30
0.000000
  1
232
  0
POINT
  5
7EE5
  8
DEFPOINTS
  6
CONTINUOUS
 62
     0
 10
1218.6077286901609
 20
1915.1526429999999
 30
0.0
  0
POINT
  5
7EE6
  8
DEFPOINTS
  6
CONTINUOUS
 62
     0
 10
1450.852914690161
 20
1665.1526429999999
 30
0.0
  0
POINT
  5
7EE7
  8
DEFPOINTS
  6
CONTINUOUS
 62
     0
 10
1450.852914690161
 20
2047.741432
 30
0.0
  0
ENDBLK
  5
7B9B
  8
0
  0
BLOCK
  8
0
  2
*D6
 70
     1
 10
0.0
 20
0.0
 30
0.0
  3
*D6
  1

  0
LINE
  5
7EE8
  8
3
  6
CONTINUOUS
 62
     0
 10
1247.6077286901609
 20
1915.1526429999999
 30
0.0
 11
1646.2491069430071
 21
1915.152642999999
 31
0.0
  0
LINE
  5
7EE9
  8
3
  6
CONTINUOUS
 62
     0
 10
1458.3529146901601
 20
1665.1526429999999
 30
0.0
 11
1646.2491069430071
 21
1665.152642999999
 31
0.0
  0
LINE
  5
7EEA
  8
3
  6
CONTINUOUS
 62
     0
 10
1631.2491069430071
 20
1885.152642999999
 30
0.0
 11
1631.2491069430071
 21
1695.152642999999
 31
0.0
  0
INSERT
  5
7EEB
  8
3
  6
CONTINUOUS
 62
     0
  2
_OPEN
 10
1631.2491069430071
 20
1915.152642999999
 30
0.0
 41
30.0
 42
30.0
 43
30.0
 50
90.0
  0
INSERT
  5
7EEC
  8
3
  6
CONTINUOUS
 62
     0
  2
_OPEN
 10
1631.2491069430071
 20
1665.152642999999
 30
0.0
 41
30.0
 42
30.0
 43
30.0
 50
270.0
  0
TEXT
  8
3
  40
45
  5
7F66
  62
0
  72
0
  71
0
 10
1503.75
 20
1709.53
 30
0.000000
  1
250
  0
POINT
  5
7EEE
  8
DEFPOINTS
  6
CONTINUOUS
 62
     0
 10
1240.10772869016
 20
1915.1526429999999
 30
0.0
  0
POINT
  5
7EEF
  8
DEFPOINTS
  6
CONTINUOUS
 62
     0
 10
1450.852914690161
 20
1665.1526429999999
 30
0.0
  0
POINT
  5
7EF0
  8
DEFPOINTS
  6
CONTINUOUS
 62
     0
 10
1631.2491069430071
 20
1665.152642999999
 30
0.0
  0
ENDBLK
  5
7D8C
  8
0
  0
BLOCK
  8
0
  2
*D7
 70
     1
 10
0.0
 20
0.0
 30
0.0
  3
*D7
  1

  0
LINE
  5
7EF1
  8
3
  6
CONTINUOUS
 62
     0
 10
1461.10772869016
 20
1265.152642999999
 30
0.0
 11
1646.2491069430059
 21
1265.152642999999
 31
0.0
  0
LINE
  5
7EF2
  8
3
  6
CONTINUOUS
 62
     0
 10
1631.2491069430071
 20
1635.152642999999
 30
0.0
 11
1631.2491069430059
 21
1295.152642999999
 31
0.0
  0
INSERT
  5
7EF3
  8
3
  6
CONTINUOUS
 62
     0
  2
_OPEN
 10
1631.2491069430071
 20
1665.152642999999
 30
0.0
 41
30.0
 42
30.0
 43
30.0
 50
90.0
  0
INSERT
  5
7EF4
  8
3
  6
CONTINUOUS
 62
     0
  2
_OPEN
 10
1631.2491069430059
 20
1265.152642999999
 30
0.0
 41
30.0
 42
30.0
 43
30.0
 50
270.0
  0
TEXT
  8
3
  40
45
  5
7F67
  62
0
  72
0
  71
0
 10
1503.75
 20
1385.50
 30
0.000000
  1
400
  0
POINT
  5
7EF6
  8
DEFPOINTS
  6
CONTINUOUS
 62
     0
 10
1450.852914690161
 20
1665.1526429999999
 30
0.0
  0
POINT
  5
7EF7
  8
DEFPOINTS
  6
CONTINUOUS
 62
     0
 10
1453.60772869016
 20
1265.152642999999
 30
0.0
  0
POINT
  5
7EF8
  8
DEFPOINTS
  6
CONTINUOUS
 62
     0
 10
1631.2491069430059
 20
1265.152642999999
 30
0.0
  0
ENDBLK
  5
7D96
  8
0
  0
BLOCK
  8
0
  2
*D8
 70
     1
 10
0.0
 20
0.0
 30
0.0
  3
*D8
  1

  0
LINE
  5
7DB1
  8
0
  6
BYBLOCK
 62
     0
 10
1491.1077286901609
 20
1213.152642999999
 30
0.0
 11
1646.2491069430059
 21
1213.152642999999
 31
0.0
  0
LINE
  5
7DB2
  8
0
  6
BYBLOCK
 62
     0
 10
1631.2491069430059
 20
1295.152642999999
 30
0.0
 11
1631.2491069430059
 21
1325.1526429999999
 31
0.0
  0
LINE
  5
7DB3
  8
0
  6
BYBLOCK
 62
     0
 10
1631.2491069430059
 20
1183.152642999999
 30
0.0
 11
1631.2491069430059
 21
1153.1526429999999
 31
0.0
  0
TEXT
  5
7DB4
  8
3
 62
     0
 10
1706.4163882731659
 20
1203.371884282062
 30
0.0
 40
45.0
  1
52
 50
90.0
  0
LINE
  5
7DB5
  8
0
  6
BYBLOCK
 62
     0
 10
1631.2491069430059
 20
1265.152642999999
 30
0.0
 11
1631.2491069430059
 21
1213.152642999999
 31
0.0
  0
INSERT
  5
7DB6
  8
0
  6
BYBLOCK
 62
     0
  2
_OPEN
 10
1631.2491069430059
 20
1265.152642999999
 30
0.0
 41
30.0
 42
30.0
 43
30.0
 50
270.0
  0
INSERT
  5
7DB7
  8
0
  6
BYBLOCK
 62
     0
  2
_DOT
 10
1631.2491069430059
 20
1213.152642999999
 30
0.0
 41
30.0
 42
30.0
 43
30.0
 50
90.0
  0
POINT
  5
7DB8
  8
DEFPOINTS
  6
BYBLOCK
 62
     0
 10
1453.60772869016
 20
1265.152642999999
 30
0.0
  0
POINT
  5
7DB9
  8
DEFPOINTS
  6
BYBLOCK
 62
     0
 10
1483.60772869016
 20
1213.152642999999
 30
0.0
  0
POINT
  5
7DBA
  8
DEFPOINTS
  6
BYBLOCK
 62
     0
 10
1631.2491069430059
 20
1213.152642999999
 30
0.0
  0
ENDBLK
  5
7DBB
  8
0
  0
BLOCK
  8
0
  2
*D9
 70
     1
 10
0.0
 20
0.0
 30
0.0
  3
*D9
  1

  0
LINE
  5
7EF9
  8
3
  6
CONTINUOUS
 62
     0
 10
1491.1077286901609
 20
1213.152642999999
 30
0.0
 11
1646.2491069430059
 21
1213.152642999999
 31
0.0
  0
LINE
  5
7EFA
  8
3
  6
CONTINUOUS
 62
     0
 10
1491.1077286901609
 20
1183.152642999999
 30
0.0
 11
1646.2491069430059
 21
1183.152642999999
 31
0.0
  0
LINE
  5
7EFB
  8
3
  6
CONTINUOUS
 62
     0
 10
1631.2491069430071
 20
1243.152642999999
 30
0.0
 11
1631.2491069430071
 21
1273.152642999999
 31
0.0
  0
LINE
  5
7EFC
  8
3
  6
CONTINUOUS
 62
     0
 10
1631.2491069430071
 20
1153.152642999999
 30
0.0
 11
1631.2491069430071
 21
1020.295500142856
 31
0.0
  0
LINE
  5
7EFD
  8
3
  6
CONTINUOUS
 62
     0
 10
1631.2491069430071
 20
1213.152642999999
 30
0.0
 11
1631.2491069430071
 21
1183.152642999999
 31
0.0
  0
INSERT
  5
7EFE
  8
3
  6
CONTINUOUS
 62
     0
  2
_DOT
 10
1631.2491069430071
 20
1213.152642999999
 30
0.0
 41
30.0
 42
30.0
 43
30.0
 50
270.0
  0
INSERT
  5
7EFF
  8
3
  6
CONTINUOUS
 62
     0
  2
_OPEN
 10
1631.2491069430071
 20
1183.152642999999
 30
0.0
 41
30.0
 42
30.0
 43
30.0
 50
90.0
  0
TEXT
  8
3
  40
45
  5
7F68
  62
0
  72
0
  71
0
 10
1503.75
 20
992.074
 30
0.000000
  1
30
  0
POINT
  5
7F01
  8
DEFPOINTS
  6
CONTINUOUS
 62
     0
 10
1483.60772869016
 20
1213.152642999999
 30
0.0
  0
POINT
  5
7F02
  8
DEFPOINTS
  6
CONTINUOUS
 62
     0
 10
1483.60772869016
 20
1183.152642999999
 30
0.0
  0
POINT
  5
7F03
  8
DEFPOINTS
  6
CONTINUOUS
 62
     0
 10
1631.2491069430071
 20
1183.152642999999
 30
0.0
  0
ENDBLK
  5
7DAF
  8
0
  0
BLOCK
  8
0
  2
*D10
 70
     1
 10
0.0
 20
0.0
 30
0.0
  3
*D10
  1

  0
LINE
  5
7F04
  8
3
  6
CONTINUOUS
 62
     0
 10
1255.1077286901609
 20
1915.1526429999999
 30
0.0
 11
1754.0293972371769
 21
1915.152642999999
 31
0.0
  0
LINE
  5
7F05
  8
3
  6
CONTINUOUS
 62
     0
 10
1491.1077286901609
 20
1183.152642999999
 30
0.0
 11
1754.0293972371769
 21
1183.152642999999
 31
0.0
  0
LINE
  5
7F06
  8
3
  6
CONTINUOUS
 62
     0
 10
1739.0293972371769
 20
1885.152642999999
 30
0.0
 11
1739.0293972371769
 21
1213.152642999999
 31
0.0
  0
INSERT
  5
7F07
  8
3
  6
CONTINUOUS
 62
     0
  2
_OPEN
 10
1739.0293972371769
 20
1915.152642999999
 30
0.0
 41
30.0
 42
30.0
 43
30.0
 50
90.0
  0
INSERT
  5
7F08
  8
3
  6
CONTINUOUS
 62
     0
  2
_OPEN
 10
1739.0293972371769
 20
1183.152642999999
 30
0.0
 41
30.0
 42
30.0
 43
30.0
 50
270.0
  0
TEXT
  8
3
  40
45
  5
7F69
  62
0
  72
0
  71
0
 10
1611.53
 20
1458.66
 30
0.000000
  1
732
  0
POINT
  5
7F0A
  8
DEFPOINTS
  6
CONTINUOUS
 62
     0
 10
1247.6077286901609
 20
1915.1526429999999
 30
0.0
  0
POINT
  5
7F0B
  8
DEFPOINTS
  6
CONTINUOUS
 62
     0
 10
1483.60772869016
 20
1183.152642999999
 30
0.0
  0
POINT
  5
7F0C
  8
DEFPOINTS
  6
CONTINUOUS
 62
     0
 10
1739.0293972371769
 20
1183.152642999999
 30
0.0
  0
ENDBLK
  5
7DC6
  8
0
  0
BLOCK
  8
0
  2
*D11
 70
     1
 10
0.0
 20
0.0
 30
0.0
  3
*D11
  1

  0
LINE
  5
7F0D
  8
3
  6
CONTINUOUS
 62
     0
 10
573.6077286901608
 20
2649.8700467662752
 30
0.0
 11
573.6077286901608
 21
2532.8248937662752
 31
0.0
  0
LINE
  5
7F0E
  8
3
  6
CONTINUOUS
 62
     0
 10
1483.60772869016
 20
2649.8700467662752
 30
0.0
 11
1483.60772869016
 21
2532.8248937662752
 31
0.0
  0
LINE
  5
7F0F
  8
3
  6
CONTINUOUS
 62
     0
 10
603.60772869016068
 20
2547.8248937662752
 30
0.0
 11
1453.60772869016
 21
2547.8248937662752
 31
0.0
  0
INSERT
  5
7F10
  8
3
  6
CONTINUOUS
 62
     0
  2
_OPEN
 10
573.6077286901608
 20
2547.8248937662752
 30
0.0
 41
30.0
 42
30.0
 43
30.0
 50
180.0
  0
INSERT
  5
7F11
  8
3
  6
CONTINUOUS
 62
     0
  2
_OPEN
 10
1483.60772869016
 20
2547.8248937662752
 30
0.0
 41
30.0
 42
30.0
 43
30.0
  0
TEXT
  8
3
  40
45
  5
7F6A
  62
0
  72
0
  71
0
 10
875.762
 20
2505.67
 30
0.000000
  1
910
  0
POINT
  5
7F13
  8
DEFPOINTS
  6
CONTINUOUS
 62
     0
 10
573.6077286901608
 20
2657.3700467662752
 30
0.0
  0
POINT
  5
7F14
  8
DEFPOINTS
  6
CONTINUOUS
 62
     0
 10
1483.60772869016
 20
2657.3700467662752
 30
0.0
  0
POINT
  5
7F15
  8
DEFPOINTS
  6
CONTINUOUS
 62
     0
 10
1483.60772869016
 20
2547.8248937662752
 30
0.0
  0
ENDBLK
  5
7C26
  8
0
  0
BLOCK
  8
0
  2
*D12
 70
     1
 10
0.0
 20
0.0
 30
0.0
  3
*D12
  1

  0
LINE
  5
7F16
  8
3
  6
CONTINUOUS
 62
     0
 10
1491.1077286901609
 20
3257.3700467662752
 30
0.0
 11
1659.5802906901611
 21
3257.3700467662752
 31
0.0
  0
LINE
  5
7F17
  8
3
  6
CONTINUOUS
 62
     0
 10
1491.1077286901609
 20
2657.3700467662752
 30
0.0
 11
1659.5802906901611
 21
2657.3700467662752
 31
0.0
  0
LINE
  5
7F18
  8
3
  6
CONTINUOUS
 62
     0
 10
1644.5802906901611
 20
3227.3700467662738
 30
0.0
 11
1644.5802906901611
 21
2687.3700467662752
 31
0.0
  0
INSERT
  5
7F19
  8
3
  6
CONTINUOUS
 62
     0
  2
_OPEN
 10
1644.5802906901611
 20
3257.3700467662752
 30
0.0
 41
30.0
 42
30.0
 43
30.0
 50
90.0
  0
INSERT
  5
7F1A
  8
3
  6
CONTINUOUS
 62
     0
  2
_OPEN
 10
1644.5802906901611
 20
2657.3700467662752
 30
0.0
 41
30.0
 42
30.0
 43
30.0
 50
270.0
  0
TEXT
  8
3
  40
45
  5
7F6B
  62
0
  72
0
  71
0
 10
1517.08
 20
2894.16
 30
0.000000
  1
600
  0
POINT
  5
7F1C
  8
DEFPOINTS
  6
CONTINUOUS
 62
     0
 10
1483.60772869016
 20
3257.3700467662752
 30
0.0
  0
POINT
  5
7F1D
  8
DEFPOINTS
  6
CONTINUOUS
 62
     0
 10
1483.60772869016
 20
2657.3700467662752
 30
0.0
  0
POINT
  5
7F1E
  8
DEFPOINTS
  6
CONTINUOUS
 62
     0
 10
1644.5802906901611
 20
2657.3700467662752
 30
0.0
  0
ENDBLK
  5
7C33
  8
0
  0
BLOCK
  8
0
  2
*D13
 70
     1
 10
0.0
 20
0.0
 30
0.0
  3
*D13
  1

  0
LINE
  5
7F1F
  8
3
  6
CONTINUOUS
 62
     0
 10
2050.1943500000002
 20
1175.6526429999999
 30
0.0
 11
2050.1943500000002
 21
1058.6051389999991
 31
0.0
  0
LINE
  5
7F20
  8
3
  6
CONTINUOUS
 62
     0
 10
2470.1943500000002
 20
1130.93182
 30
0.0
 11
2470.1943500000002
 21
1058.6051389999991
 31
0.0
  0
LINE
  5
7F21
  8
3
  6
CONTINUOUS
 62
     0
 10
2080.1943500000002
 20
1073.605139
 30
0.0
 11
2440.1943500000002
 21
1073.605139
 31
0.0
  0
INSERT
  5
7F22
  8
3
  6
CONTINUOUS
 62
     0
  2
_OPEN
 10
2050.1943500000002
 20
1073.605139
 30
0.0
 41
30.0
 42
30.0
 43
30.0
 50
180.0
  0
INSERT
  5
7F23
  8
3
  6
CONTINUOUS
 62
     0
  2
_OPEN
 10
2470.1943500000002
 20
1073.605139
 30
0.0
 41
30.0
 42
30.0
 43
30.0
  0
TEXT
  8
3
  40
45
  5
7F6C
  62
0
  72
0
  71
0
 10
2179.43
 20
1031.46
 30
0.000000
  1
420
  0
POINT
  5
7F25
  8
DEFPOINTS
  6
CONTINUOUS
 62
     0
 10
2050.1943500000002
 20
1183.152642999999
 30
0.0
  0
POINT
  5
7F26
  8
DEFPOINTS
  6
CONTINUOUS
 62
     0
 10
2470.1943500000002
 20
1138.43182
 30
0.0
  0
POINT
  5
7F27
  8
DEFPOINTS
  6
CONTINUOUS
 62
     0
 10
2470.1943500000002
 20
1073.605139
 30
0.0
  0
ENDBLK
  5
7C43
  8
0
  0
BLOCK
  8
0
  2
*D14
 70
     1
 10
0.0
 20
0.0
 30
0.0
  3
*D14
  1

  0
LINE
  5
7F28
  8
3
  6
CONTINUOUS
 62
     0
 10
2650.1943500000002
 20
1175.6526429999999
 30
0.0
 11
2650.1943500000002
 21
1058.6051389999991
 31
0.0
  0
LINE
  5
7F29
  8
3
  6
CONTINUOUS
 62
     0
 10
2500.1943500000002
 20
1073.605139
 30
0.0
 11
2620.1943500000002
 21
1073.605139
 31
0.0
  0
TEXT
  8
3
  40
45
  5
7F6D
  62
0
  72
0
  71
0
 10
2460.41
 20
1031.21
 30
0.000000
  1
180
  0
INSERT
  5
7F2B
  8
3
  6
CONTINUOUS
 62
     0
  2
_OPEN
 10
2470.1943500000002
 20
1073.605139
 30
0.0
 41
30.0
 42
30.0
 43
30.0
 50
180.0
  0
INSERT
  5
7F2C
  8
3
  6
CONTINUOUS
 62
     0
  2
_OPEN
 10
2650.1943500000002
 20
1073.605139
 30
0.0
 41
30.0
 42
30.0
 43
30.0
  0
POINT
  5
7F2D
  8
DEFPOINTS
  6
CONTINUOUS
 62
     0
 10
2470.1943500000002
 20
1138.43182
 30
0.0
  0
POINT
  5
7F2E
  8
DEFPOINTS
  6
CONTINUOUS
 62
     0
 10
2650.1943500000002
 20
1183.152642999999
 30
0.0
  0
POINT
  5
7F2F
  8
DEFPOINTS
  6
CONTINUOUS
 62
     0
 10
2650.1943500000002
 20
1073.605139
 30
0.0
  0
ENDBLK
  5
7C68
  8
0
  0
BLOCK
  8
0
  2
*D15
 70
     1
 10
0.0
 20
0.0
 30
0.0
  3
*D15
  1

  0
LINE
  5
7F30
  8
3
  6
CONTINUOUS
 62
     0
 10
2358.1943500000002
 20
1922.6526429999999
 30
0.0
 11
2358.1943500000002
 21
1973.0956590000001
 31
0.0
  0
LINE
  5
7F31
  8
3
  6
CONTINUOUS
 62
     0
 10
2582.1943500000002
 20
1922.6526429999999
 30
0.0
 11
2582.1943500000002
 21
1973.0956590000001
 31
0.0
  0
LINE
  5
7F32
  8
3
  6
CONTINUOUS
 62
     0
 10
2328.1943500000002
 20
1958.0956589999989
 30
0.0
 11
2298.1943500000002
 21
1958.0956589999989
 31
0.0
  0
LINE
  5
7F33
  8
3
  6
CONTINUOUS
 62
     0
 10
2612.1943500000002
 20
1958.0956589999989
 30
0.0
 11
2642.1943500000002
 21
1958.0956589999989
 31
0.0
  0
LINE
  5
7F34
  8
3
  6
CONTINUOUS
 62
     0
 10
2358.1943500000002
 20
1958.0956589999989
 30
0.0
 11
2582.1943500000002
 21
1958.0956589999989
 31
0.0
  0
INSERT
  5
7F35
  8
3
  6
CONTINUOUS
 62
     0
  2
_OPEN
 10
2358.1943500000002
 20
1958.0956589999989
 30
0.0
 41
30.0
 42
30.0
 43
30.0
  0
INSERT
  5
7F36
  8
3
  6
CONTINUOUS
 62
     0
  2
_OPEN
 10
2582.1943500000002
 20
1958.0956589999989
 30
0.0
 41
30.0
 42
30.0
 43
30.0
 50
180.0
  0
TEXT
  8
3
  40
45
  5
7F6E
  62
0
  72
0
  71
0
 10
2372.12
 20
1915.95
 30
0.000000
  1
224
  0
POINT
  5
7F38
  8
DEFPOINTS
  6
CONTINUOUS
 62
     0
 10
2358.1943500000002
 20
1915.1526429999999
 30
0.0
  0
POINT
  5
7F39
  8
DEFPOINTS
  6
CONTINUOUS
 62
     0
 10
2582.1943500000002
 20
1915.1526429999999
 30
0.0
  0
POINT
  5
7F3A
  8
DEFPOINTS
  6
CONTINUOUS
 62
     0
 10
2582.1943500000002
 20
1958.0956589999989
 30
0.0
  0
ENDBLK
  5
7C74
  8
0
  0
BLOCK
  8
0
  2
*D16
 70
     1
 10
0.0
 20
0.0
 30
0.0
  3
*D16
  1

  0
LINE
  5
7F3B
  8
3
  6
CONTINUOUS
 62
     0
 10
2050.1943500000002
 20
1902.6526429999999
 30
0.0
 11
2050.1943500000002
 21
2060.0296960000001
 31
0.0
  0
LINE
  5
7F3C
  8
3
  6
CONTINUOUS
 62
     0
 10
2470.1943500000002
 20
2033.4184270000001
 30
0.0
 11
2470.1943500000002
 21
2060.0296960000001
 31
0.0
  0
LINE
  5
7F3D
  8
3
  6
CONTINUOUS
 62
     0
 10
2080.1943500000002
 20
2045.0296959999989
 30
0.0
 11
2440.1943500000002
 21
2045.0296959999989
 31
0.0
  0
INSERT
  5
7F3E
  8
3
  6
CONTINUOUS
 62
     0
  2
_OPEN
 10
2050.1943500000002
 20
2045.0296959999989
 30
0.0
 41
30.0
 42
30.0
 43
30.0
 50
180.0
  0
INSERT
  5
7F3F
  8
3
  6
CONTINUOUS
 62
     0
  2
_OPEN
 10
2470.1943500000002
 20
2045.0296959999989
 30
0.0
 41
30.0
 42
30.0
 43
30.0
  0
TEXT
  8
3
  40
45
  5
7F6F
  62
0
  72
0
  71
0
 10
2157.06
 20
2040.38
 30
0.000000
  1
MAX
  0
TEXT
  8
3
  40
45
  5
7F70
  62
0
  72
0
  71
0
 10
2157.06
 20
1981.88
 30
0.000000
  1
420
  0
POINT
  5
7F41
  8
DEFPOINTS
  6
CONTINUOUS
 62
     0
 10
2050.1943500000002
 20
1895.152642999999
 30
0.0
  0
POINT
  5
7F42
  8
DEFPOINTS
  6
CONTINUOUS
 62
     0
 10
2470.1943500000002
 20
2025.9184270000001
 30
0.0
  0
POINT
  5
7F43
  8
DEFPOINTS
  6
CONTINUOUS
 62
     0
 10
2470.1943500000002
 20
2045.0296959999989
 30
0.0
  0
ENDBLK
  5
7CF2
  8
0
  0
BLOCK
  8
0
  2
*D17
 70
     1
 10
0.0
 20
0.0
 30
0.0
  3
*D17
  1

  0
LINE
  5
7F44
  8
3
  6
CONTINUOUS
 62
     0
 10
2591.1943500000002
 20
1855.1526429999999
 30
0.0
 11
2591.1943500000002
 21
2060.0296960000001
 31
0.0
  0
LINE
  5
7F45
  8
3
  6
CONTINUOUS
 62
     0
 10
2500.1943500000002
 20
2045.0296959999989
 30
0.0
 11
2561.1943500000002
 21
2045.0296959999989
 31
0.0
  0
TEXT
  8
3
  40
45
  5
7F71
  62
0
  72
0
  71
0
 10
2440.77
 20
2002.38
 30
0.000000
  1
121
  0
INSERT
  5
7F47
  8
3
  6
CONTINUOUS
 62
     0
  2
_OPEN
 10
2470.1943500000002
 20
2045.0296959999989
 30
0.0
 41
30.0
 42
30.0
 43
30.0
 50
180.0
  0
INSERT
  5
7F48
  8
3
  6
CONTINUOUS
 62
     0
  2
_OPEN
 10
2591.1943500000002
 20
2045.0296959999989
 30
0.0
 41
30.0
 42
30.0
 43
30.0
  0
POINT
  5
7F49
  8
DEFPOINTS
  6
CONTINUOUS
 62
     0
 10
2470.1943500000002
 20
2025.9184270000001
 30
0.0
  0
POINT
  5
7F4A
  8
DEFPOINTS
  6
CONTINUOUS
 62
     0
 10
2591.1943500000002
 20
1847.652642999999
 30
0.0
  0
POINT
  5
7F4B
  8
DEFPOINTS
  6
CONTINUOUS
 62
     0
 10
2591.1943500000002
 20
2045.0296959999989
 30
0.0
  0
ENDBLK
  5
7CD2
  8
0
  0
BLOCK
  8
0
  2
*D18
 70
     1
 10
0.0
 20
0.0
 30
0.0
  3
*D18
  1

  0
LINE
  5
7F4C
  8
3
  6
CONTINUOUS
 62
     0
 10
2598.6943500000002
 20
1822.652642999999
 30
0.0
 11
2712.960744
 21
1822.652642999999
 31
0.0
  0
LINE
  5
7F4D
  8
3
  6
CONTINUOUS
 62
     0
 10
2598.6943500000002
 20
1507.6526429999999
 30
0.0
 11
2712.960744
 21
1507.6526429999999
 31
0.0
  0
LINE
  5
7F4E
  8
3
  6
CONTINUOUS
 62
     0
 10
2697.960744
 20
1792.6526429999999
 30
0.0
 11
2697.960744
 21
1537.6526429999999
 31
0.0
  0
INSERT
  5
7F4F
  8
3
  6
CONTINUOUS
 62
     0
  2
_OPEN
 10
2697.960744
 20
1822.652642999999
 30
0.0
 41
30.0
 42
30.0
 43
30.0
 50
90.0
  0
INSERT
  5
7F50
  8
3
  6
CONTINUOUS
 62
     0
  2
_OPEN
 10
2697.960744
 20
1507.6526429999999
 30
0.0
 41
30.0
 42
30.0
 43
30.0
 50
270.0
  0
TEXT
  8
3
  40
45
  5
7F72
  62
0
  72
0
  71
0
 10
2570.46
 20
1594.21
 30
0.000000
  1
φ315
  0
POINT
  5
7F52
  8
DEFPOINTS
  6
CONTINUOUS
 62
     0
 10
2591.1943500000002
 20
1822.652642999999
 30
0.0
  0
POINT
  5
7F53
  8
DEFPOINTS
  6
CONTINUOUS
 62
     0
 10
2591.1943500000002
 20
1507.6526429999999
 30
0.0
  0
POINT
  5
7F54
  8
DEFPOINTS
  6
CONTINUOUS
 62
     0
 10
2697.960744
 20
1507.6526429999999
 30
0.0
  0
ENDBLK
  5
7CFD
  8
0
  0
BLOCK
  8
0
  2
_DOT
 70
     0
 10
0.0
 20
0.0
 30
0.0
  3
_DOT
  1

  0
LINE
  5
7D65
  8
0
  6
BYBLOCK
 62
     0
 10
0.0
 20
0.0
 30
0.0
 11
-1.0
 21
-0.0000000000000284
 31
0.0
  0
POLYLINE
  5
7D66
  8
0
  6
BYBLOCK
 62
     0
 66
     1
 10
0.0
 20
0.0
 30
0.0
 70
     1
 40
0.1666666666666666
 41
0.1666666666666666
  0
VERTEX
  5
7F55
  8
0
  6
BYBLOCK
 62
     0
 10
-0.0833333333333286
 20
-0.0000000000000284
 30
0.0
 42
1.0
  0
VERTEX
  5
7F56
  8
0
  6
BYBLOCK
 62
     0
 10
0.0833333333333286
 20
-0.0000000000000284
 30
0.0
 42
1.0
  0
SEQEND
  5
7F57
  8
0
  6
BYBLOCK
 62
     0
  0
ENDBLK
  5
7D4B
  8
0
  0
BLOCK
  8
0
  2
*D20
 70
     1
 10
0.0
 20
0.0
 30
0.0
  3
*D20
  1

  0
LINE
  5
7F58
  8
3
 62
     0
 10
1450.852914690161
 20
1680.1526429999999
 30
0.0
 11
1450.852914690161
 21
2150.6346570104911
 31
0.0
  0
LINE
  5
7F59
  8
3
 62
     0
 10
573.6077286901608
 20
1250.6526429999999
 30
0.0
 11
573.6077286901608
 21
2150.6346570104911
 31
0.0
  0
LINE
  5
7F5A
  8
3
 62
     0
 10
1420.8529146901601
 20
2135.6346570104911
 30
0.0
 11
603.60772869016068
 21
2135.6346570104911
 31
0.0
  0
INSERT
  5
7F5B
  8
3
 62
     0
  2
_OPEN
 10
1450.852914690161
 20
2135.6346570104911
 30
0.0
 41
30.0
 42
30.0
 43
30.0
  0
INSERT
  5
7F5C
  8
3
 62
     0
  2
_OPEN
 10
573.6077286901608
 20
2135.6346570104911
 30
0.0
 41
30.0
 42
30.0
 43
30.0
 50
180.0
  0
TEXT
  8
3
  40
45
  5
7F73
  62
0
  72
0
  71
0
 10
913.910
 20
2093.48
 30
0.000000
  1
877
  0
POINT
  5
7F5E
  8
DEFPOINTS
 62
     0
 10
1450.852914690161
 20
1672.6526429999999
 30
0.0
  0
POINT
  5
7F5F
  8
DEFPOINTS
 62
     0
 10
573.6077286901608
 20
1243.1526429999999
 30
0.0
  0
POINT
  5
7F60
  8
DEFPOINTS
 62
     0
 10
573.6077286901608
 20
2135.6346570104911
 30
0.0
  0
ENDBLK
  5
7D75
  8
0
  0
ENDSEC
  0
SECTION
  2
ENTITIES
  0
LINE
  5
7A9C
  8
1
  6
CONTINUOUS
 10
2050.1943500000002
 20
1213.152642999999
 30
0.0
 11
2650.1943500000002
 21
1213.152642999999
 31
0.0
  0
LINE
  5
7A9D
  8
1
  6
CONTINUOUS
 10
2050.1943500000002
 20
1183.152642999999
 30
0.0
 11
2650.1943500000002
 21
1183.152642999999
 31
0.0
  0
LINE
  5
7A9E
  8
1
  6
CONTINUOUS
 10
2110.1943499999988
 20
1433.252643
 30
0.0
 11
2184.1943500000002
 21
1433.252643
 31
0.0
  0
LINE
  5
7A9F
  8
1
  6
CONTINUOUS
 10
2110.1943499999988
 20
1457.252643
 30
0.0
 11
2184.1943500000002
 21
1457.252643
 31
0.0
  0
LINE
  5
7AA0
  8
1
  6
CONTINUOUS
 10
2110.1943499999988
 20
1677.752643
 30
0.0
 11
2251.1943500000002
 21
1677.752643
 31
0.0
  0
LINE
  5
7AA1
  8
1
  6
CONTINUOUS
 10
2110.1943499999988
 20
1652.752643
 30
0.0
 11
2218.7943500000001
 21
1652.752643
 31
0.0
  0
LINE
  5
7AA2
  8
1
  6
CONTINUOUS
 10
769.1077286901608
 20
1396.6526429999999
 30
0.0
 11
1244.30772869016
 21
1607.052643
 31
0.0
  0
LINE
  5
7AA3
  8
1
  6
CONTINUOUS
 10
724.20772869016071
 20
1492.752643
 30
0.0
 11
1190.6077286901609
 21
1722.1526429999999
 31
0.0
  0
LINE
  5
7AA4
  8
1
  6
CONTINUOUS
 10
903.6077286901608
 20
1895.152642999999
 30
0.0
 11
893.60772869016068
 21
1895.152642999999
 31
0.0
  0
ARC
  5
7AA5
  8
1
  6
CONTINUOUS
 10
1193.1077286901609
 20
1690.652642999999
 30
0.0
 40
299.5
 50
180.0
 51
280.60000000000002
  0
LINE
  5
7AA6
  8
1
  6
CONTINUOUS
 10
1240.10772869016
 20
1915.1526429999999
 30
0.0
 11
882.1077286901608
 21
1915.1526429999999
 31
0.0
  0
LINE
  5
7AA7
  8
1
  6
CONTINUOUS
 10
603.60772869016068
 20
1335.1526429999999
 30
0.0
 11
1453.60772869016
 21
1335.1526429999999
 31
0.0
  0
LINE
  5
7AA8
  8
1
  6
CONTINUOUS
 10
603.60772869016068
 20
1265.152642999999
 30
0.0
 11
1453.60772869016
 21
1265.152642999999
 31
0.0
  0
LINE
  5
7AA9
  8
1
  6
CONTINUOUS
 10
633.60772869016068
 20
1355.1526429999999
 30
0.0
 11
948.60772869016091
 21
1355.1526429999999
 31
0.0
  0
LINE
  5
7AAA
  8
1
  6
CONTINUOUS
 10
1163.10772869016
 20
1895.152642999999
 30
0.0
 11
633.10772869016068
 21
1545.152642999999
 31
0.0
  0
LINE
  5
7AAB
  8
1
  6
CONTINUOUS
 10
573.6077286901608
 20
1213.152642999999
 30
0.0
 11
1483.60772869016
 21
1213.152642999999
 31
0.0
  0
LINE
  5
7AAC
  8
1
  6
CONTINUOUS
 10
573.6077286901608
 20
1243.1526429999999
 30
0.0
 11
1483.60772869016
 21
1243.1526429999999
 31
0.0
  0
LINE
  5
7AAD
  8
2
  6
CENTER
 10
747.6077286901608
 20
1392.1526429999999
 30
0.0
 11
747.6077286901608
 21
1498.1526429999999
 31
0.0
  0
CIRCLE
  5
7AAE
  8
1
  6
CONTINUOUS
 10
747.6077286901608
 20
1445.1526429999999
 30
0.0
 40
53.0
  0
ARC
  5
7AAF
  8
1
  6
CONTINUOUS
 10
747.6077286901608
 20
1445.1526429999999
 30
0.0
 40
101.0
 50
322.89999999999992
 51
217.09999999999991
  0
LINE
  5
7AB0
  8
1
  6
CONTINUOUS
 10
633.10772869016068
 20
1545.152642999999
 30
0.0
 11
633.10772869016068
 21
1335.1526429999999
 31
0.0
  0
LINE
  5
7AB1
  8
1
  6
CONTINUOUS
 10
603.60772869016068
 20
1213.152642999999
 30
0.0
 11
603.60772869016068
 21
1183.152642999999
 31
0.0
  0
LINE
  5
7AB2
  8
1
  6
CONTINUOUS
 10
573.6077286901608
 20
1183.152642999999
 30
0.0
 11
603.60772869016068
 21
1183.152642999999
 31
0.0
  0
LINE
  5
7AB3
  8
1
  6
CONTINUOUS
 10
603.60772869016068
 20
1335.1526429999999
 30
0.0
 11
603.60772869016068
 21
1265.152642999999
 31
0.0
  0
LINE
  5
7AB4
  8
1
  6
CONTINUOUS
 10
633.60772869016068
 20
1335.1526429999999
 30
0.0
 11
633.60772869016068
 21
1355.1526429999999
 31
0.0
  0
LINE
  5
7AB5
  8
1
  6
CONTINUOUS
 10
655.70772869016059
 20
1355.1526429999999
 30
0.0
 11
667.10772869016068
 21
1384.1526429999999
 31
0.0
  0
LINE
  5
7AB6
  8
1
  6
CONTINUOUS
 10
573.6077286901608
 20
1183.152642999999
 30
0.0
 11
573.6077286901608
 21
1243.1526429999999
 31
0.0
  0
LINE
  5
7AB7
  8
2
  6
CENTER
 10
694.6077286901608
 20
1445.1526429999999
 30
0.0
 11
800.60772869016068
 21
1445.1526429999999
 31
0.0
  0
LINE
  5
7AB8
  8
1
  6
CONTINUOUS
 10
839.50772869016077
 20
1355.1526429999999
 30
0.0
 11
828.1077286901608
 21
1384.1526429999999
 31
0.0
  0
LINE
  5
7AB9
  8
1
  6
CONTINUOUS
 10
893.60772869016068
 20
1895.152642999999
 30
0.0
 11
893.60772869016068
 21
1690.652642999999
 31
0.0
  0
CIRCLE
  5
7ABA
  8
1
  6
CONTINUOUS
 10
1218.6077286901609
 20
1665.1526429999999
 30
0.0
 40
157.5
  0
ARC
  5
7ABB
  8
1
  6
CONTINUOUS
 10
1236.60772869016
 20
1647.1526429999999
 30
0.0
 40
215.0
 50
349.39999999999992
 51
81.40000000000002
  0
ARC
  5
7ABC
  8
1
  6
CONTINUOUS
 10
1197.60772869016
 20
1644.152642999999
 30
0.0
 40
253.0
 50
281.60000000000002
 51
351.80000000000001
  0
CIRCLE
  5
7ABD
  8
1
  6
CONTINUOUS
 10
1218.6077286901609
 20
1665.1526429999999
 30
0.0
 40
182.5
  0
LINE
  5
7ABE
  8
1
  6
CONTINUOUS
 10
1013.60772869016
 20
1628.652642999999
 30
0.0
 11
1423.6077286901609
 21
1628.652642999999
 31
0.0
  0
LINE
  5
7ABF
  8
1
  6
CONTINUOUS
 10
1310.90772869016
 20
1845.152642999999
 30
0.0
 11
1423.6077286901609
 21
1750.5526429999991
 31
0.0
  0
LINE
  5
7AC0
  8
1
  6
CONTINUOUS
 10
1363.10772869016
 20
1765.1526429999999
 30
0.0
 11
1163.10772869016
 21
1895.152642999999
 31
0.0
  0
LINE
  5
7AC1
  8
1
  6
CONTINUOUS
 10
1013.60772869016
 20
1335.1526429999999
 30
0.0
 11
1013.60772869016
 21
1750.5526429999991
 31
0.0
  0
LINE
  5
7AC2
  8
1
  6
CONTINUOUS
 10
948.60772869016091
 20
1335.1526429999999
 30
0.0
 11
948.60772869016091
 21
1355.1526429999999
 31
0.0
  0
LINE
  5
7AC3
  8
1
  6
CONTINUOUS
 10
1188.60772869016
 20
1895.152642999999
 30
0.0
 11
933.60772869016091
 21
1895.152642999999
 31
0.0
  0
LINE
  5
7AC4
  8
1
  6
CONTINUOUS
 10
1188.60772869016
 20
1895.152642999999
 30
0.0
 11
933.60772869016091
 21
1895.152642999999
 31
0.0
  0
LINE
  5
7AC5
  8
1
  6
CONTINUOUS
 10
1126.30772869016
 20
1845.152642999999
 30
0.0
 11
1013.60772869016
 21
1750.5526429999991
 31
0.0
  0
LINE
  5
7AC6
  8
1
  6
CONTINUOUS
 10
903.6077286901608
 20
1915.1526429999999
 30
0.0
 11
903.6077286901608
 21
1895.152642999999
 31
0.0
  0
LINE
  5
7AC7
  8
1
  6
CONTINUOUS
 10
913.6077286901608
 20
1915.1526429999999
 30
0.0
 11
933.60772869016091
 21
1895.152642999999
 31
0.0
  0
LINE
  5
7AC8
  8
2
  6
CENTER
 10
789.59006269016083
 20
1665.1526429999999
 30
0.0
 11
1523.9842776901601
 21
1665.1526429999999
 31
0.0
  0
CIRCLE
  5
7AC9
  8
1
  6
CONTINUOUS
 10
1218.6077286901609
 20
1665.1526429999999
 30
0.0
 40
63.5
  0
LINE
  5
7ACA
  8
2
  6
CENTER
 10
1218.6077286901609
 20
1157.0471399999999
 30
0.0
 11
1218.6077286901609
 21
1930.2665549999999
 31
0.0
  0
ARC
  5
7ACB
  8
1
  6
CONTINUOUS
 10
1295.6077286901609
 20
1933.1526429999999
 30
0.0
 40
78.0
 50
209.0
 51
251.19999999999999
  0
LINE
  5
7ACC
  8
1
  6
CONTINUOUS
 10
1227.5077286901601
 20
1895.152642999999
 30
0.0
 11
1218.6077286901609
 21
1895.152642999999
 31
0.0
  0
LINE
  5
7ACD
  8
1
  6
CONTINUOUS
 10
1126.30772869016
 20
1845.152642999999
 30
0.0
 11
1310.90772869016
 21
1845.152642999999
 31
0.0
  0
LINE
  5
7ACE
  8
1
  6
CONTINUOUS
 10
1218.6077286901609
 20
1895.152642999999
 30
0.0
 11
1218.6077286901609
 21
1915.1526429999999
 31
0.0
  0
LINE
  5
7ACF
  8
1
  6
CONTINUOUS
 10
1208.6077286901609
 20
1915.1526429999999
 30
0.0
 11
1188.60772869016
 21
1895.152642999999
 31
0.0
  0
LINE
  5
7AD0
  8
1
  6
CONTINUOUS
 10
1423.6077286901609
 20
1335.1526429999999
 30
0.0
 11
1423.6077286901609
 21
1750.5526429999991
 31
0.0
  0
LINE
  5
7AD1
  8
1
  6
CONTINUOUS
 10
2110.1943499999988
 20
1381.752643
 30
0.0
 11
2110.1943499999988
 21
1508.752643
 31
0.0
  0
LINE
  5
7AD2
  8
1
  6
CONTINUOUS
 10
2075.1943500000002
 20
1508.752643
 30
0.0
 11
2075.1943500000002
 21
1381.752643
 31
0.0
  0
LINE
  5
7AD3
  8
1
  6
CONTINUOUS
 10
1363.10772869016
 20
1765.1526429999999
 30
0.0
 11
1363.10772869016
 21
1325.652642999999
 31
0.0
  0
LINE
  5
7AD4
  8
1
  6
CONTINUOUS
 10
2050.1943500000002
 20
1335.252643
 30
0.0
 11
2050.1943500000002
 21
1895.152642999999
 31
0.0
  0
LINE
  5
7AD5
  8
1
  6
CONTINUOUS
 10
2135.1943500000002
 20
1335.252643
 30
0.0
 11
2135.1943500000002
 21
1895.152642999999
 31
0.0
  0
LINE
  5
7AD6
  8
1
  6
CONTINUOUS
 10
1483.60772869016
 20
1183.152642999999
 30
0.0
 11
1453.60772869016
 21
1183.152642999999
 31
0.0
  0
LINE
  5
7AD7
  8
1
  6
CONTINUOUS
 10
1453.60772869016
 20
1213.152642999999
 30
0.0
 11
1453.60772869016
 21
1183.152642999999
 31
0.0
  0
LINE
  5
7AD8
  8
1
  6
CONTINUOUS
 10
1453.60772869016
 20
1335.1526429999999
 30
0.0
 11
1453.60772869016
 21
1265.152642999999
 31
0.0
  0
LINE
  5
7AD9
  8
1
  6
CONTINUOUS
 10
1483.60772869016
 20
1183.152642999999
 30
0.0
 11
1483.60772869016
 21
1243.1526429999999
 31
0.0
  0
LINE
  5
7ADD
  8
1
  6
CONTINUOUS
 10
2050.1943500000002
 20
1213.152642999999
 30
0.0
 11
2050.1943500000002
 21
1183.152642999999
 31
0.0
  0
LINE
  5
7ADE
  8
1
  6
CONTINUOUS
 10
2050.1943500000002
 20
1335.252643
 30
0.0
 11
2135.1943500000002
 21
1335.252643
 31
0.0
  0
LINE
  5
7ADF
  8
1
  6
CONTINUOUS
 10
2075.1943500000002
 20
1381.752643
 30
0.0
 11
2110.1943499999988
 21
1381.752643
 31
0.0
  0
LINE
  5
7AE0
  8
1
  6
CONTINUOUS
 10
2075.1943500000002
 20
1728.7526429999989
 30
0.0
 11
2075.1943500000002
 21
1601.752643
 31
0.0
  0
LINE
  5
7AE1
  8
1
  6
CONTINUOUS
 10
2110.1943499999988
 20
1728.7526429999989
 30
0.0
 11
2075.1943500000002
 21
1728.7526429999989
 31
0.0
  0
LINE
  5
7AE2
  8
1
  6
CONTINUOUS
 10
2110.1943499999988
 20
1601.752643
 30
0.0
 11
2110.1943499999988
 21
1728.7526429999989
 31
0.0
  0
LINE
  5
7AE3
  8
1
  6
CONTINUOUS
 10
2075.1943500000002
 20
1601.752643
 30
0.0
 11
2110.1943499999988
 21
1601.752643
 31
0.0
  0
LINE
  5
7AE4
  8
1
  6
CONTINUOUS
 10
2110.1943499999988
 20
1508.752643
 30
0.0
 11
2075.1943500000002
 21
1508.752643
 31
0.0
  0
LINE
  5
7AE5
  8
1
  6
CONTINUOUS
 10
2050.1943500000002
 20
1895.152642999999
 30
0.0
 11
2135.1943500000002
 21
1895.152642999999
 31
0.0
  0
LINE
  5
7AE6
  8
1
  6
CONTINUOUS
 10
903.6077286901608
 20
3077.3700467662752
 30
0.0
 11
573.6077286901608
 21
3077.3700467662752
 31
0.0
  0
LINE
  5
7AE7
  8
1
  6
CONTINUOUS
 10
759.6077286901608
 20
2762.3700467662752
 30
0.0
 11
1206.6077286901609
 21
2762.3700467662752
 31
0.0
  0
LINE
  5
7AE8
  8
1
  6
CONTINUOUS
 10
633.10772869016068
 20
2657.3700467662752
 30
0.0
 11
1363.10772869016
 21
2657.3700467662752
 31
0.0
  0
LINE
  5
7AE9
  8
1
  6
CONTINUOUS
 10
633.10772869016068
 20
2742.3700467662752
 30
0.0
 11
1363.10772869016
 21
2742.3700467662752
 31
0.0
  0
LINE
  5
7AEA
  8
1
  6
CONTINUOUS
 10
657.60772869016068
 20
3050.8700467662752
 30
0.0
 11
657.60772869016068
 21
2778.8700467662752
 31
0.0
  0
LINE
  5
7AEB
  8
1
  6
CONTINUOUS
 10
848.6077286901608
 20
2778.8700467662752
 30
0.0
 11
848.6077286901608
 21
3050.8700467662752
 31
0.0
  0
LINE
  5
7AEC
  8
1
  6
CONTINUOUS
 10
573.6077286901608
 20
2657.3700467662752
 30
0.0
 11
573.6077286901608
 21
3257.3700467662752
 31
0.0
  0
LINE
  5
7AED
  8
1
  6
CONTINUOUS
 10
573.6077286901608
 20
2762.3700467662752
 30
0.0
 11
735.6077286901608
 21
2762.3700467662752
 31
0.0
  0
LINE
  5
7AEE
  8
1
  6
CONTINUOUS
 10
848.6077286901608
 20
2778.8700467662752
 30
0.0
 11
657.60772869016068
 21
2778.8700467662752
 31
0.0
  0
LINE
  5
7AEF
  8
1
  6
CONTINUOUS
 10
603.60772869016068
 20
2762.3700467662752
 30
0.0
 11
603.60772869016068
 21
2657.3700467662752
 31
0.0
  0
LINE
  5
7AF0
  8
1
  6
CONTINUOUS
 10
633.10772869016068
 20
2742.3700467662752
 30
0.0
 11
633.10772869016068
 21
2657.3700467662752
 31
0.0
  0
LINE
  5
7AF1
  8
1
  6
CONTINUOUS
 10
573.6077286901608
 20
2657.3700467662752
 30
0.0
 11
603.60772869016068
 21
2657.3700467662752
 31
0.0
  0
LINE
  5
7AF2
  8
1
  6
CONTINUOUS
 10
759.6077286901608
 20
2718.8700467662752
 30
0.0
 11
759.6077286901608
 21
2778.8700467662752
 31
0.0
  0
LINE
  5
7AF3
  8
1
  6
CONTINUOUS
 10
735.6077286901608
 20
2718.8700467662752
 30
0.0
 11
735.6077286901608
 21
2778.8700467662752
 31
0.0
  0
LINE
  5
7AF4
  8
1
  6
CONTINUOUS
 10
684.1077286901608
 20
2683.8700467662752
 30
0.0
 11
811.1077286901608
 21
2683.8700467662752
 31
0.0
  0
LINE
  5
7AF5
  8
1
  6
CONTINUOUS
 10
811.1077286901608
 20
2718.8700467662752
 30
0.0
 11
684.1077286901608
 21
2718.8700467662752
 31
0.0
  0
LINE
  5
7AF6
  8
1
  6
CONTINUOUS
 10
759.6077286901608
 20
2683.8700467662752
 30
0.0
 11
735.6077286901608
 21
2683.8700467662752
 31
0.0
  0
LINE
  5
7AF7
  8
1
  6
CONTINUOUS
 10
684.1077286901608
 20
2718.8700467662752
 30
0.0
 11
684.1077286901608
 21
2683.8700467662752
 31
0.0
  0
LINE
  5
7AF8
  8
1
  6
CONTINUOUS
 10
811.1077286901608
 20
2683.8700467662752
 30
0.0
 11
811.1077286901608
 21
2718.8700467662752
 31
0.0
  0
LINE
  5
7AF9
  8
1
  6
CONTINUOUS
 10
848.6077286901608
 20
3050.8700467662752
 30
0.0
 11
657.60772869016068
 21
3050.8700467662752
 31
0.0
  0
LINE
  5
7AFA
  8
1
  6
CONTINUOUS
 10
603.60772869016068
 20
3257.3700467662752
 30
0.0
 11
603.60772869016068
 21
3077.3700467662752
 31
0.0
  0
LINE
  5
7AFB
  8
1
  6
CONTINUOUS
 10
573.6077286901608
 20
3257.3700467662752
 30
0.0
 11
603.60772869016068
 21
3257.3700467662752
 31
0.0
  0
LINE
  5
7AFC
  8
1
  6
CONTINUOUS
 10
1423.6077286901609
 20
2955.570046766275
 30
0.0
 11
1013.60772869016
 21
2955.570046766275
 31
0.0
  0
LINE
  5
7AFD
  8
1
  6
CONTINUOUS
 10
1036.10772869016
 20
2955.3700467662752
 30
0.0
 11
1401.1077286901609
 21
2955.3700467662752
 31
0.0
  0
LINE
  5
7AFE
  8
1
  6
CONTINUOUS
 10
1401.1077286901609
 20
3198.3700467662752
 30
0.0
 11
1036.10772869016
 21
3198.3700467662752
 31
0.0
  0
LINE
  5
7AFF
  8
1
  6
CONTINUOUS
 10
1420.6077286901609
 20
3189.3700467662752
 30
0.0
 11
903.6077286901608
 21
3189.3700467662752
 31
0.0
  0
LINE
  5
7B00
  8
1
  6
CONTINUOUS
 10
903.6077286901608
 20
2965.3700467662752
 30
0.0
 11
1420.6077286901609
 21
2965.3700467662752
 31
0.0
  0
LINE
  5
7B01
  8
1
  6
CONTINUOUS
 10
1230.6077286901609
 20
2762.3700467662752
 30
0.0
 11
1483.60772869016
 21
2762.3700467662752
 31
0.0
  0
LINE
  5
7B02
  8
1
  6
CONTINUOUS
 10
1230.6077286901609
 20
2792.3700467662752
 30
0.0
 11
1423.6077286901609
 21
2792.3700467662752
 31
0.0
  0
LINE
  5
7B03
  8
1
  6
CONTINUOUS
 10
903.6077286901608
 20
3189.3700467662752
 30
0.0
 11
903.6077286901608
 21
2965.3700467662752
 31
0.0
  0
LINE
  5
7B04
  8
1
  6
CONTINUOUS
 10
1218.6077286901609
 20
3189.3700467662752
 30
0.0
 11
1218.6077286901609
 21
2965.3700467662752
 31
0.0
  0
LINE
  5
7B05
  8
1
  6
CONTINUOUS
 10
903.6077286901608
 20
2965.3700467662752
 30
0.0
 11
1218.6077286901609
 21
3189.3700467662752
 31
0.0
  0
LINE
  5
7B06
  8
1
  6
CONTINUOUS
 10
903.6077286901608
 20
3189.3700467662752
 30
0.0
 11
1218.6077286901609
 21
2965.3700467662752
 31
0.0
  0
LINE
  5
7B07
  8
1
  6
CONTINUOUS
 10
1013.60772869016
 20
2792.3700467662752
 30
0.0
 11
1206.6077286901609
 21
2792.3700467662752
 31
0.0
  0
LINE
  5
7B08
  8
1
  6
CONTINUOUS
 10
1036.10772869016
 20
2955.3700467662752
 30
0.0
 11
1036.10772869016
 21
2965.3700467662752
 31
0.0
  0
LINE
  5
7B09
  8
1
  6
CONTINUOUS
 10
1013.60772869016
 20
2792.3700467662752
 30
0.0
 11
1013.60772869016
 21
2955.570046766275
 31
0.0
  0
LINE
  5
7B0A
  8
1
  6
CONTINUOUS
 10
1206.6077286901609
 20
2955.570046766275
 30
0.0
 11
1206.6077286901609
 21
2718.8700467662752
 31
0.0
  0
LINE
  5
7B0B
  8
1
  6
CONTINUOUS
 10
1230.6077286901609
 20
2955.570046766275
 30
0.0
 11
1230.6077286901609
 21
2718.8700467662752
 31
0.0
  0
LINE
  5
7B0C
  8
1
  6
CONTINUOUS
 10
1282.10772869016
 20
2718.8700467662752
 30
0.0
 11
1155.10772869016
 21
2718.8700467662752
 31
0.0
  0
LINE
  5
7B0D
  8
1
  6
CONTINUOUS
 10
1155.10772869016
 20
2683.8700467662752
 30
0.0
 11
1282.10772869016
 21
2683.8700467662752
 31
0.0
  0
LINE
  5
7B0E
  8
1
  6
CONTINUOUS
 10
1155.10772869016
 20
2718.8700467662752
 30
0.0
 11
1155.10772869016
 21
2683.8700467662752
 31
0.0
  0
LINE
  5
7B0F
  8
1
  6
CONTINUOUS
 10
1282.10772869016
 20
2683.8700467662752
 30
0.0
 11
1282.10772869016
 21
2718.8700467662752
 31
0.0
  0
LINE
  5
7B10
  8
1
  6
CONTINUOUS
 10
1036.10772869016
 20
3198.3700467662752
 30
0.0
 11
1036.10772869016
 21
3189.3700467662752
 31
0.0
  0
LINE
  5
7B11
  8
1
  6
CONTINUOUS
 10
1440.6077286901609
 20
3169.3700467662752
 30
0.0
 11
1440.6077286901609
 21
2985.3700467662752
 31
0.0
  0
LINE
  5
7B12
  8
1
  6
CONTINUOUS
 10
1483.60772869016
 20
2657.3700467662752
 30
0.0
 11
1483.60772869016
 21
3257.3700467662752
 31
0.0
  0
LINE
  5
7B13
  8
1
  6
CONTINUOUS
 10
1453.60772869016
 20
2762.3700467662752
 30
0.0
 11
1453.60772869016
 21
2657.3700467662752
 31
0.0
  0
LINE
  5
7B14
  8
1
  6
CONTINUOUS
 10
1363.10772869016
 20
2742.3700467662752
 30
0.0
 11
1363.10772869016
 21
2657.3700467662752
 31
0.0
  0
LINE
  5
7B15
  8
1
  6
CONTINUOUS
 10
1483.60772869016
 20
2657.3700467662752
 30
0.0
 11
1453.60772869016
 21
2657.3700467662752
 31
0.0
  0
ARC
  5
7B16
  8
1
  6
CONTINUOUS
 10
1420.6077286901609
 20
2985.3700467662752
 30
0.0
 40
20.0
 50
270.0
 51
0.0
  0
LINE
  5
7B17
  8
1
  6
CONTINUOUS
 10
1401.1077286901609
 20
2955.3700467662752
 30
0.0
 11
1401.1077286901609
 21
2965.3700467662752
 31
0.0
  0
LINE
  5
7B18
  8
1
  6
CONTINUOUS
 10
1423.6077286901609
 20
2792.3700467662752
 30
0.0
 11
1423.6077286901609
 21
2955.570046766275
 31
0.0
  0
ARC
  5
7B19
  8
1
  6
CONTINUOUS
 10
1420.6077286901609
 20
3169.3700467662752
 30
0.0
 40
20.0
 50
0.0
 51
90.0
  0
LINE
  5
7B1A
  8
1
  6
CONTINUOUS
 10
1483.60772869016
 20
3077.3700467662752
 30
0.0
 11
1440.6077286901609
 21
3077.3700467662752
 31
0.0
  0
LINE
  5
7B1B
  8
1
  6
CONTINUOUS
 10
1401.1077286901609
 20
3198.3700467662752
 30
0.0
 11
1401.1077286901609
 21
3189.3700467662752
 31
0.0
  0
LINE
  5
7B1C
  8
1
  6
CONTINUOUS
 10
1483.60772869016
 20
3257.3700467662752
 30
0.0
 11
1453.60772869016
 21
3257.3700467662752
 31
0.0
  0
LINE
  5
7B1D
  8
1
  6
CONTINUOUS
 10
1453.60772869016
 20
3257.3700467662752
 30
0.0
 11
1453.60772869016
 21
3077.3700467662752
 31
0.0
  0
LINE
  5
7B1E
  8
1
  6
CONTINUOUS
 10
2591.1943500000002
 20
1847.652642999999
 30
0.0
 11
2582.994349999999
 21
1847.652642999999
 31
0.0
  0
ARC
  5
7B1F
  8
1
  6
CONTINUOUS
 10
2562.1943500000002
 20
1397.1526429999999
 30
0.0
 40
20.0
 50
270.0
 51
0.0
  0
LINE
  5
7B20
  8
1
  6
CONTINUOUS
 10
2591.1943500000002
 20
1482.652642999999
 30
0.0
 11
2582.1943500000002
 21
1482.652642999999
 31
0.0
  0
LINE
  5
7B21
  8
1
  6
CONTINUOUS
 10
2337.1943500000002
 20
1915.1526429999999
 30
0.0
 11
2603.1943500000002
 21
1915.1526429999999
 31
0.0
  0
LINE
  5
7B22
  8
1
  6
CONTINUOUS
 10
2582.1943500000002
 20
1915.1526429999999
 30
0.0
 11
2582.1943500000002
 21
1397.1526429999999
 31
0.0
  0
LINE
  5
7B23
  8
1
  6
CONTINUOUS
 10
2358.1943500000002
 20
1397.1526429999999
 30
0.0
 11
2358.1943500000002
 21
1915.1526429999999
 31
0.0
  0
LINE
  5
7B24
  8
1
  6
CONTINUOUS
 10
2348.1943500000002
 20
1482.652642999999
 30
0.0
 11
2348.1943500000002
 21
1847.652642999999
 31
0.0
  0
LINE
  5
7B25
  8
1
  6
CONTINUOUS
 10
2348.1943500000002
 20
1847.752643
 30
0.0
 11
2348.1943500000002
 21
1335.1526429999999
 31
0.0
  0
LINE
  5
7B26
  8
1
  6
CONTINUOUS
 10
2184.1943500000002
 20
1626.1526429999999
 30
0.0
 11
2184.1943500000002
 21
1335.1526429999999
 31
0.0
  0
ARC
  5
7B27
  8
1
  6
CONTINUOUS
 10
2378.1943500000002
 20
1397.1526429999999
 30
0.0
 40
20.0
 50
180.0
 51
270.0
  0
LINE
  5
7B28
  8
1
  6
CONTINUOUS
 10
2469.9943499999999
 20
1335.1526429999999
 30
0.0
 11
2154.9943499999999
 21
1335.1526429999999
 31
0.0
  0
LINE
  5
7B29
  8
1
  6
CONTINUOUS
 10
2154.9943499999999
 20
1265.152642999999
 30
0.0
 11
2469.9943499999999
 21
1265.152642999999
 31
0.0
  0
LINE
  5
7B2A
  8
1
  6
CONTINUOUS
 10
2155.1943500000002
 20
1243.1526429999999
 30
0.0
 11
2470.1943500000002
 21
1243.1526429999999
 31
0.0
  0
LINE
  5
7B2B
  8
1
  6
CONTINUOUS
 10
2154.9943499999999
 20
1335.1526429999999
 30
0.0
 11
2154.9943499999999
 21
1265.152642999999
 31
0.0
  0
LINE
  5
7B2C
  8
1
  6
CONTINUOUS
 10
2155.1943500000002
 20
1243.1526429999999
 30
0.0
 11
2155.1943500000002
 21
1213.152642999999
 31
0.0
  0
LINE
  5
7B2D
  8
1
  6
CONTINUOUS
 10
2348.1943500000002
 20
1482.652642999999
 30
0.0
 11
2357.39435
 21
1482.652642999999
 31
0.0
  0
LINE
  5
7B2E
  8
1
  6
CONTINUOUS
 10
2378.1943500000002
 20
1377.1526429999999
 30
0.0
 11
2562.1943500000002
 21
1377.1526429999999
 31
0.0
  0
LINE
  5
7B2F
  8
1
  6
CONTINUOUS
 10
2469.9943499999999
 20
1265.152642999999
 30
0.0
 11
2469.9943499999999
 21
1335.1526429999999
 31
0.0
  0
LINE
  5
7B30
  8
1
  6
CONTINUOUS
 10
2470.1943500000002
 20
1213.152642999999
 30
0.0
 11
2470.1943500000002
 21
1243.1526429999999
 31
0.0
  0
LINE
  5
7B31
  8
1
  6
CONTINUOUS
 10
2348.1943500000002
 20
1752.3526429999999
 30
0.0
 11
2184.1943500000002
 21
1626.1526429999999
 31
0.0
  0
LINE
  5
7B32
  8
1
  6
CONTINUOUS
 10
2348.1943500000002
 20
1847.652642999999
 30
0.0
 11
2357.39435
 21
1847.652642999999
 31
0.0
  0
LINE
  5
7B33
  8
1
  6
CONTINUOUS
 10
2387.1943500000002
 20
1895.152642999999
 30
0.0
 11
2553.1943500000002
 21
1895.152642999999
 31
0.0
  0
LINE
  5
7B34
  8
1
  6
CONTINUOUS
 10
2367.1943500000002
 20
1915.1526429999999
 30
0.0
 11
2387.1943500000002
 21
1895.152642999999
 31
0.0
  0
LINE
  5
7B35
  8
1
  6
CONTINUOUS
 10
2573.1943500000002
 20
1915.1526429999999
 30
0.0
 11
2553.1943500000002
 21
1895.152642999999
 31
0.0
  0
LINE
  5
7B36
  8
1
  6
CONTINUOUS
 10
2591.1943500000002
 20
1847.652642999999
 30
0.0
 11
2591.1943500000002
 21
1482.652642999999
 31
0.0
  0
LINE
  5
7B37
  8
1
  6
CONTINUOUS
 10
2650.1943500000002
 20
1213.152642999999
 30
0.0
 11
2650.1943500000002
 21
1183.152642999999
 31
0.0
  0
LINE
  5
7B38
  8
4
  6
CONTINUOUS
 10
2775.0
 20
750.0
 30
0.0
 11
2775.0
 21
450.0
 31
0.0
  0
LINE
  5
7B39
  8
4
  6
CONTINUOUS
 10
1725.0
 20
750.0
 30
0.0
 11
1725.0
 21
450.0
 31
0.0
  0
LINE
  5
7B3A
  8
4
  6
CONTINUOUS
 10
975.0
 20
750.0
 30
0.0
 11
975.0
 21
450.0
 31
0.0
  0
LINE
  5
7B3D
  8
4
  6
CONTINUOUS
 10
975.0
 20
450.0
 30
0.0
 11
2775.0
 21
450.0
 31
0.0
  0
LINE
  5
7B3E
  8
4
  6
CONTINUOUS
 10
975.0
 20
600.0
 30
0.0
 11
2775.0
 21
600.0
 31
0.0
  0
TEXT
  5
7B3F
  8
4
  6
CONTINUOUS
 10
1032.753121
 20
647.31453899999985
 30
0.0
 40
75.0
  1
機器名称
  0
TEXT
  5
7B40
  8
4
  6
CONTINUOUS
 10
1029.387158999999
 20
482.46773499999989
 30
0.0
 40
75.0
  1
機器型番
  0
TEXT
  5
7B41
  8
4
  6
CONTINUOUS
 10
1766.518118
 20
633.85765300000003
 30
0.0
 40
65.0
  1
ミツヤニューマルチファン
  0
TEXT
  5
7B42
  8
4
  6
CONTINUOUS
 10
1779.9817430000001
 20
475.73937599999999
 30
0.0
 40
75.0
  1
NM#2-1
  0
TEXT
  5
7B44
  8
4
  6
CONTINUOUS
 10
1165.559502999999
 20
3575.1432619999991
 30
0.0
 40
81.0
  1
天井吊防振ベット
  0
TEXT
  5
7B45
  8
4
  6
CONTINUOUS
 10
474.25139000000001
 20
3800.8214640000001
 30
0.0
 40
108.0
  1
ベルト駆動式片吸込片持多翼ファン
  0
LINE
  5
7B46
  8
4
  6
CONTINUOUS
 10
375.0
 20
3704.1131310000001
 30
0.0
 11
2775.0
 21
3704.1131310000001
 31
0.0
  0
LINE
  5
7B47
  8
4
  6
CONTINUOUS
 10
375.0
 20
4004.1131310000001
 30
0.0
 11
2775.0
 21
4004.1131310000001
 31
0.0
  0
LINE
  5
7B48
  8
4
  6
CONTINUOUS
 10
975.0
 20
750.0
 30
0.0
 11
2775.0
 21
750.0
 31
0.0
  0
LINE
  5
7B49
  8
4
  6
CONTINUOUS
 10
375.0
 20
4004.1131310000001
 30
0.0
 11
375.0
 21
3704.1131310000001
 31
0.0
  0
TEXT
  5
7B4A
  8
4
  6
CONTINUOUS
 10
511.771254
 20
3573.4792159999988
 30
0.0
 40
81.0
  1
右回転上向
  0
TEXT
  5
7B4B
  8
4
  6
CONTINUOUS
 10
2203.454338999999
 20
4059.091621999999
 30
0.0
 40
84.0
  1
No.
  0
TEXT
  5
7B4C
  8
4
  6
CONTINUOUS
 10
2102.2046529999998
 20
3575.1432619999991
 30
0.0
 40
81.0
  1
縮尺：1/15
  0
LINE
  5
7B4D
  8
4
  6
CONTINUOUS
 10
2775.0
 20
4004.1131310000001
 30
0.0
 11
2775.0
 21
3704.1131310000001
 31
0.0
  0
LINE
  5
7B4F
  8
4
  6
CONTINUOUS
 10
2160.9261339999989
 20
4021.8953750000001
 30
0.0
 11
2160.9261339999989
 21
4179.978392
 31
0.0
  0
LINE
  5
7B50
  8
4
  6
CONTINUOUS
 10
2160.9261339999989
 20
4179.978392
 30
0.0
 11
2775.0
 21
4179.978392
 31
0.0
  0
LINE
  5
7B51
  8
4
  6
CONTINUOUS
 10
2775.0
 20
4179.978392
 30
0.0
 11
2775.0
 21
4021.8953750000001
 31
0.0
  0
LINE
  5
7B52
  8
4
  6
CONTINUOUS
 10
2775.0
 20
4021.8953750000001
 30
0.0
 11
2160.9261339999989
 21
4021.8953750000001
 31
0.0
  0
DIMENSION
  5
7B6A
  8
3
  6
CONTINUOUS
  2
*D1
 10
1218.6077286901609
 20
1090.4785699999991
 30
0.0
 11
921.00447969016091
 21
1090.4785699999991
 31
0.0
 70
   128
 13
573.6077286901608
 23
1183.152642999999
 33
0.0
 14
1218.6077286901609
 24
1157.0471399999999
 34
0.0
1001
ACAD
1000
DSTYLE
1002
{
1070
   287
1070
     3
1070
   287
1070
     3
1070
    40
1040
15.0
1070
   143
1040
0.039
1070
   172
1070
     1
1070
   271
1070
     0
1070
   279
1070
     0
1070
   288
1070
     1
1002
}
  0
DIMENSION
  5
7B76
  8
3
  6
CONTINUOUS
  2
*D2
 10
1483.60772869016
 20
1090.4785699999991
 30
0.0
 11
1351.1077286901609
 21
1127.97857
 31
0.0
 70
     0
 13
1218.6077286901609
 23
1157.0471399999999
 33
0.0
 14
1483.60772869016
 24
1183.152642999999
 34
0.0
1001
ACAD
1000
DSTYLE
1002
{
1070
   287
1070
     4
1070
   287
1070
     4
1070
    40
1040
15.0
1070
    75
1070
     1
1070
   143
1040
0.039
1070
   172
1070
     1
1070
   271
1070
     0
1070
   279
1070
     1
1070
   288
1070
     1
1002
}
  0
DIMENSION
  5
7B83
  8
3
  6
CONTINUOUS
  2
*D3
 10
1218.6077286901609
 20
1973.2265440000001
 30
0.0
 11
1070.1953546901609
 21
1973.2265440000001
 31
0.0
 70
   128
 13
903.6077286901608
 23
1915.1526429999999
 33
0.0
 14
1218.6077286901609
 24
1915.1526429999999
 34
0.0
1001
ACAD
1000
DSTYLE
1002
{
1070
   287
1070
     3
1070
   287
1070
     3
1070
    40
1040
15.0
1070
   143
1040
0.039
1070
   172
1070
     1
1070
   271
1070
     0
1070
   279
1070
     0
1070
   288
1070
     1
1002
}
  0
DIMENSION
  5
7B90
  8
3
  6
CONTINUOUS
  2
*D4
 10
1218.6077286901609
 20
2047.741432
 30
0.0
 11
1067.7088536901599
 21
2047.741432
 31
0.0
 70
   128
 13
893.60772869016068
 23
1895.152642999999
 33
0.0
 14
1218.6077286901609
 24
1915.1526429999999
 34
0.0
1001
ACAD
1000
DSTYLE
1002
{
1070
   287
1070
     3
1070
   287
1070
     3
1070
    40
1040
15.0
1070
   143
1040
0.039
1070
   172
1070
     1
1070
   271
1070
     0
1070
   279
1070
     0
1070
   288
1070
     1
1002
}
  0
DIMENSION
  5
7B9C
  8
3
  6
CONTINUOUS
  2
*D5
 10
1450.852914690161
 20
2047.741432
 30
0.0
 11
1334.730321690161
 21
2085.2414319999989
 31
0.0
 70
     0
 13
1218.6077286901609
 23
1915.1526429999999
 33
0.0
 14
1450.852914690161
 24
1665.1526429999999
 34
0.0
1001
ACAD
1000
DSTYLE
1002
{
1070
   287
1070
     4
1070
   287
1070
     4
1070
    40
1040
15.0
1070
    75
1070
     1
1070
   143
1040
0.039
1070
   172
1070
     1
1070
   271
1070
     0
1070
   279
1070
     1
1070
   288
1070
     1
1002
}
  0
DIMENSION
  5
7BA9
  8
3
  6
CONTINUOUS
  2
*D6
 10
1631.2491069430071
 20
1665.152642999999
 30
0.0
 11
1631.2491069430059
 21
1789.1760300000001
 31
0.0
 70
   128
 13
1240.10772869016
 23
1915.1526429999999
 33
0.0
 14
1450.852914690161
 24
1665.1526429999999
 34
0.0
 50
90.0
1001
ACAD
1000
DSTYLE
1002
{
1070
   287
1070
     3
1070
   287
1070
     3
1070
    40
1040
15.0
1070
   143
1040
0.039
1070
   172
1070
     1
1070
   271
1070
     0
1070
   279
1070
     0
1070
   288
1070
     1
1002
}
  0
DIMENSION
  5
7BB5
  8
3
  6
CONTINUOUS
  2
*D7
 10
1631.2491069430059
 20
1265.152642999999
 30
0.0
 11
1593.7491069430059
 21
1465.1526429999999
 31
0.0
 70
     0
 13
1450.852914690161
 23
1665.1526429999999
 33
0.0
 14
1453.60772869016
 24
1265.152642999999
 34
0.0
 50
90.0
1001
ACAD
1000
DSTYLE
1002
{
1070
   287
1070
     4
1070
   287
1070
     4
1070
    40
1040
15.0
1070
    75
1070
     1
1070
   143
1040
0.039
1070
   172
1070
     1
1070
   271
1070
     0
1070
   279
1070
     1
1070
   288
1070
     1
1002
}
  0
DIMENSION
  5
7BC5
  8
3
  6
CONTINUOUS
  2
*D8
 10
1631.2491069430059
 20
1213.152642999999
 30
0.0
 11
1683.9163882731659
 21
1239.800455710634
 31
0.0
 70
   128
 13
1453.60772869016
 23
1265.152642999999
 33
0.0
 14
1483.60772869016
 24
1213.152642999999
 34
0.0
 50
90.0
1001
ACAD
1000
DSTYLE
1002
{
1070
   288
1070
     1
1070
   172
1070
     1
1070
    75
1070
     1
1070
    40
1040
15.0
1070
   271
1070
     0
1070
     7
1000
_DOT
1070
   143
1040
0.039
1002
}
  0
DIMENSION
  5
7BD5
  8
3
  6
CONTINUOUS
  2
*D9
 10
1631.2491069430071
 20
1183.152642999999
 30
0.0
 11
1631.2491069430059
 21
1071.7240715714281
 31
0.0
 70
   128
 13
1483.60772869016
 23
1213.152642999999
 33
0.0
 14
1483.60772869016
 24
1183.152642999999
 34
0.0
 50
90.0
1001
ACAD
1000
DSTYLE
1002
{
1070
   287
1070
     3
1070
   287
1070
     3
1070
    40
1040
15.0
1070
   143
1040
0.039
1070
   172
1070
     1
1070
   271
1070
     0
1070
   279
1070
     0
1070
   288
1070
     1
1070
     6
1000
DOT
1002
}
  0
DIMENSION
  5
7C1A
  8
3
  6
CONTINUOUS
  2
*D10
 10
1739.0293972371769
 20
1183.152642999999
 30
0.0
 11
1739.0293972371769
 21
1538.309227
 31
0.0
 70
   128
 13
1247.6077286901609
 23
1915.1526429999999
 33
0.0
 14
1483.60772869016
 24
1183.152642999999
 34
0.0
 50
90.0
1001
ACAD
1000
DSTYLE
1002
{
1070
   287
1070
     3
1070
   287
1070
     3
1070
    40
1040
15.0
1070
   143
1040
0.039
1070
   172
1070
     1
1070
   271
1070
     0
1070
   279
1070
     0
1070
   288
1070
     1
1002
}
  0
DIMENSION
  5
7C27
  8
3
  6
CONTINUOUS
  2
*D11
 10
1483.60772869016
 20
2547.8248937662752
 30
0.0
 11
965.76176369016071
 21
2547.8248937662752
 31
0.0
 70
   128
 13
573.6077286901608
 23
2657.3700467662752
 33
0.0
 14
1483.60772869016
 24
2657.3700467662752
 34
0.0
1001
ACAD
1000
DSTYLE
1002
{
1070
   287
1070
     3
1070
   287
1070
     3
1070
    40
1040
15.0
1070
   143
1040
0.039
1070
   172
1070
     1
1070
   271
1070
     0
1070
   279
1070
     0
1070
   288
1070
     1
1002
}
  0
DIMENSION
  5
7C34
  8
3
  6
CONTINUOUS
  2
*D12
 10
1644.5802906901611
 20
2657.3700467662752
 30
0.0
 11
1644.5802906901611
 21
2973.8081137662748
 31
0.0
 70
   128
 13
1483.60772869016
 23
3257.3700467662752
 33
0.0
 14
1483.60772869016
 24
2657.3700467662752
 34
0.0
 50
90.0
1001
ACAD
1000
DSTYLE
1002
{
1070
   287
1070
     3
1070
   287
1070
     3
1070
    40
1040
15.0
1070
   143
1040
0.039
1070
   172
1070
     1
1070
   271
1070
     0
1070
   279
1070
     0
1070
   288
1070
     1
1002
}
  0
LINE
  5
7C35
  8
2
  6
CENTER
 10
851.3909066901607
 20
3077.3700467662752
 30
0.0
 11
1525.22756969016
 21
3077.3700467662752
 31
0.0
  0
LINE
  5
7C36
  8
2
  6
CENTER
 10
1218.6077286901609
 20
2619.868749766275
 30
0.0
 11
1218.6077286901609
 21
3230.9549807662752
 31
0.0
  0
LINE
  5
7C37
  8
2
  6
CENTER
 10
2470.1943500000002
 20
1964.193571
 30
0.0
 11
2470.1943500000002
 21
1138.43182
 31
0.0
  0
DIMENSION
  5
7C44
  8
3
  6
CONTINUOUS
  2
*D13
 10
2470.1943500000002
 20
1073.605139
 30
0.0
 11
2269.4340160000002
 21
1073.605139
 31
0.0
 70
   128
 13
2050.1943500000002
 23
1183.152642999999
 33
0.0
 14
2470.1943500000002
 24
1138.43182
 34
0.0
1001
ACAD
1000
DSTYLE
1002
{
1070
   287
1070
     3
1070
   287
1070
     3
1070
    40
1040
15.0
1070
   143
1040
0.039
1070
   172
1070
     1
1070
   271
1070
     0
1070
   279
1070
     0
1070
   288
1070
     1
1002
}
  0
DIMENSION
  5
7C52
  8
3
  6
CONTINUOUS
  2
*D14
 10
2650.1943500000002
 20
1073.605139
 30
0.0
 11
2550.4101879999998
 21
1073.358027
 31
0.0
 70
   128
 13
2470.1943500000002
 23
1138.43182
 33
0.0
 14
2650.1943500000002
 24
1183.152642999999
 34
0.0
1001
ACAD
1000
DSTYLE
1002
{
1070
   287
1070
     4
1070
   287
1070
     4
1070
    40
1040
15.0
1070
    75
1070
     1
1070
   143
1040
0.039
1070
   172
1070
     1
1070
   271
1070
     0
1070
   279
1070
     1
1070
   288
1070
     1
1002
}
  0
DIMENSION
  5
7C75
  8
3
  6
CONTINUOUS
  2
*D15
 10
2582.1943500000002
 20
1958.0956589999989
 30
0.0
 11
2462.1229210000001
 21
1958.0956589999989
 31
0.0
 70
   128
 13
2358.1943500000002
 23
1915.1526429999999
 33
0.0
 14
2582.1943500000002
 24
1915.1526429999999
 34
0.0
1001
ACAD
1000
DSTYLE
1002
{
1070
   287
1070
     3
1070
   287
1070
     3
1070
    40
1040
15.0
1070
   143
1040
0.039
1070
   172
1070
     1
1070
   271
1070
     0
1070
   279
1070
     0
1070
   288
1070
     1
1002
}
  0
DIMENSION
  5
7C82
  8
3
  6
CONTINUOUS
  2
*D16
 10
2470.1943500000002
 20
2045.0296959999989
 30
0.0
 11
2247.0553839999989
 21
2045.0296959999989
 31
0.0
 70
   128
  1
MAX\P420
 13
2050.1943500000002
 23
1895.152642999999
 33
0.0
 14
2470.1943500000002
 24
2025.9184270000001
 34
0.0
1001
ACAD
1000
DSTYLE
1002
{
1070
   287
1070
     3
1070
   287
1070
     3
1070
    40
1040
15.0
1070
   143
1040
0.039
1070
   172
1070
     1
1070
   271
1070
     0
1070
   279
1070
     0
1070
   288
1070
     1
1002
}
  0
DIMENSION
  5
7C90
  8
3
  6
CONTINUOUS
  2
*D17
 10
2591.1943500000002
 20
2045.0296959999989
 30
0.0
 11
2530.7663600000001
 21
2044.5291159999999
 31
0.0
 70
   128
 13
2470.1943500000002
 23
2025.9184270000001
 33
0.0
 14
2591.1943500000002
 24
1847.652642999999
 34
0.0
1001
ACAD
1000
DSTYLE
1002
{
1070
   287
1070
     4
1070
   287
1070
     4
1070
    40
1040
15.0
1070
    75
1070
     1
1070
   143
1040
0.039
1070
   172
1070
     1
1070
   271
1070
     0
1070
   279
1070
     1
1070
   288
1070
     1
1002
}
  0
LINE
  5
7CA8
  8
3
  6
CONTINUOUS
 10
2591.1943500000002
 20
1822.652642999999
 30
0.0
 11
2614.4442210000002
 21
1822.652642999999
 31
0.0
  0
LINE
  5
7CAA
  8
3
  6
CONTINUOUS
 10
2591.1943500000002
 20
1507.6526429999999
 30
0.0
 11
2609.2244359999991
 21
1507.6526429999999
 31
0.0
  0
DIMENSION
  5
7CB7
  8
3
  6
CONTINUOUS
  2
*D18
 10
2697.960744
 20
1507.6526429999999
 30
0.0
 11
2697.9607439999991
 21
1673.855221
 31
0.0
 70
   128
 13
2591.1943500000002
 23
1822.652642999999
 33
0.0
 14
2591.1943500000002
 24
1507.6526429999999
 34
0.0
 50
90.0
1001
ACAD
1000
DSTYLE
1002
{
1070
   287
1070
     3
1070
   287
1070
     3
1070
     3
1000
φ<>
1070
    40
1040
15.0
1070
   143
1040
0.039
1070
   172
1070
     1
1070
   271
1070
     0
1070
   279
1070
     0
1070
   288
1070
     1
1002
}
  0
LINE
  5
7CB8
  8
2
  6
CENTER
 10
1987.905796999999
 20
1665.1526429999999
 30
0.0
 11
2620.3428319999998
 21
1665.1526429999999
 31
0.0
  0
DIMENSION
  5
7D76
  8
3
  2
*D20
 10
573.6077286901608
 20
2135.6346570104911
 30
0.0
 11
1003.910381938971
 21
2135.6346570104911
 31
0.0
 70
   128
 13
1450.852914690161
 23
1672.6526429999999
 33
0.0
 14
573.6077286901608
 24
1243.1526429999999
 34
0.0
1001
ACAD
1000
DSTYLE
1002
{
1070
   287
1070
     3
1070
   287
1070
     3
1070
    40
1040
15.0
1070
   143
1040
0.039
1070
   172
1070
     1
1070
   271
1070
     0
1070
   279
1070
     0
1070
   288
1070
     1
1002
}
  0
ENDSEC
  0
EOF
