  0
SECTION
  2
HEADER
  9
$ACADVER
  1
AC1009
  9
$INSBASE
 10
0.0
 20
0.0
 30
0.0
  9
$EXTMIN
 10
-4487.3025229999994
 20
-3619.0892100000001
 30
0.0
  9
$EXTMAX
 10
-2087.3025229999989
 20
110.88918199999991
 30
0.0
  9
$LIMMIN
 10
0.0
 20
0.0
  9
$LIMMAX
 10
297.0
 20
210.0
  9
$ORTHOMODE
 70
     0
  9
$REGENMODE
 70
     1
  9
$FILLMODE
 70
     0
  9
$QTEXTMODE
 70
     0
  9
$MIRRTEXT
 70
     1
  9
$DRAGMODE
 70
     2
  9
$LTSCALE
 40
100.0
  9
$OSMODE
 70
    37
  9
$ATTMODE
 70
     1
  9
$TEXTSIZE
 40
180.0
  9
$TRACEWID
 40
0.05
  9
$TEXTSTYLE
  7
STANDARD
  9
$CLAYER
  8
3
  9
$CELTYPE
  6
BYLAYER
  9
$CECOLOR
 62
   256
  9
$DIMSCALE
 40
15.0
  9
$DIMASZ
 40
2.0
  9
$DIMEXO
 40
0.5
  9
$DIMDLI
 40
10.0
  9
$DIMRND
 40
0.0
  9
$DIMDLE
 40
0.0
  9
$DIMEXE
 40
1.0
  9
$DIMTP
 40
1.0
  9
$DIMTM
 40
1.0
  9
$DIMTXT
 40
3.0
  9
$DIMCEN
 40
0.0
  9
$DIMTSZ
 40
0.0
  9
$DIMTOL
 70
     0
  9
$DIMLIM
 70
     0
  9
$DIMTIH
 70
     0
  9
$DIMTOH
 70
     0
  9
$DIMSE1
 70
     0
  9
$DIMSE2
 70
     0
  9
$DIMTAD
 70
     1
  9
$DIMZIN
 70
     8
  9
$DIMBLK
  1

  9
$DIMASO
 70
     1
  9
$DIMSHO
 70
     1
  9
$DIMPOST
  1

  9
$DIMAPOST
  1

  9
$DIMALT
 70
     0
  9
$DIMALTD
 70
     2
  9
$DIMALTF
 40
0.039
  9
$DIMLFAC
 40
1.0
  9
$DIMTOFL
 70
     1
  9
$DIMTVP
 40
0.0
  9
$DIMTIX
 70
     0
  9
$DIMSOXD
 70
     0
  9
$DIMSAH
 70
     1
  9
$DIMBLK1
  1
OPEN
  9
$DIMBLK2
  1
OPEN
  9
$DIMSTYLE
  2
IGA
  9
$DIMCLRD
 70
     0
  9
$DIMCLRE
 70
     0
  9
$DIMCLRT
 70
     0
  9
$DIMTFAC
 40
10.0
  9
$DIMGAP
 40
1.0
  9
$LUNITS
 70
     2
  9
$LUPREC
 70
     3
  9
$SKETCHINC
 40
0.1
  9
$FILLETRAD
 40
50.0
  9
$AUNITS
 70
     0
  9
$AUPREC
 70
     0
  9
$MENU
  1
acad
  9
$ELEVATION
 40
0.0
  9
$PELEVATION
 40
0.0
  9
$THICKNESS
 40
0.0
  9
$LIMCHECK
 70
     0
  9
$BLIPMODE
 70
     0
  9
$CHAMFERA
 40
0.5
  9
$CHAMFERB
 40
0.5
  9
$SKPOLY
 70
     0
  9
$TDCREATE
 40
2450746.6792947911
  9
$TDUPDATE
 40
2454953.8651995719
  9
$TDINDWG
 40
0.0047100231
  9
$TDUSRTIMER
 40
0.0047100231
  9
$USRTIMER
 70
     1
  9
$ANGBASE
 50
0.0
  9
$ANGDIR
 70
     0
  9
$PDMODE
 70
     0
  9
$PDSIZE
 40
0.0
  9
$PLINEWID
 40
0.0
  9
$COORDS
 70
     1
  9
$SPLFRAME
 70
     0
  9
$SPLINETYPE
 70
     6
  9
$SPLINESEGS
 70
     8
  9
$ATTDIA
 70
     0
  9
$ATTREQ
 70
     1
  9
$HANDLING
 70
 10241
  9
$HANDSEED
  5
81B0
  9
$SURFTAB1
 70
     6
  9
$SURFTAB2
 70
     6
  9
$SURFTYPE
 70
     6
  9
$SURFU
 70
     6
  9
$SURFV
 70
     6
  9
$UCSNAME
  2

  9
$UCSORG
 10
0.0
 20
0.0
 30
0.0
  9
$UCSXDIR
 10
1.0
 20
0.0
 30
0.0
  9
$UCSYDIR
 10
0.0
 20
1.0
 30
0.0
  9
$PUCSNAME
  2

  9
$PUCSORG
 10
0.0
 20
0.0
 30
0.0
  9
$PUCSXDIR
 10
1.0
 20
0.0
 30
0.0
  9
$PUCSYDIR
 10
0.0
 20
1.0
 30
0.0
  9
$USERI1
 70
     0
  9
$USERI2
 70
     0
  9
$USERI3
 70
     0
  9
$USERI4
 70
     0
  9
$USERI5
 70
     0
  9
$USERR1
 40
0.0
  9
$USERR2
 40
0.0
  9
$USERR3
 40
0.0
  9
$USERR4
 40
0.0
  9
$USERR5
 40
0.0
  9
$WORLDVIEW
 70
     1
  9
$SHADEDGE
 70
     3
  9
$SHADEDIF
 70
    70
  9
$TILEMODE
 70
     1
  9
$MAXACTVP
 70
    16
  9
$PLIMCHECK
 70
     0
  9
$PEXTMIN
 10
1.0000000000000000E+020
 20
1.0000000000000000E+020
 30
1.0000000000000000E+020
  9
$PEXTMAX
 10
-1.0000000000000000E+020
 20
-1.0000000000000000E+020
 30
-1.0000000000000000E+020
  9
$PLIMMIN
 10
0.0
 20
0.0
  9
$PLIMMAX
 10
12.0
 20
9.0
  9
$UNITMODE
 70
     0
  9
$VISRETAIN
 70
     0
  9
$PLINEGEN
 70
     0
  9
$PSLTSCALE
 70
     1
  0
ENDSEC
  0
SECTION
  2
TABLES
  0
TABLE
  2
VPORT
 70
     2
  0
VPORT
  2
*ACTIVE
 70
     0
 10
0.0
 20
0.0
 11
1.0
 21
1.0
 12
-322.74283008899602
 22
-983.95461692618426
 13
0.0
 23
0.0
 14
10.0
 24
10.0
 15
10.0
 25
10.0
 16
0.0
 26
0.0
 36
1.0
 17
0.0
 27
0.0
 37
0.0
 40
5938.5635761152807
 41
1.5051150895140659
 42
50.0
 43
0.0
 44
0.0
 50
0.0
 51
0.0
 71
     0
 72
   100
 73
     1
 74
     0
 75
     0
 76
     0
 77
     0
 78
     0
  0
ENDTAB
  0
TABLE
  2
LTYPE
 70
     2
  0
LTYPE
  2
CONTINUOUS
 70
     0
  3
Solid line
 72
    65
 73
     0
 40
0.0
  0
LTYPE
  2
CENTER
 70
     0
  3
____ _ ____ _ ____ _ ____ _ ____ _ ____ _ ____ 
 72
    65
 73
     4
 40
2.0
 49
1.25
 49
-0.25
 49
0.25
 49
-0.25
  0
ENDTAB
  0
TABLE
  2
LAYER
 70
     6
  0
LAYER
  2
0
 70
     0
 62
     7
  6
CONTINUOUS
  0
LAYER
  2
3
 70
     0
 62
     2
  6
CONTINUOUS
  0
LAYER
  2
2
 70
     0
 62
     3
  6
CENTER
  0
LAYER
  2
1
 70
     0
 62
     4
  6
CONTINUOUS
  0
LAYER
  2
4
 70
     0
 62
     7
  6
CONTINUOUS
  0
LAYER
  2
DEFPOINTS
 70
     0
 62
     7
  6
CONTINUOUS
  0
ENDTAB
  0
TABLE
  2
STYLE
 70
     1
  0
STYLE
  2
STANDARD
 70
     0
 40
0.0
 41
1.0
 50
0.0
 71
     0
 42
180.0
  3
simplex.shx
  4
extfont.shx
  0
ENDTAB
  0
TABLE
  2
VIEW
 70
     0
  0
ENDTAB
  0
TABLE
  2
UCS
 70
     0
  0
ENDTAB
  0
TABLE
  2
APPID
 70
     1
  0
APPID
  2
ACAD
 70
     0
  0
ENDTAB
  0
TABLE
  2
DIMSTYLE
 70
     1
  0
DIMSTYLE
  2
IGA
 70
     0
  3

  4

  5

  6
OPEN
  7
OPEN
 40
2.0
 41
2.0
 42
0.5
 43
10.0
 44
1.0
 45
0.0
 46
0.0
 47
1.0
 48
1.0
140
3.0
141
0.0
142
0.0
143
0.03937
144
1.0
145
0.0
146
10.0
147
1.0
 71
     0
 72
     0
 73
     0
 74
     0
 75
     0
 76
     0
 77
     1
 78
     8
170
     0
171
     2
172
     0
173
     1
174
     0
175
     0
176
     0
177
     0
178
     0
  0
ENDTAB
  0
ENDSEC
  0
SECTION
  2
BLOCKS
  0
BLOCK
  8
0
  2
$MODEL_SPACE
 70
     0
 10
0.0
 20
0.0
 30
0.0
  3
$MODEL_SPACE
  1

  0
ENDBLK
  5
1B
  8
0
  0
BLOCK
 67
     1
  8
0
  2
$PAPER_SPACE
 70
     0
 10
0.0
 20
0.0
 30
0.0
  3
$PAPER_SPACE
  1

  0
ENDBLK
  5
18
 67
     1
  8
0
  0
BLOCK
  8
0
  2
_OPEN
 70
     0
 10
0.0
 20
0.0
 30
0.0
  3
_OPEN
  1

  0
LINE
  5
7B5D
  8
0
  6
BYBLOCK
 62
     0
 10
-1.0
 20
0.166667
 30
0.0
 11
0.0
 21
0.0
 31
0.0
  0
LINE
  5
7B5E
  8
0
  6
BYBLOCK
 62
     0
 10
0.0
 20
0.0
 30
0.0
 11
-1.0
 21
-0.166667
 31
0.0
  0
LINE
  5
7B5F
  8
0
  6
BYBLOCK
 62
     0
 10
0.0
 20
0.0
 30
0.0
 11
-1.0
 21
0.0
 31
0.0
  0
ENDBLK
  5
7B60
  8
0
  0
BLOCK
  8
0
  2
*D1
 70
     1
 10
0.0
 20
0.0
 30
0.0
  3
*D1
  1

  0
LINE
  5
80EF
  8
3
  6
CONTINUOUS
 62
     0
 10
-4325.1877489999997
 20
-2714.9929430000002
 30
0.0
 11
-4325.1877489999997
 21
-2850.644847
 31
0.0
  0
LINE
  5
80F0
  8
3
  6
CONTINUOUS
 62
     0
 10
-3680.1877490000002
 20
-2760.8889629999999
 30
0.0
 11
-3680.1877490000002
 21
-2850.644847
 31
0.0
  0
LINE
  5
80F1
  8
3
  6
CONTINUOUS
 62
     0
 10
-4295.1877489999997
 20
-2835.644847
 30
0.0
 11
-3710.1877490000002
 21
-2835.644847
 31
0.0
  0
INSERT
  5
80F2
  8
3
  6
CONTINUOUS
 62
     0
  2
_OPEN
 10
-4325.1877489999997
 20
-2835.644847
 30
0.0
 41
30.0
 42
30.0
 43
30.0
 50
180.0
  0
INSERT
  5
80F3
  8
3
  6
CONTINUOUS
 62
     0
  2
_OPEN
 10
-3680.1877490000002
 20
-2835.644847
 30
0.0
 41
30.0
 42
30.0
 43
30.0
  0
TEXT
  8
3
  40
45
  5
819C
  62
0
  72
0
  71
0
 10
-4072.62
 20
-2877.79
 30
0.000000
  1
645
  0
POINT
  5
80F5
  8
DEFPOINTS
  6
CONTINUOUS
 62
     0
 10
-4325.1877489999997
 20
-2707.4929430000002
 30
0.0
  0
POINT
  5
80F6
  8
DEFPOINTS
  6
CONTINUOUS
 62
     0
 10
-3680.1877490000002
 20
-2753.3889629999999
 30
0.0
  0
POINT
  5
80F7
  8
DEFPOINTS
  6
CONTINUOUS
 62
     0
 10
-3680.1877490000002
 20
-2835.644847
 30
0.0
  0
ENDBLK
  5
7B6D
  8
0
  0
BLOCK
  8
0
  2
*D2
 70
     1
 10
0.0
 20
0.0
 30
0.0
  3
*D2
  1

  0
LINE
  5
80F8
  8
3
  6
CONTINUOUS
 62
     0
 10
-3415.1877490000002
 20
-2714.9929430000002
 30
0.0
 11
-3415.1877490000002
 21
-2850.644847
 31
0.0
  0
LINE
  5
80F9
  8
3
  6
CONTINUOUS
 62
     0
 10
-3650.1877490000002
 20
-2835.644847
 30
0.0
 11
-3445.1877490000002
 21
-2835.644847
 31
0.0
  0
INSERT
  5
80FA
  8
3
  6
CONTINUOUS
 62
     0
  2
_OPEN
 10
-3680.1877490000002
 20
-2835.644847
 30
0.0
 41
30.0
 42
30.0
 43
30.0
 50
180.0
  0
INSERT
  5
80FB
  8
3
  6
CONTINUOUS
 62
     0
  2
_OPEN
 10
-3415.1877490000002
 20
-2835.644847
 30
0.0
 41
30.0
 42
30.0
 43
30.0
  0
TEXT
  8
3
  40
45
  5
819D
  62
0
  72
0
  71
0
 10
-3637.69
 20
-2877.79
 30
0.000000
  1
265
  0
POINT
  5
80FD
  8
DEFPOINTS
  6
CONTINUOUS
 62
     0
 10
-3680.1877490000002
 20
-2753.3889629999999
 30
0.0
  0
POINT
  5
80FE
  8
DEFPOINTS
  6
CONTINUOUS
 62
     0
 10
-3415.1877490000002
 20
-2707.4929430000002
 30
0.0
  0
POINT
  5
80FF
  8
DEFPOINTS
  6
CONTINUOUS
 62
     0
 10
-3415.1877490000002
 20
-2835.644847
 30
0.0
  0
ENDBLK
  5
7B79
  8
0
  0
BLOCK
  8
0
  2
*D3
 70
     1
 10
0.0
 20
0.0
 30
0.0
  3
*D3
  1

  0
LINE
  5
8100
  8
3
  6
CONTINUOUS
 62
     0
 10
-3422.6877490000002
 20
-2225.4929430000002
 30
0.0
 11
-3313.314327
 21
-2225.4929430000002
 31
0.0
  0
LINE
  5
8101
  8
3
  6
CONTINUOUS
 62
     0
 10
-3422.6877490000002
 20
-2540.4929430000002
 30
0.0
 11
-3313.314327
 21
-2540.4929430000002
 31
0.0
  0
LINE
  5
8102
  8
3
  6
CONTINUOUS
 62
     0
 10
-3328.314327
 20
-2255.4929430000002
 30
0.0
 11
-3328.314327
 21
-2510.4929430000002
 31
0.0
  0
INSERT
  5
8103
  8
3
  6
CONTINUOUS
 62
     0
  2
_OPEN
 10
-3328.314327
 20
-2225.4929430000002
 30
0.0
 41
30.0
 42
30.0
 43
30.0
 50
90.0
  0
INSERT
  5
8104
  8
3
  6
CONTINUOUS
 62
     0
  2
_OPEN
 10
-3328.314327
 20
-2540.4929430000002
 30
0.0
 41
30.0
 42
30.0
 43
30.0
 50
270.0
  0
TEXT
  8
3
  40
45
  5
819E
  62
0
  72
0
  71
0
 10
-3455.81
 20
-2462.70
 30
0.000000
  1
315
  0
POINT
  5
8106
  8
DEFPOINTS
  6
CONTINUOUS
 62
     0
 10
-3430.1877490000002
 20
-2225.4929430000002
 30
0.0
  0
POINT
  5
8107
  8
DEFPOINTS
  6
CONTINUOUS
 62
     0
 10
-3430.1877490000002
 20
-2540.4929430000002
 30
0.0
  0
POINT
  5
8108
  8
DEFPOINTS
  6
CONTINUOUS
 62
     0
 10
-3328.314327
 20
-2540.4929430000002
 30
0.0
  0
ENDBLK
  5
7B86
  8
0
  0
BLOCK
  8
0
  2
*D4
 70
     1
 10
0.0
 20
0.0
 30
0.0
  3
*D4
  1

  0
LINE
  5
8109
  8
3
  6
CONTINUOUS
 62
     0
 10
-3672.6877490000002
 20
-1993.247756999999
 30
0.0
 11
-3144.9320983463099
 21
-1993.2477570000001
 31
0.0
  0
LINE
  5
810A
  8
3
  6
CONTINUOUS
 62
     0
 10
-3422.6877490000002
 20
-2225.4929430000002
 30
0.0
 11
-3144.9320983463099
 21
-2225.4929430000002
 31
0.0
  0
LINE
  5
810B
  8
3
  6
CONTINUOUS
 62
     0
 10
-3159.9320983463099
 20
-2023.2477570000001
 30
0.0
 11
-3159.9320983463099
 21
-2195.4929430000002
 31
0.0
  0
INSERT
  5
810C
  8
3
  6
CONTINUOUS
 62
     0
  2
_OPEN
 10
-3159.9320983463099
 20
-1993.2477570000001
 30
0.0
 41
30.0
 42
30.0
 43
30.0
 50
90.0
  0
INSERT
  5
810D
  8
3
  6
CONTINUOUS
 62
     0
  2
_OPEN
 10
-3159.9320983463099
 20
-2225.4929430000002
 30
0.0
 41
30.0
 42
30.0
 43
30.0
 50
270.0
  0
TEXT
  8
3
  40
45
  5
819F
  62
0
  72
0
  71
0
 10
-3287.43
 20
-2202.29
 30
0.000000
  1
232
  0
POINT
  5
810F
  8
DEFPOINTS
  6
CONTINUOUS
 62
     0
 10
-3680.1877490000002
 20
-1993.247756999999
 30
0.0
  0
POINT
  5
8110
  8
DEFPOINTS
  6
CONTINUOUS
 62
     0
 10
-3430.1877490000002
 20
-2225.4929430000002
 30
0.0
  0
POINT
  5
8111
  8
DEFPOINTS
  6
CONTINUOUS
 62
     0
 10
-3159.9320983463099
 20
-2225.4929430000002
 30
0.0
  0
ENDBLK
  5
7E99
  8
0
  0
BLOCK
  8
0
  2
*D5
 70
     1
 10
0.0
 20
0.0
 30
0.0
  3
*D5
  1

  0
LINE
  5
8112
  8
3
  6
CONTINUOUS
 62
     0
 10
-3437.6877490000002
 20
-2625.4929430000002
 30
0.0
 11
-3144.932098346309
 21
-2625.4929430000002
 31
0.0
  0
LINE
  5
8113
  8
3
  6
CONTINUOUS
 62
     0
 10
-3159.932098346309
 20
-2255.4929430000002
 30
0.0
 11
-3159.932098346309
 21
-2595.4929430000002
 31
0.0
  0
INSERT
  5
8114
  8
3
  6
CONTINUOUS
 62
     0
  2
_OPEN
 10
-3159.932098346309
 20
-2225.4929430000002
 30
0.0
 41
30.0
 42
30.0
 43
30.0
 50
90.0
  0
INSERT
  5
8115
  8
3
  6
CONTINUOUS
 62
     0
  2
_OPEN
 10
-3159.932098346309
 20
-2625.4929430000002
 30
0.0
 41
30.0
 42
30.0
 43
30.0
 50
270.0
  0
TEXT
  8
3
  40
45
  5
81A0
  62
0
  72
0
  71
0
 10
-3287.43
 20
-2505.14
 30
0.000000
  1
400
  0
POINT
  5
8117
  8
DEFPOINTS
  6
CONTINUOUS
 62
     0
 10
-3430.1877490000002
 20
-2225.4929430000002
 30
0.0
  0
POINT
  5
8118
  8
DEFPOINTS
  6
CONTINUOUS
 62
     0
 10
-3445.1877490000002
 20
-2625.4929430000002
 30
0.0
  0
POINT
  5
8119
  8
DEFPOINTS
  6
CONTINUOUS
 62
     0
 10
-3159.932098346309
 20
-2625.4929430000002
 30
0.0
  0
ENDBLK
  5
7EAE
  8
0
  0
BLOCK
  8
0
  2
*D6
 70
     1
 10
0.0
 20
0.0
 30
0.0
  3
*D6
  1

  0
LINE
  5
7EB0
  8
0
  6
BYBLOCK
 62
     0
 10
-3407.6877490000002
 20
-2677.4929430000002
 30
0.0
 11
-3144.932098346309
 21
-2677.4929430000002
 31
0.0
  0
LINE
  5
7EB1
  8
0
  6
BYBLOCK
 62
     0
 10
-3159.932098346309
 20
-2595.4929430000002
 30
0.0
 11
-3159.932098346309
 21
-2565.4929430000002
 31
0.0
  0
LINE
  5
7EB2
  8
0
  6
BYBLOCK
 62
     0
 10
-3159.932098346309
 20
-2707.4929430000002
 30
0.0
 11
-3159.932098346309
 21
-2737.4929430000002
 31
0.0
  0
TEXT
  5
7EB3
  8
3
 62
     0
 10
-3088.0399086559901
 20
-2684.4300967533059
 30
0.0
 40
45.0
  1
52
 50
90.0
  0
LINE
  5
7EB4
  8
0
  6
BYBLOCK
 62
     0
 10
-3159.932098346309
 20
-2625.4929430000002
 30
0.0
 11
-3159.932098346309
 21
-2677.4929430000002
 31
0.0
  0
INSERT
  5
7EB5
  8
0
  6
BYBLOCK
 62
     0
  2
_OPEN
 10
-3159.932098346309
 20
-2625.4929430000002
 30
0.0
 41
30.0
 42
30.0
 43
30.0
 50
270.0
  0
INSERT
  5
7EB6
  8
0
  6
BYBLOCK
 62
     0
  2
_DOT
 10
-3159.932098346309
 20
-2677.4929430000002
 30
0.0
 41
30.0
 42
30.0
 43
30.0
 50
90.0
  0
POINT
  5
7EB7
  8
DEFPOINTS
  6
BYBLOCK
 62
     0
 10
-3445.1877490000002
 20
-2625.4929430000002
 30
0.0
  0
POINT
  5
7EB8
  8
DEFPOINTS
  6
BYBLOCK
 62
     0
 10
-3415.1877490000002
 20
-2677.4929430000002
 30
0.0
  0
POINT
  5
7EB9
  8
DEFPOINTS
  6
BYBLOCK
 62
     0
 10
-3159.932098346309
 20
-2677.4929430000002
 30
0.0
  0
ENDBLK
  5
7EBA
  8
0
  0
BLOCK
  8
0
  2
*D7
 70
     1
 10
0.0
 20
0.0
 30
0.0
  3
*D7
  1

  0
LINE
  5
811A
  8
3
  6
CONTINUOUS
 62
     0
 10
-3407.6877490000002
 20
-2677.4929430000002
 30
0.0
 11
-3144.9320983463099
 21
-2677.4929430000002
 31
0.0
  0
LINE
  5
811B
  8
3
  6
CONTINUOUS
 62
     0
 10
-3407.6877490000002
 20
-2707.4929430000002
 30
0.0
 11
-3144.9320983463099
 21
-2707.4929430000002
 31
0.0
  0
LINE
  5
811C
  8
3
  6
CONTINUOUS
 62
     0
 10
-3159.9320983463099
 20
-2647.4929430000002
 30
0.0
 11
-3159.9320983463099
 21
-2617.4929430000002
 31
0.0
  0
LINE
  5
811D
  8
3
  6
CONTINUOUS
 62
     0
 10
-3159.9320983463099
 20
-2737.4929430000002
 30
0.0
 11
-3159.9320983463099
 21
-2870.3500858571429
 31
0.0
  0
LINE
  5
811E
  8
3
  6
CONTINUOUS
 62
     0
 10
-3159.9320983463099
 20
-2677.4929430000002
 30
0.0
 11
-3159.9320983463099
 21
-2707.4929430000002
 31
0.0
  0
INSERT
  5
811F
  8
3
  6
CONTINUOUS
 62
     0
  2
_DOT
 10
-3159.9320983463099
 20
-2677.4929430000002
 30
0.0
 41
30.0
 42
30.0
 43
30.0
 50
270.0
  0
INSERT
  5
8120
  8
3
  6
CONTINUOUS
 62
     0
  2
_OPEN
 10
-3159.9320983463099
 20
-2707.4929430000002
 30
0.0
 41
30.0
 42
30.0
 43
30.0
 50
90.0
  0
TEXT
  8
3
  40
45
  5
81A1
  62
0
  72
0
  71
0
 10
-3287.43
 20
-2898.57
 30
0.000000
  1
30
  0
POINT
  5
8122
  8
DEFPOINTS
  6
CONTINUOUS
 62
     0
 10
-3415.1877490000002
 20
-2677.4929430000002
 30
0.0
  0
POINT
  5
8123
  8
DEFPOINTS
  6
CONTINUOUS
 62
     0
 10
-3415.1877490000002
 20
-2707.4929430000002
 30
0.0
  0
POINT
  5
8124
  8
DEFPOINTS
  6
CONTINUOUS
 62
     0
 10
-3159.9320983463099
 20
-2707.4929430000002
 30
0.0
  0
ENDBLK
  5
7EC7
  8
0
  0
BLOCK
  8
0
  2
*D8
 70
     1
 10
0.0
 20
0.0
 30
0.0
  3
*D8
  1

  0
LINE
  5
8125
  8
3
  6
CONTINUOUS
 62
     0
 10
-3672.6877490000002
 20
-1993.247756999999
 30
0.0
 11
-3036.1328959698471
 21
-1993.2477570000001
 31
0.0
  0
LINE
  5
8126
  8
3
  6
CONTINUOUS
 62
     0
 10
-3407.6877490000002
 20
-2707.4929430000002
 30
0.0
 11
-3036.1328959698471
 21
-2707.4929430000002
 31
0.0
  0
LINE
  5
8127
  8
3
  6
CONTINUOUS
 62
     0
 10
-3051.1328959698481
 20
-2023.2477570000001
 30
0.0
 11
-3051.1328959698481
 21
-2677.4929430000002
 31
0.0
  0
INSERT
  5
8128
  8
3
  6
CONTINUOUS
 62
     0
  2
_OPEN
 10
-3051.1328959698481
 20
-1993.2477570000001
 30
0.0
 41
30.0
 42
30.0
 43
30.0
 50
90.0
  0
INSERT
  5
8129
  8
3
  6
CONTINUOUS
 62
     0
  2
_OPEN
 10
-3051.1328959698481
 20
-2707.4929430000002
 30
0.0
 41
30.0
 42
30.0
 43
30.0
 50
270.0
  0
TEXT
  8
3
  40
45
  5
81A2
  62
0
  72
0
  71
0
 10
-3178.63
 20
-2420.92
 30
0.000000
  1
714
  0
POINT
  5
812B
  8
DEFPOINTS
  6
CONTINUOUS
 62
     0
 10
-3680.1877490000002
 20
-1993.247756999999
 30
0.0
  0
POINT
  5
812C
  8
DEFPOINTS
  6
CONTINUOUS
 62
     0
 10
-3415.1877490000002
 20
-2707.4929430000002
 30
0.0
  0
POINT
  5
812D
  8
DEFPOINTS
  6
CONTINUOUS
 62
     0
 10
-3051.1328959698481
 20
-2707.4929430000002
 30
0.0
  0
ENDBLK
  5
7EA4
  8
0
  0
BLOCK
  8
0
  2
*D9
 70
     1
 10
0.0
 20
0.0
 30
0.0
  3
*D9
  1

  0
LINE
  5
812E
  8
3
  6
CONTINUOUS
 62
     0
 10
-3954.1877490000002
 20
-2243.4929430000002
 30
0.0
 11
-3954.1877490000002
 21
-1903.405039999999
 31
0.0
  0
LINE
  5
812F
  8
3
  6
CONTINUOUS
 62
     0
 10
-3680.1877490000002
 20
-1985.7477570000001
 30
0.0
 11
-3680.1877490000002
 21
-1903.405039999999
 31
0.0
  0
LINE
  5
8130
  8
3
  6
CONTINUOUS
 62
     0
 10
-3924.1877490000002
 20
-1918.4050400000001
 30
0.0
 11
-3710.1877490000002
 21
-1918.4050400000001
 31
0.0
  0
INSERT
  5
8131
  8
3
  6
CONTINUOUS
 62
     0
  2
_OPEN
 10
-3954.1877490000002
 20
-1918.4050400000001
 30
0.0
 41
30.0
 42
30.0
 43
30.0
 50
180.0
  0
INSERT
  5
8132
  8
3
  6
CONTINUOUS
 62
     0
  2
_OPEN
 10
-3680.1877490000002
 20
-1918.4050400000001
 30
0.0
 41
30.0
 42
30.0
 43
30.0
  0
TEXT
  8
3
  40
45
  5
81A3
  62
0
  72
0
  71
0
 10
-3902.89
 20
-1960.56
 30
0.000000
  1
274
  0
POINT
  5
8134
  8
DEFPOINTS
  6
CONTINUOUS
 62
     0
 10
-3954.1877490000002
 20
-2250.9929430000002
 30
0.0
  0
POINT
  5
8135
  8
DEFPOINTS
  6
CONTINUOUS
 62
     0
 10
-3680.1877490000002
 20
-1993.247756999999
 30
0.0
  0
POINT
  5
8136
  8
DEFPOINTS
  6
CONTINUOUS
 62
     0
 10
-3680.1877490000002
 20
-1918.4050400000001
 30
0.0
  0
ENDBLK
  5
7F14
  8
0
  0
BLOCK
  8
0
  2
*D10
 70
     1
 10
0.0
 20
0.0
 30
0.0
  3
*D10
  1

  0
LINE
  5
8137
  8
3
  6
CONTINUOUS
 62
     0
 10
-3430.1877490000002
 20
-2196.4929430000002
 30
0.0
 11
-3430.1877490000002
 21
-1903.405039999999
 31
0.0
  0
LINE
  5
8138
  8
3
  6
CONTINUOUS
 62
     0
 10
-3650.1877490000002
 20
-1918.4050400000001
 30
0.0
 11
-3460.1877490000002
 21
-1918.4050400000001
 31
0.0
  0
INSERT
  5
8139
  8
3
  6
CONTINUOUS
 62
     0
  2
_OPEN
 10
-3680.1877490000002
 20
-1918.4050400000001
 30
0.0
 41
30.0
 42
30.0
 43
30.0
 50
180.0
  0
INSERT
  5
813A
  8
3
  6
CONTINUOUS
 62
     0
  2
_OPEN
 10
-3430.1877490000002
 20
-1918.4050400000001
 30
0.0
 41
30.0
 42
30.0
 43
30.0
  0
TEXT
  8
3
  40
45
  5
81A4
  62
0
  72
0
  71
0
 10
-3645.19
 20
-1960.56
 30
0.000000
  1
250
  0
POINT
  5
813C
  8
DEFPOINTS
  6
CONTINUOUS
 62
     0
 10
-3680.1877490000002
 20
-1993.247756999999
 30
0.0
  0
POINT
  5
813D
  8
DEFPOINTS
  6
CONTINUOUS
 62
     0
 10
-3430.1877490000002
 20
-2203.9929430000002
 30
0.0
  0
POINT
  5
813E
  8
DEFPOINTS
  6
CONTINUOUS
 62
     0
 10
-3430.1877490000002
 20
-1918.4050400000001
 30
0.0
  0
ENDBLK
  5
7C39
  8
0
  0
BLOCK
  8
0
  2
*D11
 70
     1
 10
0.0
 20
0.0
 30
0.0
  3
*D11
  1

  0
LINE
  5
813F
  8
3
  6
CONTINUOUS
 62
     0
 10
-4325.1877489999997
 20
-1439.668764
 30
0.0
 11
-4325.1877489999997
 21
-1589.6066020000001
 31
0.0
  0
LINE
  5
8140
  8
3
  6
CONTINUOUS
 62
     0
 10
-3415.1877490000002
 20
-1439.668764
 30
0.0
 11
-3415.1877490000002
 21
-1589.6066020000001
 31
0.0
  0
LINE
  5
8141
  8
3
  6
CONTINUOUS
 62
     0
 10
-4295.1877489999997
 20
-1574.6066020000001
 30
0.0
 11
-3445.1877490000002
 21
-1574.6066020000001
 31
0.0
  0
INSERT
  5
8142
  8
3
  6
CONTINUOUS
 62
     0
  2
_OPEN
 10
-4325.1877489999997
 20
-1574.6066020000001
 30
0.0
 41
30.0
 42
30.0
 43
30.0
 50
180.0
  0
INSERT
  5
8143
  8
3
  6
CONTINUOUS
 62
     0
  2
_OPEN
 10
-3415.1877490000002
 20
-1574.6066020000001
 30
0.0
 41
30.0
 42
30.0
 43
30.0
  0
TEXT
  8
3
  40
45
  5
81A5
  62
0
  72
0
  71
0
 10
-3979.14
 20
-1616.76
 30
0.000000
  1
910
  0
POINT
  5
8145
  8
DEFPOINTS
  6
CONTINUOUS
 62
     0
 10
-4325.1877489999997
 20
-1432.168764
 30
0.0
  0
POINT
  5
8146
  8
DEFPOINTS
  6
CONTINUOUS
 62
     0
 10
-3415.1877490000002
 20
-1432.168764
 30
0.0
  0
POINT
  5
8147
  8
DEFPOINTS
  6
CONTINUOUS
 62
     0
 10
-3415.1877490000002
 20
-1574.6066020000001
 30
0.0
  0
ENDBLK
  5
7C46
  8
0
  0
BLOCK
  8
0
  2
*D12
 70
     1
 10
0.0
 20
0.0
 30
0.0
  3
*D12
  1

  0
LINE
  5
8148
  8
3
  6
CONTINUOUS
 62
     0
 10
-3407.6877490000002
 20
-832.16876400000001
 30
0.0
 11
-3249.360099
 21
-832.16876400000024
 31
0.0
  0
LINE
  5
8149
  8
3
  6
CONTINUOUS
 62
     0
 10
-3407.6877490000002
 20
-1432.168764
 30
0.0
 11
-3249.360099
 21
-1432.168764
 31
0.0
  0
LINE
  5
814A
  8
3
  6
CONTINUOUS
 62
     0
 10
-3264.360099
 20
-862.16876400000012
 30
0.0
 11
-3264.360099
 21
-1402.1687639999991
 31
0.0
  0
INSERT
  5
814B
  8
3
  6
CONTINUOUS
 62
     0
  2
_OPEN
 10
-3264.360099
 20
-832.16876400000024
 30
0.0
 41
30.0
 42
30.0
 43
30.0
 50
90.0
  0
INSERT
  5
814C
  8
3
  6
CONTINUOUS
 62
     0
  2
_OPEN
 10
-3264.360099
 20
-1432.168764
 30
0.0
 41
30.0
 42
30.0
 43
30.0
 50
270.0
  0
TEXT
  8
3
  40
45
  5
81A6
  62
0
  72
0
  71
0
 10
-3391.86
 20
-1189.62
 30
0.000000
  1
600
  0
POINT
  5
814E
  8
DEFPOINTS
  6
CONTINUOUS
 62
     0
 10
-3415.1877490000002
 20
-832.16876400000001
 30
0.0
  0
POINT
  5
814F
  8
DEFPOINTS
  6
CONTINUOUS
 62
     0
 10
-3415.1877490000002
 20
-1432.168764
 30
0.0
  0
POINT
  5
8150
  8
DEFPOINTS
  6
CONTINUOUS
 62
     0
 10
-3264.360099
 20
-1432.168764
 30
0.0
  0
ENDBLK
  5
7C53
  8
0
  0
BLOCK
  8
0
  2
*D13
 70
     1
 10
0.0
 20
0.0
 30
0.0
  3
*D13
  1

  0
LINE
  5
8151
  8
3
  6
CONTINUOUS
 62
     0
 10
-2830.9588940316212
 20
-2714.9929430000002
 30
0.0
 11
-2830.9588940316212
 21
-2843.0227439999999
 31
0.0
  0
LINE
  5
8152
  8
3
  6
CONTINUOUS
 62
     0
 10
-2410.9588940316221
 20
-2746.821899
 30
0.0
 11
-2410.9588940316221
 21
-2843.0227439999999
 31
0.0
  0
LINE
  5
8153
  8
3
  6
CONTINUOUS
 62
     0
 10
-2800.9588940316212
 20
-2828.0227439999999
 30
0.0
 11
-2440.9588940316212
 21
-2828.0227439999999
 31
0.0
  0
INSERT
  5
8154
  8
3
  6
CONTINUOUS
 62
     0
  2
_OPEN
 10
-2830.9588940316212
 20
-2828.0227439999999
 30
0.0
 41
30.0
 42
30.0
 43
30.0
 50
180.0
  0
INSERT
  5
8155
  8
3
  6
CONTINUOUS
 62
     0
  2
_OPEN
 10
-2410.9588940316221
 20
-2828.0227439999999
 30
0.0
 41
30.0
 42
30.0
 43
30.0
  0
TEXT
  8
3
  40
45
  5
81A7
  62
0
  72
0
  71
0
 10
-2698.37
 20
-2870.17
 30
0.000000
  1
420
  0
POINT
  5
8157
  8
DEFPOINTS
  6
CONTINUOUS
 62
     0
 10
-2830.9588940316212
 20
-2707.4929430000002
 30
0.0
  0
POINT
  5
8158
  8
DEFPOINTS
  6
CONTINUOUS
 62
     0
 10
-2410.9588940316221
 20
-2739.321899
 30
0.0
  0
POINT
  5
8159
  8
DEFPOINTS
  6
CONTINUOUS
 62
     0
 10
-2410.9588940316221
 20
-2828.0227439999999
 30
0.0
  0
ENDBLK
  5
7C64
  8
0
  0
BLOCK
  8
0
  2
*D14
 70
     1
 10
0.0
 20
0.0
 30
0.0
  3
*D14
  1

  0
LINE
  5
815A
  8
3
  6
CONTINUOUS
 62
     0
 10
-2230.9588940316212
 20
-2714.9929430000002
 30
0.0
 11
-2230.9588940316212
 21
-2843.0227439999999
 31
0.0
  0
LINE
  5
815B
  8
3
  6
CONTINUOUS
 62
     0
 10
-2380.9588940316212
 20
-2828.0227439999999
 30
0.0
 11
-2260.9588940316221
 21
-2828.0227439999999
 31
0.0
  0
TEXT
  8
3
  40
45
  5
81A8
  62
0
  72
0
  71
0
 10
-2415.49
 20
-2872.87
 30
0.000000
  1
180
  0
INSERT
  5
815D
  8
3
  6
CONTINUOUS
 62
     0
  2
_OPEN
 10
-2410.9588940316221
 20
-2828.0227439999999
 30
0.0
 41
30.0
 42
30.0
 43
30.0
 50
180.0
  0
INSERT
  5
815E
  8
3
  6
CONTINUOUS
 62
     0
  2
_OPEN
 10
-2230.9588940316212
 20
-2828.0227439999999
 30
0.0
 41
30.0
 42
30.0
 43
30.0
  0
POINT
  5
815F
  8
DEFPOINTS
  6
CONTINUOUS
 62
     0
 10
-2410.9588940316221
 20
-2739.321899
 30
0.0
  0
POINT
  5
8160
  8
DEFPOINTS
  6
CONTINUOUS
 62
     0
 10
-2230.9588940316212
 20
-2707.4929430000002
 30
0.0
  0
POINT
  5
8161
  8
DEFPOINTS
  6
CONTINUOUS
 62
     0
 10
-2230.9588940316212
 20
-2828.0227439999999
 30
0.0
  0
ENDBLK
  5
7C89
  8
0
  0
BLOCK
  8
0
  2
*D15
 70
     1
 10
0.0
 20
0.0
 30
0.0
  3
*D15
  1

  0
LINE
  5
8162
  8
3
  6
CONTINUOUS
 62
     0
 10
-2522.9588940316212
 20
-2004.8929430000001
 30
0.0
 11
-2522.9588940316212
 21
-1920.5986190000001
 31
0.0
  0
LINE
  5
8163
  8
3
  6
CONTINUOUS
 62
     0
 10
-2298.9588940316212
 20
-2004.8929430000001
 30
0.0
 11
-2298.9588940316212
 21
-1920.5986190000001
 31
0.0
  0
LINE
  5
8164
  8
3
  6
CONTINUOUS
 62
     0
 10
-2552.9588940316212
 20
-1935.5986190000001
 30
0.0
 11
-2582.9588940316212
 21
-1935.5986190000001
 31
0.0
  0
LINE
  5
8165
  8
3
  6
CONTINUOUS
 62
     0
 10
-2268.9588940316212
 20
-1935.5986190000001
 30
0.0
 11
-2238.9588940316212
 21
-1935.5986190000001
 31
0.0
  0
LINE
  5
8166
  8
3
  6
CONTINUOUS
 62
     0
 10
-2522.9588940316212
 20
-1935.5986190000001
 30
0.0
 11
-2298.9588940316212
 21
-1935.5986190000001
 31
0.0
  0
INSERT
  5
8167
  8
3
  6
CONTINUOUS
 62
     0
  2
_OPEN
 10
-2522.9588940316212
 20
-1935.5986190000001
 30
0.0
 41
30.0
 42
30.0
 43
30.0
  0
INSERT
  5
8168
  8
3
  6
CONTINUOUS
 62
     0
  2
_OPEN
 10
-2298.9588940316212
 20
-1935.5986190000001
 30
0.0
 41
30.0
 42
30.0
 43
30.0
 50
180.0
  0
TEXT
  8
3
  40
45
  5
81A9
  62
0
  72
0
  71
0
 10
-2509.03
 20
-1977.75
 30
0.000000
  1
224
  0
POINT
  5
816A
  8
DEFPOINTS
  6
CONTINUOUS
 62
     0
 10
-2522.9588940316212
 20
-2012.3929430000001
 30
0.0
  0
POINT
  5
816B
  8
DEFPOINTS
  6
CONTINUOUS
 62
     0
 10
-2298.9588940316212
 20
-2012.3929430000001
 30
0.0
  0
POINT
  5
816C
  8
DEFPOINTS
  6
CONTINUOUS
 62
     0
 10
-2298.9588940316212
 20
-1935.5986190000001
 30
0.0
  0
ENDBLK
  5
7C96
  8
0
  0
BLOCK
  8
0
  2
*D16
 70
     1
 10
0.0
 20
0.0
 30
0.0
  3
*D16
  1

  0
LINE
  5
816D
  8
3
  6
CONTINUOUS
 62
     0
 10
-2830.9588940316212
 20
-1978.492943
 30
0.0
 11
-2830.9588940316212
 21
-1808.2174374871061
 31
0.0
  0
LINE
  5
816E
  8
3
  6
CONTINUOUS
 62
     0
 10
-2410.9588940316221
 20
-1863.5115649999991
 30
0.0
 11
-2410.9588940316221
 21
-1808.2174374871061
 31
0.0
  0
LINE
  5
816F
  8
3
  6
CONTINUOUS
 62
     0
 10
-2800.9588940316212
 20
-1823.2174374871061
 30
0.0
 11
-2440.9588940316212
 21
-1823.2174374871061
 31
0.0
  0
INSERT
  5
8170
  8
3
  6
CONTINUOUS
 62
     0
  2
_OPEN
 10
-2830.9588940316212
 20
-1823.2174374871061
 30
0.0
 41
30.0
 42
30.0
 43
30.0
 50
180.0
  0
INSERT
  5
8171
  8
3
  6
CONTINUOUS
 62
     0
  2
_OPEN
 10
-2410.9588940316221
 20
-1823.2174374871061
 30
0.0
 41
30.0
 42
30.0
 43
30.0
  0
TEXT
  8
3
  40
45
  5
81AA
  62
0
  72
0
  71
0
 10
-2713.13
 20
-1827.87
 30
0.000000
  1
MAX
  0
TEXT
  8
3
  40
45
  5
81AB
  62
0
  72
0
  71
0
 10
-2713.13
 20
-1886.37
 30
0.000000
  1
420
  0
POINT
  5
8173
  8
DEFPOINTS
  6
CONTINUOUS
 62
     0
 10
-2830.9588940316212
 20
-1985.992943
 30
0.0
  0
POINT
  5
8174
  8
DEFPOINTS
  6
CONTINUOUS
 62
     0
 10
-2410.9588940316221
 20
-1871.0115649999991
 30
0.0
  0
POINT
  5
8175
  8
DEFPOINTS
  6
CONTINUOUS
 62
     0
 10
-2410.9588940316221
 20
-1823.2174374871061
 30
0.0
  0
ENDBLK
  5
7EFA
  8
0
  0
BLOCK
  8
0
  2
*D17
 70
     1
 10
0.0
 20
0.0
 30
0.0
  3
*D17
  1

  0
LINE
  5
8176
  8
3
  6
CONTINUOUS
 62
     0
 10
-2289.9588940316221
 20
-2035.4929429999991
 30
0.0
 11
-2289.9588940316221
 21
-1808.2174374871061
 31
0.0
  0
LINE
  5
8177
  8
3
  6
CONTINUOUS
 62
     0
 10
-2380.9588940316212
 20
-1823.2174374871061
 30
0.0
 11
-2319.9588940316212
 21
-1823.2174374871061
 31
0.0
  0
TEXT
  8
3
  40
45
  5
81AC
  62
0
  72
0
  71
0
 10
-2447.47
 20
-1865.12
 30
0.000000
  1
121
  0
INSERT
  5
8179
  8
3
  6
CONTINUOUS
 62
     0
  2
_OPEN
 10
-2410.9588940316221
 20
-1823.2174374871061
 30
0.0
 41
30.0
 42
30.0
 43
30.0
 50
180.0
  0
INSERT
  5
817A
  8
3
  6
CONTINUOUS
 62
     0
  2
_OPEN
 10
-2289.9588940316221
 20
-1823.2174374871061
 30
0.0
 41
30.0
 42
30.0
 43
30.0
  0
POINT
  5
817B
  8
DEFPOINTS
  6
CONTINUOUS
 62
     0
 10
-2410.9588940316221
 20
-1871.0115649999991
 30
0.0
  0
POINT
  5
817C
  8
DEFPOINTS
  6
CONTINUOUS
 62
     0
 10
-2289.9588940316221
 20
-2042.992943
 30
0.0
  0
POINT
  5
817D
  8
DEFPOINTS
  6
CONTINUOUS
 62
     0
 10
-2289.9588940316221
 20
-1823.2174374871061
 30
0.0
  0
ENDBLK
  5
7F04
  8
0
  0
BLOCK
  8
0
  2
*D18
 70
     1
 10
0.0
 20
0.0
 30
0.0
  3
*D18
  1

  0
LINE
  5
817E
  8
3
  6
CONTINUOUS
 62
     0
 10
-2282.4588940316212
 20
-2067.9929430000002
 30
0.0
 11
-2178.520291031622
 21
-2067.9929430000002
 31
0.0
  0
LINE
  5
817F
  8
3
  6
CONTINUOUS
 62
     0
 10
-2282.4588940316212
 20
-2382.9929430000002
 30
0.0
 11
-2178.520291031622
 21
-2382.9929430000002
 31
0.0
  0
LINE
  5
8180
  8
3
  6
CONTINUOUS
 62
     0
 10
-2193.520291031622
 20
-2097.9929430000002
 30
0.0
 11
-2193.520291031622
 21
-2352.9929430000002
 31
0.0
  0
INSERT
  5
8181
  8
3
  6
CONTINUOUS
 62
     0
  2
_OPEN
 10
-2193.520291031622
 20
-2067.9929430000002
 30
0.0
 41
30.0
 42
30.0
 43
30.0
 50
90.0
  0
INSERT
  5
8182
  8
3
  6
CONTINUOUS
 62
     0
  2
_OPEN
 10
-2193.520291031622
 20
-2382.9929430000002
 30
0.0
 41
30.0
 42
30.0
 43
30.0
 50
270.0
  0
TEXT
  8
3
  40
45
  5
81AD
  62
0
  72
0
  71
0
 10
-2321.02
 20
-2298.37
 30
0.000000
  1
φ315
  0
POINT
  5
8184
  8
DEFPOINTS
  6
CONTINUOUS
 62
     0
 10
-2289.9588940316221
 20
-2067.9929430000002
 30
0.0
  0
POINT
  5
8185
  8
DEFPOINTS
  6
CONTINUOUS
 62
     0
 10
-2289.9588940316221
 20
-2382.9929430000002
 30
0.0
  0
POINT
  5
8186
  8
DEFPOINTS
  6
CONTINUOUS
 62
     0
 10
-2193.520291031622
 20
-2382.9929430000002
 30
0.0
  0
ENDBLK
  5
7EEF
  8
0
  0
BLOCK
  8
0
  2
*D19
 70
     1
 10
0.0
 20
0.0
 30
0.0
  3
*D19
  1

  0
LINE
  5
8187
  8
3
  6
CONTINUOUS
 62
     0
 10
-3422.6877490000002
 20
-2225.4929430000002
 30
0.0
 11
-3228.8305063677622
 21
-2225.4929430000002
 31
0.0
  0
LINE
  5
8188
  8
3
  6
CONTINUOUS
 62
     0
 10
-3442.6877490000002
 20
-2550.4929430000002
 30
0.0
 11
-3228.8305063677622
 21
-2550.4929430000002
 31
0.0
  0
LINE
  5
8189
  8
3
  6
CONTINUOUS
 62
     0
 10
-3243.8305063677622
 20
-2255.4929430000002
 30
0.0
 11
-3243.8305063677622
 21
-2520.4929430000002
 31
0.0
  0
INSERT
  5
818A
  8
3
  6
CONTINUOUS
 62
     0
  2
_OPEN
 10
-3243.8305063677622
 20
-2225.4929430000002
 30
0.0
 41
30.0
 42
30.0
 43
30.0
 50
90.0
  0
INSERT
  5
818B
  8
3
  6
CONTINUOUS
 62
     0
  2
_OPEN
 10
-3243.8305063677622
 20
-2550.4929430000002
 30
0.0
 41
30.0
 42
30.0
 43
30.0
 50
270.0
  0
TEXT
  8
3
  40
45
  5
81AE
  62
0
  72
0
  71
0
 10
-3371.33
 20
-2451.76
 30
0.000000
  1
325
  0
POINT
  5
818D
  8
DEFPOINTS
  6
CONTINUOUS
 62
     0
 10
-3430.1877490000002
 20
-2225.4929430000002
 30
0.0
  0
POINT
  5
818E
  8
DEFPOINTS
  6
CONTINUOUS
 62
     0
 10
-3450.1877490000002
 20
-2550.4929430000002
 30
0.0
  0
POINT
  5
818F
  8
DEFPOINTS
  6
CONTINUOUS
 62
     0
 10
-3243.8305063677622
 20
-2550.4929430000002
 30
0.0
  0
ENDBLK
  5
7E6B
  8
0
  0
BLOCK
  8
0
  2
_DOT
 70
     0
 10
0.0
 20
0.0
 30
0.0
  3
_DOT
  1

  0
LINE
  5
7EC8
  8
0
  6
BYBLOCK
 62
     0
 10
0.0
 20
0.0
 30
0.0
 11
-1.0
 21
-0.0000000000000284
 31
0.0
  0
POLYLINE
  5
7EC9
  8
0
  6
BYBLOCK
 62
     0
 66
     1
 10
0.0
 20
0.0
 30
0.0
 70
     1
 40
0.1666666666666666
 41
0.1666666666666666
  0
VERTEX
  5
8190
  8
0
  6
BYBLOCK
 62
     0
 10
-0.0833333333333286
 20
-0.0000000000000284
 30
0.0
 42
1.0
  0
VERTEX
  5
8191
  8
0
  6
BYBLOCK
 62
     0
 10
0.0833333333333286
 20
-0.0000000000000284
 30
0.0
 42
1.0
  0
SEQEND
  5
8192
  8
0
  6
BYBLOCK
 62
     0
  0
ENDBLK
  5
7E31
  8
0
  0
BLOCK
  8
0
  2
*D21
 70
     1
 10
0.0
 20
0.0
 30
0.0
  3
*D21
  1

  0
LINE
  5
8193
  8
3
 62
     0
 10
-3430.1877490000002
 20
-2196.4929430000002
 30
0.0
 11
-3430.1877490000002
 21
-1813.468783232174
 31
0.0
  0
LINE
  5
8194
  8
3
 62
     0
 10
-4325.1877489999997
 20
-2639.9929430000002
 30
0.0
 11
-4325.1877489999997
 21
-1813.468783232174
 31
0.0
  0
LINE
  5
8195
  8
3
 62
     0
 10
-3460.1877490000002
 20
-1828.468783232174
 30
0.0
 11
-4295.1877489999997
 21
-1828.468783232174
 31
0.0
  0
INSERT
  5
8196
  8
3
 62
     0
  2
_OPEN
 10
-3430.1877490000002
 20
-1828.468783232174
 30
0.0
 41
30.0
 42
30.0
 43
30.0
  0
INSERT
  5
8197
  8
3
 62
     0
  2
_OPEN
 10
-4325.1877489999997
 20
-1828.468783232174
 30
0.0
 41
30.0
 42
30.0
 43
30.0
 50
180.0
  0
TEXT
  8
3
  40
45
  5
81AF
  62
0
  72
0
  71
0
 10
-3997.26
 20
-1870.62
 30
0.000000
  1
895
  0
POINT
  5
8199
  8
DEFPOINTS
 62
     0
 10
-3430.1877490000002
 20
-2203.9929430000002
 30
0.0
  0
POINT
  5
819A
  8
DEFPOINTS
 62
     0
 10
-4325.1877489999997
 20
-2647.4929430000002
 30
0.0
  0
POINT
  5
819B
  8
DEFPOINTS
 62
     0
 10
-4325.1877489999997
 20
-1828.468783232174
 30
0.0
  0
ENDBLK
  5
7ED8
  8
0
  0
ENDSEC
  0
SECTION
  2
ENTITIES
  0
LINE
  5
7A9E
  8
1
  6
CONTINUOUS
 10
-2830.9588940316212
 20
-2677.4929430000002
 30
0.0
 11
-2230.9588940316212
 21
-2677.4929430000002
 31
0.0
  0
LINE
  5
7A9F
  8
1
  6
CONTINUOUS
 10
-2830.9588940316212
 20
-2707.4929430000002
 30
0.0
 11
-2230.9588940316212
 21
-2707.4929430000002
 31
0.0
  0
LINE
  5
7AA0
  8
1
  6
CONTINUOUS
 10
-2298.9588940316212
 20
-2541.3929429999989
 30
0.0
 11
-2522.9588940316212
 21
-2541.3929429999989
 31
0.0
  0
LINE
  5
7AA1
  8
1
  6
CONTINUOUS
 10
-2298.9588940316212
 20
-2224.3929429999989
 30
0.0
 11
-2522.9588940316212
 21
-2224.3929429999989
 31
0.0
  0
LINE
  5
7AA2
  8
1
  6
CONTINUOUS
 10
-2318.9588940316212
 20
-1992.3929430000001
 30
0.0
 11
-2502.9588940316212
 21
-1992.3929430000001
 31
0.0
  0
LINE
  5
7AA3
  8
1
  6
CONTINUOUS
 10
-2522.9588940316212
 20
-2541.3929429999989
 30
0.0
 11
-2298.9588940316212
 21
-2224.3929429999989
 31
0.0
  0
LINE
  5
7AA4
  8
1
  6
CONTINUOUS
 10
-2298.9588940316212
 20
-2541.3929429999989
 30
0.0
 11
-2522.9588940316212
 21
-2224.3929429999989
 31
0.0
  0
CIRCLE
  5
7AA5
  8
1
  6
CONTINUOUS
 10
-3680.1877490000002
 20
-2225.4929430000002
 30
0.0
 40
157.5
  0
LINE
  5
7AA6
  8
1
  6
CONTINUOUS
 10
-4129.6877490000006
 20
-2493.9929430000002
 30
0.0
 11
-3654.4877489999999
 21
-2283.5929429999992
 31
0.0
  0
ARC
  5
7AA7
  8
1
  6
CONTINUOUS
 10
-3654.6877490000002
 20
-2250.9929430000002
 30
0.0
 40
299.5
 50
169.40000000000001
 51
270.0
  0
ARC
  5
7AA8
  8
1
  6
CONTINUOUS
 10
-3698.1877490000002
 20
-2207.4929430000002
 30
0.0
 40
215.0
 50
8.5999999999999996
 51
100.59999999999999
  0
CIRCLE
  5
7AA9
  8
1
  6
CONTINUOUS
 10
-3680.1877490000002
 20
-2225.4929430000002
 30
0.0
 40
182.5
  0
LINE
  5
7AAA
  8
1
  6
CONTINUOUS
 10
-3535.6877490000002
 20
-2115.9929430000002
 30
0.0
 11
-3735.6877490000002
 21
-1985.992943
 31
0.0
  0
CIRCLE
  5
7AAB
  8
1
  6
CONTINUOUS
 10
-3680.1877490000002
 20
-2225.4929430000002
 30
0.0
 40
63.5
  0
LINE
  5
7AAC
  8
1
  6
CONTINUOUS
 10
-4295.1877489999997
 20
-2625.4929430000002
 30
0.0
 11
-3445.1877490000002
 21
-2625.4929430000002
 31
0.0
  0
LINE
  5
7AAD
  8
1
  6
CONTINUOUS
 10
-4295.1877489999997
 20
-2555.4929430000002
 30
0.0
 11
-3445.1877490000002
 21
-2555.4929430000002
 31
0.0
  0
LINE
  5
7AAE
  8
1
  6
CONTINUOUS
 10
-3885.1877489999988
 20
-2261.9929430000002
 30
0.0
 11
-3475.1877490000002
 21
-2261.9929430000002
 31
0.0
  0
LINE
  5
7AAF
  8
1
  6
CONTINUOUS
 10
-3772.4877489999999
 20
-2045.492943
 30
0.0
 11
-3587.887749
 21
-2045.492943
 31
0.0
  0
LINE
  5
7AB0
  8
2
  6
CENTER
 10
-4144.6315490000006
 20
-2225.4929430000002
 30
0.0
 11
-3393.2546549999988
 21
-2225.4929430000002
 31
0.0
  0
LINE
  5
7AB1
  8
1
  6
CONTINUOUS
 10
-4325.1877489999997
 20
-2677.4929430000002
 30
0.0
 11
-3415.1877490000002
 21
-2677.4929430000002
 31
0.0
  0
LINE
  5
7AB2
  8
1
  6
CONTINUOUS
 10
-4325.1877489999997
 20
-2647.4929430000002
 30
0.0
 11
-3415.1877490000002
 21
-2647.4929430000002
 31
0.0
  0
LINE
  5
7AB3
  8
1
  6
CONTINUOUS
 10
-4174.5877490000003
 20
-2397.8929429999989
 30
0.0
 11
-3708.1877490000002
 21
-2168.4929430000002
 31
0.0
  0
LINE
  5
7AB4
  8
1
  6
CONTINUOUS
 10
-3735.6877490000002
 20
-1985.992943
 30
0.0
 11
-4265.6877489999997
 21
-2335.9929430000002
 31
0.0
  0
LINE
  5
7AB5
  8
2
  6
CENTER
 10
-4204.1877489999997
 20
-2445.4929430000002
 30
0.0
 11
-4098.1877489999997
 21
-2445.4929430000002
 31
0.0
  0
ARC
  5
7AB6
  8
1
  6
CONTINUOUS
 10
-4151.1877489999997
 20
-2445.4929430000002
 30
0.0
 40
101.0
 50
322.89999999999992
 51
217.09999999999991
  0
CIRCLE
  5
7AB7
  8
1
  6
CONTINUOUS
 10
-4151.1877489999997
 20
-2445.4929430000002
 30
0.0
 40
53.0
  0
LINE
  5
7AB8
  8
1
  6
CONTINUOUS
 10
-4265.1877489999997
 20
-2535.4929430000002
 30
0.0
 11
-3950.1877490000002
 21
-2535.4929430000002
 31
0.0
  0
LINE
  5
7AB9
  8
1
  6
CONTINUOUS
 10
-4265.6877489999997
 20
-2335.9929430000002
 30
0.0
 11
-4265.6877489999997
 21
-2545.9929430000002
 31
0.0
  0
LINE
  5
7ABA
  8
2
  6
CENTER
 10
-4151.1877489999997
 20
-2498.4929430000002
 30
0.0
 11
-4151.1877489999997
 21
-2392.4929430000002
 31
0.0
  0
LINE
  5
7ABB
  8
1
  6
CONTINUOUS
 10
-4325.1877489999997
 20
-2707.4929430000002
 30
0.0
 11
-4295.1877489999997
 21
-2707.4929430000002
 31
0.0
  0
LINE
  5
7ABC
  8
1
  6
CONTINUOUS
 10
-4325.1877489999997
 20
-2707.4929430000002
 30
0.0
 11
-4325.1877489999997
 21
-2647.4929430000002
 31
0.0
  0
LINE
  5
7ABD
  8
1
  6
CONTINUOUS
 10
-4295.1877489999997
 20
-2707.4929430000002
 30
0.0
 11
-4295.1877489999997
 21
-2677.4929430000002
 31
0.0
  0
LINE
  5
7ABE
  8
1
  6
CONTINUOUS
 10
-4243.0877489999993
 20
-2535.4929430000002
 30
0.0
 11
-4231.6877490000006
 21
-2506.4929430000002
 31
0.0
  0
LINE
  5
7ABF
  8
1
  6
CONTINUOUS
 10
-4265.1877489999997
 20
-2555.4929430000002
 30
0.0
 11
-4265.1877489999997
 21
-2535.4929430000002
 31
0.0
  0
LINE
  5
7AC0
  8
1
  6
CONTINUOUS
 10
-4295.1877489999997
 20
-2555.4929430000002
 30
0.0
 11
-4295.1877489999997
 21
-2625.4929430000002
 31
0.0
  0
LINE
  5
7AC1
  8
1
  6
CONTINUOUS
 10
-3885.1877489999988
 20
-2555.4929430000002
 30
0.0
 11
-3885.1877489999988
 21
-2140.0929430000001
 31
0.0
  0
LINE
  5
7AC2
  8
1
  6
CONTINUOUS
 10
-4059.2877490000001
 20
-2535.4929430000002
 30
0.0
 11
-4070.6877490000002
 21
-2506.4929430000002
 31
0.0
  0
LINE
  5
7AC3
  8
1
  6
CONTINUOUS
 10
-3950.1877490000002
 20
-2555.4929430000002
 30
0.0
 11
-3950.1877490000002
 21
-2535.4929430000002
 31
0.0
  0
ARC
  5
7AC4
  8
1
  6
CONTINUOUS
 10
-3701.1877490000002
 20
-2246.4929430000002
 30
0.0
 40
253.0
 50
98.200000000000003
 51
168.40000000000001
  0
LINE
  5
7AC5
  8
1
  6
CONTINUOUS
 10
-3772.4877489999999
 20
-2045.492943
 30
0.0
 11
-3885.1877489999988
 21
-2140.0929430000001
 31
0.0
  0
LINE
  5
7AC6
  8
2
  6
CENTER
 10
-3680.1877490000002
 20
-2753.3889629999999
 30
0.0
 11
-3680.1877490000002
 21
-1975.658492
 31
0.0
  0
LINE
  5
7AC9
  8
1
  6
CONTINUOUS
 10
-3450.1877490000002
 20
-2255.4929430000002
 30
0.0
 11
-3450.1877490000002
 21
-2510.4929430000002
 31
0.0
  0
LINE
  5
7ACA
  8
1
  6
CONTINUOUS
 10
-3535.6877490000002
 20
-2115.9929430000002
 30
0.0
 11
-3535.6877490000002
 21
-2555.4929430000002
 31
0.0
  0
LINE
  5
7ACB
  8
1
  6
CONTINUOUS
 10
-3475.1877490000002
 20
-2555.4929430000002
 30
0.0
 11
-3475.1877490000002
 21
-2140.0929430000001
 31
0.0
  0
LINE
  5
7ACC
  8
1
  6
CONTINUOUS
 10
-3430.1877490000002
 20
-2203.9929430000002
 30
0.0
 11
-3430.1877490000002
 21
-2561.9929430000002
 31
0.0
  0
LINE
  5
7ACE
  8
1
  6
CONTINUOUS
 10
-3430.1877490000002
 20
-2530.4929430000002
 30
0.0
 11
-3450.1877490000002
 21
-2510.4929430000002
 31
0.0
  0
LINE
  5
7ACF
  8
1
  6
CONTINUOUS
 10
-3430.1877490000002
 20
-2540.4929430000002
 30
0.0
 11
-3450.1877490000002
 21
-2540.4929430000002
 31
0.0
  0
LINE
  5
7AD0
  8
1
  6
CONTINUOUS
 10
-3450.1877490000002
 20
-2550.4929430000002
 30
0.0
 11
-3654.6877490000002
 21
-2550.4929430000002
 31
0.0
  0
LINE
  5
7AD1
  8
1
  6
CONTINUOUS
 10
-3450.1877490000002
 20
-2540.4929430000002
 30
0.0
 11
-3450.1877490000002
 21
-2550.4929430000002
 31
0.0
  0
LINE
  5
7AD3
  8
1
  6
CONTINUOUS
 10
-3445.1877490000002
 20
-2707.4929430000002
 30
0.0
 11
-3415.1877490000002
 21
-2707.4929430000002
 31
0.0
  0
LINE
  5
7AD4
  8
1
  6
CONTINUOUS
 10
-3445.1877490000002
 20
-2707.4929430000002
 30
0.0
 11
-3445.1877490000002
 21
-2677.4929430000002
 31
0.0
  0
LINE
  5
7AD5
  8
1
  6
CONTINUOUS
 10
-3445.1877490000002
 20
-2555.4929430000002
 30
0.0
 11
-3445.1877490000002
 21
-2625.4929430000002
 31
0.0
  0
LINE
  5
7AD6
  8
1
  6
CONTINUOUS
 10
-3415.1877490000002
 20
-2707.4929430000002
 30
0.0
 11
-3415.1877490000002
 21
-2647.4929430000002
 31
0.0
  0
LINE
  5
7AD8
  8
1
  6
CONTINUOUS
 10
-3430.1877490000002
 20
-2235.4929430000002
 30
0.0
 11
-3450.1877490000002
 21
-2255.4929430000002
 31
0.0
  0
LINE
  5
7AD9
  8
1
  6
CONTINUOUS
 10
-3450.1877490000002
 20
-2225.4929430000002
 30
0.0
 11
-3430.1877490000002
 21
-2225.4929430000002
 31
0.0
  0
LINE
  5
7ADA
  8
1
  6
CONTINUOUS
 10
-3587.887749
 20
-2045.492943
 30
0.0
 11
-3475.1877490000002
 21
-2140.0929430000001
 31
0.0
  0
LINE
  5
7ADB
  8
1
  6
CONTINUOUS
 10
-3450.1877490000002
 20
-2216.5929430000001
 30
0.0
 11
-3450.1877490000002
 21
-2225.4929430000002
 31
0.0
  0
ARC
  5
7ADC
  8
1
  6
CONTINUOUS
 10
-3412.1877490000002
 20
-2148.4929430000002
 30
0.0
 40
78.0
 50
198.80000000000001
 51
240.80000000000001
  0
LINE
  5
7ADD
  8
1
  6
CONTINUOUS
 10
-2745.9588940316212
 20
-2555.3929429999998
 30
0.0
 11
-2745.9588940316212
 21
-1985.992943
 31
0.0
  0
LINE
  5
7ADE
  8
1
  6
CONTINUOUS
 10
-2830.9588940316212
 20
-2555.3929429999998
 30
0.0
 11
-2830.9588940316212
 21
-1985.992943
 31
0.0
  0
LINE
  5
7ADF
  8
1
  6
CONTINUOUS
 10
-2805.9588940316221
 20
-2381.8929429999989
 30
0.0
 11
-2805.9588940316221
 21
-2508.8929429999998
 31
0.0
  0
LINE
  5
7AE0
  8
1
  6
CONTINUOUS
 10
-2770.9588940316212
 20
-2508.8929429999998
 30
0.0
 11
-2770.9588940316212
 21
-2381.8929429999989
 31
0.0
  0
LINE
  5
7AE1
  8
1
  6
CONTINUOUS
 10
-2696.7588940316209
 20
-2264.4929430000002
 30
0.0
 11
-2696.7588940316209
 21
-2555.4929430000002
 31
0.0
  0
LINE
  5
7AE2
  8
1
  6
CONTINUOUS
 10
-2532.7588940316209
 20
-2042.8929430000001
 30
0.0
 11
-2532.7588940316209
 21
-2555.4929430000002
 31
0.0
  0
LINE
  5
7AE3
  8
1
  6
CONTINUOUS
 10
-2522.9588940316212
 20
-2541.3929429999989
 30
0.0
 11
-2522.9588940316212
 21
-2012.3929430000001
 31
0.0
  0
LINE
  5
7AE4
  8
1
  6
CONTINUOUS
 10
-2725.9588940316212
 20
-2625.4929430000002
 30
0.0
 11
-2410.9588940316221
 21
-2625.4929430000002
 31
0.0
  0
LINE
  5
7AE5
  8
1
  6
CONTINUOUS
 10
-2410.9588940316221
 20
-2555.4929430000002
 30
0.0
 11
-2725.9588940316212
 21
-2555.4929430000002
 31
0.0
  0
LINE
  5
7AE6
  8
1
  6
CONTINUOUS
 10
-2725.9588940316212
 20
-2647.4929430000002
 30
0.0
 11
-2410.9588940316221
 21
-2647.4929430000002
 31
0.0
  0
LINE
  5
7AE7
  8
1
  6
CONTINUOUS
 10
-2770.9588940316212
 20
-2433.3929429999989
 30
0.0
 11
-2696.7588940316209
 21
-2433.3929429999989
 31
0.0
  0
LINE
  5
7AE8
  8
1
  6
CONTINUOUS
 10
-2770.9588940316212
 20
-2457.3929429999998
 30
0.0
 11
-2696.7588940316209
 21
-2457.3929429999998
 31
0.0
  0
LINE
  5
7AE9
  8
1
  6
CONTINUOUS
 10
-2830.9588940316212
 20
-2677.4929430000002
 30
0.0
 11
-2830.9588940316212
 21
-2707.4929430000002
 31
0.0
  0
LINE
  5
7AEA
  8
1
  6
CONTINUOUS
 10
-2805.9588940316221
 20
-2508.8929429999998
 30
0.0
 11
-2770.9588940316212
 21
-2508.8929429999998
 31
0.0
  0
LINE
  5
7AEB
  8
1
  6
CONTINUOUS
 10
-2830.9588940316212
 20
-2555.3929429999998
 30
0.0
 11
-2745.9588940316212
 21
-2555.3929429999998
 31
0.0
  0
LINE
  5
7AEC
  8
1
  6
CONTINUOUS
 10
-2725.9588940316212
 20
-2555.4929430000002
 30
0.0
 11
-2725.9588940316212
 21
-2625.4929430000002
 31
0.0
  0
LINE
  5
7AED
  8
1
  6
CONTINUOUS
 10
-2725.9588940316212
 20
-2647.4929430000002
 30
0.0
 11
-2725.9588940316212
 21
-2677.4929430000002
 31
0.0
  0
LINE
  5
7AEE
  8
1
  6
CONTINUOUS
 10
-2532.7588940316209
 20
-2407.9929430000002
 30
0.0
 11
-2522.7588940316209
 21
-2407.9929430000002
 31
0.0
  0
LINE
  5
7AEF
  8
1
  6
CONTINUOUS
 10
-2410.9588940316221
 20
-2625.4929430000002
 30
0.0
 11
-2410.9588940316221
 21
-2555.4929430000002
 31
0.0
  0
LINE
  5
7AF0
  8
1
  6
CONTINUOUS
 10
-2410.9588940316221
 20
-2677.4929430000002
 30
0.0
 11
-2410.9588940316221
 21
-2647.4929430000002
 31
0.0
  0
LINE
  5
7AF1
  8
1
  6
CONTINUOUS
 10
-2532.7588940316209
 20
-2138.2929429999999
 30
0.0
 11
-2696.7588940316209
 21
-2264.4929430000002
 31
0.0
  0
LINE
  5
7AF2
  8
1
  6
CONTINUOUS
 10
-2770.9588940316212
 20
-2237.8929429999989
 30
0.0
 11
-2662.158894031621
 21
-2237.8929429999989
 31
0.0
  0
LINE
  5
7AF3
  8
1
  6
CONTINUOUS
 10
-2770.9588940316212
 20
-2212.8929429999989
 30
0.0
 11
-2629.7588940316209
 21
-2212.8929429999989
 31
0.0
  0
LINE
  5
7AF4
  8
1
  6
CONTINUOUS
 10
-2770.9588940316212
 20
-2381.8929429999989
 30
0.0
 11
-2805.9588940316221
 21
-2381.8929429999989
 31
0.0
  0
LINE
  5
7AF5
  8
1
  6
CONTINUOUS
 10
-2805.9588940316221
 20
-2288.8929429999998
 30
0.0
 11
-2770.9588940316212
 21
-2288.8929429999998
 31
0.0
  0
LINE
  5
7AF6
  8
1
  6
CONTINUOUS
 10
-2770.9588940316212
 20
-2288.8929429999998
 30
0.0
 11
-2770.9588940316212
 21
-2161.8929429999989
 31
0.0
  0
LINE
  5
7AF7
  8
1
  6
CONTINUOUS
 10
-2770.9588940316212
 20
-2161.8929429999989
 30
0.0
 11
-2805.9588940316221
 21
-2161.8929429999989
 31
0.0
  0
LINE
  5
7AF8
  8
1
  6
CONTINUOUS
 10
-2805.9588940316221
 20
-2161.8929429999989
 30
0.0
 11
-2805.9588940316221
 21
-2288.8929429999998
 31
0.0
  0
LINE
  5
7AF9
  8
1
  6
CONTINUOUS
 10
-2830.9588940316212
 20
-1985.992943
 30
0.0
 11
-2745.9588940316212
 21
-1985.992943
 31
0.0
  0
LINE
  5
7AFA
  8
1
  6
CONTINUOUS
 10
-2532.7588940316209
 20
-2044.4929429999991
 30
0.0
 11
-2532.7588940316209
 21
-2206.4929430000002
 31
0.0
  0
ARC
  5
7AFB
  8
1
  6
CONTINUOUS
 10
-2502.9588940316212
 20
-2012.3929430000001
 30
0.0
 40
20.0
 50
90.0
 51
180.0
  0
LINE
  5
7AFC
  8
1
  6
CONTINUOUS
 10
-2522.7588940316209
 20
-2007.3929430000001
 30
0.0
 11
-2522.7588940316209
 21
-2041.3929429999989
 31
0.0
  0
LINE
  5
7AFD
  8
1
  6
CONTINUOUS
 10
-2532.7588940316209
 20
-2042.992943
 30
0.0
 11
-2522.7588940316209
 21
-2042.992943
 31
0.0
  0
LINE
  5
7AFE
  8
1
  6
CONTINUOUS
 10
-3668.1877490000002
 20
-1297.168764
 30
0.0
 11
-3475.1877490000002
 21
-1297.168764
 31
0.0
  0
LINE
  5
7AFF
  8
1
  6
CONTINUOUS
 10
-4265.6877489999997
 20
-1347.168764
 30
0.0
 11
-3535.6877490000002
 21
-1347.168764
 31
0.0
  0
LINE
  5
7B00
  8
1
  6
CONTINUOUS
 10
-4265.6877489999997
 20
-1432.168764
 30
0.0
 11
-3535.6877490000002
 21
-1432.168764
 31
0.0
  0
LINE
  5
7B01
  8
1
  6
CONTINUOUS
 10
-3668.1877490000002
 20
-1327.168764
 30
0.0
 11
-3415.1877490000002
 21
-1327.168764
 31
0.0
  0
LINE
  5
7B02
  8
1
  6
CONTINUOUS
 10
-3743.6877490000002
 20
-1405.668764
 30
0.0
 11
-3616.6877490000002
 21
-1405.668764
 31
0.0
  0
LINE
  5
7B03
  8
1
  6
CONTINUOUS
 10
-3616.6877490000002
 20
-1370.668764
 30
0.0
 11
-3743.6877490000002
 21
-1370.668764
 31
0.0
  0
LINE
  5
7B04
  8
1
  6
CONTINUOUS
 10
-3430.1877490000002
 20
-1124.1687639999991
 30
0.0
 11
-3948.1877490000002
 21
-1124.1687639999991
 31
0.0
  0
LINE
  5
7B05
  8
1
  6
CONTINUOUS
 10
-3948.1877490000002
 20
-900.16876400000001
 30
0.0
 11
-3430.1877490000002
 21
-900.16876400000001
 31
0.0
  0
LINE
  5
7B06
  8
1
  6
CONTINUOUS
 10
-3885.1877489999988
 20
-1133.968764
 30
0.0
 11
-3475.1877490000002
 21
-1133.968764
 31
0.0
  0
LINE
  5
7B07
  8
1
  6
CONTINUOUS
 10
-3862.6877490000002
 20
-891.16876400000001
 30
0.0
 11
-3497.6877490000002
 21
-891.16876400000001
 31
0.0
  0
LINE
  5
7B08
  8
1
  6
CONTINUOUS
 10
-4139.1877489999997
 20
-1327.168764
 30
0.0
 11
-3692.1877490000002
 21
-1327.168764
 31
0.0
  0
LINE
  5
7B09
  8
1
  6
CONTINUOUS
 10
-4087.6877490000002
 20
-1370.668764
 30
0.0
 11
-4214.6877490000006
 21
-1370.668764
 31
0.0
  0
LINE
  5
7B0A
  8
1
  6
CONTINUOUS
 10
-4214.6877490000006
 20
-1405.668764
 30
0.0
 11
-4087.6877490000002
 21
-1405.668764
 31
0.0
  0
LINE
  5
7B0B
  8
1
  6
CONTINUOUS
 10
-4050.1877490000002
 20
-1038.668764
 30
0.0
 11
-4241.1877489999997
 21
-1038.668764
 31
0.0
  0
LINE
  5
7B0C
  8
1
  6
CONTINUOUS
 10
-4050.1877490000002
 20
-1310.668764
 30
0.0
 11
-4241.1877489999997
 21
-1310.668764
 31
0.0
  0
LINE
  5
7B0D
  8
1
  6
CONTINUOUS
 10
-3968.1877490000002
 20
-1012.168764
 30
0.0
 11
-4325.1877489999997
 21
-1012.168764
 31
0.0
  0
LINE
  5
7B0E
  8
1
  6
CONTINUOUS
 10
-4241.1877489999997
 20
-1038.668764
 30
0.0
 11
-4241.1877489999997
 21
-1310.668764
 31
0.0
  0
LINE
  5
7B0F
  8
1
  6
CONTINUOUS
 10
-4325.1877489999997
 20
-1432.168764
 30
0.0
 11
-4325.1877489999997
 21
-832.16876400000001
 31
0.0
  0
LINE
  5
7B10
  8
1
  6
CONTINUOUS
 10
-4325.1877489999997
 20
-1432.168764
 30
0.0
 11
-4295.1877489999997
 21
-1432.168764
 31
0.0
  0
LINE
  5
7B11
  8
1
  6
CONTINUOUS
 10
-4325.1877489999997
 20
-1327.168764
 30
0.0
 11
-4163.1877490000006
 21
-1327.168764
 31
0.0
  0
LINE
  5
7B12
  8
1
  6
CONTINUOUS
 10
-4295.1877489999997
 20
-1327.168764
 30
0.0
 11
-4295.1877489999997
 21
-1432.168764
 31
0.0
  0
LINE
  5
7B13
  8
1
  6
CONTINUOUS
 10
-4265.6877489999997
 20
-1347.168764
 30
0.0
 11
-4265.6877489999997
 21
-1432.168764
 31
0.0
  0
LINE
  5
7B14
  8
1
  6
CONTINUOUS
 10
-4163.1877490000006
 20
-1370.668764
 30
0.0
 11
-4163.1877490000006
 21
-1310.668764
 31
0.0
  0
LINE
  5
7B15
  8
1
  6
CONTINUOUS
 10
-4139.1877489999997
 20
-1370.668764
 30
0.0
 11
-4139.1877489999997
 21
-1310.668764
 31
0.0
  0
LINE
  5
7B16
  8
1
  6
CONTINUOUS
 10
-4214.6877490000006
 20
-1370.668764
 30
0.0
 11
-4214.6877490000006
 21
-1405.668764
 31
0.0
  0
LINE
  5
7B17
  8
1
  6
CONTINUOUS
 10
-4139.1877489999997
 20
-1405.668764
 30
0.0
 11
-4163.1877490000006
 21
-1405.668764
 31
0.0
  0
LINE
  5
7B18
  8
1
  6
CONTINUOUS
 10
-4325.1877489999997
 20
-832.16876400000001
 30
0.0
 11
-4295.1877489999997
 21
-832.16876400000001
 31
0.0
  0
LINE
  5
7B19
  8
1
  6
CONTINUOUS
 10
-4295.1877489999997
 20
-832.16876400000001
 30
0.0
 11
-4295.1877489999997
 21
-1012.168764
 31
0.0
  0
LINE
  5
7B1A
  8
1
  6
CONTINUOUS
 10
-4050.1877490000002
 20
-1310.668764
 30
0.0
 11
-4050.1877490000002
 21
-1038.668764
 31
0.0
  0
LINE
  5
7B1B
  8
1
  6
CONTINUOUS
 10
-3968.1877490000002
 20
-920.16876400000012
 30
0.0
 11
-3968.1877490000002
 21
-1104.168764
 31
0.0
  0
LINE
  5
7B1C
  8
1
  6
CONTINUOUS
 10
-3885.1877489999988
 20
-1297.168764
 30
0.0
 11
-3692.1877490000002
 21
-1297.168764
 31
0.0
  0
LINE
  5
7B1D
  8
1
  6
CONTINUOUS
 10
-4087.6877490000002
 20
-1405.668764
 30
0.0
 11
-4087.6877490000002
 21
-1370.668764
 31
0.0
  0
LINE
  5
7B1E
  8
1
  6
CONTINUOUS
 10
-3885.1877489999988
 20
-1297.168764
 30
0.0
 11
-3885.1877489999988
 21
-1133.968764
 31
0.0
  0
ARC
  5
7B1F
  8
1
  6
CONTINUOUS
 10
-3948.1877490000002
 20
-1104.168764
 30
0.0
 40
20.0
 50
180.0
 51
270.0
  0
LINE
  5
7B20
  8
1
  6
CONTINUOUS
 10
-3668.1877490000002
 20
-1133.968764
 30
0.0
 11
-3668.1877490000002
 21
-1370.668764
 31
0.0
  0
LINE
  5
7B21
  8
1
  6
CONTINUOUS
 10
-3692.1877490000002
 20
-1133.968764
 30
0.0
 11
-3692.1877490000002
 21
-1370.668764
 31
0.0
  0
LINE
  5
7B22
  8
1
  6
CONTINUOUS
 10
-3743.6877490000002
 20
-1370.668764
 30
0.0
 11
-3743.6877490000002
 21
-1405.668764
 31
0.0
  0
LINE
  5
7B23
  8
1
  6
CONTINUOUS
 10
-3861.1877490000002
 20
-1133.968764
 30
0.0
 11
-3699.1877490000002
 21
-1133.968764
 31
0.0
  0
LINE
  5
7B24
  8
1
  6
CONTINUOUS
 10
-3862.6877490000002
 20
-1133.968764
 30
0.0
 11
-3862.6877490000002
 21
-1124.1687639999991
 31
0.0
  0
ARC
  5
7B25
  8
1
  6
CONTINUOUS
 10
-3948.1877490000002
 20
-920.16876400000012
 30
0.0
 40
20.0
 50
90.0
 51
180.0
  0
LINE
  5
7B26
  8
1
  6
CONTINUOUS
 10
-3862.6877490000002
 20
-891.16876400000001
 30
0.0
 11
-3862.6877490000002
 21
-899.36876400000006
 31
0.0
  0
LINE
  5
7B27
  8
1
  6
CONTINUOUS
 10
-3450.1877490000002
 20
-929.16876400000012
 30
0.0
 11
-3450.1877490000002
 21
-1095.168764
 31
0.0
  0
LINE
  5
7B28
  8
1
  6
CONTINUOUS
 10
-3430.1877490000002
 20
-879.16876400000012
 30
0.0
 11
-3430.1877490000002
 21
-1145.168764
 31
0.0
  0
LINE
  5
7B29
  8
1
  6
CONTINUOUS
 10
-3415.1877490000002
 20
-1432.168764
 30
0.0
 11
-3415.1877490000002
 21
-832.16876400000001
 31
0.0
  0
LINE
  5
7B2A
  8
1
  6
CONTINUOUS
 10
-3430.1877490000002
 20
-1115.168764
 30
0.0
 11
-3450.1877490000002
 21
-1095.168764
 31
0.0
  0
LINE
  5
7B2B
  8
1
  6
CONTINUOUS
 10
-3535.6877490000002
 20
-1347.168764
 30
0.0
 11
-3535.6877490000002
 21
-1432.168764
 31
0.0
  0
LINE
  5
7B2C
  8
1
  6
CONTINUOUS
 10
-3616.6877490000002
 20
-1405.668764
 30
0.0
 11
-3616.6877490000002
 21
-1370.668764
 31
0.0
  0
LINE
  5
7B2D
  8
1
  6
CONTINUOUS
 10
-3497.6877490000002
 20
-1133.968764
 30
0.0
 11
-3497.6877490000002
 21
-1124.1687639999991
 31
0.0
  0
LINE
  5
7B2E
  8
1
  6
CONTINUOUS
 10
-3475.1877490000002
 20
-1297.168764
 30
0.0
 11
-3475.1877490000002
 21
-1133.968764
 31
0.0
  0
LINE
  5
7B2F
  8
1
  6
CONTINUOUS
 10
-3445.1877490000002
 20
-1327.168764
 30
0.0
 11
-3445.1877490000002
 21
-1432.168764
 31
0.0
  0
LINE
  5
7B30
  8
1
  6
CONTINUOUS
 10
-3415.1877490000002
 20
-1432.168764
 30
0.0
 11
-3445.1877490000002
 21
-1432.168764
 31
0.0
  0
LINE
  5
7B31
  8
1
  6
CONTINUOUS
 10
-3430.1877490000002
 20
-909.1687639999999
 30
0.0
 11
-3450.1877490000002
 21
-929.16876400000012
 31
0.0
  0
LINE
  5
7B32
  8
1
  6
CONTINUOUS
 10
-3497.6877490000002
 20
-891.16876400000001
 30
0.0
 11
-3497.6877490000002
 21
-899.36876400000006
 31
0.0
  0
LINE
  5
7B33
  8
1
  6
CONTINUOUS
 10
-3415.1877490000002
 20
-832.16876400000001
 30
0.0
 11
-3445.1877490000002
 21
-832.16876400000001
 31
0.0
  0
LINE
  5
7B34
  8
1
  6
CONTINUOUS
 10
-3445.1877490000002
 20
-832.16876400000001
 30
0.0
 11
-3445.1877490000002
 21
-900.16876400000001
 31
0.0
  0
LINE
  5
7B35
  8
1
  6
CONTINUOUS
 10
-3415.1877490000002
 20
-1012.168764
 30
0.0
 11
-3430.1877490000002
 21
-1012.168764
 31
0.0
  0
LINE
  5
7B36
  8
1
  6
CONTINUOUS
 10
-2289.9588940316221
 20
-2042.992943
 30
0.0
 11
-2289.9588940316221
 21
-2407.9929430000002
 31
0.0
  0
LINE
  5
7B37
  8
1
  6
CONTINUOUS
 10
-2298.9588940316212
 20
-2012.3929430000001
 30
0.0
 11
-2298.9588940316212
 21
-2541.3929429999989
 31
0.0
  0
LINE
  5
7B38
  8
1
  6
CONTINUOUS
 10
-2289.9588940316221
 20
-2407.9929430000002
 30
0.0
 11
-2299.158894031621
 21
-2407.9929430000002
 31
0.0
  0
LINE
  5
7B39
  8
1
  6
CONTINUOUS
 10
-2230.9588940316212
 20
-2677.4929430000002
 30
0.0
 11
-2230.9588940316212
 21
-2707.4929430000002
 31
0.0
  0
LINE
  5
7B3A
  8
1
  6
CONTINUOUS
 10
-2289.9588940316221
 20
-2042.992943
 30
0.0
 11
-2298.9588940316212
 21
-2042.992943
 31
0.0
  0
ARC
  5
7B3B
  8
1
  6
CONTINUOUS
 10
-2318.9588940316212
 20
-2012.3929430000001
 30
0.0
 40
20.0
 50
0.0
 51
90.0
  0
LINE
  5
7B3C
  8
4
  6
CONTINUOUS
 10
-2087.3025229999989
 20
-3319.0892100000001
 30
0.0
 11
-2087.3025229999989
 21
-3619.0892100000001
 31
0.0
  0
LINE
  5
7B3D
  8
4
  6
CONTINUOUS
 10
-3137.3025229999998
 20
-3319.0892100000001
 30
0.0
 11
-3137.3025229999989
 21
-3619.0892100000001
 31
0.0
  0
LINE
  5
7B3E
  8
4
  6
CONTINUOUS
 10
-3887.3025229999989
 20
-3319.0892100000001
 30
0.0
 11
-3887.3025229999989
 21
-3619.0892100000001
 31
0.0
  0
LINE
  5
7B41
  8
4
  6
CONTINUOUS
 10
-3887.3025229999989
 20
-3619.0892100000001
 30
0.0
 11
-2087.3025229999989
 21
-3619.0892100000001
 31
0.0
  0
LINE
  5
7B42
  8
4
  6
CONTINUOUS
 10
-3887.3025229999989
 20
-3469.0892099999992
 30
0.0
 11
-2087.3025229999989
 21
-3469.0892099999992
 31
0.0
  0
TEXT
  5
7B43
  8
4
  6
CONTINUOUS
 10
-3829.549402000001
 20
-3421.774672
 30
0.0
 40
75.0
  1
機器名称
  0
TEXT
  5
7B44
  8
4
  6
CONTINUOUS
 10
-3832.915364
 20
-3586.621474999999
 30
0.0
 40
75.0
  1
機器型番
  0
TEXT
  5
7B45
  8
4
  6
CONTINUOUS
 10
-3095.784404999999
 20
-3435.2315570000001
 30
0.0
 40
65.0
  1
ミツヤニューマルチファン
  0
TEXT
  5
7B46
  8
4
  6
CONTINUOUS
 10
-3082.32078
 20
-3593.3498340000001
 30
0.0
 40
75.0
  1
NM#2-1
  0
TEXT
  5
7B48
  8
4
  6
CONTINUOUS
 10
-3778.3196429999989
 20
-493.94594799999999
 30
0.0
 40
81.0
  1
天井吊防振ベット
  0
TEXT
  5
7B49
  8
4
  6
CONTINUOUS
 10
-4388.0511329999999
 20
-268.26774599999987
 30
0.0
 40
108.0
  1
ベルト駆動式片吸込片持多翼ファン
  0
LINE
  5
7B4A
  8
4
  6
CONTINUOUS
 10
-4487.3025229999994
 20
-364.97607900000003
 30
0.0
 11
-2087.3025229999989
 21
-364.97607900000003
 31
0.0
  0
LINE
  5
7B4B
  8
4
  6
CONTINUOUS
 10
-4487.3025229999994
 20
-64.976078999999999
 30
0.0
 11
-2087.3025229999989
 21
-64.976078999999999
 31
0.0
  0
LINE
  5
7B4C
  8
4
  6
CONTINUOUS
 10
-3887.3025229999989
 20
-3319.0892100000001
 30
0.0
 11
-2087.3025229999989
 21
-3319.0892100000001
 31
0.0
  0
LINE
  5
7B4D
  8
4
  6
CONTINUOUS
 10
-4487.3025229999994
 20
-64.976078999999999
 30
0.0
 11
-4487.3025229999994
 21
-364.97607900000003
 31
0.0
  0
TEXT
  5
7B4E
  8
4
  6
CONTINUOUS
 10
-4432.1078909999997
 20
-495.60999399999997
 30
0.0
 40
81.0
  1
左回転右横向
  0
TEXT
  5
7B4F
  8
4
  6
CONTINUOUS
 10
-2658.8481839999999
 20
-9.9975880000000004
 30
0.0
 40
84.0
  1
No.
  0
TEXT
  5
7B50
  8
4
  6
CONTINUOUS
 10
-2758.7605579999999
 20
-493.94594799999999
 30
0.0
 40
81.0
  1
縮尺：1/15
  0
LINE
  5
7B51
  8
4
  6
CONTINUOUS
 10
-2087.3025229999989
 20
-64.976078999999999
 30
0.0
 11
-2087.3025229999989
 21
-364.97607900000003
 31
0.0
  0
LINE
  5
7B53
  8
4
  6
CONTINUOUS
 10
-2701.3763889999991
 20
-47.19383599999999
 30
0.0
 11
-2701.3763889999991
 21
110.88918199999991
 31
0.0
  0
LINE
  5
7B54
  8
4
  6
CONTINUOUS
 10
-2701.3763889999991
 20
110.88918199999991
 30
0.0
 11
-2087.3025229999989
 21
110.88918199999991
 31
0.0
  0
LINE
  5
7B55
  8
4
  6
CONTINUOUS
 10
-2087.3025229999989
 20
110.88918199999991
 30
0.0
 11
-2087.3025229999989
 21
-47.19383599999999
 31
0.0
  0
LINE
  5
7B56
  8
4
  6
CONTINUOUS
 10
-2087.3025229999989
 20
-47.19383599999999
 30
0.0
 11
-2701.3763889999991
 21
-47.19383599999999
 31
0.0
  0
DIMENSION
  5
7B6E
  8
3
  6
CONTINUOUS
  2
*D1
 10
-3680.1877490000002
 20
-2835.644847
 30
0.0
 11
-3982.615272
 21
-2835.644847
 31
0.0
 70
   128
 13
-4325.1877489999997
 23
-2707.4929430000002
 33
0.0
 14
-3680.1877490000002
 24
-2753.3889629999999
 34
0.0
1001
ACAD
1000
DSTYLE
1002
{
1070
   287
1070
     3
1070
   287
1070
     3
1070
    40
1040
15.0
1070
   143
1040
0.039
1070
   172
1070
     1
1070
   271
1070
     0
1070
   279
1070
     0
1070
   288
1070
     1
1002
}
  0
DIMENSION
  5
7B7A
  8
3
  6
CONTINUOUS
  2
*D2
 10
-3415.1877490000002
 20
-2835.644847
 30
0.0
 11
-3547.6877490000002
 21
-2798.144847
 31
0.0
 70
     0
 13
-3680.1877490000002
 23
-2753.3889629999999
 33
0.0
 14
-3415.1877490000002
 24
-2707.4929430000002
 34
0.0
1001
ACAD
1000
DSTYLE
1002
{
1070
   287
1070
     4
1070
   287
1070
     4
1070
    40
1040
15.0
1070
    75
1070
     1
1070
   143
1040
0.039
1070
   172
1070
     1
1070
   271
1070
     0
1070
   279
1070
     1
1070
   288
1070
     1
1002
}
  0
DIMENSION
  5
7B87
  8
3
  6
CONTINUOUS
  2
*D3
 10
-3328.314327
 20
-2540.4929430000002
 30
0.0
 11
-3328.314327
 21
-2383.0455149999998
 31
0.0
 70
   128
 13
-3430.1877490000002
 23
-2225.4929430000002
 33
0.0
 14
-3430.1877490000002
 24
-2540.4929430000002
 34
0.0
 50
90.0
1001
ACAD
1000
DSTYLE
1002
{
1070
   287
1070
     3
1070
   287
1070
     3
1070
    40
1040
15.0
1070
   143
1040
0.039
1070
   172
1070
     1
1070
   271
1070
     0
1070
   279
1070
     0
1070
   288
1070
     1
1002
}
  0
DIMENSION
  5
7B94
  8
3
  6
CONTINUOUS
  2
*D4
 10
-3159.9320983463099
 20
-2225.4929430000002
 30
0.0
 11
-3159.932098346309
 21
-2122.6358001428571
 31
0.0
 70
   128
 13
-3680.1877490000002
 23
-1993.247756999999
 33
0.0
 14
-3430.1877490000002
 24
-2225.4929430000002
 34
0.0
 50
90.0
1001
ACAD
1000
DSTYLE
1002
{
1070
   287
1070
     3
1070
   287
1070
     3
1070
    40
1040
15.0
1070
   143
1040
0.039
1070
   172
1070
     1
1070
   271
1070
     0
1070
   279
1070
     0
1070
   288
1070
     1
1002
}
  0
DIMENSION
  5
7BA0
  8
3
  6
CONTINUOUS
  2
*D5
 10
-3159.932098346309
 20
-2625.4929430000002
 30
0.0
 11
-3197.432098346309
 21
-2425.4929430000011
 31
0.0
 70
     0
 13
-3430.1877490000002
 23
-2225.4929430000002
 33
0.0
 14
-3445.1877490000002
 24
-2625.4929430000002
 34
0.0
 50
90.0
1001
ACAD
1000
DSTYLE
1002
{
1070
   287
1070
     4
1070
   287
1070
     4
1070
    40
1040
15.0
1070
    75
1070
     1
1070
   143
1040
0.039
1070
   172
1070
     1
1070
   271
1070
     0
1070
   279
1070
     1
1070
   288
1070
     1
1002
}
  0
DIMENSION
  5
7BB0
  8
3
  6
CONTINUOUS
  2
*D6
 10
-3159.932098346309
 20
-2677.4929430000002
 30
0.0
 11
-3110.5399086559901
 21
-2648.0015253247352
 31
0.0
 70
   128
 13
-3445.1877490000002
 23
-2625.4929430000002
 33
0.0
 14
-3415.1877490000002
 24
-2677.4929430000002
 34
0.0
 50
90.0
1001
ACAD
1000
DSTYLE
1002
{
1070
   288
1070
     1
1070
   172
1070
     1
1070
    75
1070
     1
1070
    40
1040
15.0
1070
   271
1070
     0
1070
     7
1000
_DOT
1070
   143
1040
0.039
1002
}
  0
DIMENSION
  5
7BC0
  8
3
  6
CONTINUOUS
  2
*D7
 10
-3159.9320983463099
 20
-2707.4929430000002
 30
0.0
 11
-3159.932098346309
 21
-2818.9215144285722
 31
0.0
 70
   128
 13
-3415.1877490000002
 23
-2677.4929430000002
 33
0.0
 14
-3415.1877490000002
 24
-2707.4929430000002
 34
0.0
 50
90.0
1001
ACAD
1000
DSTYLE
1002
{
1070
   287
1070
     3
1070
   287
1070
     3
1070
    40
1040
15.0
1070
   143
1040
0.039
1070
   172
1070
     1
1070
   271
1070
     0
1070
   279
1070
     0
1070
   288
1070
     1
1070
     6
1000
DOT
1002
}
  0
DIMENSION
  5
7C21
  8
3
  6
CONTINUOUS
  2
*D8
 10
-3051.1328959698481
 20
-2707.4929430000002
 30
0.0
 11
-3051.1328959698471
 21
-2341.2744379999999
 31
0.0
 70
   128
 13
-3680.1877490000002
 23
-1993.247756999999
 33
0.0
 14
-3415.1877490000002
 24
-2707.4929430000002
 34
0.0
 50
90.0
1001
ACAD
1000
DSTYLE
1002
{
1070
   287
1070
     3
1070
   287
1070
     3
1070
    40
1040
15.0
1070
   143
1040
0.039
1070
   172
1070
     1
1070
   271
1070
     0
1070
   279
1070
     0
1070
   288
1070
     1
1002
}
  0
DIMENSION
  5
7C2E
  8
3
  6
CONTINUOUS
  2
*D9
 10
-3680.1877490000002
 20
-1918.4050400000001
 30
0.0
 11
-3812.8906039999988
 21
-1918.4050400000001
 31
0.0
 70
   128
 13
-3954.1877490000002
 23
-2250.9929430000002
 33
0.0
 14
-3680.1877490000002
 24
-1993.247756999999
 34
0.0
1001
ACAD
1000
DSTYLE
1002
{
1070
   287
1070
     3
1070
   287
1070
     3
1070
    40
1040
15.0
1070
   143
1040
0.039
1070
   172
1070
     1
1070
   271
1070
     0
1070
   279
1070
     0
1070
   288
1070
     1
1002
}
  0
DIMENSION
  5
7C3A
  8
3
  6
CONTINUOUS
  2
*D10
 10
-3430.1877490000002
 20
-1918.4050400000001
 30
0.0
 11
-3555.1877490000002
 21
-1880.9050400000001
 31
0.0
 70
     0
 13
-3680.1877490000002
 23
-1993.247756999999
 33
0.0
 14
-3430.1877490000002
 24
-2203.9929430000002
 34
0.0
1001
ACAD
1000
DSTYLE
1002
{
1070
   287
1070
     4
1070
   287
1070
     4
1070
    40
1040
15.0
1070
    75
1070
     1
1070
   143
1040
0.039
1070
   172
1070
     1
1070
   271
1070
     0
1070
   279
1070
     1
1070
   288
1070
     1
1002
}
  0
DIMENSION
  5
7C47
  8
3
  6
CONTINUOUS
  2
*D11
 10
-3415.1877490000002
 20
-1574.6066020000001
 30
0.0
 11
-3889.1437079999992
 21
-1574.6066020000001
 31
0.0
 70
   128
 13
-4325.1877489999997
 23
-1432.168764
 33
0.0
 14
-3415.1877490000002
 24
-1432.168764
 34
0.0
1001
ACAD
1000
DSTYLE
1002
{
1070
   287
1070
     3
1070
   287
1070
     3
1070
    40
1040
15.0
1070
   143
1040
0.039
1070
   172
1070
     1
1070
   271
1070
     0
1070
   279
1070
     0
1070
   288
1070
     1
1002
}
  0
DIMENSION
  5
7C54
  8
3
  6
CONTINUOUS
  2
*D12
 10
-3264.360099
 20
-1432.168764
 30
0.0
 11
-3264.360099
 21
-1109.966126999999
 31
0.0
 70
   128
 13
-3415.1877490000002
 23
-832.16876400000001
 33
0.0
 14
-3415.1877490000002
 24
-1432.168764
 34
0.0
 50
90.0
1001
ACAD
1000
DSTYLE
1002
{
1070
   287
1070
     3
1070
   287
1070
     3
1070
    40
1040
15.0
1070
   143
1040
0.039
1070
   172
1070
     1
1070
   271
1070
     0
1070
   279
1070
     0
1070
   288
1070
     1
1002
}
  0
LINE
  5
7C55
  8
2
  6
CENTER
 10
-4000.1648499999992
 20
-1012.168764
 30
0.0
 11
-3392.2685539999989
 21
-1012.168764
 31
0.0
  0
LINE
  5
7C56
  8
2
  6
CENTER
 10
-3680.1877490000002
 20
-1466.737693
 30
0.0
 11
-3680.1877490000002
 21
-833.38386300000002
 31
0.0
  0
LINE
  5
7C57
  8
2
  6
CENTER
 10
-2410.9588940316221
 20
-1928.117203
 30
0.0
 11
-2410.9588940316221
 21
-2739.321899
 31
0.0
  0
LINE
  5
7C58
  8
2
  6
CENTER
 10
-2861.7255540316219
 20
-2225.4929430000002
 30
0.0
 11
-2274.2932430316218
 21
-2225.4929430000002
 31
0.0
  0
DIMENSION
  5
7C65
  8
3
  6
CONTINUOUS
  2
*D13
 10
-2410.9588940316221
 20
-2828.0227439999999
 30
0.0
 11
-2608.3684080316211
 21
-2828.0227439999999
 31
0.0
 70
   128
 13
-2830.9588940316212
 23
-2707.4929430000002
 33
0.0
 14
-2410.9588940316221
 24
-2739.321899
 34
0.0
1001
ACAD
1000
DSTYLE
1002
{
1070
   287
1070
     3
1070
   287
1070
     3
1070
    40
1040
15.0
1070
   143
1040
0.039
1070
   172
1070
     1
1070
   271
1070
     0
1070
   279
1070
     0
1070
   288
1070
     1
1002
}
  0
DIMENSION
  5
7C73
  8
3
  6
CONTINUOUS
  2
*D14
 10
-2230.9588940316212
 20
-2828.0227439999999
 30
0.0
 11
-2325.4939520316211
 21
-2830.7243250000001
 31
0.0
 70
   128
 13
-2410.9588940316221
 23
-2739.321899
 33
0.0
 14
-2230.9588940316212
 24
-2707.4929430000002
 34
0.0
1001
ACAD
1000
DSTYLE
1002
{
1070
   287
1070
     4
1070
   287
1070
     4
1070
    40
1040
15.0
1070
    75
1070
     1
1070
   143
1040
0.039
1070
   172
1070
     1
1070
   271
1070
     0
1070
   279
1070
     1
1070
   288
1070
     1
1002
}
  0
DIMENSION
  5
7C97
  8
3
  6
CONTINUOUS
  2
*D15
 10
-2298.9588940316212
 20
-1935.5986190000001
 30
0.0
 11
-2419.0303230316222
 21
-1935.5986190000001
 31
0.0
 70
   128
 13
-2522.9588940316212
 23
-2012.3929430000001
 33
0.0
 14
-2298.9588940316212
 24
-2012.3929430000001
 34
0.0
1001
ACAD
1000
DSTYLE
1002
{
1070
   287
1070
     3
1070
   287
1070
     3
1070
    40
1040
15.0
1070
   143
1040
0.039
1070
   172
1070
     1
1070
   271
1070
     0
1070
   279
1070
     0
1070
   288
1070
     1
1002
}
  0
DIMENSION
  5
7CA4
  8
3
  6
CONTINUOUS
  2
*D16
 10
-2410.9588940316221
 20
-1823.2174374871061
 30
0.0
 11
-2623.127076031622
 21
-1823.2174374871061
 31
0.0
 70
   128
  1
MAX\P420
 13
-2830.9588940316212
 23
-1985.992943
 33
0.0
 14
-2410.9588940316221
 24
-1871.0115649999991
 34
0.0
1001
ACAD
1000
DSTYLE
1002
{
1070
   287
1070
     3
1070
   287
1070
     3
1070
    40
1040
15.0
1070
   143
1040
0.039
1070
   172
1070
     1
1070
   271
1070
     0
1070
   279
1070
     0
1070
   288
1070
     1
1002
}
  0
DIMENSION
  5
7CB2
  8
3
  6
CONTINUOUS
  2
*D17
 10
-2289.9588940316221
 20
-1823.2174374871061
 30
0.0
 11
-2357.4710530316211
 21
-1822.972982487106
 31
0.0
 70
   128
 13
-2410.9588940316221
 23
-1871.0115649999991
 33
0.0
 14
-2289.9588940316221
 24
-2042.992943
 34
0.0
1001
ACAD
1000
DSTYLE
1002
{
1070
   287
1070
     4
1070
   287
1070
     4
1070
    40
1040
15.0
1070
    75
1070
     1
1070
   143
1040
0.039
1070
   172
1070
     1
1070
   271
1070
     0
1070
   279
1070
     1
1070
   288
1070
     1
1002
}
  0
LINE
  5
7CCA
  8
3
  6
CONTINUOUS
 10
-2289.9588940316221
 20
-2067.9929430000002
 30
0.0
 11
-2266.2996880316209
 21
-2067.9929430000002
 31
0.0
  0
LINE
  5
7CCC
  8
3
  6
CONTINUOUS
 10
-2289.9588940316221
 20
-2382.9929430000002
 30
0.0
 11
-2268.4402680316211
 21
-2382.9929430000002
 31
0.0
  0
DIMENSION
  5
7CD9
  8
3
  6
CONTINUOUS
  2
*D18
 10
-2193.520291031622
 20
-2382.9929430000002
 30
0.0
 11
-2193.520291031622
 21
-2218.720327
 31
0.0
 70
   128
 13
-2289.9588940316221
 23
-2067.9929430000002
 33
0.0
 14
-2289.9588940316221
 24
-2382.9929430000002
 34
0.0
 50
90.0
1001
ACAD
1000
DSTYLE
1002
{
1070
   287
1070
     3
1070
   287
1070
     3
1070
     3
1000
φ<>
1070
    40
1040
15.0
1070
   143
1040
0.039
1070
   172
1070
     1
1070
   271
1070
     0
1070
   279
1070
     0
1070
   288
1070
     1
1002
}
  0
DIMENSION
  5
7D2C
  8
3
  6
CONTINUOUS
  2
*D19
 10
-3243.8305063677622
 20
-2550.4929430000002
 30
0.0
 11
-3243.8305063677622
 21
-2372.1139296219039
 31
0.0
 70
   128
 13
-3430.1877490000002
 23
-2225.4929430000002
 33
0.0
 14
-3450.1877490000002
 24
-2550.4929430000002
 34
0.0
 50
90.0
1001
ACAD
1000
DSTYLE
1002
{
1070
   287
1070
     3
1070
   287
1070
     3
1070
    40
1040
15.0
1070
   143
1040
0.039
1070
   172
1070
     1
1070
   271
1070
     0
1070
   279
1070
     0
1070
   288
1070
     1
1002
}
  0
DIMENSION
  5
7ED9
  8
3
  2
*D21
 10
-4325.1877489999997
 20
-1828.468783232174
 30
0.0
 11
-3907.256920304817
 21
-1828.468783232174
 31
0.0
 70
   128
 13
-3430.1877490000002
 23
-2203.9929430000002
 33
0.0
 14
-4325.1877489999997
 24
-2647.4929430000002
 34
0.0
1001
ACAD
1000
DSTYLE
1002
{
1070
   287
1070
     3
1070
   287
1070
     3
1070
    40
1040
15.0
1070
   143
1040
0.039
1070
   172
1070
     1
1070
   271
1070
     0
1070
   279
1070
     0
1070
   288
1070
     1
1002
}
  0
ENDSEC
  0
EOF
