  0
SECTION
  2
HEADER
  9
$ACADVER
  1
AC1009
  9
$INSBASE
 10
0.0
 20
0.0
 30
0.0
  9
$EXTMIN
 10
375.0
 20
450.0
 30
0.0
  9
$EXTMAX
 10
2775.0
 20
4179.978392
 30
0.0
  9
$LIMMIN
 10
0.0
 20
0.0
  9
$LIMMAX
 10
297.0
 20
210.0
  9
$ORTHOMODE
 70
     0
  9
$REGENMODE
 70
     1
  9
$FILLMODE
 70
     0
  9
$QTEXTMODE
 70
     0
  9
$MIRRTEXT
 70
     1
  9
$DRAGMODE
 70
     2
  9
$LTSCALE
 40
100.0
  9
$OSMODE
 70
    37
  9
$ATTMODE
 70
     1
  9
$TEXTSIZE
 40
180.0
  9
$TRACEWID
 40
0.05
  9
$TEXTSTYLE
  7
STANDARD
  9
$CLAYER
  8
3
  9
$CELTYPE
  6
BYLAYER
  9
$CECOLOR
 62
   256
  9
$DIMSCALE
 40
15.0
  9
$DIMASZ
 40
2.0
  9
$DIMEXO
 40
0.5
  9
$DIMDLI
 40
10.0
  9
$DIMRND
 40
0.0
  9
$DIMDLE
 40
0.0
  9
$DIMEXE
 40
1.0
  9
$DIMTP
 40
1.0
  9
$DIMTM
 40
1.0
  9
$DIMTXT
 40
3.0
  9
$DIMCEN
 40
0.0
  9
$DIMTSZ
 40
0.0
  9
$DIMTOL
 70
     0
  9
$DIMLIM
 70
     0
  9
$DIMTIH
 70
     0
  9
$DIMTOH
 70
     0
  9
$DIMSE1
 70
     0
  9
$DIMSE2
 70
     0
  9
$DIMTAD
 70
     1
  9
$DIMZIN
 70
     8
  9
$DIMBLK
  1

  9
$DIMASO
 70
     1
  9
$DIMSHO
 70
     1
  9
$DIMPOST
  1

  9
$DIMAPOST
  1

  9
$DIMALT
 70
     0
  9
$DIMALTD
 70
     2
  9
$DIMALTF
 40
0.039
  9
$DIMLFAC
 40
1.0
  9
$DIMTOFL
 70
     1
  9
$DIMTVP
 40
0.0
  9
$DIMTIX
 70
     0
  9
$DIMSOXD
 70
     0
  9
$DIMSAH
 70
     1
  9
$DIMBLK1
  1
OPEN
  9
$DIMBLK2
  1
OPEN
  9
$DIMSTYLE
  2
IGA
  9
$DIMCLRD
 70
     0
  9
$DIMCLRE
 70
     0
  9
$DIMCLRT
 70
     0
  9
$DIMTFAC
 40
10.0
  9
$DIMGAP
 40
1.0
  9
$LUNITS
 70
     2
  9
$LUPREC
 70
     3
  9
$SKETCHINC
 40
0.1
  9
$FILLETRAD
 40
50.0
  9
$AUNITS
 70
     0
  9
$AUPREC
 70
     0
  9
$MENU
  1
acad
  9
$ELEVATION
 40
0.0
  9
$PELEVATION
 40
0.0
  9
$THICKNESS
 40
0.0
  9
$LIMCHECK
 70
     0
  9
$BLIPMODE
 70
     0
  9
$CHAMFERA
 40
0.5
  9
$CHAMFERB
 40
0.5
  9
$SKPOLY
 70
     0
  9
$TDCREATE
 40
2450746.635466319
  9
$TDUPDATE
 40
2454953.8651402998
  9
$TDINDWG
 40
0.005362338
  9
$TDUSRTIMER
 40
0.005362338
  9
$USRTIMER
 70
     1
  9
$ANGBASE
 50
0.0
  9
$ANGDIR
 70
     0
  9
$PDMODE
 70
     0
  9
$PDSIZE
 40
0.0
  9
$PLINEWID
 40
0.0
  9
$COORDS
 70
     1
  9
$SPLFRAME
 70
     0
  9
$SPLINETYPE
 70
     6
  9
$SPLINESEGS
 70
     8
  9
$ATTDIA
 70
     0
  9
$ATTREQ
 70
     1
  9
$HANDLING
 70
 10241
  9
$HANDSEED
  5
803E
  9
$SURFTAB1
 70
     6
  9
$SURFTAB2
 70
     6
  9
$SURFTYPE
 70
     6
  9
$SURFU
 70
     6
  9
$SURFV
 70
     6
  9
$UCSNAME
  2

  9
$UCSORG
 10
0.0
 20
0.0
 30
0.0
  9
$UCSXDIR
 10
1.0
 20
0.0
 30
0.0
  9
$UCSYDIR
 10
0.0
 20
1.0
 30
0.0
  9
$PUCSNAME
  2

  9
$PUCSORG
 10
0.0
 20
0.0
 30
0.0
  9
$PUCSXDIR
 10
1.0
 20
0.0
 30
0.0
  9
$PUCSYDIR
 10
0.0
 20
1.0
 30
0.0
  9
$USERI1
 70
     0
  9
$USERI2
 70
     0
  9
$USERI3
 70
     0
  9
$USERI4
 70
     0
  9
$USERI5
 70
     0
  9
$USERR1
 40
0.0
  9
$USERR2
 40
0.0
  9
$USERR3
 40
0.0
  9
$USERR4
 40
0.0
  9
$USERR5
 40
0.0
  9
$WORLDVIEW
 70
     1
  9
$SHADEDGE
 70
     3
  9
$SHADEDIF
 70
    70
  9
$TILEMODE
 70
     1
  9
$MAXACTVP
 70
    16
  9
$PLIMCHECK
 70
     0
  9
$PEXTMIN
 10
1.0000000000000000E+020
 20
1.0000000000000000E+020
 30
1.0000000000000000E+020
  9
$PEXTMAX
 10
-1.0000000000000000E+020
 20
-1.0000000000000000E+020
 30
-1.0000000000000000E+020
  9
$PLIMMIN
 10
0.0
 20
0.0
  9
$PLIMMAX
 10
12.0
 20
9.0
  9
$UNITMODE
 70
     0
  9
$VISRETAIN
 70
     0
  9
$PLINEGEN
 70
     0
  9
$PSLTSCALE
 70
     1
  0
ENDSEC
  0
SECTION
  2
TABLES
  0
TABLE
  2
VPORT
 70
     2
  0
VPORT
  2
*ACTIVE
 70
     0
 10
0.0
 20
0.0
 11
1.0
 21
1.0
 12
4366.7674746673274
 22
2891.4516029495298
 13
0.0
 23
0.0
 14
10.0
 24
10.0
 15
10.0
 25
10.0
 16
0.0
 26
0.0
 36
1.0
 17
0.0
 27
0.0
 37
0.0
 40
5790.6463238214319
 41
1.5051150895140659
 42
50.0
 43
0.0
 44
0.0
 50
0.0
 51
0.0
 71
     0
 72
   100
 73
     1
 74
     0
 75
     0
 76
     0
 77
     0
 78
     0
  0
ENDTAB
  0
TABLE
  2
LTYPE
 70
     2
  0
LTYPE
  2
CONTINUOUS
 70
     0
  3
Solid line
 72
    65
 73
     0
 40
0.0
  0
LTYPE
  2
CENTER
 70
     0
  3
____ _ ____ _ ____ _ ____ _ ____ _ ____ _ ____ 
 72
    65
 73
     4
 40
2.0
 49
1.25
 49
-0.25
 49
0.25
 49
-0.25
  0
ENDTAB
  0
TABLE
  2
LAYER
 70
     6
  0
LAYER
  2
0
 70
     0
 62
     7
  6
CONTINUOUS
  0
LAYER
  2
3
 70
     0
 62
     2
  6
CONTINUOUS
  0
LAYER
  2
2
 70
     0
 62
     3
  6
CENTER
  0
LAYER
  2
1
 70
     0
 62
     4
  6
CONTINUOUS
  0
LAYER
  2
4
 70
     0
 62
     7
  6
CONTINUOUS
  0
LAYER
  2
DEFPOINTS
 70
     0
 62
     7
  6
CONTINUOUS
  0
ENDTAB
  0
TABLE
  2
STYLE
 70
     1
  0
STYLE
  2
STANDARD
 70
     0
 40
0.0
 41
1.0
 50
0.0
 71
     0
 42
180.0
  3
simplex.shx
  4
extfont.shx
  0
ENDTAB
  0
TABLE
  2
VIEW
 70
     0
  0
ENDTAB
  0
TABLE
  2
UCS
 70
     0
  0
ENDTAB
  0
TABLE
  2
APPID
 70
     1
  0
APPID
  2
ACAD
 70
     0
  0
ENDTAB
  0
TABLE
  2
DIMSTYLE
 70
     1
  0
DIMSTYLE
  2
IGA
 70
     0
  3

  4

  5

  6
OPEN
  7
OPEN
 40
2.0
 41
2.0
 42
0.5
 43
10.0
 44
1.0
 45
0.0
 46
0.0
 47
1.0
 48
1.0
140
3.0
141
0.0
142
0.0
143
0.03937
144
1.0
145
0.0
146
10.0
147
1.0
 71
     0
 72
     0
 73
     0
 74
     0
 75
     0
 76
     0
 77
     1
 78
     8
170
     0
171
     2
172
     0
173
     1
174
     0
175
     0
176
     0
177
     0
178
     0
  0
ENDTAB
  0
ENDSEC
  0
SECTION
  2
BLOCKS
  0
BLOCK
  8
0
  2
$MODEL_SPACE
 70
     0
 10
0.0
 20
0.0
 30
0.0
  3
$MODEL_SPACE
  1

  0
ENDBLK
  5
1B
  8
0
  0
BLOCK
 67
     1
  8
0
  2
$PAPER_SPACE
 70
     0
 10
0.0
 20
0.0
 30
0.0
  3
$PAPER_SPACE
  1

  0
ENDBLK
  5
18
 67
     1
  8
0
  0
BLOCK
  8
0
  2
_OPEN
 70
     0
 10
0.0
 20
0.0
 30
0.0
  3
_OPEN
  1

  0
LINE
  5
7B59
  8
0
  6
BYBLOCK
 62
     0
 10
-1.0
 20
0.166667
 30
0.0
 11
0.0
 21
0.0
 31
0.0
  0
LINE
  5
7B5A
  8
0
  6
BYBLOCK
 62
     0
 10
0.0
 20
0.0
 30
0.0
 11
-1.0
 21
-0.166667
 31
0.0
  0
LINE
  5
7B5B
  8
0
  6
BYBLOCK
 62
     0
 10
0.0
 20
0.0
 30
0.0
 11
-1.0
 21
0.0
 31
0.0
  0
ENDBLK
  5
7B5C
  8
0
  0
BLOCK
  8
0
  2
*D1
 70
     1
 10
0.0
 20
0.0
 30
0.0
  3
*D1
  1

  0
LINE
  5
7F85
  8
3
  6
CONTINUOUS
 62
     0
 10
773.90843491792884
 20
1231.950353
 30
0.0
 11
773.90843491792884
 21
1135.0
 31
0.0
  0
LINE
  5
7F86
  8
3
  6
CONTINUOUS
 62
     0
 10
1038.9084349179279
 20
1190.450352999999
 30
0.0
 11
1038.9084349179279
 21
1135.0
 31
0.0
  0
LINE
  5
7F87
  8
3
  6
CONTINUOUS
 62
     0
 10
803.90843491792884
 20
1150.0
 30
0.0
 11
1008.908434917928
 21
1150.0
 31
0.0
  0
INSERT
  5
7F88
  8
3
  6
CONTINUOUS
 62
     0
  2
_OPEN
 10
773.90843491792884
 20
1150.0
 30
0.0
 41
30.0
 42
30.0
 43
30.0
 50
180.0
  0
INSERT
  5
7F89
  8
3
  6
CONTINUOUS
 62
     0
  2
_OPEN
 10
1038.9084349179279
 20
1150.0
 30
0.0
 41
30.0
 42
30.0
 43
30.0
  0
TEXT
  8
3
  40
45
  5
802B
  62
0
  72
0
  71
0
 10
818.162
 20
1107.85
 30
0.000000
  1
265
  0
POINT
  5
7F8B
  8
DEFPOINTS
  6
CONTINUOUS
 62
     0
 10
773.90843491792884
 20
1239.450353
 30
0.0
  0
POINT
  5
7F8C
  8
DEFPOINTS
  6
CONTINUOUS
 62
     0
 10
1038.9084349179279
 20
1197.950353
 30
0.0
  0
POINT
  5
7F8D
  8
DEFPOINTS
  6
CONTINUOUS
 62
     0
 10
1038.9084349179279
 20
1150.0
 30
0.0
  0
ENDBLK
  5
7B69
  8
0
  0
BLOCK
  8
0
  2
*D2
 70
     1
 10
0.0
 20
0.0
 30
0.0
  3
*D2
  1

  0
LINE
  5
7F8E
  8
3
  6
CONTINUOUS
 62
     0
 10
1683.9084349179279
 20
1231.950353
 30
0.0
 11
1683.9084349179279
 21
1135.0
 31
0.0
  0
LINE
  5
7F8F
  8
3
  6
CONTINUOUS
 62
     0
 10
1068.9084349179279
 20
1150.0
 30
0.0
 11
1653.9084349179279
 21
1150.0
 31
0.0
  0
INSERT
  5
7F90
  8
3
  6
CONTINUOUS
 62
     0
  2
_OPEN
 10
1038.9084349179279
 20
1150.0
 30
0.0
 41
30.0
 42
30.0
 43
30.0
 50
180.0
  0
INSERT
  5
7F91
  8
3
  6
CONTINUOUS
 62
     0
  2
_OPEN
 10
1683.9084349179279
 20
1150.0
 30
0.0
 41
30.0
 42
30.0
 43
30.0
  0
TEXT
  8
3
  40
45
  5
802C
  62
0
  72
0
  71
0
 10
1271.41
 20
1107.85
 30
0.000000
  1
645
  0
POINT
  5
7F93
  8
DEFPOINTS
  6
CONTINUOUS
 62
     0
 10
1038.9084349179279
 20
1197.950353
 30
0.0
  0
POINT
  5
7F94
  8
DEFPOINTS
  6
CONTINUOUS
 62
     0
 10
1683.9084349179279
 20
1239.450353
 30
0.0
  0
POINT
  5
7F95
  8
DEFPOINTS
  6
CONTINUOUS
 62
     0
 10
1683.9084349179279
 20
1150.0
 30
0.0
  0
ENDBLK
  5
7B75
  8
0
  0
BLOCK
  8
0
  2
*D3
 70
     1
 10
0.0
 20
0.0
 30
0.0
  3
*D3
  1

  0
LINE
  5
7F96
  8
3
  6
CONTINUOUS
 62
     0
 10
1038.9084349179279
 20
1978.950353
 30
0.0
 11
1038.9084349179279
 21
2066.6998749999989
 31
0.0
  0
LINE
  5
7F97
  8
3
  6
CONTINUOUS
 62
     0
 10
1353.9084349179279
 20
1978.950353
 30
0.0
 11
1353.9084349179279
 21
2066.6998749999989
 31
0.0
  0
LINE
  5
7F98
  8
3
  6
CONTINUOUS
 62
     0
 10
1068.9084349179279
 20
2051.6998749999998
 30
0.0
 11
1323.9084349179279
 21
2051.6998749999998
 31
0.0
  0
INSERT
  5
7F99
  8
3
  6
CONTINUOUS
 62
     0
  2
_OPEN
 10
1038.9084349179279
 20
2051.6998749999998
 30
0.0
 41
30.0
 42
30.0
 43
30.0
 50
180.0
  0
INSERT
  5
7F9A
  8
3
  6
CONTINUOUS
 62
     0
  2
_OPEN
 10
1353.9084349179279
 20
2051.6998749999998
 30
0.0
 41
30.0
 42
30.0
 43
30.0
  0
TEXT
  8
3
  40
45
  5
802D
  62
0
  72
0
  71
0
 10
1113.55
 20
2009.55
 30
0.000000
  1
315
  0
POINT
  5
7F9C
  8
DEFPOINTS
  6
CONTINUOUS
 62
     0
 10
1038.9084349179279
 20
1971.450353
 30
0.0
  0
POINT
  5
7F9D
  8
DEFPOINTS
  6
CONTINUOUS
 62
     0
 10
1353.9084349179279
 20
1971.450353
 30
0.0
  0
POINT
  5
7F9E
  8
DEFPOINTS
  6
CONTINUOUS
 62
     0
 10
1353.9084349179279
 20
2051.6998749999998
 30
0.0
  0
ENDBLK
  5
7B82
  8
0
  0
BLOCK
  8
0
  2
*D4
 70
     1
 10
0.0
 20
0.0
 30
0.0
  3
*D4
  1

  0
LINE
  5
7F9F
  8
3
  6
CONTINUOUS
 62
     0
 10
806.66324791792886
 20
1728.950353
 30
0.0
 11
806.66324791792886
 21
2148.8892759999999
 31
0.0
  0
LINE
  5
7FA0
  8
3
  6
CONTINUOUS
 62
     0
 10
1038.9084349179279
 20
1978.950353
 30
0.0
 11
1038.9084349179279
 21
2148.8892759999999
 31
0.0
  0
LINE
  5
7FA1
  8
3
  6
CONTINUOUS
 62
     0
 10
836.66324791792886
 20
2133.8892759999999
 30
0.0
 11
1008.908434917928
 21
2133.8892759999999
 31
0.0
  0
INSERT
  5
7FA2
  8
3
  6
CONTINUOUS
 62
     0
  2
_OPEN
 10
806.66324791792886
 20
2133.8892759999999
 30
0.0
 41
30.0
 42
30.0
 43
30.0
 50
180.0
  0
INSERT
  5
7FA3
  8
3
  6
CONTINUOUS
 62
     0
  2
_OPEN
 10
1038.9084349179279
 20
2133.8892759999999
 30
0.0
 41
30.0
 42
30.0
 43
30.0
  0
TEXT
  8
3
  40
45
  5
802E
  62
0
  72
0
  71
0
 10
846.051
 20
2091.74
 30
0.000000
  1
232
  0
POINT
  5
7FA5
  8
DEFPOINTS
  6
CONTINUOUS
 62
     0
 10
806.66324791792886
 20
1721.450353
 30
0.0
  0
POINT
  5
7FA6
  8
DEFPOINTS
  6
CONTINUOUS
 62
     0
 10
1038.9084349179279
 20
1971.450353
 30
0.0
  0
POINT
  5
7FA7
  8
DEFPOINTS
  6
CONTINUOUS
 62
     0
 10
1038.9084349179279
 20
2133.8892759999999
 30
0.0
  0
ENDBLK
  5
7B8F
  8
0
  0
BLOCK
  8
0
  2
*D5
 70
     1
 10
0.0
 20
0.0
 30
0.0
  3
*D5
  1

  0
LINE
  5
7FA8
  8
3
  6
CONTINUOUS
 62
     0
 10
1363.9084349179279
 20
1958.950353
 30
0.0
 11
1363.9084349179279
 21
2148.8892759999999
 31
0.0
  0
LINE
  5
7FA9
  8
3
  6
CONTINUOUS
 62
     0
 10
1068.9084349179279
 20
2133.8892759999999
 30
0.0
 11
1333.9084349179279
 21
2133.8892759999999
 31
0.0
  0
INSERT
  5
7FAA
  8
3
  6
CONTINUOUS
 62
     0
  2
_OPEN
 10
1038.9084349179279
 20
2133.8892759999999
 30
0.0
 41
30.0
 42
30.0
 43
30.0
 50
180.0
  0
INSERT
  5
7FAB
  8
3
  6
CONTINUOUS
 62
     0
  2
_OPEN
 10
1363.9084349179279
 20
2133.8892759999999
 30
0.0
 41
30.0
 42
30.0
 43
30.0
  0
TEXT
  8
3
  40
45
  5
802F
  62
0
  72
0
  71
0
 10
1111.41
 20
2091.74
 30
0.000000
  1
325
  0
POINT
  5
7FAD
  8
DEFPOINTS
  6
CONTINUOUS
 62
     0
 10
1038.9084349179279
 20
1971.450353
 30
0.0
  0
POINT
  5
7FAE
  8
DEFPOINTS
  6
CONTINUOUS
 62
     0
 10
1363.9084349179279
 20
1951.450353
 30
0.0
  0
POINT
  5
7FAF
  8
DEFPOINTS
  6
CONTINUOUS
 62
     0
 10
1363.9084349179279
 20
2133.8892759999999
 30
0.0
  0
ENDBLK
  5
7B9B
  8
0
  0
BLOCK
  8
0
  2
*D6
 70
     1
 10
0.0
 20
0.0
 30
0.0
  3
*D6
  1

  0
LINE
  5
7FB0
  8
3
  6
CONTINUOUS
 62
     0
 10
773.90843491792884
 20
2593.9503530000002
 30
0.0
 11
773.90843491792884
 21
2462.3382409999999
 31
0.0
  0
LINE
  5
7FB1
  8
3
  6
CONTINUOUS
 62
     0
 10
1683.9084349179279
 20
2593.9503530000002
 30
0.0
 11
1683.9084349179279
 21
2462.3382409999999
 31
0.0
  0
LINE
  5
7FB2
  8
3
  6
CONTINUOUS
 62
     0
 10
803.90843491792884
 20
2477.338240999999
 30
0.0
 11
1653.9084349179279
 21
2477.338240999999
 31
0.0
  0
INSERT
  5
7FB3
  8
3
  6
CONTINUOUS
 62
     0
  2
_OPEN
 10
773.90843491792884
 20
2477.338240999999
 30
0.0
 41
30.0
 42
30.0
 43
30.0
 50
180.0
  0
INSERT
  5
7FB4
  8
3
  6
CONTINUOUS
 62
     0
  2
_OPEN
 10
1683.9084349179279
 20
2477.338240999999
 30
0.0
 41
30.0
 42
30.0
 43
30.0
  0
TEXT
  8
3
  40
45
  5
8030
  62
0
  72
0
  71
0
 10
1150.03
 20
2435.19
 30
0.000000
  1
910
  0
POINT
  5
7FB6
  8
DEFPOINTS
  6
CONTINUOUS
 62
     0
 10
773.90843491792884
 20
2601.4503530000002
 30
0.0
  0
POINT
  5
7FB7
  8
DEFPOINTS
  6
CONTINUOUS
 62
     0
 10
1683.9084349179279
 20
2601.4503530000002
 30
0.0
  0
POINT
  5
7FB8
  8
DEFPOINTS
  6
CONTINUOUS
 62
     0
 10
1683.9084349179279
 20
2477.338240999999
 30
0.0
  0
ENDBLK
  5
7C42
  8
0
  0
BLOCK
  8
0
  2
*D7
 70
     1
 10
0.0
 20
0.0
 30
0.0
  3
*D7
  1

  0
LINE
  5
7FB9
  8
3
  6
CONTINUOUS
 62
     0
 10
1691.4084349179279
 20
3201.4503530000002
 30
0.0
 11
1868.592174917929
 21
3201.4503530000002
 31
0.0
  0
LINE
  5
7FBA
  8
3
  6
CONTINUOUS
 62
     0
 10
1691.4084349179279
 20
2601.4503530000002
 30
0.0
 11
1868.592174917929
 21
2601.4503530000002
 31
0.0
  0
LINE
  5
7FBB
  8
3
  6
CONTINUOUS
 62
     0
 10
1853.592174917929
 20
3171.4503530000002
 30
0.0
 11
1853.592174917929
 21
2631.4503530000002
 31
0.0
  0
INSERT
  5
7FBC
  8
3
  6
CONTINUOUS
 62
     0
  2
_OPEN
 10
1853.592174917929
 20
3201.4503530000002
 30
0.0
 41
30.0
 42
30.0
 43
30.0
 50
90.0
  0
INSERT
  5
7FBD
  8
3
  6
CONTINUOUS
 62
     0
  2
_OPEN
 10
1853.592174917929
 20
2601.4503530000002
 30
0.0
 41
30.0
 42
30.0
 43
30.0
 50
270.0
  0
TEXT
  8
3
  40
45
  5
8031
  62
0
  72
0
  71
0
 10
1726.09
 20
2813.72
 30
0.000000
  1
600
  0
POINT
  5
7FBF
  8
DEFPOINTS
  6
CONTINUOUS
 62
     0
 10
1683.9084349179279
 20
3201.4503530000002
 30
0.0
  0
POINT
  5
7FC0
  8
DEFPOINTS
  6
CONTINUOUS
 62
     0
 10
1683.9084349179279
 20
2601.4503530000002
 30
0.0
  0
POINT
  5
7FC1
  8
DEFPOINTS
  6
CONTINUOUS
 62
     0
 10
1853.592174917929
 20
2601.4503530000002
 30
0.0
  0
ENDBLK
  5
7C4F
  8
0
  0
BLOCK
  8
0
  2
*D8
 70
     1
 10
0.0
 20
0.0
 30
0.0
  3
*D8
  1

  0
LINE
  5
7FC2
  8
3
  6
CONTINUOUS
 62
     0
 10
1996.6458349934039
 20
1231.950353
 30
0.0
 11
1996.6458349934039
 21
1104.646105
 31
0.0
  0
LINE
  5
7FC3
  8
3
  6
CONTINUOUS
 62
     0
 10
2416.6458349934051
 20
1168.6346529999989
 30
0.0
 11
2416.6458349934051
 21
1104.646105
 31
0.0
  0
LINE
  5
7FC4
  8
3
  6
CONTINUOUS
 62
     0
 10
2026.6458349934039
 20
1119.6461049999989
 30
0.0
 11
2386.6458349934042
 21
1119.6461049999989
 31
0.0
  0
INSERT
  5
7FC5
  8
3
  6
CONTINUOUS
 62
     0
  2
_OPEN
 10
1996.6458349934039
 20
1119.6461049999989
 30
0.0
 41
30.0
 42
30.0
 43
30.0
 50
180.0
  0
INSERT
  5
7FC6
  8
3
  6
CONTINUOUS
 62
     0
  2
_OPEN
 10
2416.6458349934051
 20
1119.6461049999989
 30
0.0
 41
30.0
 42
30.0
 43
30.0
  0
TEXT
  8
3
  40
45
  5
8032
  62
0
  72
0
  71
0
 10
2123.17
 20
1077.50
 30
0.000000
  1
420
  0
POINT
  5
7FC8
  8
DEFPOINTS
  6
CONTINUOUS
 62
     0
 10
1996.6458349934039
 20
1239.450353
 30
0.0
  0
POINT
  5
7FC9
  8
DEFPOINTS
  6
CONTINUOUS
 62
     0
 10
2416.6458349934051
 20
1176.1346529999989
 30
0.0
  0
POINT
  5
7FCA
  8
DEFPOINTS
  6
CONTINUOUS
 62
     0
 10
2416.6458349934051
 20
1119.6461049999989
 30
0.0
  0
ENDBLK
  5
7C5F
  8
0
  0
BLOCK
  8
0
  2
*D9
 70
     1
 10
0.0
 20
0.0
 30
0.0
  3
*D9
  1

  0
LINE
  5
7FCB
  8
3
  6
CONTINUOUS
 62
     0
 10
2596.6458349934042
 20
1231.950353
 30
0.0
 11
2596.6458349934042
 21
1104.646105
 31
0.0
  0
LINE
  5
7FCC
  8
3
  6
CONTINUOUS
 62
     0
 10
2446.6458349934042
 20
1119.6461049999989
 30
0.0
 11
2566.6458349934042
 21
1119.6461049999989
 31
0.0
  0
TEXT
  8
3
  40
45
  5
8033
  62
0
  72
0
  71
0
 10
2420.05
 20
1076.93
 30
0.000000
  1
180
  0
INSERT
  5
7FCE
  8
3
  6
CONTINUOUS
 62
     0
  2
_OPEN
 10
2416.6458349934051
 20
1119.6461049999989
 30
0.0
 41
30.0
 42
30.0
 43
30.0
 50
180.0
  0
INSERT
  5
7FCF
  8
3
  6
CONTINUOUS
 62
     0
  2
_OPEN
 10
2596.6458349934042
 20
1119.6461049999989
 30
0.0
 41
30.0
 42
30.0
 43
30.0
  0
POINT
  5
7FD0
  8
DEFPOINTS
  6
CONTINUOUS
 62
     0
 10
2416.6458349934051
 20
1176.1346529999989
 30
0.0
  0
POINT
  5
7FD1
  8
DEFPOINTS
  6
CONTINUOUS
 62
     0
 10
2596.6458349934042
 20
1239.450353
 30
0.0
  0
POINT
  5
7FD2
  8
DEFPOINTS
  6
CONTINUOUS
 62
     0
 10
2596.6458349934042
 20
1119.6461049999989
 30
0.0
  0
ENDBLK
  5
7C84
  8
0
  0
BLOCK
  8
0
  2
*D10
 70
     1
 10
0.0
 20
0.0
 30
0.0
  3
*D10
  1

  0
LINE
  5
7FD3
  8
3
  6
CONTINUOUS
 62
     0
 10
2304.6458349934042
 20
1978.950353
 30
0.0
 11
2304.6458349934042
 21
2052.585067999999
 31
0.0
  0
LINE
  5
7FD4
  8
3
  6
CONTINUOUS
 62
     0
 10
2528.6458349934051
 20
1978.950353
 30
0.0
 11
2528.6458349934051
 21
2052.585067999999
 31
0.0
  0
LINE
  5
7FD5
  8
3
  6
CONTINUOUS
 62
     0
 10
2274.6458349934042
 20
2037.585067999999
 30
0.0
 11
2244.6458349934042
 21
2037.585067999999
 31
0.0
  0
LINE
  5
7FD6
  8
3
  6
CONTINUOUS
 62
     0
 10
2558.6458349934042
 20
2037.585067999999
 30
0.0
 11
2588.6458349934042
 21
2037.585067999999
 31
0.0
  0
LINE
  5
7FD7
  8
3
  6
CONTINUOUS
 62
     0
 10
2304.6458349934042
 20
2037.585067999999
 30
0.0
 11
2528.6458349934051
 21
2037.585067999999
 31
0.0
  0
INSERT
  5
7FD8
  8
3
  6
CONTINUOUS
 62
     0
  2
_OPEN
 10
2304.6458349934042
 20
2037.585067999999
 30
0.0
 41
30.0
 42
30.0
 43
30.0
  0
INSERT
  5
7FD9
  8
3
  6
CONTINUOUS
 62
     0
  2
_OPEN
 10
2528.6458349934051
 20
2037.585067999999
 30
0.0
 41
30.0
 42
30.0
 43
30.0
 50
180.0
  0
TEXT
  8
3
  40
45
  5
8034
  62
0
  72
0
  71
0
 10
2318.57
 20
1995.44
 30
0.000000
  1
224
  0
POINT
  5
7FDB
  8
DEFPOINTS
  6
CONTINUOUS
 62
     0
 10
2304.6458349934042
 20
1971.450353
 30
0.0
  0
POINT
  5
7FDC
  8
DEFPOINTS
  6
CONTINUOUS
 62
     0
 10
2528.6458349934051
 20
1971.450353
 30
0.0
  0
POINT
  5
7FDD
  8
DEFPOINTS
  6
CONTINUOUS
 62
     0
 10
2528.6458349934051
 20
2037.585067999999
 30
0.0
  0
ENDBLK
  5
7C90
  8
0
  0
BLOCK
  8
0
  2
*D11
 70
     1
 10
0.0
 20
0.0
 30
0.0
  3
*D11
  1

  0
LINE
  5
7FDE
  8
3
  6
CONTINUOUS
 62
     0
 10
1996.6458349934039
 20
1958.950353
 30
0.0
 11
1996.6458349934039
 21
2143.247754999999
 31
0.0
  0
LINE
  5
7FDF
  8
3
  6
CONTINUOUS
 62
     0
 10
2416.6458349934051
 20
2111.2111850000001
 30
0.0
 11
2416.6458349934051
 21
2143.247754999999
 31
0.0
  0
LINE
  5
7FE0
  8
3
  6
CONTINUOUS
 62
     0
 10
2026.6458349934039
 20
2128.247754999999
 30
0.0
 11
2386.6458349934042
 21
2128.247754999999
 31
0.0
  0
INSERT
  5
7FE1
  8
3
  6
CONTINUOUS
 62
     0
  2
_OPEN
 10
1996.6458349934039
 20
2128.247754999999
 30
0.0
 41
30.0
 42
30.0
 43
30.0
 50
180.0
  0
INSERT
  5
7FE2
  8
3
  6
CONTINUOUS
 62
     0
  2
_OPEN
 10
2416.6458349934051
 20
2128.247754999999
 30
0.0
 41
30.0
 42
30.0
 43
30.0
  0
TEXT
  8
3
  40
45
  5
8035
  62
0
  72
0
  71
0
 10
2106.20
 20
2123.60
 30
0.000000
  1
MAX
  0
TEXT
  8
3
  40
45
  5
8036
  62
0
  72
0
  71
0
 10
2106.20
 20
2065.10
 30
0.000000
  1
420
  0
POINT
  5
7FE4
  8
DEFPOINTS
  6
CONTINUOUS
 62
     0
 10
1996.6458349934039
 20
1951.450353
 30
0.0
  0
POINT
  5
7FE5
  8
DEFPOINTS
  6
CONTINUOUS
 62
     0
 10
2416.6458349934051
 20
2103.7111850000001
 30
0.0
  0
POINT
  5
7FE6
  8
DEFPOINTS
  6
CONTINUOUS
 62
     0
 10
2416.6458349934051
 20
2128.247754999999
 30
0.0
  0
ENDBLK
  5
7E8E
  8
0
  0
BLOCK
  8
0
  2
*D12
 70
     1
 10
0.0
 20
0.0
 30
0.0
  3
*D12
  1

  0
LINE
  5
7FE7
  8
3
  6
CONTINUOUS
 62
     0
 10
2537.6458349934051
 20
1911.450353
 30
0.0
 11
2537.6458349934051
 21
2143.247754999999
 31
0.0
  0
LINE
  5
7FE8
  8
3
  6
CONTINUOUS
 62
     0
 10
2446.6458349934042
 20
2128.247754999999
 30
0.0
 11
2507.6458349934042
 21
2128.247754999999
 31
0.0
  0
TEXT
  8
3
  40
45
  5
8037
  62
0
  72
0
  71
0
 10
2383.30
 20
2086.10
 30
0.000000
  1
121
  0
INSERT
  5
7FEA
  8
3
  6
CONTINUOUS
 62
     0
  2
_OPEN
 10
2416.6458349934051
 20
2128.247754999999
 30
0.0
 41
30.0
 42
30.0
 43
30.0
 50
180.0
  0
INSERT
  5
7FEB
  8
3
  6
CONTINUOUS
 62
     0
  2
_OPEN
 10
2537.6458349934051
 20
2128.247754999999
 30
0.0
 41
30.0
 42
30.0
 43
30.0
  0
POINT
  5
7FEC
  8
DEFPOINTS
  6
CONTINUOUS
 62
     0
 10
2416.6458349934051
 20
2103.7111850000001
 30
0.0
  0
POINT
  5
7FED
  8
DEFPOINTS
  6
CONTINUOUS
 62
     0
 10
2537.6458349934051
 20
1903.950353
 30
0.0
  0
POINT
  5
7FEE
  8
DEFPOINTS
  6
CONTINUOUS
 62
     0
 10
2537.6458349934051
 20
2128.247754999999
 30
0.0
  0
ENDBLK
  5
7CEF
  8
0
  0
BLOCK
  8
0
  2
*D13
 70
     1
 10
0.0
 20
0.0
 30
0.0
  3
*D13
  1

  0
LINE
  5
7FEF
  8
3
  6
CONTINUOUS
 62
     0
 10
2545.1458349934042
 20
1878.950353
 30
0.0
 11
2659.706563993404
 21
1878.950353
 31
0.0
  0
LINE
  5
7FF0
  8
3
  6
CONTINUOUS
 62
     0
 10
2545.1458349934042
 20
1563.950353
 30
0.0
 11
2659.706563993404
 21
1563.950352999999
 31
0.0
  0
LINE
  5
7FF1
  8
3
  6
CONTINUOUS
 62
     0
 10
2644.7065639934049
 20
1848.950353
 30
0.0
 11
2644.7065639934049
 21
1593.950352999999
 31
0.0
  0
INSERT
  5
7FF2
  8
3
  6
CONTINUOUS
 62
     0
  2
_OPEN
 10
2644.7065639934049
 20
1878.950353
 30
0.0
 41
30.0
 42
30.0
 43
30.0
 50
90.0
  0
INSERT
  5
7FF3
  8
3
  6
CONTINUOUS
 62
     0
  2
_OPEN
 10
2644.7065639934049
 20
1563.950352999999
 30
0.0
 41
30.0
 42
30.0
 43
30.0
 50
270.0
  0
TEXT
  8
3
  40
45
  5
8038
  62
0
  72
0
  71
0
 10
2517.21
 20
1649.81
 30
0.000000
  1
φ315
  0
POINT
  5
7FF5
  8
DEFPOINTS
  6
CONTINUOUS
 62
     0
 10
2537.6458349934051
 20
1878.950353
 30
0.0
  0
POINT
  5
7FF6
  8
DEFPOINTS
  6
CONTINUOUS
 62
     0
 10
2537.6458349934051
 20
1563.950353
 30
0.0
  0
POINT
  5
7FF7
  8
DEFPOINTS
  6
CONTINUOUS
 62
     0
 10
2644.7065639934049
 20
1563.950352999999
 30
0.0
  0
ENDBLK
  5
7E75
  8
0
  0
BLOCK
  8
0
  2
_DOT
 70
     0
 10
0.0
 20
0.0
 30
0.0
  3
_DOT
  1

  0
LINE
  5
7D64
  8
0
  6
BYBLOCK
 62
     0
 10
0.0
 20
0.0
 30
0.0
 11
-1.0
 21
-0.0000000000000284
 31
0.0
  0
POLYLINE
  5
7D65
  8
0
  6
BYBLOCK
 62
     0
 66
     1
 10
0.0
 20
0.0
 30
0.0
 70
     1
 40
0.1666666666666666
 41
0.1666666666666666
  0
VERTEX
  5
7FF8
  8
0
  6
BYBLOCK
 62
     0
 10
-0.0833333333333286
 20
-0.0000000000000284
 30
0.0
 42
1.0
  0
VERTEX
  5
7FF9
  8
0
  6
BYBLOCK
 62
     0
 10
0.0833333333333286
 20
-0.0000000000000284
 30
0.0
 42
1.0
  0
SEQEND
  5
7FFA
  8
0
  6
BYBLOCK
 62
     0
  0
ENDBLK
  5
7D3E
  8
0
  0
BLOCK
  8
0
  2
*D15
 70
     1
 10
0.0
 20
0.0
 30
0.0
  3
*D15
  1

  0
LINE
  5
7FFB
  8
3
 62
     0
 10
1009.908434917929
 20
1971.450353
 30
0.0
 11
648.74346422785879
 21
1971.450353
 31
0.0
  0
LINE
  5
7FFC
  8
3
 62
     0
 10
747.90843491792884
 20
1721.450353
 30
0.0
 11
648.74346422785879
 21
1721.450353
 31
0.0
  0
LINE
  5
7FFD
  8
3
 62
     0
 10
663.74346422785891
 20
2001.450353
 30
0.0
 11
663.74346422785891
 21
2031.450353
 31
0.0
  0
LINE
  5
7FFE
  8
3
 62
     0
 10
663.74346422785879
 20
1691.450353
 30
0.0
 11
663.74346422785879
 21
1661.450353
 31
0.0
  0
LINE
  5
7FFF
  8
3
 62
     0
 10
663.74346422785891
 20
1971.450353
 30
0.0
 11
663.74346422785879
 21
1721.450353
 31
0.0
  0
INSERT
  5
8000
  8
3
 62
     0
  2
_OPEN
 10
663.74346422785891
 20
1971.450353
 30
0.0
 41
30.0
 42
30.0
 43
30.0
 50
270.0
  0
INSERT
  5
8001
  8
3
 62
     0
  2
_OPEN
 10
663.74346422785879
 20
1721.450353
 30
0.0
 41
30.0
 42
30.0
 43
30.0
 50
90.0
  0
TEXT
  8
3
  40
45
  5
8039
  62
0
  72
0
  71
0
 10
536.243
 20
1744.66
 30
0.000000
  1
250
  0
POINT
  5
8003
  8
DEFPOINTS
 62
     0
 10
1017.408434917928
 20
1971.450353
 30
0.0
  0
POINT
  5
8004
  8
DEFPOINTS
 62
     0
 10
755.40843491792884
 20
1721.450353
 30
0.0
  0
POINT
  5
8005
  8
DEFPOINTS
 62
     0
 10
663.74346422785879
 20
1721.450353
 30
0.0
  0
ENDBLK
  5
7DE7
  8
0
  0
BLOCK
  8
0
  2
*D16
 70
     1
 10
0.0
 20
0.0
 30
0.0
  3
*D16
  1

  0
LINE
  5
8006
  8
3
 62
     0
 10
796.40843491792884
 20
1321.450353
 30
0.0
 11
648.74346422785857
 21
1321.450353
 31
0.0
  0
LINE
  5
8007
  8
3
 62
     0
 10
663.74346422785845
 20
1691.450353
 30
0.0
 11
663.74346422785845
 21
1351.450352999999
 31
0.0
  0
INSERT
  5
8008
  8
3
 62
     0
  2
_OPEN
 10
663.74346422785845
 20
1721.450353
 30
0.0
 41
30.0
 42
30.0
 43
30.0
 50
90.0
  0
INSERT
  5
8009
  8
3
 62
     0
  2
_OPEN
 10
663.74346422785845
 20
1321.450353
 30
0.0
 41
30.0
 42
30.0
 43
30.0
 50
270.0
  0
TEXT
  8
3
  40
45
  5
803A
  62
0
  72
0
  71
0
 10
536.243
 20
1441.80
 30
0.000000
  1
400
  0
POINT
  5
800B
  8
DEFPOINTS
 62
     0
 10
755.40843491792884
 20
1721.450353
 30
0.0
  0
POINT
  5
800C
  8
DEFPOINTS
 62
     0
 10
803.90843491792884
 20
1321.450353
 30
0.0
  0
POINT
  5
800D
  8
DEFPOINTS
 62
     0
 10
663.74346422785845
 20
1321.450353
 30
0.0
  0
ENDBLK
  5
7DF3
  8
0
  0
BLOCK
  8
0
  2
*D17
 70
     1
 10
0.0
 20
0.0
 30
0.0
  3
*D17
  1

  0
LINE
  5
7E48
  8
0
  6
BYBLOCK
 62
     0
 10
590.24826452255024
 20
1269.450353
 30
0.0
 11
472.58329383248019
 21
1269.450353
 31
0.0
  0
LINE
  5
7E49
  8
0
  6
BYBLOCK
 62
     0
 10
487.58329383248008
 20
1351.450352999999
 30
0.0
 11
487.58329383248008
 21
1381.450352999999
 31
0.0
  0
LINE
  5
7E4A
  8
0
  6
BYBLOCK
 62
     0
 10
487.58329383248008
 20
1239.450353
 30
0.0
 11
487.58329383248008
 21
1209.450353
 31
0.0
  0
TEXT
  5
7E4B
  8
3
 62
     0
 10
450.08329383248008
 20
1259.0217815714279
 30
0.0
 40
45.0
  1
52
 50
90.0
  0
LINE
  5
7E4C
  8
0
  6
BYBLOCK
 62
     0
 10
487.58329383248008
 20
1321.450353
 30
0.0
 11
487.58329383248008
 21
1269.450353
 31
0.0
  0
INSERT
  5
7E4D
  8
0
  6
BYBLOCK
 62
     0
  2
_OPEN
 10
487.58329383248008
 20
1321.450353
 30
0.0
 41
30.0
 42
30.0
 43
30.0
 50
270.0
  0
INSERT
  5
7E4E
  8
0
  6
BYBLOCK
 62
     0
  2
_DOT
 10
487.58329383248008
 20
1269.450353
 30
0.0
 41
30.0
 42
30.0
 43
30.0
 50
90.0
  0
POINT
  5
7E4F
  8
DEFPOINTS
  6
BYBLOCK
 62
     0
 10
627.74826452255036
 20
1321.450353
 30
0.0
  0
POINT
  5
7E50
  8
DEFPOINTS
  6
BYBLOCK
 62
     0
 10
597.74826452255024
 20
1269.450353
 30
0.0
  0
POINT
  5
7E51
  8
DEFPOINTS
  6
BYBLOCK
 62
     0
 10
487.58329383248008
 20
1269.450353
 30
0.0
  0
ENDBLK
  5
7E52
  8
0
  0
BLOCK
  8
0
  2
*D18
 70
     1
 10
0.0
 20
0.0
 30
0.0
  3
*D18
  1

  0
LINE
  5
800E
  8
3
 62
     0
 10
766.40843491792884
 20
1269.450353
 30
0.0
 11
648.74346422785857
 21
1269.450353
 31
0.0
  0
LINE
  5
800F
  8
3
 62
     0
 10
766.40843491792884
 20
1239.450353
 30
0.0
 11
648.74346422785857
 21
1239.450353
 31
0.0
  0
LINE
  5
8010
  8
3
 62
     0
 10
663.74346422785857
 20
1299.450353
 30
0.0
 11
663.74346422785857
 21
1329.450353
 31
0.0
  0
LINE
  5
8011
  8
3
 62
     0
 10
663.74346422785845
 20
1209.450353
 30
0.0
 11
663.74346422785845
 21
1076.5932101428571
 31
0.0
  0
LINE
  5
8012
  8
3
 62
     0
 10
663.74346422785845
 20
1269.450353
 30
0.0
 11
663.74346422785845
 21
1239.450353
 31
0.0
  0
INSERT
  5
8013
  8
3
 62
     0
  2
_DOT
 10
663.74346422785845
 20
1269.450353
 30
0.0
 41
30.0
 42
30.0
 43
30.0
 50
270.0
  0
INSERT
  5
8014
  8
3
 62
     0
  2
_OPEN
 10
663.74346422785845
 20
1239.450353
 30
0.0
 41
30.0
 42
30.0
 43
30.0
 50
90.0
  0
TEXT
  8
3
  40
45
  5
803B
  62
0
  72
0
  71
0
 10
536.243
 20
1048.37
 30
0.000000
  1
30
  0
POINT
  5
8016
  8
DEFPOINTS
 62
     0
 10
773.90843491792884
 20
1269.450353
 30
0.0
  0
POINT
  5
8017
  8
DEFPOINTS
 62
     0
 10
773.90843491792884
 20
1239.450353
 30
0.0
  0
POINT
  5
8018
  8
DEFPOINTS
 62
     0
 10
663.74346422785845
 20
1239.450353
 30
0.0
  0
ENDBLK
  5
7E5F
  8
0
  0
BLOCK
  8
0
  2
*D19
 70
     1
 10
0.0
 20
0.0
 30
0.0
  3
*D19
  1

  0
LINE
  5
8019
  8
3
 62
     0
 10
1009.908434917929
 20
1971.450353
 30
0.0
 11
533.87906035621052
 21
1971.450353
 31
0.0
  0
LINE
  5
801A
  8
3
 62
     0
 10
766.40843491792884
 20
1239.450353
 30
0.0
 11
533.87906035621018
 21
1239.450353
 31
0.0
  0
LINE
  5
801B
  8
3
 62
     0
 10
548.87906035621052
 20
1941.450353
 30
0.0
 11
548.87906035621029
 21
1269.450353
 31
0.0
  0
INSERT
  5
801C
  8
3
 62
     0
  2
_OPEN
 10
548.87906035621052
 20
1971.450353
 30
0.0
 41
30.0
 42
30.0
 43
30.0
 50
90.0
  0
INSERT
  5
801D
  8
3
 62
     0
  2
_OPEN
 10
548.87906035621029
 20
1239.450353
 30
0.0
 41
30.0
 42
30.0
 43
30.0
 50
270.0
  0
TEXT
  8
3
  40
45
  5
803C
  62
0
  72
0
  71
0
 10
421.379
 20
1510.67
 30
0.000000
  1
732
  0
POINT
  5
801F
  8
DEFPOINTS
 62
     0
 10
1017.408434917928
 20
1971.450353
 30
0.0
  0
POINT
  5
8020
  8
DEFPOINTS
 62
     0
 10
773.90843491792884
 20
1239.450353
 30
0.0
  0
POINT
  5
8021
  8
DEFPOINTS
 62
     0
 10
548.87906035621029
 20
1239.450353
 30
0.0
  0
ENDBLK
  5
7E6A
  8
0
  0
BLOCK
  8
0
  2
*D20
 70
     1
 10
0.0
 20
0.0
 30
0.0
  3
*D20
  1

  0
LINE
  5
8022
  8
3
 62
     0
 10
806.66324791792886
 20
1736.450353
 30
0.0
 11
806.66324791792886
 21
2237.366592907329
 31
0.0
  0
LINE
  5
8023
  8
3
 62
     0
 10
1683.9084349179279
 20
1306.950353
 30
0.0
 11
1683.9084349179279
 21
2237.366592907329
 31
0.0
  0
LINE
  5
8024
  8
3
 62
     0
 10
836.66324791792886
 20
2222.366592907329
 30
0.0
 11
1653.9084349179279
 21
2222.366592907329
 31
0.0
  0
INSERT
  5
8025
  8
3
 62
     0
  2
_OPEN
 10
806.66324791792886
 20
2222.366592907329
 30
0.0
 41
30.0
 42
30.0
 43
30.0
 50
180.0
  0
INSERT
  5
8026
  8
3
 62
     0
  2
_OPEN
 10
1683.9084349179279
 20
2222.366592907329
 30
0.0
 41
30.0
 42
30.0
 43
30.0
  0
TEXT
  8
3
  40
45
  5
803D
  62
0
  72
0
  71
0
 10
1175.03
 20
2180.22
 30
0.000000
  1
877
  0
POINT
  5
8028
  8
DEFPOINTS
 62
     0
 10
806.66324791792886
 20
1728.950353
 30
0.0
  0
POINT
  5
8029
  8
DEFPOINTS
 62
     0
 10
1683.9084349179279
 20
1299.450353
 30
0.0
  0
POINT
  5
802A
  8
DEFPOINTS
 62
     0
 10
1683.9084349179279
 20
2222.366592907329
 30
0.0
  0
ENDBLK
  5
7E82
  8
0
  0
ENDSEC
  0
SECTION
  2
ENTITIES
  0
LINE
  5
7A9C
  8
1
  6
CONTINUOUS
 10
1683.9084349179279
 20
1299.450353
 30
0.0
 11
773.90843491792884
 21
1299.450353
 31
0.0
  0
LINE
  5
7A9D
  8
1
  6
CONTINUOUS
 10
1683.9084349179279
 20
1269.450353
 30
0.0
 11
773.90843491792884
 21
1269.450353
 31
0.0
  0
LINE
  5
7A9E
  8
1
  6
CONTINUOUS
 10
1624.4084349179291
 20
2686.4503530000002
 30
0.0
 11
894.40843491792884
 21
2686.4503530000002
 31
0.0
  0
LINE
  5
7A9F
  8
1
  6
CONTINUOUS
 10
1624.4084349179291
 20
2601.4503530000002
 30
0.0
 11
894.40843491792884
 21
2601.4503530000002
 31
0.0
  0
LINE
  5
7AA0
  8
1
  6
CONTINUOUS
 10
1497.9084349179291
 20
2706.4503530000002
 30
0.0
 11
1050.9084349179279
 21
2706.4503530000002
 31
0.0
  0
LINE
  5
7AA1
  8
1
  6
CONTINUOUS
 10
1094.4084349179279
 20
1951.450353
 30
0.0
 11
1624.4084349179291
 21
1601.450352999999
 31
0.0
  0
LINE
  5
7AA2
  8
1
  6
CONTINUOUS
 10
1653.9084349179279
 20
1321.450353
 30
0.0
 11
803.90843491792884
 21
1321.450353
 31
0.0
  0
LINE
  5
7AA3
  8
1
  6
CONTINUOUS
 10
1653.9084349179279
 20
1391.450352999999
 30
0.0
 11
803.90843491792884
 21
1391.450352999999
 31
0.0
  0
LINE
  5
7AA4
  8
1
  6
CONTINUOUS
 10
1017.408434917928
 20
1971.450353
 30
0.0
 11
1375.4084349179279
 21
1971.450353
 31
0.0
  0
LINE
  5
7AA5
  8
1
  6
CONTINUOUS
 10
1353.9084349179279
 20
3133.4503530000002
 30
0.0
 11
1038.9084349179279
 21
2909.4503530000002
 31
0.0
  0
LINE
  5
7AA6
  8
1
  6
CONTINUOUS
 10
1353.9084349179279
 20
2909.4503530000002
 30
0.0
 11
1038.9084349179279
 21
3133.4503530000002
 31
0.0
  0
LINE
  5
7AA7
  8
1
  6
CONTINUOUS
 10
1353.9084349179279
 20
2909.4503530000002
 30
0.0
 11
836.90843491792884
 21
2909.4503530000002
 31
0.0
  0
LINE
  5
7AA8
  8
1
  6
CONTINUOUS
 10
836.90843491792884
 20
3133.4503530000002
 30
0.0
 11
1353.9084349179279
 21
3133.4503530000002
 31
0.0
  0
LINE
  5
7AA9
  8
1
  6
CONTINUOUS
 10
1068.9084349179279
 20
1951.450353
 30
0.0
 11
1323.9084349179279
 21
1951.450353
 31
0.0
  0
ARC
  5
7AAA
  8
1
  6
CONTINUOUS
 10
1064.4084349179291
 20
1746.950353
 30
0.0
 40
299.5
 50
259.39999999999992
 51
0.0
  0
LINE
  5
7AAB
  8
1
  6
CONTINUOUS
 10
1068.9084349179279
 20
1951.450353
 30
0.0
 11
1323.9084349179279
 21
1951.450353
 31
0.0
  0
LINE
  5
7AAC
  8
1
  6
CONTINUOUS
 10
1533.308434917928
 20
1549.0503530000001
 30
0.0
 11
1066.9084349179279
 21
1778.450353
 31
0.0
  0
LINE
  5
7AAD
  8
1
  6
CONTINUOUS
 10
1488.4084349179279
 20
1452.950353
 30
0.0
 11
1013.208434917928
 21
1663.350353
 31
0.0
  0
LINE
  5
7AAE
  8
1
  6
CONTINUOUS
 10
946.60843491792855
 20
1901.450353
 30
0.0
 11
833.90843491792873
 21
1806.850353
 31
0.0
  0
LINE
  5
7AAF
  8
1
  6
CONTINUOUS
 10
1243.9084349179291
 20
1684.950353
 30
0.0
 11
833.90843491792873
 21
1684.950353
 31
0.0
  0
ARC
  5
7AB0
  8
1
  6
CONTINUOUS
 10
1059.9084349179291
 20
1700.450353
 30
0.0
 40
253.0
 50
188.1999999999999
 51
258.39999999999992
  0
ARC
  5
7AB1
  8
1
  6
CONTINUOUS
 10
1020.908434917928
 20
1703.450353
 30
0.0
 40
215.0
 50
98.599999999999994
 51
190.59999999999999
  0
LINE
  5
7AB2
  8
1
  6
CONTINUOUS
 10
833.90843491792873
 20
1391.450352999999
 30
0.0
 11
833.90843491792873
 21
1806.850353
 31
0.0
  0
LINE
  5
7AB3
  8
1
  6
CONTINUOUS
 10
773.90843491792884
 20
1239.450353
 30
0.0
 11
773.90843491792884
 21
1299.450353
 31
0.0
  0
LINE
  5
7AB4
  8
1
  6
CONTINUOUS
 10
803.90843491792884
 20
1391.450352999999
 30
0.0
 11
803.90843491792884
 21
1321.450353
 31
0.0
  0
LINE
  5
7AB5
  8
1
  6
CONTINUOUS
 10
803.90843491792884
 20
1269.450353
 30
0.0
 11
803.90843491792884
 21
1239.450353
 31
0.0
  0
LINE
  5
7AB6
  8
1
  6
CONTINUOUS
 10
773.90843491792884
 20
1239.450353
 30
0.0
 11
803.90843491792884
 21
1239.450353
 31
0.0
  0
LINE
  5
7AB7
  8
1
  6
CONTINUOUS
 10
894.40843491792884
 20
1821.450353
 30
0.0
 11
894.40843491792884
 21
1381.950353
 31
0.0
  0
LINE
  5
7AB8
  8
1
  6
CONTINUOUS
 10
1243.9084349179291
 20
1391.450352999999
 30
0.0
 11
1243.9084349179291
 21
1806.850353
 31
0.0
  0
CIRCLE
  5
7AB9
  8
1
  6
CONTINUOUS
 10
1038.9084349179279
 20
1721.450353
 30
0.0
 40
182.5
  0
CIRCLE
  5
7ABA
  8
1
  6
CONTINUOUS
 10
1038.9084349179279
 20
1721.450353
 30
0.0
 40
157.5
  0
LINE
  5
7ABB
  8
1
  6
CONTINUOUS
 10
1048.9084349179279
 20
1971.450353
 30
0.0
 11
1068.9084349179279
 21
1951.450353
 31
0.0
  0
LINE
  5
7ABC
  8
1
  6
CONTINUOUS
 10
894.40843491792884
 20
1821.450353
 30
0.0
 11
1094.4084349179279
 21
1951.450353
 31
0.0
  0
CIRCLE
  5
7ABD
  8
1
  6
CONTINUOUS
 10
1038.9084349179279
 20
1721.450353
 30
0.0
 40
63.5
  0
LINE
  5
7ABE
  8
1
  6
CONTINUOUS
 10
1131.2084349179279
 20
1901.450353
 30
0.0
 11
946.60843491792855
 21
1901.450353
 31
0.0
  0
LINE
  5
7ABF
  8
2
  6
CENTER
 10
2575.7458349934041
 20
1721.450353
 30
0.0
 11
1921.2672979934041
 21
1721.450353
 31
0.0
  0
LINE
  5
7AC0
  8
2
  6
CENTER
 10
1038.9084349179279
 20
1197.950353
 30
0.0
 11
1038.9084349179279
 21
2005.37787
 31
0.0
  0
LINE
  5
7AC1
  8
1
  6
CONTINUOUS
 10
1038.9084349179279
 20
1951.450353
 30
0.0
 11
1038.9084349179279
 21
1971.450353
 31
0.0
  0
LINE
  5
7AC2
  8
1
  6
CONTINUOUS
 10
1030.0084349179281
 20
1951.450353
 30
0.0
 11
1038.9084349179279
 21
1951.450353
 31
0.0
  0
ARC
  5
7AC3
  8
1
  6
CONTINUOUS
 10
961.90843491792884
 20
1989.450353
 30
0.0
 40
78.0
 50
288.80000000000001
 51
331.0
  0
LINE
  5
7AC4
  8
1
  6
CONTINUOUS
 10
1131.2084349179279
 20
1901.450353
 30
0.0
 11
1243.9084349179291
 21
1806.850353
 31
0.0
  0
LINE
  5
7AC5
  8
1
  6
CONTINUOUS
 10
1026.9084349179279
 20
2736.4503530000002
 30
0.0
 11
833.90843491792873
 21
2736.4503530000002
 31
0.0
  0
LINE
  5
7AC6
  8
1
  6
CONTINUOUS
 10
1026.9084349179279
 20
2706.4503530000002
 30
0.0
 11
773.90843491792884
 21
2706.4503530000002
 31
0.0
  0
LINE
  5
7AC7
  8
1
  6
CONTINUOUS
 10
833.90843491792873
 20
2899.650353
 30
0.0
 11
1243.9084349179291
 21
2899.650353
 31
0.0
  0
LINE
  5
7AC8
  8
1
  6
CONTINUOUS
 10
773.90843491792884
 20
2601.4503530000002
 30
0.0
 11
773.90843491792884
 21
3201.4503530000002
 31
0.0
  0
LINE
  5
7AC9
  8
1
  6
CONTINUOUS
 10
816.90843491792873
 20
3113.4503530000002
 30
0.0
 11
816.90843491792873
 21
2929.4503530000002
 31
0.0
  0
LINE
  5
7ACA
  8
1
  6
CONTINUOUS
 10
803.90843491792884
 20
2706.4503530000002
 30
0.0
 11
803.90843491792884
 21
2601.4503530000002
 31
0.0
  0
LINE
  5
7ACB
  8
1
  6
CONTINUOUS
 10
773.90843491792884
 20
2601.4503530000002
 30
0.0
 11
803.90843491792884
 21
2601.4503530000002
 31
0.0
  0
LINE
  5
7ACC
  8
1
  6
CONTINUOUS
 10
833.90843491792873
 20
2736.4503530000002
 30
0.0
 11
833.90843491792873
 21
2899.650353
 31
0.0
  0
ARC
  5
7ACD
  8
1
  6
CONTINUOUS
 10
836.90843491792884
 20
2929.4503530000002
 30
0.0
 40
20.0
 50
180.0
 51
270.0
  0
LINE
  5
7ACE
  8
1
  6
CONTINUOUS
 10
773.90843491792884
 20
3021.4503530000002
 30
0.0
 11
816.90843491792873
 21
3021.4503530000002
 31
0.0
  0
ARC
  5
7ACF
  8
1
  6
CONTINUOUS
 10
836.90843491792884
 20
3113.4503530000002
 30
0.0
 40
20.0
 50
90.0
 51
180.0
  0
LINE
  5
7AD0
  8
1
  6
CONTINUOUS
 10
803.90843491792884
 20
3201.4503530000002
 30
0.0
 11
803.90843491792884
 21
3021.4503530000002
 31
0.0
  0
LINE
  5
7AD1
  8
1
  6
CONTINUOUS
 10
773.90843491792884
 20
3201.4503530000002
 30
0.0
 11
803.90843491792884
 21
3201.4503530000002
 31
0.0
  0
LINE
  5
7AD2
  8
1
  6
CONTINUOUS
 10
1038.9084349179279
 20
3133.4503530000002
 30
0.0
 11
1038.9084349179279
 21
2909.4503530000002
 31
0.0
  0
LINE
  5
7AD3
  8
1
  6
CONTINUOUS
 10
1243.9084349179291
 20
2736.4503530000002
 30
0.0
 11
1050.9084349179279
 21
2736.4503530000002
 31
0.0
  0
LINE
  5
7AD4
  8
1
  6
CONTINUOUS
 10
1102.4084349179279
 20
2627.9503530000002
 30
0.0
 11
975.40843491792884
 21
2627.9503530000002
 31
0.0
  0
LINE
  5
7AD5
  8
1
  6
CONTINUOUS
 10
975.40843491792884
 20
2662.9503530000002
 30
0.0
 11
1102.4084349179279
 21
2662.9503530000002
 31
0.0
  0
LINE
  5
7AD6
  8
1
  6
CONTINUOUS
 10
1221.4084349179279
 20
2899.4503530000002
 30
0.0
 11
856.40843491792884
 21
2899.4503530000002
 31
0.0
  0
LINE
  5
7AD7
  8
1
  6
CONTINUOUS
 10
1026.9084349179279
 20
2899.650353
 30
0.0
 11
1026.9084349179279
 21
2662.9503530000002
 31
0.0
  0
LINE
  5
7AD8
  8
1
  6
CONTINUOUS
 10
1050.9084349179279
 20
2899.650353
 30
0.0
 11
1050.9084349179279
 21
2662.9503530000002
 31
0.0
  0
LINE
  5
7AD9
  8
1
  6
CONTINUOUS
 10
894.40843491792884
 20
2686.4503530000002
 30
0.0
 11
894.40843491792884
 21
2601.4503530000002
 31
0.0
  0
LINE
  5
7ADA
  8
1
  6
CONTINUOUS
 10
975.40843491792884
 20
2627.9503530000002
 30
0.0
 11
975.40843491792884
 21
2662.9503530000002
 31
0.0
  0
LINE
  5
7ADB
  8
1
  6
CONTINUOUS
 10
856.40843491792884
 20
2899.4503530000002
 30
0.0
 11
856.40843491792884
 21
2909.4503530000002
 31
0.0
  0
LINE
  5
7ADC
  8
1
  6
CONTINUOUS
 10
1102.4084349179279
 20
2662.9503530000002
 30
0.0
 11
1102.4084349179279
 21
2627.9503530000002
 31
0.0
  0
LINE
  5
7ADD
  8
1
  6
CONTINUOUS
 10
1243.9084349179291
 20
2736.4503530000002
 30
0.0
 11
1243.9084349179291
 21
2899.650353
 31
0.0
  0
LINE
  5
7ADE
  8
1
  6
CONTINUOUS
 10
1221.4084349179279
 20
2899.4503530000002
 30
0.0
 11
1221.4084349179279
 21
2909.4503530000002
 31
0.0
  0
LINE
  5
7ADF
  8
1
  6
CONTINUOUS
 10
856.40843491792884
 20
3142.4503530000002
 30
0.0
 11
1221.4084349179279
 21
3142.4503530000002
 31
0.0
  0
LINE
  5
7AE0
  8
1
  6
CONTINUOUS
 10
856.40843491792884
 20
3142.4503530000002
 30
0.0
 11
856.40843491792884
 21
3133.4503530000002
 31
0.0
  0
LINE
  5
7AE1
  8
1
  6
CONTINUOUS
 10
1221.4084349179279
 20
3142.4503530000002
 30
0.0
 11
1221.4084349179279
 21
3133.4503530000002
 31
0.0
  0
LINE
  5
7AE2
  8
1
  6
CONTINUOUS
 10
1624.4084349179291
 20
1601.450352999999
 30
0.0
 11
1624.4084349179291
 21
1391.450352999999
 31
0.0
  0
ARC
  5
7AE3
  8
1
  6
CONTINUOUS
 10
1509.9084349179291
 20
1501.450353
 30
0.0
 40
101.0
 50
322.89999999999992
 51
217.09999999999991
  0
CIRCLE
  5
7AE4
  8
1
  6
CONTINUOUS
 10
1509.9084349179291
 20
1501.450353
 30
0.0
 40
53.0
  0
LINE
  5
7AE5
  8
2
  6
CENTER
 10
1509.9084349179291
 20
1448.450353
 30
0.0
 11
1509.9084349179291
 21
1554.450353
 31
0.0
  0
LINE
  5
7AE6
  8
2
  6
CENTER
 10
1562.9084349179279
 20
1501.450353
 30
0.0
 11
1456.9084349179279
 21
1501.450353
 31
0.0
  0
LINE
  5
7AE7
  8
1
  6
CONTINUOUS
 10
1623.9084349179291
 20
1411.450353
 30
0.0
 11
1308.9084349179279
 21
1411.450353
 31
0.0
  0
LINE
  5
7AE8
  8
1
  6
CONTINUOUS
 10
1308.9084349179279
 20
1391.450352999999
 30
0.0
 11
1308.9084349179279
 21
1411.450353
 31
0.0
  0
LINE
  5
7AE9
  8
1
  6
CONTINUOUS
 10
1418.0084349179281
 20
1411.450353
 30
0.0
 11
1429.4084349179279
 21
1440.450353
 31
0.0
  0
LINE
  5
7AEA
  8
1
  6
CONTINUOUS
 10
1601.808434917928
 20
1411.450353
 30
0.0
 11
1590.4084349179291
 21
1440.450353
 31
0.0
  0
LINE
  5
7AEB
  8
1
  6
CONTINUOUS
 10
1683.9084349179279
 20
1239.450353
 30
0.0
 11
1683.9084349179279
 21
1299.450353
 31
0.0
  0
LINE
  5
7AEC
  8
1
  6
CONTINUOUS
 10
1623.9084349179291
 20
1391.450352999999
 30
0.0
 11
1623.9084349179291
 21
1411.450353
 31
0.0
  0
LINE
  5
7AED
  8
1
  6
CONTINUOUS
 10
1653.9084349179279
 20
1391.450352999999
 30
0.0
 11
1653.9084349179279
 21
1321.450353
 31
0.0
  0
LINE
  5
7AEE
  8
1
  6
CONTINUOUS
 10
1683.9084349179279
 20
1239.450353
 30
0.0
 11
1653.9084349179279
 21
1239.450353
 31
0.0
  0
LINE
  5
7AEF
  8
1
  6
CONTINUOUS
 10
1653.9084349179279
 20
1269.450353
 30
0.0
 11
1653.9084349179279
 21
1239.450353
 31
0.0
  0
LINE
  5
7AF0
  8
1
  6
CONTINUOUS
 10
1363.9084349179279
 20
1951.450353
 30
0.0
 11
1363.9084349179279
 21
1746.950353
 31
0.0
  0
LINE
  5
7AF1
  8
1
  6
CONTINUOUS
 10
1343.9084349179291
 20
1971.450353
 30
0.0
 11
1323.9084349179279
 21
1951.450353
 31
0.0
  0
LINE
  5
7AF2
  8
1
  6
CONTINUOUS
 10
1353.9084349179279
 20
1971.450353
 30
0.0
 11
1353.9084349179279
 21
1951.450353
 31
0.0
  0
LINE
  5
7AF3
  8
1
  6
CONTINUOUS
 10
1353.9084349179279
 20
1951.450353
 30
0.0
 11
1363.9084349179279
 21
1951.450353
 31
0.0
  0
LINE
  5
7AF4
  8
1
  6
CONTINUOUS
 10
1683.9084349179279
 20
2601.4503530000002
 30
0.0
 11
1683.9084349179279
 21
3201.4503530000002
 31
0.0
  0
LINE
  5
7AF5
  8
1
  6
CONTINUOUS
 10
1408.9084349179279
 20
2722.9503530000002
 30
0.0
 11
1408.9084349179279
 21
2994.9503530000002
 31
0.0
  0
LINE
  5
7AF6
  8
1
  6
CONTINUOUS
 10
1599.9084349179279
 20
2994.9503530000002
 30
0.0
 11
1599.9084349179279
 21
2722.9503530000002
 31
0.0
  0
LINE
  5
7AF7
  8
1
  6
CONTINUOUS
 10
1353.9084349179279
 20
3133.4503530000002
 30
0.0
 11
1353.9084349179279
 21
2909.4503530000002
 31
0.0
  0
LINE
  5
7AF8
  8
1
  6
CONTINUOUS
 10
1446.4084349179279
 20
2662.9503530000002
 30
0.0
 11
1573.4084349179279
 21
2662.9503530000002
 31
0.0
  0
LINE
  5
7AF9
  8
1
  6
CONTINUOUS
 10
1573.4084349179279
 20
2627.9503530000002
 30
0.0
 11
1446.4084349179279
 21
2627.9503530000002
 31
0.0
  0
LINE
  5
7AFA
  8
1
  6
CONTINUOUS
 10
1408.9084349179279
 20
2722.9503530000002
 30
0.0
 11
1599.9084349179279
 21
2722.9503530000002
 31
0.0
  0
LINE
  5
7AFB
  8
1
  6
CONTINUOUS
 10
1446.4084349179279
 20
2627.9503530000002
 30
0.0
 11
1446.4084349179279
 21
2662.9503530000002
 31
0.0
  0
LINE
  5
7AFC
  8
1
  6
CONTINUOUS
 10
1624.4084349179291
 20
2686.4503530000002
 30
0.0
 11
1624.4084349179291
 21
2601.4503530000002
 31
0.0
  0
LINE
  5
7AFD
  8
1
  6
CONTINUOUS
 10
1521.9084349179291
 20
2662.9503530000002
 30
0.0
 11
1521.9084349179291
 21
2722.9503530000002
 31
0.0
  0
LINE
  5
7AFE
  8
1
  6
CONTINUOUS
 10
1497.9084349179291
 20
2662.9503530000002
 30
0.0
 11
1497.9084349179291
 21
2722.9503530000002
 31
0.0
  0
LINE
  5
7AFF
  8
1
  6
CONTINUOUS
 10
1653.9084349179279
 20
2706.4503530000002
 30
0.0
 11
1653.9084349179279
 21
2601.4503530000002
 31
0.0
  0
LINE
  5
7B00
  8
1
  6
CONTINUOUS
 10
1573.4084349179279
 20
2662.9503530000002
 30
0.0
 11
1573.4084349179279
 21
2627.9503530000002
 31
0.0
  0
LINE
  5
7B01
  8
1
  6
CONTINUOUS
 10
1497.9084349179291
 20
2627.9503530000002
 30
0.0
 11
1521.9084349179291
 21
2627.9503530000002
 31
0.0
  0
LINE
  5
7B02
  8
1
  6
CONTINUOUS
 10
1683.9084349179279
 20
2601.4503530000002
 30
0.0
 11
1653.9084349179279
 21
2601.4503530000002
 31
0.0
  0
LINE
  5
7B03
  8
1
  6
CONTINUOUS
 10
1683.9084349179279
 20
2706.4503530000002
 30
0.0
 11
1521.9084349179291
 21
2706.4503530000002
 31
0.0
  0
LINE
  5
7B04
  8
1
  6
CONTINUOUS
 10
1408.9084349179279
 20
2994.9503530000002
 30
0.0
 11
1599.9084349179279
 21
2994.9503530000002
 31
0.0
  0
LINE
  5
7B05
  8
1
  6
CONTINUOUS
 10
1353.9084349179279
 20
3021.4503530000002
 30
0.0
 11
1683.9084349179279
 21
3021.4503530000002
 31
0.0
  0
LINE
  5
7B06
  8
1
  6
CONTINUOUS
 10
1683.9084349179279
 20
3201.4503530000002
 30
0.0
 11
1653.9084349179279
 21
3201.4503530000002
 31
0.0
  0
LINE
  5
7B07
  8
1
  6
CONTINUOUS
 10
1653.9084349179279
 20
3201.4503530000002
 30
0.0
 11
1653.9084349179279
 21
3021.4503530000002
 31
0.0
  0
LINE
  5
7B08
  8
1
  6
CONTINUOUS
 10
1996.6458349934039
 20
1269.450353
 30
0.0
 11
2596.6458349934042
 21
1269.450353
 31
0.0
  0
LINE
  5
7B09
  8
1
  6
CONTINUOUS
 10
1996.6458349934039
 20
1239.450353
 30
0.0
 11
2596.6458349934042
 21
1239.450353
 31
0.0
  0
LINE
  5
7B0A
  8
1
  6
CONTINUOUS
 10
2056.6458349934042
 20
1489.5503530000001
 30
0.0
 11
2130.6458349934042
 21
1489.5503530000001
 31
0.0
  0
LINE
  5
7B0B
  8
1
  6
CONTINUOUS
 10
2056.6458349934042
 20
1513.5503530000001
 30
0.0
 11
2130.6458349934042
 21
1513.5503530000001
 31
0.0
  0
LINE
  5
7B0C
  8
1
  6
CONTINUOUS
 10
2056.6458349934042
 20
1734.0503530000001
 30
0.0
 11
2197.6458349934042
 21
1734.0503530000001
 31
0.0
  0
LINE
  5
7B0D
  8
1
  6
CONTINUOUS
 10
2056.6458349934042
 20
1709.0503530000001
 30
0.0
 11
2165.2458349934041
 21
1709.0503530000001
 31
0.0
  0
LINE
  5
7B0E
  8
1
  6
CONTINUOUS
 10
2056.6458349934042
 20
1438.0503529999989
 30
0.0
 11
2056.6458349934042
 21
1565.0503529999989
 31
0.0
  0
LINE
  5
7B0F
  8
1
  6
CONTINUOUS
 10
2021.6458349934039
 20
1565.0503529999989
 30
0.0
 11
2021.6458349934039
 21
1438.0503529999989
 31
0.0
  0
LINE
  5
7B10
  8
1
  6
CONTINUOUS
 10
1996.6458349934039
 20
1391.5503529999989
 30
0.0
 11
1996.6458349934039
 21
1951.450353
 31
0.0
  0
LINE
  5
7B11
  8
1
  6
CONTINUOUS
 10
2081.6458349934042
 20
1391.5503529999989
 30
0.0
 11
2081.6458349934042
 21
1951.450353
 31
0.0
  0
LINE
  5
7B15
  8
1
  6
CONTINUOUS
 10
1996.6458349934039
 20
1269.450353
 30
0.0
 11
1996.6458349934039
 21
1239.450353
 31
0.0
  0
LINE
  5
7B16
  8
1
  6
CONTINUOUS
 10
1996.6458349934039
 20
1391.5503529999989
 30
0.0
 11
2081.6458349934042
 21
1391.5503529999989
 31
0.0
  0
LINE
  5
7B17
  8
1
  6
CONTINUOUS
 10
2021.6458349934039
 20
1438.0503529999989
 30
0.0
 11
2056.6458349934042
 21
1438.0503529999989
 31
0.0
  0
LINE
  5
7B18
  8
1
  6
CONTINUOUS
 10
2021.6458349934039
 20
1785.0503530000001
 30
0.0
 11
2021.6458349934039
 21
1658.0503529999989
 31
0.0
  0
LINE
  5
7B19
  8
1
  6
CONTINUOUS
 10
2056.6458349934042
 20
1785.0503530000001
 30
0.0
 11
2021.6458349934039
 21
1785.0503530000001
 31
0.0
  0
LINE
  5
7B1A
  8
1
  6
CONTINUOUS
 10
2056.6458349934042
 20
1658.0503529999989
 30
0.0
 11
2056.6458349934042
 21
1785.0503530000001
 31
0.0
  0
LINE
  5
7B1B
  8
1
  6
CONTINUOUS
 10
2021.6458349934039
 20
1658.0503529999989
 30
0.0
 11
2056.6458349934042
 21
1658.0503529999989
 31
0.0
  0
LINE
  5
7B1C
  8
1
  6
CONTINUOUS
 10
2056.6458349934042
 20
1565.0503529999989
 30
0.0
 11
2021.6458349934039
 21
1565.0503529999989
 31
0.0
  0
LINE
  5
7B1D
  8
1
  6
CONTINUOUS
 10
1996.6458349934039
 20
1951.450353
 30
0.0
 11
2081.6458349934042
 21
1951.450353
 31
0.0
  0
LINE
  5
7B1E
  8
1
  6
CONTINUOUS
 10
2537.6458349934051
 20
1903.950353
 30
0.0
 11
2529.4458349934039
 21
1903.950353
 31
0.0
  0
ARC
  5
7B1F
  8
1
  6
CONTINUOUS
 10
2508.6458349934051
 20
1453.450353
 30
0.0
 40
20.0
 50
270.0
 51
0.0
  0
LINE
  5
7B20
  8
1
  6
CONTINUOUS
 10
2537.6458349934051
 20
1538.950353
 30
0.0
 11
2528.6458349934051
 21
1538.950353
 31
0.0
  0
LINE
  5
7B21
  8
1
  6
CONTINUOUS
 10
2283.6458349934042
 20
1971.450353
 30
0.0
 11
2549.6458349934042
 21
1971.450353
 31
0.0
  0
LINE
  5
7B22
  8
1
  6
CONTINUOUS
 10
2528.6458349934051
 20
1971.450353
 30
0.0
 11
2528.6458349934051
 21
1453.450353
 31
0.0
  0
LINE
  5
7B23
  8
1
  6
CONTINUOUS
 10
2304.6458349934042
 20
1453.450353
 30
0.0
 11
2304.6458349934042
 21
1971.450353
 31
0.0
  0
LINE
  5
7B24
  8
1
  6
CONTINUOUS
 10
2294.6458349934042
 20
1538.950353
 30
0.0
 11
2294.6458349934042
 21
1903.950353
 31
0.0
  0
LINE
  5
7B25
  8
1
  6
CONTINUOUS
 10
2294.6458349934042
 20
1904.0503530000001
 30
0.0
 11
2294.6458349934042
 21
1391.450352999999
 31
0.0
  0
LINE
  5
7B26
  8
1
  6
CONTINUOUS
 10
2130.6458349934042
 20
1682.450353
 30
0.0
 11
2130.6458349934042
 21
1391.450352999999
 31
0.0
  0
ARC
  5
7B27
  8
1
  6
CONTINUOUS
 10
2324.6458349934042
 20
1453.450353
 30
0.0
 40
20.0
 50
180.0
 51
270.0
  0
LINE
  5
7B28
  8
1
  6
CONTINUOUS
 10
2416.4458349934039
 20
1391.450352999999
 30
0.0
 11
2101.4458349934039
 21
1391.450352999999
 31
0.0
  0
LINE
  5
7B29
  8
1
  6
CONTINUOUS
 10
2101.4458349934039
 20
1321.450353
 30
0.0
 11
2416.4458349934039
 21
1321.450353
 31
0.0
  0
LINE
  5
7B2A
  8
1
  6
CONTINUOUS
 10
2101.6458349934051
 20
1299.450353
 30
0.0
 11
2416.6458349934051
 21
1299.450353
 31
0.0
  0
LINE
  5
7B2B
  8
1
  6
CONTINUOUS
 10
2101.4458349934039
 20
1391.450352999999
 30
0.0
 11
2101.4458349934039
 21
1321.450353
 31
0.0
  0
LINE
  5
7B2C
  8
1
  6
CONTINUOUS
 10
2101.6458349934051
 20
1299.450353
 30
0.0
 11
2101.6458349934051
 21
1269.450353
 31
0.0
  0
LINE
  5
7B2D
  8
1
  6
CONTINUOUS
 10
2294.6458349934042
 20
1538.950353
 30
0.0
 11
2303.845834993404
 21
1538.950353
 31
0.0
  0
LINE
  5
7B2E
  8
1
  6
CONTINUOUS
 10
2324.6458349934042
 20
1433.450353
 30
0.0
 11
2508.6458349934051
 21
1433.450353
 31
0.0
  0
LINE
  5
7B2F
  8
1
  6
CONTINUOUS
 10
2416.4458349934039
 20
1321.450353
 30
0.0
 11
2416.4458349934039
 21
1391.450352999999
 31
0.0
  0
LINE
  5
7B30
  8
1
  6
CONTINUOUS
 10
2416.6458349934051
 20
1269.450353
 30
0.0
 11
2416.6458349934051
 21
1299.450353
 31
0.0
  0
LINE
  5
7B31
  8
1
  6
CONTINUOUS
 10
2294.6458349934042
 20
1808.650353
 30
0.0
 11
2130.6458349934042
 21
1682.450353
 31
0.0
  0
LINE
  5
7B32
  8
1
  6
CONTINUOUS
 10
2294.6458349934042
 20
1903.950353
 30
0.0
 11
2303.845834993404
 21
1903.950353
 31
0.0
  0
LINE
  5
7B33
  8
1
  6
CONTINUOUS
 10
2333.6458349934042
 20
1951.450353
 30
0.0
 11
2499.6458349934042
 21
1951.450353
 31
0.0
  0
LINE
  5
7B34
  8
1
  6
CONTINUOUS
 10
2313.6458349934042
 20
1971.450353
 30
0.0
 11
2333.6458349934042
 21
1951.450353
 31
0.0
  0
LINE
  5
7B35
  8
1
  6
CONTINUOUS
 10
2519.6458349934042
 20
1971.450353
 30
0.0
 11
2499.6458349934042
 21
1951.450353
 31
0.0
  0
LINE
  5
7B36
  8
1
  6
CONTINUOUS
 10
2537.6458349934051
 20
1903.950353
 30
0.0
 11
2537.6458349934051
 21
1538.950353
 31
0.0
  0
LINE
  5
7B37
  8
1
  6
CONTINUOUS
 10
2596.6458349934042
 20
1269.450353
 30
0.0
 11
2596.6458349934042
 21
1239.450353
 31
0.0
  0
LINE
  5
7B38
  8
4
  6
CONTINUOUS
 10
2775.0
 20
750.0
 30
0.0
 11
2775.0
 21
450.0
 31
0.0
  0
LINE
  5
7B39
  8
4
  6
CONTINUOUS
 10
1725.0
 20
750.0
 30
0.0
 11
1725.0
 21
450.0
 31
0.0
  0
LINE
  5
7B3A
  8
4
  6
CONTINUOUS
 10
975.0
 20
750.0
 30
0.0
 11
975.0
 21
450.0
 31
0.0
  0
LINE
  5
7B3D
  8
4
  6
CONTINUOUS
 10
975.0
 20
450.0
 30
0.0
 11
2775.0
 21
450.0
 31
0.0
  0
LINE
  5
7B3E
  8
4
  6
CONTINUOUS
 10
975.0
 20
600.0
 30
0.0
 11
2775.0
 21
600.0
 31
0.0
  0
TEXT
  5
7B3F
  8
4
  6
CONTINUOUS
 10
1032.753121
 20
647.31453899999985
 30
0.0
 40
75.0
  1
機器名称
  0
TEXT
  5
7B40
  8
4
  6
CONTINUOUS
 10
1029.387158999999
 20
482.46773499999989
 30
0.0
 40
75.0
  1
機器型番
  0
TEXT
  5
7B41
  8
4
  6
CONTINUOUS
 10
1766.518118
 20
633.85765300000003
 30
0.0
 40
65.0
  1
ミツヤニューマルチファン
  0
TEXT
  5
7B42
  8
4
  6
CONTINUOUS
 10
1779.9817430000001
 20
475.73937599999999
 30
0.0
 40
75.0
  1
NM#2-1
  0
TEXT
  5
7B44
  8
4
  6
CONTINUOUS
 10
1167.1786480000001
 20
3575.1432619999991
 30
0.0
 40
81.0
  1
天井吊防振ベット
  0
TEXT
  5
7B45
  8
4
  6
CONTINUOUS
 10
474.25139000000001
 20
3800.8214640000001
 30
0.0
 40
108.0
  1
ベルト駆動式片吸込片持多翼ファン
  0
LINE
  5
7B46
  8
4
  6
CONTINUOUS
 10
375.0
 20
3704.1131310000001
 30
0.0
 11
2775.0
 21
3704.1131310000001
 31
0.0
  0
LINE
  5
7B47
  8
4
  6
CONTINUOUS
 10
375.0
 20
4004.1131310000001
 30
0.0
 11
2775.0
 21
4004.1131310000001
 31
0.0
  0
LINE
  5
7B48
  8
4
  6
CONTINUOUS
 10
975.0
 20
750.0
 30
0.0
 11
2775.0
 21
750.0
 31
0.0
  0
LINE
  5
7B49
  8
4
  6
CONTINUOUS
 10
375.0
 20
4004.1131310000001
 30
0.0
 11
375.0
 21
3704.1131310000001
 31
0.0
  0
TEXT
  5
7B4A
  8
4
  6
CONTINUOUS
 10
513.3904
 20
3573.4792159999988
 30
0.0
 40
81.0
  1
左回転上向
  0
TEXT
  5
7B4B
  8
4
  6
CONTINUOUS
 10
2203.454338999999
 20
4059.091621999999
 30
0.0
 40
84.0
  1
No.
  0
TEXT
  5
7B4C
  8
4
  6
CONTINUOUS
 10
2136.944093999999
 20
3575.1432619999991
 30
0.0
 40
81.0
  1
縮尺：1/15
  0
LINE
  5
7B4D
  8
4
  6
CONTINUOUS
 10
2775.0
 20
4004.1131310000001
 30
0.0
 11
2775.0
 21
3704.1131310000001
 31
0.0
  0
LINE
  5
7B4F
  8
4
  6
CONTINUOUS
 10
2160.9261339999989
 20
4021.8953750000001
 30
0.0
 11
2160.9261339999989
 21
4179.978392
 31
0.0
  0
LINE
  5
7B50
  8
4
  6
CONTINUOUS
 10
2160.9261339999989
 20
4179.978392
 30
0.0
 11
2775.0
 21
4179.978392
 31
0.0
  0
LINE
  5
7B51
  8
4
  6
CONTINUOUS
 10
2775.0
 20
4179.978392
 30
0.0
 11
2775.0
 21
4021.8953750000001
 31
0.0
  0
LINE
  5
7B52
  8
4
  6
CONTINUOUS
 10
2775.0
 20
4021.8953750000001
 30
0.0
 11
2160.9261339999989
 21
4021.8953750000001
 31
0.0
  0
DIMENSION
  5
7B6A
  8
3
  6
CONTINUOUS
  2
*D1
 10
1038.9084349179279
 20
1150.0
 30
0.0
 11
908.1615579179288
 21
1150.0
 31
0.0
 70
   128
 13
773.90843491792884
 23
1239.450353
 33
0.0
 14
1038.9084349179279
 24
1197.950353
 34
0.0
1001
ACAD
1000
DSTYLE
1002
{
1070
   287
1070
     3
1070
   287
1070
     3
1070
    40
1040
15.0
1070
   143
1040
0.039
1070
   172
1070
     1
1070
   271
1070
     0
1070
   279
1070
     0
1070
   288
1070
     1
1002
}
  0
DIMENSION
  5
7B76
  8
3
  6
CONTINUOUS
  2
*D2
 10
1683.9084349179279
 20
1150.0
 30
0.0
 11
1361.4084349179279
 21
1187.5
 31
0.0
 70
     0
 13
1038.9084349179279
 23
1197.950353
 33
0.0
 14
1683.9084349179279
 24
1239.450353
 34
0.0
1001
ACAD
1000
DSTYLE
1002
{
1070
   287
1070
     4
1070
   287
1070
     4
1070
    40
1040
15.0
1070
    75
1070
     1
1070
   143
1040
0.039
1070
   172
1070
     1
1070
   271
1070
     0
1070
   279
1070
     1
1070
   288
1070
     1
1002
}
  0
DIMENSION
  5
7B83
  8
3
  6
CONTINUOUS
  2
*D3
 10
1353.9084349179279
 20
2051.6998749999998
 30
0.0
 11
1203.553915917928
 21
2051.6998749999998
 31
0.0
 70
   128
 13
1038.9084349179279
 23
1971.450353
 33
0.0
 14
1353.9084349179279
 24
1971.450353
 34
0.0
1001
ACAD
1000
DSTYLE
1002
{
1070
   287
1070
     3
1070
   287
1070
     3
1070
    40
1040
15.0
1070
   143
1040
0.039
1070
   172
1070
     1
1070
   271
1070
     0
1070
   279
1070
     0
1070
   288
1070
     1
1002
}
  0
DIMENSION
  5
7B90
  8
3
  6
CONTINUOUS
  2
*D4
 10
1038.9084349179279
 20
2133.8892759999999
 30
0.0
 11
936.05129191792867
 21
2133.8892759999999
 31
0.0
 70
   128
 13
806.66324791792886
 23
1721.450353
 33
0.0
 14
1038.9084349179279
 24
1971.450353
 34
0.0
1001
ACAD
1000
DSTYLE
1002
{
1070
   287
1070
     3
1070
   287
1070
     3
1070
    40
1040
15.0
1070
   143
1040
0.039
1070
   172
1070
     1
1070
   271
1070
     0
1070
   279
1070
     0
1070
   288
1070
     1
1002
}
  0
DIMENSION
  5
7B9C
  8
3
  6
CONTINUOUS
  2
*D5
 10
1363.9084349179279
 20
2133.8892759999999
 30
0.0
 11
1201.4084349179291
 21
2171.3892759999999
 31
0.0
 70
     0
 13
1038.9084349179279
 23
1971.450353
 33
0.0
 14
1363.9084349179279
 24
1951.450353
 34
0.0
1001
ACAD
1000
DSTYLE
1002
{
1070
   287
1070
     4
1070
   287
1070
     4
1070
    40
1040
15.0
1070
    75
1070
     1
1070
   143
1040
0.039
1070
   172
1070
     1
1070
   271
1070
     0
1070
   279
1070
     1
1070
   288
1070
     1
1002
}
  0
DIMENSION
  5
7C43
  8
3
  6
CONTINUOUS
  2
*D6
 10
1683.9084349179279
 20
2477.338240999999
 30
0.0
 11
1240.0288529179279
 21
2477.338240999999
 31
0.0
 70
   128
 13
773.90843491792884
 23
2601.4503530000002
 33
0.0
 14
1683.9084349179279
 24
2601.4503530000002
 34
0.0
1001
ACAD
1000
DSTYLE
1002
{
1070
   287
1070
     3
1070
   287
1070
     3
1070
    40
1040
15.0
1070
   143
1040
0.039
1070
   172
1070
     1
1070
   271
1070
     0
1070
   279
1070
     0
1070
   288
1070
     1
1002
}
  0
DIMENSION
  5
7C50
  8
3
  6
CONTINUOUS
  2
*D7
 10
1853.592174917929
 20
2601.4503530000002
 30
0.0
 11
1853.592174917929
 21
2893.3720899999989
 31
0.0
 70
   128
 13
1683.9084349179279
 23
3201.4503530000002
 33
0.0
 14
1683.9084349179279
 24
2601.4503530000002
 34
0.0
 50
90.0
1001
ACAD
1000
DSTYLE
1002
{
1070
   287
1070
     3
1070
   287
1070
     3
1070
    40
1040
15.0
1070
   143
1040
0.039
1070
   172
1070
     1
1070
   271
1070
     0
1070
   279
1070
     0
1070
   288
1070
     1
1002
}
  0
LINE
  5
7C51
  8
2
  6
CENTER
 10
774.49621891792856
 20
3021.4503530000002
 30
0.0
 11
1389.885315917928
 21
3021.4503530000002
 31
0.0
  0
LINE
  5
7C52
  8
2
  6
CENTER
 10
1038.9084349179279
 20
2550.4923829999989
 30
0.0
 11
1038.9084349179279
 21
3194.9503530000002
 31
0.0
  0
LINE
  5
7C53
  8
2
  6
CENTER
 10
2416.6458349934051
 20
2043.960028
 30
0.0
 11
2416.6458349934051
 21
1176.1346529999989
 31
0.0
  0
DIMENSION
  5
7C60
  8
3
  6
CONTINUOUS
  2
*D8
 10
2416.6458349934051
 20
1119.6461049999989
 30
0.0
 11
2213.166817993404
 21
1119.6461049999989
 31
0.0
 70
   128
 13
1996.6458349934039
 23
1239.450353
 33
0.0
 14
2416.6458349934051
 24
1176.1346529999989
 34
0.0
1001
ACAD
1000
DSTYLE
1002
{
1070
   287
1070
     3
1070
   287
1070
     3
1070
    40
1040
15.0
1070
   143
1040
0.039
1070
   172
1070
     1
1070
   271
1070
     0
1070
   279
1070
     0
1070
   288
1070
     1
1002
}
  0
DIMENSION
  5
7C6E
  8
3
  6
CONTINUOUS
  2
*D9
 10
2596.6458349934042
 20
1119.6461049999989
 30
0.0
 11
2510.0522949934052
 21
1119.0841199999991
 31
0.0
 70
   128
 13
2416.6458349934051
 23
1176.1346529999989
 33
0.0
 14
2596.6458349934042
 24
1239.450353
 34
0.0
1001
ACAD
1000
DSTYLE
1002
{
1070
   287
1070
     4
1070
   287
1070
     4
1070
    40
1040
15.0
1070
    75
1070
     1
1070
   143
1040
0.039
1070
   172
1070
     1
1070
   271
1070
     0
1070
   279
1070
     1
1070
   288
1070
     1
1002
}
  0
DIMENSION
  5
7C91
  8
3
  6
CONTINUOUS
  2
*D10
 10
2528.6458349934051
 20
2037.585067999999
 30
0.0
 11
2408.5744059934041
 21
2037.585067999999
 31
0.0
 70
   128
 13
2304.6458349934042
 23
1971.450353
 33
0.0
 14
2528.6458349934051
 24
1971.450353
 34
0.0
1001
ACAD
1000
DSTYLE
1002
{
1070
   287
1070
     3
1070
   287
1070
     3
1070
    40
1040
15.0
1070
   143
1040
0.039
1070
   172
1070
     1
1070
   271
1070
     0
1070
   279
1070
     0
1070
   288
1070
     1
1002
}
  0
DIMENSION
  5
7C9F
  8
3
  6
CONTINUOUS
  2
*D11
 10
2416.6458349934051
 20
2128.247754999999
 30
0.0
 11
2196.2019349934039
 21
2128.247754999999
 31
0.0
 70
   128
  1
MAX\P420
 13
1996.6458349934039
 23
1951.450353
 33
0.0
 14
2416.6458349934051
 24
2103.7111850000001
 34
0.0
1001
ACAD
1000
DSTYLE
1002
{
1070
   287
1070
     3
1070
   287
1070
     3
1070
    40
1040
15.0
1070
   143
1040
0.039
1070
   172
1070
     1
1070
   271
1070
     0
1070
   279
1070
     0
1070
   288
1070
     1
1002
}
  0
DIMENSION
  5
7CAD
  8
3
  6
CONTINUOUS
  2
*D12
 10
2537.6458349934051
 20
2128.247754999999
 30
0.0
 11
2473.2950459934041
 21
2128.247754999999
 31
0.0
 70
   128
 13
2416.6458349934051
 23
2103.7111850000001
 33
0.0
 14
2537.6458349934051
 24
1903.950353
 34
0.0
1001
ACAD
1000
DSTYLE
1002
{
1070
   287
1070
     4
1070
   287
1070
     4
1070
    40
1040
15.0
1070
    75
1070
     1
1070
   143
1040
0.039
1070
   172
1070
     1
1070
   271
1070
     0
1070
   279
1070
     1
1070
   288
1070
     1
1002
}
  0
LINE
  5
7CC5
  8
3
  6
CONTINUOUS
 10
2537.6458349934051
 20
1878.950353
 30
0.0
 11
2553.7811179934042
 21
1878.950353
 31
0.0
  0
LINE
  5
7CC7
  8
3
  6
CONTINUOUS
 10
2537.6458349934051
 20
1563.950353
 30
0.0
 11
2553.7811179934042
 21
1563.950353
 31
0.0
  0
DIMENSION
  5
7CD4
  8
3
  6
CONTINUOUS
  2
*D13
 10
2644.7065639934049
 20
1563.950352999999
 30
0.0
 11
2644.706563993404
 21
1729.457269
 31
0.0
 70
   128
 13
2537.6458349934051
 23
1878.950353
 33
0.0
 14
2537.6458349934051
 24
1563.950353
 34
0.0
 50
90.0
1001
ACAD
1000
DSTYLE
1002
{
1070
   287
1070
     3
1070
   287
1070
     3
1070
     3
1000
φ<>
1070
    40
1040
15.0
1070
   143
1040
0.039
1070
   172
1070
     1
1070
   271
1070
     0
1070
   279
1070
     0
1070
   288
1070
     1
1002
}
  0
LINE
  5
7CD6
  8
2
  6
CENTER
 10
1505.392863917928
 20
1721.450353
 30
0.0
 11
755.40843491792884
 21
1721.450353
 31
0.0
  0
DIMENSION
  5
7DE8
  8
3
  2
*D15
 10
663.74346422785879
 20
1721.450353
 30
0.0
 11
663.74346422785845
 21
1824.3074958571431
 31
0.0
 70
   128
 13
1017.408434917928
 23
1971.450353
 33
0.0
 14
755.40843491792884
 24
1721.450353
 34
0.0
 50
90.0
1001
ACAD
1000
DSTYLE
1002
{
1070
   287
1070
     3
1070
   287
1070
     3
1070
    40
1040
15.0
1070
   143
1040
0.039
1070
   172
1070
     1
1070
   271
1070
     0
1070
   279
1070
     0
1070
   288
1070
     1
1002
}
  0
DIMENSION
  5
7DF4
  8
3
  2
*D16
 10
663.74346422785845
 20
1321.450353
 30
0.0
 11
626.24346422785834
 21
1521.450353
 31
0.0
 70
     0
 13
755.40843491792884
 23
1721.450353
 33
0.0
 14
803.90843491792884
 24
1321.450353
 34
0.0
 50
90.0
1001
ACAD
1000
DSTYLE
1002
{
1070
   287
1070
     4
1070
   287
1070
     4
1070
    40
1040
15.0
1070
    75
1070
     1
1070
   143
1040
0.039
1070
   172
1070
     1
1070
   271
1070
     0
1070
   279
1070
     1
1070
   288
1070
     1
1002
}
  0
DIMENSION
  5
7E04
  8
3
  2
*D17
 10
663.74346422785845
 20
1269.450353
 30
0.0
 11
603.74346422785857
 21
1295.450353
 31
0.0
 12
176.16017039537829
 22
0.0
 32
0.0
 70
     0
 13
803.90843491792884
 23
1321.450353
 33
0.0
 14
773.90843491792884
 24
1269.450353
 34
0.0
 50
90.0
1001
ACAD
1000
DSTYLE
1002
{
1070
   288
1070
     1
1070
   172
1070
     1
1070
    75
1070
     1
1070
    40
1040
15.0
1070
   271
1070
     0
1070
     7
1000
_DOT
1070
   143
1040
0.039
1002
}
  0
DIMENSION
  5
7E14
  8
3
  2
*D18
 10
663.74346422785845
 20
1239.450353
 30
0.0
 11
626.24346422785845
 21
1128.0217815714291
 31
0.0
 70
     0
 13
773.90843491792884
 23
1269.450353
 33
0.0
 14
773.90843491792884
 24
1239.450353
 34
0.0
 50
90.0
1001
ACAD
1000
DSTYLE
1002
{
1070
   287
1070
     3
1070
   287
1070
     3
1070
    40
1040
15.0
1070
   143
1040
0.039
1070
   172
1070
     1
1070
   271
1070
     0
1070
   279
1070
     0
1070
   288
1070
     1
1070
     6
1000
DOT
1002
}
  0
DIMENSION
  5
7E2E
  8
3
  2
*D19
 10
548.87906035621029
 20
1239.450353
 30
0.0
 11
548.87906035621006
 21
1590.3223604129309
 31
0.0
 70
   128
 13
1017.408434917928
 23
1971.450353
 33
0.0
 14
773.90843491792884
 24
1239.450353
 34
0.0
 50
90.0
1001
ACAD
1000
DSTYLE
1002
{
1070
   287
1070
     3
1070
   287
1070
     3
1070
    40
1040
15.0
1070
   143
1040
0.039
1070
   172
1070
     1
1070
   271
1070
     0
1070
   279
1070
     0
1070
   288
1070
     1
1002
}
  0
DIMENSION
  5
7E83
  8
3
  2
*D20
 10
1683.9084349179279
 20
2222.366592907329
 30
0.0
 11
1265.031088506239
 21
2222.366592907329
 31
0.0
 70
   128
 13
806.66324791792886
 23
1728.950353
 33
0.0
 14
1683.9084349179279
 24
1299.450353
 34
0.0
1001
ACAD
1000
DSTYLE
1002
{
1070
   287
1070
     3
1070
   287
1070
     3
1070
    40
1040
15.0
1070
   143
1040
0.039
1070
   172
1070
     1
1070
   271
1070
     0
1070
   279
1070
     0
1070
   288
1070
     1
1002
}
  0
ENDSEC
  0
EOF
