  0
SECTION
  2
HEADER
  9
$ACADVER
  1
AC1009
  9
$INSBASE
 10
0.0
 20
0.0
 30
0.0
  9
$EXTMIN
 10
-2527.5912309999999
 20
-3335.915074
 30
0.0
  9
$EXTMAX
 10
-127.59123099999999
 20
394.06331899999992
 30
0.0
  9
$LIMMIN
 10
0.0
 20
0.0
  9
$LIMMAX
 10
297.0
 20
210.0
  9
$ORTHOMODE
 70
     0
  9
$REGENMODE
 70
     1
  9
$FILLMODE
 70
     0
  9
$QTEXTMODE
 70
     0
  9
$MIRRTEXT
 70
     1
  9
$DRAGMODE
 70
     2
  9
$LTSCALE
 40
100.0
  9
$OSMODE
 70
    37
  9
$ATTMODE
 70
     1
  9
$TEXTSIZE
 40
180.0
  9
$TRACEWID
 40
0.05
  9
$TEXTSTYLE
  7
STANDARD
  9
$CLAYER
  8
3
  9
$CELTYPE
  6
BYLAYER
  9
$CECOLOR
 62
   256
  9
$DIMSCALE
 40
15.0
  9
$DIMASZ
 40
2.0
  9
$DIMEXO
 40
0.5
  9
$DIMDLI
 40
10.0
  9
$DIMRND
 40
0.0
  9
$DIMDLE
 40
0.0
  9
$DIMEXE
 40
1.0
  9
$DIMTP
 40
1.0
  9
$DIMTM
 40
1.0
  9
$DIMTXT
 40
3.0
  9
$DIMCEN
 40
0.0
  9
$DIMTSZ
 40
0.0
  9
$DIMTOL
 70
     0
  9
$DIMLIM
 70
     0
  9
$DIMTIH
 70
     0
  9
$DIMTOH
 70
     0
  9
$DIMSE1
 70
     0
  9
$DIMSE2
 70
     0
  9
$DIMTAD
 70
     1
  9
$DIMZIN
 70
     8
  9
$DIMBLK
  1

  9
$DIMASO
 70
     1
  9
$DIMSHO
 70
     1
  9
$DIMPOST
  1

  9
$DIMAPOST
  1

  9
$DIMALT
 70
     0
  9
$DIMALTD
 70
     2
  9
$DIMALTF
 40
0.039
  9
$DIMLFAC
 40
1.0
  9
$DIMTOFL
 70
     1
  9
$DIMTVP
 40
0.0
  9
$DIMTIX
 70
     0
  9
$DIMSOXD
 70
     0
  9
$DIMSAH
 70
     1
  9
$DIMBLK1
  1
OPEN
  9
$DIMBLK2
  1
OPEN
  9
$DIMSTYLE
  2
IGA
  9
$DIMCLRD
 70
     0
  9
$DIMCLRE
 70
     0
  9
$DIMCLRT
 70
     0
  9
$DIMTFAC
 40
10.0
  9
$DIMGAP
 40
1.0
  9
$LUNITS
 70
     2
  9
$LUPREC
 70
     3
  9
$SKETCHINC
 40
0.1
  9
$FILLETRAD
 40
50.0
  9
$AUNITS
 70
     0
  9
$AUPREC
 70
     0
  9
$MENU
  1
acad
  9
$ELEVATION
 40
0.0
  9
$PELEVATION
 40
0.0
  9
$THICKNESS
 40
0.0
  9
$LIMCHECK
 70
     0
  9
$BLIPMODE
 70
     0
  9
$CHAMFERA
 40
0.5
  9
$CHAMFERB
 40
0.5
  9
$SKPOLY
 70
     0
  9
$TDCREATE
 40
2450746.5903497678
  9
$TDUPDATE
 40
2454953.865080683
  9
$TDINDWG
 40
0.0061987847
  9
$TDUSRTIMER
 40
0.0061987847
  9
$USRTIMER
 70
     1
  9
$ANGBASE
 50
0.0
  9
$ANGDIR
 70
     0
  9
$PDMODE
 70
     0
  9
$PDSIZE
 40
0.0
  9
$PLINEWID
 40
0.0
  9
$COORDS
 70
     1
  9
$SPLFRAME
 70
     0
  9
$SPLINETYPE
 70
     6
  9
$SPLINESEGS
 70
     8
  9
$ATTDIA
 70
     0
  9
$ATTREQ
 70
     1
  9
$HANDLING
 70
 10241
  9
$HANDSEED
  5
7F72
  9
$SURFTAB1
 70
     6
  9
$SURFTAB2
 70
     6
  9
$SURFTYPE
 70
     6
  9
$SURFU
 70
     6
  9
$SURFV
 70
     6
  9
$UCSNAME
  2

  9
$UCSORG
 10
0.0
 20
0.0
 30
0.0
  9
$UCSXDIR
 10
1.0
 20
0.0
 30
0.0
  9
$UCSYDIR
 10
0.0
 20
1.0
 30
0.0
  9
$PUCSNAME
  2

  9
$PUCSORG
 10
0.0
 20
0.0
 30
0.0
  9
$PUCSXDIR
 10
1.0
 20
0.0
 30
0.0
  9
$PUCSYDIR
 10
0.0
 20
1.0
 30
0.0
  9
$USERI1
 70
     0
  9
$USERI2
 70
     0
  9
$USERI3
 70
     0
  9
$USERI4
 70
     0
  9
$USERI5
 70
     0
  9
$USERR1
 40
0.0
  9
$USERR2
 40
0.0
  9
$USERR3
 40
0.0
  9
$USERR4
 40
0.0
  9
$USERR5
 40
0.0
  9
$WORLDVIEW
 70
     1
  9
$SHADEDGE
 70
     3
  9
$SHADEDIF
 70
    70
  9
$TILEMODE
 70
     1
  9
$MAXACTVP
 70
    16
  9
$PLIMCHECK
 70
     0
  9
$PEXTMIN
 10
1.0000000000000000E+020
 20
1.0000000000000000E+020
 30
1.0000000000000000E+020
  9
$PEXTMAX
 10
-1.0000000000000000E+020
 20
-1.0000000000000000E+020
 30
-1.0000000000000000E+020
  9
$PLIMMIN
 10
0.0
 20
0.0
  9
$PLIMMAX
 10
12.0
 20
9.0
  9
$UNITMODE
 70
     0
  9
$VISRETAIN
 70
     0
  9
$PLINEGEN
 70
     0
  9
$PSLTSCALE
 70
     1
  0
ENDSEC
  0
SECTION
  2
TABLES
  0
TABLE
  2
VPORT
 70
     2
  0
VPORT
  2
*ACTIVE
 70
     0
 10
0.0
 20
0.0
 11
1.0
 21
1.0
 12
-1110.6773454627819
 22
-906.95152159614497
 13
0.0
 23
0.0
 14
10.0
 24
10.0
 15
10.0
 25
10.0
 16
0.0
 26
0.0
 36
1.0
 17
0.0
 27
0.0
 37
0.0
 40
5866.2075473865962
 41
1.5051150895140659
 42
50.0
 43
0.0
 44
0.0
 50
0.0
 51
0.0
 71
     0
 72
   100
 73
     1
 74
     0
 75
     0
 76
     0
 77
     0
 78
     0
  0
ENDTAB
  0
TABLE
  2
LTYPE
 70
     2
  0
LTYPE
  2
CONTINUOUS
 70
     0
  3
Solid line
 72
    65
 73
     0
 40
0.0
  0
LTYPE
  2
CENTER
 70
     0
  3
____ _ ____ _ ____ _ ____ _ ____ _ ____ _ ____ 
 72
    65
 73
     4
 40
2.0
 49
1.25
 49
-0.25
 49
0.25
 49
-0.25
  0
ENDTAB
  0
TABLE
  2
LAYER
 70
     6
  0
LAYER
  2
0
 70
     0
 62
     7
  6
CONTINUOUS
  0
LAYER
  2
3
 70
     0
 62
     2
  6
CONTINUOUS
  0
LAYER
  2
2
 70
     0
 62
     3
  6
CENTER
  0
LAYER
  2
1
 70
     0
 62
     4
  6
CONTINUOUS
  0
LAYER
  2
4
 70
     0
 62
     7
  6
CONTINUOUS
  0
LAYER
  2
DEFPOINTS
 70
     0
 62
     7
  6
CONTINUOUS
  0
ENDTAB
  0
TABLE
  2
STYLE
 70
     1
  0
STYLE
  2
STANDARD
 70
     0
 40
0.0
 41
1.0
 50
0.0
 71
     0
 42
180.0
  3
simplex.shx
  4
extfont.shx
  0
ENDTAB
  0
TABLE
  2
VIEW
 70
     0
  0
ENDTAB
  0
TABLE
  2
UCS
 70
     0
  0
ENDTAB
  0
TABLE
  2
APPID
 70
     1
  0
APPID
  2
ACAD
 70
     0
  0
ENDTAB
  0
TABLE
  2
DIMSTYLE
 70
     1
  0
DIMSTYLE
  2
IGA
 70
     0
  3

  4

  5

  6
OPEN
  7
OPEN
 40
2.0
 41
2.0
 42
0.5
 43
10.0
 44
1.0
 45
0.0
 46
0.0
 47
1.0
 48
1.0
140
3.0
141
0.0
142
0.0
143
0.03937
144
1.0
145
0.0
146
10.0
147
1.0
 71
     0
 72
     0
 73
     0
 74
     0
 75
     0
 76
     0
 77
     1
 78
     8
170
     0
171
     2
172
     0
173
     1
174
     0
175
     0
176
     0
177
     0
178
     0
  0
ENDTAB
  0
ENDSEC
  0
SECTION
  2
BLOCKS
  0
BLOCK
  8
0
  2
$MODEL_SPACE
 70
     0
 10
0.0
 20
0.0
 30
0.0
  3
$MODEL_SPACE
  1

  0
ENDBLK
  5
1B
  8
0
  0
BLOCK
 67
     1
  8
0
  2
$PAPER_SPACE
 70
     0
 10
0.0
 20
0.0
 30
0.0
  3
$PAPER_SPACE
  1

  0
ENDBLK
  5
18
 67
     1
  8
0
  0
BLOCK
  8
0
  2
_OPEN
 70
     0
 10
0.0
 20
0.0
 30
0.0
  3
_OPEN
  1

  0
LINE
  5
7B3A
  8
0
  6
BYBLOCK
 62
     0
 10
-1.0
 20
0.166667
 30
0.0
 11
0.0
 21
0.0
 31
0.0
  0
LINE
  5
7B3B
  8
0
  6
BYBLOCK
 62
     0
 10
0.0
 20
0.0
 30
0.0
 11
-1.0
 21
-0.166667
 31
0.0
  0
LINE
  5
7B3C
  8
0
  6
BYBLOCK
 62
     0
 10
0.0
 20
0.0
 30
0.0
 11
-1.0
 21
0.0
 31
0.0
  0
ENDBLK
  5
7B3D
  8
0
  0
BLOCK
  8
0
  2
*D1
 70
     1
 10
0.0
 20
0.0
 30
0.0
  3
*D1
  1

  0
LINE
  5
7EB0
  8
3
  6
CONTINUOUS
 62
     0
 10
-2096.8813180000002
 20
-1856.748542658105
 30
0.0
 11
-2160.6558209999998
 21
-1856.748542658105
 31
0.0
  0
LINE
  5
7EB1
  8
3
  6
CONTINUOUS
 62
     0
 10
-2096.8813180000002
 20
-2171.7485426581052
 30
0.0
 11
-2160.6558209999998
 21
-2171.7485426581052
 31
0.0
  0
LINE
  5
7EB2
  8
3
  6
CONTINUOUS
 62
     0
 10
-2145.6558209999998
 20
-1886.748542658105
 30
0.0
 11
-2145.6558209999998
 21
-2141.7485426581052
 31
0.0
  0
INSERT
  5
7EB3
  8
3
  6
CONTINUOUS
 62
     0
  2
_OPEN
 10
-2145.6558209999998
 20
-1856.748542658105
 30
0.0
 41
30.0
 42
30.0
 43
30.0
 50
90.0
  0
INSERT
  5
7EB4
  8
3
  6
CONTINUOUS
 62
     0
  2
_OPEN
 10
-2145.6558209999998
 20
-2171.7485426581052
 30
0.0
 41
30.0
 42
30.0
 43
30.0
 50
270.0
  0
TEXT
  8
3
  40
45
  5
7F5E
  62
0
  72
0
  71
0
 10
-2273.16
 20
-2085.58
 30
0.000000
  1
315
  0
POINT
  5
7EB6
  8
DEFPOINTS
  6
CONTINUOUS
 62
     0
 10
-2089.3813180000002
 20
-1856.748542658105
 30
0.0
  0
POINT
  5
7EB7
  8
DEFPOINTS
  6
CONTINUOUS
 62
     0
 10
-2089.3813180000002
 20
-2171.7485426581052
 30
0.0
  0
POINT
  5
7EB8
  8
DEFPOINTS
  6
CONTINUOUS
 62
     0
 10
-2145.6558209999998
 20
-2171.7485426581052
 30
0.0
  0
ENDBLK
  5
7B4A
  8
0
  0
BLOCK
  8
0
  2
*D2
 70
     1
 10
0.0
 20
0.0
 30
0.0
  3
*D2
  1

  0
LINE
  5
7EB9
  8
3
  6
CONTINUOUS
 62
     0
 10
-2076.8813180000002
 20
-1846.748542658105
 30
0.0
 11
-2236.5710989999998
 21
-1846.748542658105
 31
0.0
  0
LINE
  5
7EBA
  8
3
  6
CONTINUOUS
 62
     0
 10
-2096.8813180000002
 20
-2171.7485426581052
 30
0.0
 11
-2236.5710989999998
 21
-2171.7485426581052
 31
0.0
  0
LINE
  5
7EBB
  8
3
  6
CONTINUOUS
 62
     0
 10
-2221.5710989999998
 20
-1876.748542658105
 30
0.0
 11
-2221.5710989999998
 21
-2141.7485426581052
 31
0.0
  0
INSERT
  5
7EBC
  8
3
  6
CONTINUOUS
 62
     0
  2
_OPEN
 10
-2221.5710989999998
 20
-1846.748542658105
 30
0.0
 41
30.0
 42
30.0
 43
30.0
 50
90.0
  0
INSERT
  5
7EBD
  8
3
  6
CONTINUOUS
 62
     0
  2
_OPEN
 10
-2221.5710989999998
 20
-2171.7485426581052
 30
0.0
 41
30.0
 42
30.0
 43
30.0
 50
270.0
  0
TEXT
  8
3
  40
45
  5
7F5F
  62
0
  72
0
  71
0
 10
-2349.07
 20
-2067.28
 30
0.000000
  1
325
  0
POINT
  5
7EBF
  8
DEFPOINTS
  6
CONTINUOUS
 62
     0
 10
-2069.3813180000002
 20
-1846.748542658105
 30
0.0
  0
POINT
  5
7EC0
  8
DEFPOINTS
  6
CONTINUOUS
 62
     0
 10
-2089.3813180000002
 20
-2171.7485426581052
 30
0.0
  0
POINT
  5
7EC1
  8
DEFPOINTS
  6
CONTINUOUS
 62
     0
 10
-2221.5710989999998
 20
-2171.7485426581052
 30
0.0
  0
ENDBLK
  5
7B57
  8
0
  0
BLOCK
  8
0
  2
*D3
 70
     1
 10
0.0
 20
0.0
 30
0.0
  3
*D3
  1

  0
LINE
  5
7EC2
  8
3
  6
CONTINUOUS
 62
     0
 10
-2081.8813180000002
 20
-2571.7485426581052
 30
0.0
 11
-2236.5710989999989
 21
-2571.7485426581052
 31
0.0
  0
LINE
  5
7EC3
  8
3
  6
CONTINUOUS
 62
     0
 10
-2221.5710989999989
 20
-2201.7485426581052
 30
0.0
 11
-2221.5710989999989
 21
-2541.7485426581052
 31
0.0
  0
INSERT
  5
7EC4
  8
3
  6
CONTINUOUS
 62
     0
  2
_OPEN
 10
-2221.5710989999989
 20
-2171.7485426581052
 30
0.0
 41
30.0
 42
30.0
 43
30.0
 50
90.0
  0
INSERT
  5
7EC5
  8
3
  6
CONTINUOUS
 62
     0
  2
_OPEN
 10
-2221.5710989999989
 20
-2571.7485426581052
 30
0.0
 41
30.0
 42
30.0
 43
30.0
 50
270.0
  0
TEXT
  8
3
  40
45
  5
7F60
  62
0
  72
0
  71
0
 10
-2349.07
 20
-2451.40
 30
0.000000
  1
400
  0
POINT
  5
7EC7
  8
DEFPOINTS
  6
CONTINUOUS
 62
     0
 10
-2089.3813180000002
 20
-2171.7485426581052
 30
0.0
  0
POINT
  5
7EC8
  8
DEFPOINTS
  6
CONTINUOUS
 62
     0
 10
-2074.3813180000002
 20
-2571.7485426581052
 30
0.0
  0
POINT
  5
7EC9
  8
DEFPOINTS
  6
CONTINUOUS
 62
     0
 10
-2221.5710989999989
 20
-2571.7485426581052
 30
0.0
  0
ENDBLK
  5
7B63
  8
0
  0
BLOCK
  8
0
  2
*D4
 70
     1
 10
0.0
 20
0.0
 30
0.0
  3
*D4
  1

  0
LINE
  5
7ECA
  8
3
  6
CONTINUOUS
 62
     0
 10
-2111.8813180000002
 20
-2623.7485426581052
 30
0.0
 11
-2236.5710989999989
 21
-2623.7485426581052
 31
0.0
  0
LINE
  5
7ECB
  8
3
  6
CONTINUOUS
 62
     0
 10
-2221.5710989999989
 20
-2541.7485426581052
 30
0.0
 11
-2221.5710989999989
 21
-2511.7485426581052
 31
0.0
  0
LINE
  5
7ECC
  8
3
  6
CONTINUOUS
 62
     0
 10
-2221.5710989999989
 20
-2653.7485426581052
 30
0.0
 11
-2221.5710989999989
 21
-2683.7485426581061
 31
0.0
  0
TEXT
  8
3
  40
45
  5
7F61
  62
0
  72
0
  71
0
 10
-2362.42
 20
-2679.18
 30
0.000000
  1
52
  0
LINE
  5
7ECE
  8
3
  6
CONTINUOUS
 62
     0
 10
-2221.5710989999989
 20
-2571.7485426581052
 30
0.0
 11
-2221.5710989999989
 21
-2623.7485426581052
 31
0.0
  0
INSERT
  5
7ECF
  8
3
  6
CONTINUOUS
 62
     0
  2
_OPEN
 10
-2221.5710989999989
 20
-2571.7485426581052
 30
0.0
 41
30.0
 42
30.0
 43
30.0
 50
270.0
  0
INSERT
  5
7ED0
  8
3
  6
CONTINUOUS
 62
     0
  2
_DOT
 10
-2221.5710989999989
 20
-2623.7485426581052
 30
0.0
 41
30.0
 42
30.0
 43
30.0
 50
90.0
  0
POINT
  5
7ED1
  8
DEFPOINTS
  6
CONTINUOUS
 62
     0
 10
-2074.3813180000002
 20
-2571.7485426581052
 30
0.0
  0
POINT
  5
7ED2
  8
DEFPOINTS
  6
CONTINUOUS
 62
     0
 10
-2104.3813180000002
 20
-2623.7485426581052
 30
0.0
  0
POINT
  5
7ED3
  8
DEFPOINTS
  6
CONTINUOUS
 62
     0
 10
-2221.5710989999989
 20
-2623.7485426581052
 30
0.0
  0
ENDBLK
  5
7D61
  8
0
  0
BLOCK
  8
0
  2
*D5
 70
     1
 10
0.0
 20
0.0
 30
0.0
  3
*D5
  1

  0
LINE
  5
7ED4
  8
3
  6
CONTINUOUS
 62
     0
 10
-2111.8813180000002
 20
-2623.7485426581052
 30
0.0
 11
-2236.5710989999998
 21
-2623.7485426581052
 31
0.0
  0
LINE
  5
7ED5
  8
3
  6
CONTINUOUS
 62
     0
 10
-2111.8813180000002
 20
-2653.7485426581052
 30
0.0
 11
-2236.5710989999998
 21
-2653.7485426581052
 31
0.0
  0
LINE
  5
7ED6
  8
3
  6
CONTINUOUS
 62
     0
 10
-2221.5710989999998
 20
-2593.7485426581052
 30
0.0
 11
-2221.5710989999998
 21
-2563.7485426581052
 31
0.0
  0
LINE
  5
7ED7
  8
3
  6
CONTINUOUS
 62
     0
 10
-2221.5710989999998
 20
-2683.7485426581061
 30
0.0
 11
-2221.5710989999998
 21
-2816.6056855152478
 31
0.0
  0
LINE
  5
7ED8
  8
3
  6
CONTINUOUS
 62
     0
 10
-2221.5710989999998
 20
-2623.7485426581052
 30
0.0
 11
-2221.5710989999998
 21
-2653.7485426581052
 31
0.0
  0
INSERT
  5
7ED9
  8
3
  6
CONTINUOUS
 62
     0
  2
_DOT
 10
-2221.5710989999998
 20
-2623.7485426581052
 30
0.0
 41
30.0
 42
30.0
 43
30.0
 50
270.0
  0
INSERT
  5
7EDA
  8
3
  6
CONTINUOUS
 62
     0
  2
_OPEN
 10
-2221.5710989999998
 20
-2653.7485426581052
 30
0.0
 41
30.0
 42
30.0
 43
30.0
 50
90.0
  0
TEXT
  8
3
  40
45
  5
7F62
  62
0
  72
0
  71
0
 10
-2349.07
 20
-2844.83
 30
0.000000
  1
30
  0
POINT
  5
7EDC
  8
DEFPOINTS
  6
CONTINUOUS
 62
     0
 10
-2104.3813180000002
 20
-2623.7485426581052
 30
0.0
  0
POINT
  5
7EDD
  8
DEFPOINTS
  6
CONTINUOUS
 62
     0
 10
-2104.3813180000002
 20
-2653.7485426581052
 30
0.0
  0
POINT
  5
7EDE
  8
DEFPOINTS
  6
CONTINUOUS
 62
     0
 10
-2221.5710989999998
 20
-2653.7485426581052
 30
0.0
  0
ENDBLK
  5
7D6E
  8
0
  0
BLOCK
  8
0
  2
*D6
 70
     1
 10
0.0
 20
0.0
 30
0.0
  3
*D6
  1

  0
LINE
  5
7EDF
  8
3
  6
CONTINUOUS
 62
     0
 10
-2096.8813180000002
 20
-1835.248542658105
 30
0.0
 11
-2338.9254460000002
 21
-1835.248542658105
 31
0.0
  0
LINE
  5
7EE0
  8
3
  6
CONTINUOUS
 62
     0
 10
-2111.8813180000002
 20
-2653.7485426581052
 30
0.0
 11
-2338.9254460000002
 21
-2653.7485426581052
 31
0.0
  0
LINE
  5
7EE1
  8
3
  6
CONTINUOUS
 62
     0
 10
-2323.9254460000002
 20
-1865.248542658105
 30
0.0
 11
-2323.9254460000002
 21
-2623.7485426581052
 31
0.0
  0
INSERT
  5
7EE2
  8
3
  6
CONTINUOUS
 62
     0
  2
_OPEN
 10
-2323.9254460000002
 20
-1835.248542658105
 30
0.0
 41
30.0
 42
30.0
 43
30.0
 50
90.0
  0
INSERT
  5
7EE3
  8
3
  6
CONTINUOUS
 62
     0
  2
_OPEN
 10
-2323.9254460000002
 20
-2653.7485426581052
 30
0.0
 41
30.0
 42
30.0
 43
30.0
 50
270.0
  0
TEXT
  8
3
  40
45
  5
7F63
  62
0
  72
0
  71
0
 10
-2451.43
 20
-2315.70
 30
0.000000
  1
819
  0
POINT
  5
7EE5
  8
DEFPOINTS
  6
CONTINUOUS
 62
     0
 10
-2089.3813180000002
 20
-1835.248542658105
 30
0.0
  0
POINT
  5
7EE6
  8
DEFPOINTS
  6
CONTINUOUS
 62
     0
 10
-2104.3813180000002
 20
-2653.7485426581052
 30
0.0
  0
POINT
  5
7EE7
  8
DEFPOINTS
  6
CONTINUOUS
 62
     0
 10
-2323.9254460000002
 20
-2653.7485426581052
 30
0.0
  0
ENDBLK
  5
7BFA
  8
0
  0
BLOCK
  8
0
  2
*D7
 70
     1
 10
0.0
 20
0.0
 30
0.0
  3
*D7
  1

  0
LINE
  5
7EE8
  8
3
  6
CONTINUOUS
 62
     0
 10
-2104.3813180000002
 20
-2661.2485426581052
 30
0.0
 11
-2104.3813180000002
 21
-2774.037350658105
 31
0.0
  0
LINE
  5
7EE9
  8
3
  6
CONTINUOUS
 62
     0
 10
-1839.381318
 20
-2695.133420658105
 30
0.0
 11
-1839.381318
 21
-2774.037350658105
 31
0.0
  0
LINE
  5
7EEA
  8
3
  6
CONTINUOUS
 62
     0
 10
-2074.3813180000002
 20
-2759.037350658105
 30
0.0
 11
-1869.381318
 21
-2759.037350658105
 31
0.0
  0
INSERT
  5
7EEB
  8
3
  6
CONTINUOUS
 62
     0
  2
_OPEN
 10
-2104.3813180000002
 20
-2759.037350658105
 30
0.0
 41
30.0
 42
30.0
 43
30.0
 50
180.0
  0
INSERT
  5
7EEC
  8
3
  6
CONTINUOUS
 62
     0
  2
_OPEN
 10
-1839.381318
 20
-2759.037350658105
 30
0.0
 41
30.0
 42
30.0
 43
30.0
  0
TEXT
  8
3
  40
45
  5
7F64
  62
0
  72
0
  71
0
 10
-2052.67
 20
-2801.19
 30
0.000000
  1
265
  0
POINT
  5
7EEE
  8
DEFPOINTS
  6
CONTINUOUS
 62
     0
 10
-2104.3813180000002
 20
-2653.7485426581052
 30
0.0
  0
POINT
  5
7EEF
  8
DEFPOINTS
  6
CONTINUOUS
 62
     0
 10
-1839.381318
 20
-2687.633420658105
 30
0.0
  0
POINT
  5
7EF0
  8
DEFPOINTS
  6
CONTINUOUS
 62
     0
 10
-1839.381318
 20
-2759.037350658105
 30
0.0
  0
ENDBLK
  5
7C07
  8
0
  0
BLOCK
  8
0
  2
*D8
 70
     1
 10
0.0
 20
0.0
 30
0.0
  3
*D8
  1

  0
LINE
  5
7EF1
  8
3
  6
CONTINUOUS
 62
     0
 10
-1194.381318
 20
-2661.2485426581052
 30
0.0
 11
-1194.381318
 21
-2774.037350658105
 31
0.0
  0
LINE
  5
7EF2
  8
3
  6
CONTINUOUS
 62
     0
 10
-1809.3813179999991
 20
-2759.037350658105
 30
0.0
 11
-1224.381318
 21
-2759.037350658105
 31
0.0
  0
INSERT
  5
7EF3
  8
3
  6
CONTINUOUS
 62
     0
  2
_OPEN
 10
-1839.381318
 20
-2759.037350658105
 30
0.0
 41
30.0
 42
30.0
 43
30.0
 50
180.0
  0
INSERT
  5
7EF4
  8
3
  6
CONTINUOUS
 62
     0
  2
_OPEN
 10
-1194.381318
 20
-2759.037350658105
 30
0.0
 41
30.0
 42
30.0
 43
30.0
  0
TEXT
  8
3
  40
45
  5
7F65
  62
0
  72
0
  71
0
 10
-1606.88
 20
-2801.19
 30
0.000000
  1
645
  0
POINT
  5
7EF6
  8
DEFPOINTS
  6
CONTINUOUS
 62
     0
 10
-1839.381318
 20
-2687.633420658105
 30
0.0
  0
POINT
  5
7EF7
  8
DEFPOINTS
  6
CONTINUOUS
 62
     0
 10
-1194.381318
 20
-2653.7485426581052
 30
0.0
  0
POINT
  5
7EF8
  8
DEFPOINTS
  6
CONTINUOUS
 62
     0
 10
-1194.381318
 20
-2759.037350658105
 30
0.0
  0
ENDBLK
  5
7C13
  8
0
  0
BLOCK
  8
0
  2
*D9
 70
     1
 10
0.0
 20
0.0
 30
0.0
  3
*D9
  1

  0
LINE
  5
7EF9
  8
3
  6
CONTINUOUS
 62
     0
 10
-2089.3813180000002
 20
-1827.748542658105
 30
0.0
 11
-2089.3813180000002
 21
-1739.119343658105
 31
0.0
  0
LINE
  5
7EFA
  8
3
  6
CONTINUOUS
 62
     0
 10
-1839.381318
 20
-1840.336076658105
 30
0.0
 11
-1839.381318
 21
-1739.119343658105
 31
0.0
  0
LINE
  5
7EFB
  8
3
  6
CONTINUOUS
 62
     0
 10
-2059.3813180000002
 20
-1754.119343658105
 30
0.0
 11
-1869.381318
 21
-1754.119343658105
 31
0.0
  0
INSERT
  5
7EFC
  8
3
  6
CONTINUOUS
 62
     0
  2
_OPEN
 10
-2089.3813180000002
 20
-1754.119343658105
 30
0.0
 41
30.0
 42
30.0
 43
30.0
 50
180.0
  0
INSERT
  5
7EFD
  8
3
  6
CONTINUOUS
 62
     0
  2
_OPEN
 10
-1839.381318
 20
-1754.119343658105
 30
0.0
 41
30.0
 42
30.0
 43
30.0
  0
TEXT
  8
3
  40
45
  5
7F66
  62
0
  72
0
  71
0
 10
-2052.67
 20
-1796.27
 30
0.000000
  1
250
  0
POINT
  5
7EFF
  8
DEFPOINTS
  6
CONTINUOUS
 62
     0
 10
-2089.3813180000002
 20
-1835.248542658105
 30
0.0
  0
POINT
  5
7F00
  8
DEFPOINTS
  6
CONTINUOUS
 62
     0
 10
-1839.381318
 20
-1847.836076658105
 30
0.0
  0
POINT
  5
7F01
  8
DEFPOINTS
  6
CONTINUOUS
 62
     0
 10
-1839.381318
 20
-1754.119343658105
 30
0.0
  0
ENDBLK
  5
7C20
  8
0
  0
BLOCK
  8
0
  2
*D10
 70
     1
 10
0.0
 20
0.0
 30
0.0
  3
*D10
  1

  0
LINE
  5
7F02
  8
3
  6
CONTINUOUS
 62
     0
 10
-1565.381318
 20
-2138.7485426581061
 30
0.0
 11
-1565.381318
 21
-1739.119343658105
 31
0.0
  0
LINE
  5
7F03
  8
3
  6
CONTINUOUS
 62
     0
 10
-1809.3813179999991
 20
-1754.119343658105
 30
0.0
 11
-1595.3813179999991
 21
-1754.119343658105
 31
0.0
  0
INSERT
  5
7F04
  8
3
  6
CONTINUOUS
 62
     0
  2
_OPEN
 10
-1839.381318
 20
-1754.119343658105
 30
0.0
 41
30.0
 42
30.0
 43
30.0
 50
180.0
  0
INSERT
  5
7F05
  8
3
  6
CONTINUOUS
 62
     0
  2
_OPEN
 10
-1565.381318
 20
-1754.119343658105
 30
0.0
 41
30.0
 42
30.0
 43
30.0
  0
TEXT
  8
3
  40
45
  5
7F67
  62
0
  72
0
  71
0
 10
-1792.38
 20
-1796.27
 30
0.000000
  1
274
  0
POINT
  5
7F07
  8
DEFPOINTS
  6
CONTINUOUS
 62
     0
 10
-1839.381318
 20
-1847.836076658105
 30
0.0
  0
POINT
  5
7F08
  8
DEFPOINTS
  6
CONTINUOUS
 62
     0
 10
-1565.381318
 20
-2146.2485426581052
 30
0.0
  0
POINT
  5
7F09
  8
DEFPOINTS
  6
CONTINUOUS
 62
     0
 10
-1565.381318
 20
-1754.119343658105
 30
0.0
  0
ENDBLK
  5
7DAF
  8
0
  0
BLOCK
  8
0
  2
*D11
 70
     1
 10
0.0
 20
0.0
 30
0.0
  3
*D11
  1

  0
LINE
  5
7F0A
  8
3
  6
CONTINUOUS
 62
     0
 10
-2104.3813180000002
 20
-1258.988321829665
 30
0.0
 11
-2104.3813180000002
 21
-1379.287143829665
 31
0.0
  0
LINE
  5
7F0B
  8
3
  6
CONTINUOUS
 62
     0
 10
-1194.381318
 20
-1258.988321829665
 30
0.0
 11
-1194.381318
 21
-1379.287143829665
 31
0.0
  0
LINE
  5
7F0C
  8
3
  6
CONTINUOUS
 62
     0
 10
-2074.3813180000002
 20
-1364.287143829665
 30
0.0
 11
-1224.381318
 21
-1364.287143829665
 31
0.0
  0
INSERT
  5
7F0D
  8
3
  6
CONTINUOUS
 62
     0
  2
_OPEN
 10
-2104.3813180000002
 20
-1364.287143829665
 30
0.0
 41
30.0
 42
30.0
 43
30.0
 50
180.0
  0
INSERT
  5
7F0E
  8
3
  6
CONTINUOUS
 62
     0
  2
_OPEN
 10
-1194.381318
 20
-1364.287143829665
 30
0.0
 41
30.0
 42
30.0
 43
30.0
  0
TEXT
  8
3
  40
45
  5
7F68
  62
0
  72
0
  71
0
 10
-1762.10
 20
-1406.44
 30
0.000000
  1
910
  0
POINT
  5
7F10
  8
DEFPOINTS
  6
CONTINUOUS
 62
     0
 10
-2104.3813180000002
 20
-1251.488321829665
 30
0.0
  0
POINT
  5
7F11
  8
DEFPOINTS
  6
CONTINUOUS
 62
     0
 10
-1194.381318
 20
-1251.488321829665
 30
0.0
  0
POINT
  5
7F12
  8
DEFPOINTS
  6
CONTINUOUS
 62
     0
 10
-1194.381318
 20
-1364.287143829665
 30
0.0
  0
ENDBLK
  5
7C3A
  8
0
  0
BLOCK
  8
0
  2
*D12
 70
     1
 10
0.0
 20
0.0
 30
0.0
  3
*D12
  1

  0
LINE
  5
7F13
  8
3
  6
CONTINUOUS
 62
     0
 10
-1186.8813179999991
 20
-651.4883218296651
 30
0.0
 11
-1036.690067
 21
-651.4883218296651
 31
0.0
  0
LINE
  5
7F14
  8
3
  6
CONTINUOUS
 62
     0
 10
-1186.8813179999991
 20
-1251.488321829665
 30
0.0
 11
-1036.690067
 21
-1251.488321829665
 31
0.0
  0
LINE
  5
7F15
  8
3
  6
CONTINUOUS
 62
     0
 10
-1051.690067
 20
-681.4883218296651
 30
0.0
 11
-1051.690067
 21
-1221.488321829665
 31
0.0
  0
INSERT
  5
7F16
  8
3
  6
CONTINUOUS
 62
     0
  2
_OPEN
 10
-1051.690067
 20
-651.4883218296651
 30
0.0
 41
30.0
 42
30.0
 43
30.0
 50
90.0
  0
INSERT
  5
7F17
  8
3
  6
CONTINUOUS
 62
     0
  2
_OPEN
 10
-1051.690067
 20
-1251.488321829665
 30
0.0
 41
30.0
 42
30.0
 43
30.0
 50
270.0
  0
TEXT
  8
3
  40
45
  5
7F69
  62
0
  72
0
  71
0
 10
-1179.19
 20
-1032.09
 30
0.000000
  1
600
  0
POINT
  5
7F19
  8
DEFPOINTS
  6
CONTINUOUS
 62
     0
 10
-1194.381318
 20
-651.4883218296651
 30
0.0
  0
POINT
  5
7F1A
  8
DEFPOINTS
  6
CONTINUOUS
 62
     0
 10
-1194.381318
 20
-1251.488321829665
 30
0.0
  0
POINT
  5
7F1B
  8
DEFPOINTS
  6
CONTINUOUS
 62
     0
 10
-1051.690067
 20
-1251.488321829665
 30
0.0
  0
ENDBLK
  5
7C47
  8
0
  0
BLOCK
  8
0
  2
*D13
 70
     1
 10
0.0
 20
0.0
 30
0.0
  3
*D13
  1

  0
LINE
  5
7F1C
  8
3
  6
CONTINUOUS
 62
     0
 10
-862.40355818733292
 20
-2661.2485426581052
 30
0.0
 11
-862.40355818733292
 21
-2784.4969856581051
 31
0.0
  0
LINE
  5
7F1D
  8
3
  6
CONTINUOUS
 62
     0
 10
-442.40355818733292
 20
-2677.369071658105
 30
0.0
 11
-442.40355818733292
 21
-2784.4969856581051
 31
0.0
  0
LINE
  5
7F1E
  8
3
  6
CONTINUOUS
 62
     0
 10
-832.40355818733281
 20
-2769.4969856581051
 30
0.0
 11
-472.40355818733292
 21
-2769.4969856581051
 31
0.0
  0
INSERT
  5
7F1F
  8
3
  6
CONTINUOUS
 62
     0
  2
_OPEN
 10
-862.40355818733292
 20
-2769.4969856581051
 30
0.0
 41
30.0
 42
30.0
 43
30.0
 50
180.0
  0
INSERT
  5
7F20
  8
3
  6
CONTINUOUS
 62
     0
  2
_OPEN
 10
-442.40355818733292
 20
-2769.4969856581051
 30
0.0
 41
30.0
 42
30.0
 43
30.0
  0
TEXT
  8
3
  40
45
  5
7F6A
  62
0
  72
0
  71
0
 10
-725.571
 20
-2811.65
 30
0.000000
  1
420
  0
POINT
  5
7F22
  8
DEFPOINTS
  6
CONTINUOUS
 62
     0
 10
-862.40355818733292
 20
-2653.7485426581052
 30
0.0
  0
POINT
  5
7F23
  8
DEFPOINTS
  6
CONTINUOUS
 62
     0
 10
-442.40355818733292
 20
-2669.869071658105
 30
0.0
  0
POINT
  5
7F24
  8
DEFPOINTS
  6
CONTINUOUS
 62
     0
 10
-442.40355818733292
 20
-2769.4969856581051
 30
0.0
  0
ENDBLK
  5
7C58
  8
0
  0
BLOCK
  8
0
  2
*D14
 70
     1
 10
0.0
 20
0.0
 30
0.0
  3
*D14
  1

  0
LINE
  5
7F25
  8
3
  6
CONTINUOUS
 62
     0
 10
-262.40355818733292
 20
-2661.2485426581052
 30
0.0
 11
-262.40355818733292
 21
-2784.4969856581051
 31
0.0
  0
LINE
  5
7F26
  8
3
  6
CONTINUOUS
 62
     0
 10
-412.40355818733292
 20
-2769.4969856581051
 30
0.0
 11
-292.40355818733292
 21
-2769.4969856581051
 31
0.0
  0
TEXT
  8
3
  40
45
  5
7F6B
  62
0
  72
0
  71
0
 10
-442.852
 20
-2812.17
 30
0.000000
  1
180
  0
INSERT
  5
7F28
  8
3
  6
CONTINUOUS
 62
     0
  2
_OPEN
 10
-442.40355818733292
 20
-2769.4969856581051
 30
0.0
 41
30.0
 42
30.0
 43
30.0
 50
180.0
  0
INSERT
  5
7F29
  8
3
  6
CONTINUOUS
 62
     0
  2
_OPEN
 10
-262.40355818733292
 20
-2769.4969856581051
 30
0.0
 41
30.0
 42
30.0
 43
30.0
  0
POINT
  5
7F2A
  8
DEFPOINTS
  6
CONTINUOUS
 62
     0
 10
-442.40355818733292
 20
-2669.869071658105
 30
0.0
  0
POINT
  5
7F2B
  8
DEFPOINTS
  6
CONTINUOUS
 62
     0
 10
-262.40355818733292
 20
-2653.7485426581052
 30
0.0
  0
POINT
  5
7F2C
  8
DEFPOINTS
  6
CONTINUOUS
 62
     0
 10
-262.40355818733292
 20
-2769.4969856581051
 30
0.0
  0
ENDBLK
  5
7C7D
  8
0
  0
BLOCK
  8
0
  2
*D15
 70
     1
 10
0.0
 20
0.0
 30
0.0
  3
*D15
  1

  0
LINE
  5
7F2D
  8
3
  6
CONTINUOUS
 62
     0
 10
-554.40355818733292
 20
-1849.248542658105
 30
0.0
 11
-554.40355818733292
 21
-1773.113454658105
 31
0.0
  0
LINE
  5
7F2E
  8
3
  6
CONTINUOUS
 62
     0
 10
-330.40355818733292
 20
-1849.248542658105
 30
0.0
 11
-330.40355818733292
 21
-1773.113454658105
 31
0.0
  0
LINE
  5
7F2F
  8
3
  6
CONTINUOUS
 62
     0
 10
-584.40355818733281
 20
-1788.113454658105
 30
0.0
 11
-614.40355818733292
 21
-1788.113454658105
 31
0.0
  0
LINE
  5
7F30
  8
3
  6
CONTINUOUS
 62
     0
 10
-300.40355818733292
 20
-1788.113454658105
 30
0.0
 11
-270.40355818733292
 21
-1788.113454658105
 31
0.0
  0
LINE
  5
7F31
  8
3
  6
CONTINUOUS
 62
     0
 10
-554.40355818733292
 20
-1788.113454658105
 30
0.0
 11
-330.40355818733292
 21
-1788.113454658105
 31
0.0
  0
INSERT
  5
7F32
  8
3
  6
CONTINUOUS
 62
     0
  2
_OPEN
 10
-554.40355818733292
 20
-1788.113454658105
 30
0.0
 41
30.0
 42
30.0
 43
30.0
  0
INSERT
  5
7F33
  8
3
  6
CONTINUOUS
 62
     0
  2
_OPEN
 10
-330.40355818733292
 20
-1788.113454658105
 30
0.0
 41
30.0
 42
30.0
 43
30.0
 50
180.0
  0
TEXT
  8
3
  40
45
  5
7F6C
  62
0
  72
0
  71
0
 10
-540.475
 20
-1830.26
 30
0.000000
  1
224
  0
POINT
  5
7F35
  8
DEFPOINTS
  6
CONTINUOUS
 62
     0
 10
-554.40355818733292
 20
-1856.748542658105
 30
0.0
  0
POINT
  5
7F36
  8
DEFPOINTS
  6
CONTINUOUS
 62
     0
 10
-330.40355818733292
 20
-1856.748542658105
 30
0.0
  0
POINT
  5
7F37
  8
DEFPOINTS
  6
CONTINUOUS
 62
     0
 10
-330.40355818733292
 20
-1788.113454658105
 30
0.0
  0
ENDBLK
  5
7C89
  8
0
  0
BLOCK
  8
0
  2
*D16
 70
     1
 10
0.0
 20
0.0
 30
0.0
  3
*D16
  1

  0
LINE
  5
7F38
  8
3
  6
CONTINUOUS
 62
     0
 10
-862.40355818733292
 20
-1934.248542658105
 30
0.0
 11
-862.40355818733292
 21
-1675.5502176581051
 31
0.0
  0
LINE
  5
7F39
  8
3
  6
CONTINUOUS
 62
     0
 10
-442.40355818733292
 20
-1706.291754658105
 30
0.0
 11
-442.40355818733292
 21
-1675.5502176581051
 31
0.0
  0
LINE
  5
7F3A
  8
3
  6
CONTINUOUS
 62
     0
 10
-832.40355818733281
 20
-1690.5502176581051
 30
0.0
 11
-472.40355818733292
 21
-1690.5502176581051
 31
0.0
  0
INSERT
  5
7F3B
  8
3
  6
CONTINUOUS
 62
     0
  2
_OPEN
 10
-862.40355818733292
 20
-1690.5502176581051
 30
0.0
 41
30.0
 42
30.0
 43
30.0
 50
180.0
  0
INSERT
  5
7F3C
  8
3
  6
CONTINUOUS
 62
     0
  2
_OPEN
 10
-442.40355818733292
 20
-1690.5502176581051
 30
0.0
 41
30.0
 42
30.0
 43
30.0
  0
TEXT
  8
3
  40
45
  5
7F6D
  62
0
  72
0
  71
0
 10
-749.131
 20
-1695.20
 30
0.000000
  1
MAX
  0
TEXT
  8
3
  40
45
  5
7F6E
  62
0
  72
0
  71
0
 10
-749.131
 20
-1753.70
 30
0.000000
  1
420
  0
POINT
  5
7F3E
  8
DEFPOINTS
  6
CONTINUOUS
 62
     0
 10
-862.40355818733292
 20
-1941.748542658105
 30
0.0
  0
POINT
  5
7F3F
  8
DEFPOINTS
  6
CONTINUOUS
 62
     0
 10
-442.40355818733292
 20
-1713.791754658105
 30
0.0
  0
POINT
  5
7F40
  8
DEFPOINTS
  6
CONTINUOUS
 62
     0
 10
-442.40355818733292
 20
-1690.5502176581051
 30
0.0
  0
ENDBLK
  5
7DA1
  8
0
  0
BLOCK
  8
0
  2
*D17
 70
     1
 10
0.0
 20
0.0
 30
0.0
  3
*D17
  1

  0
LINE
  5
7F41
  8
3
  6
CONTINUOUS
 62
     0
 10
-321.40355818733292
 20
-1981.748542658105
 30
0.0
 11
-321.40355818733292
 21
-1675.5502176581051
 31
0.0
  0
LINE
  5
7F42
  8
3
  6
CONTINUOUS
 62
     0
 10
-412.40355818733292
 20
-1690.5502176581051
 30
0.0
 11
-351.40355818733292
 21
-1690.5502176581051
 31
0.0
  0
TEXT
  8
3
  40
45
  5
7F6F
  62
0
  72
0
  71
0
 10
-484.736
 20
-1732.70
 30
0.000000
  1
121
  0
INSERT
  5
7F44
  8
3
  6
CONTINUOUS
 62
     0
  2
_OPEN
 10
-442.40355818733292
 20
-1690.5502176581051
 30
0.0
 41
30.0
 42
30.0
 43
30.0
 50
180.0
  0
INSERT
  5
7F45
  8
3
  6
CONTINUOUS
 62
     0
  2
_OPEN
 10
-321.40355818733292
 20
-1690.5502176581051
 30
0.0
 41
30.0
 42
30.0
 43
30.0
  0
POINT
  5
7F46
  8
DEFPOINTS
  6
CONTINUOUS
 62
     0
 10
-442.40355818733292
 20
-1713.791754658105
 30
0.0
  0
POINT
  5
7F47
  8
DEFPOINTS
  6
CONTINUOUS
 62
     0
 10
-321.40355818733292
 20
-1989.248542658105
 30
0.0
  0
POINT
  5
7F48
  8
DEFPOINTS
  6
CONTINUOUS
 62
     0
 10
-321.40355818733292
 20
-1690.5502176581051
 30
0.0
  0
ENDBLK
  5
7D19
  8
0
  0
BLOCK
  8
0
  2
*D18
 70
     1
 10
0.0
 20
0.0
 30
0.0
  3
*D18
  1

  0
LINE
  5
7F49
  8
3
  6
CONTINUOUS
 62
     0
 10
-313.90355818733292
 20
-2014.248542658105
 30
0.0
 11
-210.62056418733309
 21
-2014.248542658105
 31
0.0
  0
LINE
  5
7F4A
  8
3
  6
CONTINUOUS
 62
     0
 10
-313.90355818733292
 20
-2329.2485426581052
 30
0.0
 11
-210.6205641873332
 21
-2329.2485426581052
 31
0.0
  0
LINE
  5
7F4B
  8
3
  6
CONTINUOUS
 62
     0
 10
-225.6205641873332
 20
-2044.2485426581061
 30
0.0
 11
-225.6205641873332
 21
-2299.2485426581052
 31
0.0
  0
INSERT
  5
7F4C
  8
3
  6
CONTINUOUS
 62
     0
  2
_OPEN
 10
-225.6205641873332
 20
-2014.248542658105
 30
0.0
 41
30.0
 42
30.0
 43
30.0
 50
90.0
  0
INSERT
  5
7F4D
  8
3
  6
CONTINUOUS
 62
     0
  2
_OPEN
 10
-225.6205641873332
 20
-2329.2485426581052
 30
0.0
 41
30.0
 42
30.0
 43
30.0
 50
270.0
  0
TEXT
  8
3
  40
45
  5
7F70
  62
0
  72
0
  71
0
 10
-353.121
 20
-2266.37
 30
0.000000
  1
φ315
  0
POINT
  5
7F4F
  8
DEFPOINTS
  6
CONTINUOUS
 62
     0
 10
-321.40355818733292
 20
-2014.248542658105
 30
0.0
  0
POINT
  5
7F50
  8
DEFPOINTS
  6
CONTINUOUS
 62
     0
 10
-321.40355818733292
 20
-2329.2485426581052
 30
0.0
  0
POINT
  5
7F51
  8
DEFPOINTS
  6
CONTINUOUS
 62
     0
 10
-225.6205641873332
 20
-2329.2485426581052
 30
0.0
  0
ENDBLK
  5
7D96
  8
0
  0
BLOCK
  8
0
  2
_DOT
 70
     0
 10
0.0
 20
0.0
 30
0.0
  3
_DOT
  1

  0
LINE
  5
7D6F
  8
0
  6
BYBLOCK
 62
     0
 10
0.0
 20
0.0
 30
0.0
 11
-1.0
 21
-0.0000000000000284
 31
0.0
  0
POLYLINE
  5
7D70
  8
0
  6
BYBLOCK
 62
     0
 66
     1
 10
0.0
 20
0.0
 30
0.0
 70
     1
 40
0.1666666666666666
 41
0.1666666666666666
  0
VERTEX
  5
7F52
  8
0
  6
BYBLOCK
 62
     0
 10
-0.0833333333333286
 20
-0.0000000000000284
 30
0.0
 42
1.0
  0
VERTEX
  5
7F53
  8
0
  6
BYBLOCK
 62
     0
 10
0.0833333333333286
 20
-0.0000000000000284
 30
0.0
 42
1.0
  0
SEQEND
  5
7F54
  8
0
  6
BYBLOCK
 62
     0
  0
ENDBLK
  5
7D55
  8
0
  0
BLOCK
  8
0
  2
*D20
 70
     1
 10
0.0
 20
0.0
 30
0.0
  3
*D20
  1

  0
LINE
  5
7F55
  8
3
 62
     0
 10
-2089.3813180000002
 20
-1827.748542658105
 30
0.0
 11
-2089.3813180000002
 21
-1637.5521137383339
 31
0.0
  0
LINE
  5
7F56
  8
3
 62
     0
 10
-1194.381318
 20
-2586.2485426581052
 30
0.0
 11
-1194.381318
 21
-1637.5521137383339
 31
0.0
  0
LINE
  5
7F57
  8
3
 62
     0
 10
-2059.3813180000002
 20
-1652.5521137383339
 30
0.0
 11
-1224.381318
 21
-1652.5521137383339
 31
0.0
  0
INSERT
  5
7F58
  8
3
 62
     0
  2
_OPEN
 10
-2089.3813180000002
 20
-1652.5521137383339
 30
0.0
 41
30.0
 42
30.0
 43
30.0
 50
180.0
  0
INSERT
  5
7F59
  8
3
 62
     0
  2
_OPEN
 10
-1194.381318
 20
-1652.5521137383339
 30
0.0
 41
30.0
 42
30.0
 43
30.0
  0
TEXT
  8
3
  40
45
  5
7F71
  62
0
  72
0
  71
0
 10
-1697.31
 20
-1694.70
 30
0.000000
  1
895
  0
POINT
  5
7F5B
  8
DEFPOINTS
 62
     0
 10
-2089.3813180000002
 20
-1835.248542658105
 30
0.0
  0
POINT
  5
7F5C
  8
DEFPOINTS
 62
     0
 10
-1194.381318
 20
-2593.7485426581052
 30
0.0
  0
POINT
  5
7F5D
  8
DEFPOINTS
 62
     0
 10
-1194.381318
 20
-1652.5521137383339
 30
0.0
  0
ENDBLK
  5
7D8B
  8
0
  0
ENDSEC
  0
SECTION
  2
ENTITIES
  0
CIRCLE
  5
7A9C
  8
1
  6
CONTINUOUS
 10
-1839.381318
 20
-2171.7485426581052
 30
0.0
 40
157.5
  0
LINE
  5
7A9D
  8
1
  6
CONTINUOUS
 10
-1194.381318
 20
-2623.7485426581052
 30
0.0
 11
-2104.3813180000002
 21
-2623.7485426581052
 31
0.0
  0
LINE
  5
7A9E
  8
1
  6
CONTINUOUS
 10
-1194.381318
 20
-2593.7485426581052
 30
0.0
 11
-2104.3813180000002
 21
-2593.7485426581052
 31
0.0
  0
LINE
  5
7A9F
  8
1
  6
CONTINUOUS
 10
-1983.8813179999991
 20
-2071.7485426581052
 30
0.0
 11
-1783.8813179999991
 21
-1941.748542658105
 31
0.0
  0
LINE
  5
7AA0
  8
1
  6
CONTINUOUS
 10
-1224.381318
 20
-2571.7485426581052
 30
0.0
 11
-2074.3813180000002
 21
-2571.7485426581052
 31
0.0
  0
LINE
  5
7AA1
  8
1
  6
CONTINUOUS
 10
-1224.381318
 20
-2501.7485426581061
 30
0.0
 11
-2074.3813180000002
 21
-2501.7485426581061
 31
0.0
  0
LINE
  5
7AA2
  8
1
  6
CONTINUOUS
 10
-1931.6813179999999
 20
-1991.748542658105
 30
0.0
 11
-2044.381318
 21
-2086.3485426581051
 31
0.0
  0
LINE
  5
7AA3
  8
1
  6
CONTINUOUS
 10
-1634.3813179999991
 20
-2208.2485426581052
 30
0.0
 11
-2044.381318
 21
-2208.2485426581052
 31
0.0
  0
LINE
  5
7AA4
  8
1
  6
CONTINUOUS
 10
-1851.3813179999991
 20
-1116.488321829665
 30
0.0
 11
-2044.381318
 21
-1116.488321829665
 31
0.0
  0
LINE
  5
7AA5
  8
1
  6
CONTINUOUS
 10
-1253.881318
 20
-1166.488321829665
 30
0.0
 11
-1983.8813179999991
 21
-1166.488321829665
 31
0.0
  0
LINE
  5
7AA6
  8
1
  6
CONTINUOUS
 10
-1253.881318
 20
-1251.488321829665
 30
0.0
 11
-1983.8813179999991
 21
-1251.488321829665
 31
0.0
  0
LINE
  5
7AA7
  8
1
  6
CONTINUOUS
 10
-1851.3813179999991
 20
-1146.488321829665
 30
0.0
 11
-2104.3813180000002
 21
-1146.488321829665
 31
0.0
  0
LINE
  5
7AA8
  8
1
  6
CONTINUOUS
 10
-2089.3813180000002
 20
-943.48832182966521
 30
0.0
 11
-1571.381318
 21
-943.48832182966521
 31
0.0
  0
LINE
  5
7AA9
  8
1
  6
CONTINUOUS
 10
-1571.381318
 20
-719.48832182966498
 30
0.0
 11
-2089.3813180000002
 21
-719.48832182966498
 31
0.0
  0
LINE
  5
7AAA
  8
1
  6
CONTINUOUS
 10
-1634.381318
 20
-953.28832182966528
 30
0.0
 11
-2044.381318
 21
-953.28832182966528
 31
0.0
  0
LINE
  5
7AAB
  8
1
  6
CONTINUOUS
 10
-1656.8813179999991
 20
-710.4883218296651
 30
0.0
 11
-2021.881318
 21
-710.4883218296651
 31
0.0
  0
CIRCLE
  5
7AAC
  8
1
  6
CONTINUOUS
 10
-1839.381318
 20
-2171.7485426581052
 30
0.0
 40
182.5
  0
LINE
  5
7AAD
  8
1
  6
CONTINUOUS
 10
-2069.3813180000002
 20
-1846.748542658105
 30
0.0
 11
-1864.8813179999991
 21
-1846.748542658105
 31
0.0
  0
ARC
  5
7AAE
  8
1
  6
CONTINUOUS
 10
-1821.381318
 20
-2189.7485426581052
 30
0.0
 40
215.0
 50
188.59999999999991
 51
280.60000000000002
  0
LINE
  5
7AAF
  8
1
  6
CONTINUOUS
 10
-1983.8813179999991
 20
-2071.7485426581052
 30
0.0
 11
-1983.8813179999991
 21
-2511.2485426581052
 31
0.0
  0
LINE
  5
7AB0
  8
1
  6
CONTINUOUS
 10
-2044.381318
 20
-2501.7485426581061
 30
0.0
 11
-2044.381318
 21
-2086.3485426581051
 31
0.0
  0
LINE
  5
7AB1
  8
1
  6
CONTINUOUS
 10
-2104.3813180000002
 20
-2653.7485426581052
 30
0.0
 11
-2104.3813180000002
 21
-2593.7485426581052
 31
0.0
  0
LINE
  5
7AB2
  8
1
  6
CONTINUOUS
 10
-2074.3813180000002
 20
-2501.7485426581061
 30
0.0
 11
-2074.3813180000002
 21
-2571.7485426581052
 31
0.0
  0
LINE
  5
7AB3
  8
1
  6
CONTINUOUS
 10
-2104.3813180000002
 20
-2653.7485426581052
 30
0.0
 11
-2074.3813180000002
 21
-2653.7485426581052
 31
0.0
  0
LINE
  5
7AB4
  8
1
  6
CONTINUOUS
 10
-2074.3813180000002
 20
-2623.7485426581052
 30
0.0
 11
-2074.3813180000002
 21
-2653.7485426581052
 31
0.0
  0
LINE
  5
7AB5
  8
1
  6
CONTINUOUS
 10
-2089.3813180000002
 20
-2193.2485426581052
 30
0.0
 11
-2089.3813180000002
 21
-1835.248542658105
 31
0.0
  0
LINE
  5
7AB6
  8
1
  6
CONTINUOUS
 10
-2069.3813180000002
 20
-2141.7485426581052
 30
0.0
 11
-2069.3813180000002
 21
-1886.748542658105
 31
0.0
  0
ARC
  5
7AB7
  8
1
  6
CONTINUOUS
 10
-2107.3813180000002
 20
-2248.7485426581052
 30
0.0
 40
78.0
 50
18.800000000000001
 51
60.799999999999997
  0
LINE
  5
7AB8
  8
1
  6
CONTINUOUS
 10
-2089.3813180000002
 20
-2161.7485426581052
 30
0.0
 11
-2069.3813180000002
 21
-2141.7485426581052
 31
0.0
  0
LINE
  5
7AB9
  8
1
  6
CONTINUOUS
 10
-2069.3813180000002
 20
-2171.7485426581052
 30
0.0
 11
-2089.3813180000002
 21
-2171.7485426581052
 31
0.0
  0
LINE
  5
7ABA
  8
1
  6
CONTINUOUS
 10
-2069.3813180000002
 20
-2180.6485426581062
 30
0.0
 11
-2069.3813180000002
 21
-2171.7485426581052
 31
0.0
  0
LINE
  5
7ABB
  8
1
  6
CONTINUOUS
 10
-2089.3813180000002
 20
-1866.748542658105
 30
0.0
 11
-2069.3813180000002
 21
-1886.748542658105
 31
0.0
  0
LINE
  5
7ABC
  8
1
  6
CONTINUOUS
 10
-2089.3813180000002
 20
-1856.748542658105
 30
0.0
 11
-2069.3813180000002
 21
-1856.748542658105
 31
0.0
  0
LINE
  5
7ABD
  8
1
  6
CONTINUOUS
 10
-2069.3813180000002
 20
-1856.748542658105
 30
0.0
 11
-2069.3813180000002
 21
-1846.748542658105
 31
0.0
  0
LINE
  5
7ABE
  8
1
  6
CONTINUOUS
 10
-2104.3813180000002
 20
-1251.488321829665
 30
0.0
 11
-2104.3813180000002
 21
-651.4883218296651
 31
0.0
  0
LINE
  5
7ABF
  8
1
  6
CONTINUOUS
 10
-2089.3813180000002
 20
-698.48832182966498
 30
0.0
 11
-2089.3813180000002
 21
-964.4883218296651
 31
0.0
  0
LINE
  5
7AC0
  8
1
  6
CONTINUOUS
 10
-2069.3813180000002
 20
-748.48832182966498
 30
0.0
 11
-2069.3813180000002
 21
-914.4883218296651
 31
0.0
  0
LINE
  5
7AC1
  8
1
  6
CONTINUOUS
 10
-1983.8813179999991
 20
-1166.488321829665
 30
0.0
 11
-1983.8813179999991
 21
-1251.488321829665
 31
0.0
  0
LINE
  5
7AC2
  8
1
  6
CONTINUOUS
 10
-2074.3813180000002
 20
-1146.488321829665
 30
0.0
 11
-2074.3813180000002
 21
-1251.488321829665
 31
0.0
  0
LINE
  5
7AC3
  8
1
  6
CONTINUOUS
 10
-2104.3813180000002
 20
-1251.488321829665
 30
0.0
 11
-2074.3813180000002
 21
-1251.488321829665
 31
0.0
  0
LINE
  5
7AC4
  8
1
  6
CONTINUOUS
 10
-2089.3813180000002
 20
-934.48832182966532
 30
0.0
 11
-2069.3813180000002
 21
-914.4883218296651
 31
0.0
  0
LINE
  5
7AC5
  8
1
  6
CONTINUOUS
 10
-2044.381318
 20
-1116.488321829665
 30
0.0
 11
-2044.381318
 21
-953.28832182966528
 31
0.0
  0
LINE
  5
7AC6
  8
1
  6
CONTINUOUS
 10
-2021.881318
 20
-953.28832182966528
 30
0.0
 11
-2021.881318
 21
-943.48832182966521
 31
0.0
  0
LINE
  5
7AC7
  8
1
  6
CONTINUOUS
 10
-2089.3813180000002
 20
-728.48832182966498
 30
0.0
 11
-2069.3813180000002
 21
-748.48832182966498
 31
0.0
  0
LINE
  5
7AC8
  8
1
  6
CONTINUOUS
 10
-2104.3813180000002
 20
-831.4883218296651
 30
0.0
 11
-2089.3813180000002
 21
-831.4883218296651
 31
0.0
  0
LINE
  5
7AC9
  8
1
  6
CONTINUOUS
 10
-2104.3813180000002
 20
-651.4883218296651
 30
0.0
 11
-2074.3813180000002
 21
-651.4883218296651
 31
0.0
  0
LINE
  5
7ACA
  8
1
  6
CONTINUOUS
 10
-2074.3813180000002
 20
-651.4883218296651
 30
0.0
 11
-2074.3813180000002
 21
-719.48832182966498
 31
0.0
  0
LINE
  5
7ACB
  8
1
  6
CONTINUOUS
 10
-2021.881318
 20
-710.4883218296651
 30
0.0
 11
-2021.881318
 21
-718.68832182966514
 31
0.0
  0
LINE
  5
7ACC
  8
1
  6
CONTINUOUS
 10
-1783.8813179999991
 20
-1941.748542658105
 30
0.0
 11
-1253.881318
 21
-2291.7485426581052
 31
0.0
  0
LINE
  5
7ACD
  8
1
  6
CONTINUOUS
 10
-1254.381318
 20
-2481.7485426581061
 30
0.0
 11
-1569.3813179999991
 21
-2481.7485426581061
 31
0.0
  0
ARC
  5
7ACE
  8
1
  6
CONTINUOUS
 10
-1864.8813179999991
 20
-2146.2485426581052
 30
0.0
 40
299.5
 50
349.39999999999992
 51
90.0
  0
LINE
  5
7ACF
  8
1
  6
CONTINUOUS
 10
-1344.9813180000001
 20
-2344.1485426581048
 30
0.0
 11
-1811.3813179999991
 21
-2114.7485426581052
 31
0.0
  0
LINE
  5
7AD0
  8
1
  6
CONTINUOUS
 10
-1389.881318
 20
-2440.2485426581052
 30
0.0
 11
-1865.081318
 21
-2229.8485426581051
 31
0.0
  0
LINE
  5
7AD1
  8
1
  6
CONTINUOUS
 10
-1634.3813179999991
 20
-2501.7485426581061
 30
0.0
 11
-1634.3813179999991
 21
-2086.3485426581051
 31
0.0
  0
ARC
  5
7AD2
  8
1
  6
CONTINUOUS
 10
-1818.3813179999991
 20
-2150.7485426581052
 30
0.0
 40
253.0
 50
278.19999999999999
 51
348.39999999999998
  0
LINE
  5
7AD3
  8
1
  6
CONTINUOUS
 10
-1569.3813179999991
 20
-2501.7485426581061
 30
0.0
 11
-1569.3813179999991
 21
-2481.7485426581061
 31
0.0
  0
LINE
  5
7AD4
  8
1
  6
CONTINUOUS
 10
-1747.081318
 20
-1991.748542658105
 30
0.0
 11
-1634.3813179999991
 21
-2086.3485426581051
 31
0.0
  0
CIRCLE
  5
7AD5
  8
1
  6
CONTINUOUS
 10
-1839.381318
 20
-2171.7485426581052
 30
0.0
 40
63.5
  0
LINE
  5
7AD6
  8
2
  6
CENTER
 10
-311.08276518733283
 20
-2171.7485426581052
 30
0.0
 11
-907.81896818733287
 21
-2171.7485426581052
 31
0.0
  0
LINE
  5
7AD7
  8
2
  6
CENTER
 10
-1839.381318
 20
-2687.633420658105
 30
0.0
 11
-1839.381318
 21
-1834.4020046581049
 31
0.0
  0
LINE
  5
7AD8
  8
1
  6
CONTINUOUS
 10
-1747.081318
 20
-1991.748542658105
 30
0.0
 11
-1931.6813179999999
 21
-1991.748542658105
 31
0.0
  0
LINE
  5
7AD9
  8
1
  6
CONTINUOUS
 10
-1253.881318
 20
-2291.7485426581052
 30
0.0
 11
-1253.881318
 21
-2501.7485426581061
 31
0.0
  0
ARC
  5
7ADA
  8
1
  6
CONTINUOUS
 10
-1368.3813179999991
 20
-2391.7485426581052
 30
0.0
 40
101.0
 50
322.89999999999992
 51
217.09999999999991
  0
CIRCLE
  5
7ADB
  8
1
  6
CONTINUOUS
 10
-1368.3813179999991
 20
-2391.7485426581052
 30
0.0
 40
53.0
  0
LINE
  5
7ADC
  8
2
  6
CENTER
 10
-1368.3813179999991
 20
-2444.7485426581052
 30
0.0
 11
-1368.3813179999991
 21
-2338.7485426581052
 31
0.0
  0
LINE
  5
7ADD
  8
1
  6
CONTINUOUS
 10
-1276.4813180000001
 20
-2481.7485426581061
 30
0.0
 11
-1287.881318
 21
-2452.7485426581052
 31
0.0
  0
LINE
  5
7ADE
  8
2
  6
CENTER
 10
-1315.381318
 20
-2391.7485426581052
 30
0.0
 11
-1421.381318
 21
-2391.7485426581052
 31
0.0
  0
LINE
  5
7ADF
  8
1
  6
CONTINUOUS
 10
-1460.2813180000001
 20
-2481.7485426581061
 30
0.0
 11
-1448.8813179999991
 21
-2452.7485426581052
 31
0.0
  0
LINE
  5
7AE0
  8
1
  6
CONTINUOUS
 10
-1194.381318
 20
-2653.7485426581052
 30
0.0
 11
-1194.381318
 21
-2593.7485426581052
 31
0.0
  0
LINE
  5
7AE1
  8
1
  6
CONTINUOUS
 10
-1254.381318
 20
-2501.7485426581061
 30
0.0
 11
-1254.381318
 21
-2481.7485426581061
 31
0.0
  0
LINE
  5
7AE2
  8
1
  6
CONTINUOUS
 10
-1224.381318
 20
-2501.7485426581061
 30
0.0
 11
-1224.381318
 21
-2571.7485426581052
 31
0.0
  0
LINE
  5
7AE3
  8
1
  6
CONTINUOUS
 10
-1224.381318
 20
-2623.7485426581052
 30
0.0
 11
-1224.381318
 21
-2653.7485426581052
 31
0.0
  0
LINE
  5
7AE4
  8
1
  6
CONTINUOUS
 10
-1194.381318
 20
-2653.7485426581052
 30
0.0
 11
-1224.381318
 21
-2653.7485426581052
 31
0.0
  0
LINE
  5
7AE5
  8
1
  6
CONTINUOUS
 10
-1551.3813179999991
 20
-831.4883218296651
 30
0.0
 11
-1194.381318
 21
-831.4883218296651
 31
0.0
  0
LINE
  5
7AE6
  8
1
  6
CONTINUOUS
 10
-1380.381318
 20
-1146.488321829665
 30
0.0
 11
-1827.381318
 21
-1146.488321829665
 31
0.0
  0
LINE
  5
7AE7
  8
1
  6
CONTINUOUS
 10
-1551.3813179999991
 20
-739.4883218296651
 30
0.0
 11
-1551.3813179999991
 21
-923.4883218296651
 31
0.0
  0
LINE
  5
7AE8
  8
1
  6
CONTINUOUS
 10
-1634.381318
 20
-1116.488321829665
 30
0.0
 11
-1827.381318
 21
-1116.488321829665
 31
0.0
  0
LINE
  5
7AE9
  8
1
  6
CONTINUOUS
 10
-1851.3813179999991
 20
-953.28832182966528
 30
0.0
 11
-1851.3813179999991
 21
-1189.988321829665
 31
0.0
  0
LINE
  5
7AEA
  8
1
  6
CONTINUOUS
 10
-1827.381318
 20
-953.28832182966528
 30
0.0
 11
-1827.381318
 21
-1189.988321829665
 31
0.0
  0
LINE
  5
7AEB
  8
1
  6
CONTINUOUS
 10
-1775.881318
 20
-1224.988321829665
 30
0.0
 11
-1902.881318
 21
-1224.988321829665
 31
0.0
  0
LINE
  5
7AEC
  8
1
  6
CONTINUOUS
 10
-1902.881318
 20
-1189.988321829665
 30
0.0
 11
-1775.881318
 21
-1189.988321829665
 31
0.0
  0
LINE
  5
7AED
  8
1
  6
CONTINUOUS
 10
-1902.881318
 20
-1224.988321829665
 30
0.0
 11
-1902.881318
 21
-1189.988321829665
 31
0.0
  0
LINE
  5
7AEE
  8
1
  6
CONTINUOUS
 10
-1775.881318
 20
-1189.988321829665
 30
0.0
 11
-1775.881318
 21
-1224.988321829665
 31
0.0
  0
LINE
  5
7AEF
  8
1
  6
CONTINUOUS
 10
-1634.381318
 20
-1116.488321829665
 30
0.0
 11
-1634.381318
 21
-953.28832182966528
 31
0.0
  0
LINE
  5
7AF0
  8
1
  6
CONTINUOUS
 10
-1656.8813179999991
 20
-953.28832182966528
 30
0.0
 11
-1656.8813179999991
 21
-943.48832182966521
 31
0.0
  0
ARC
  5
7AF1
  8
1
  6
CONTINUOUS
 10
-1571.381318
 20
-923.4883218296651
 30
0.0
 40
20.0
 50
270.0
 51
0.0
  0
LINE
  5
7AF2
  8
1
  6
CONTINUOUS
 10
-1656.8813179999991
 20
-710.4883218296651
 30
0.0
 11
-1656.8813179999991
 21
-718.68832182966514
 31
0.0
  0
ARC
  5
7AF3
  8
1
  6
CONTINUOUS
 10
-1571.381318
 20
-739.4883218296651
 30
0.0
 40
20.0
 50
0.0
 51
90.0
  0
LINE
  5
7AF4
  8
1
  6
CONTINUOUS
 10
-1194.381318
 20
-1251.488321829665
 30
0.0
 11
-1194.381318
 21
-651.4883218296651
 31
0.0
  0
LINE
  5
7AF5
  8
1
  6
CONTINUOUS
 10
-1469.3813179999991
 20
-1129.988321829665
 30
0.0
 11
-1469.3813179999991
 21
-857.98832182966498
 31
0.0
  0
LINE
  5
7AF6
  8
1
  6
CONTINUOUS
 10
-1278.381318
 20
-857.98832182966498
 30
0.0
 11
-1278.381318
 21
-1129.988321829665
 31
0.0
  0
LINE
  5
7AF7
  8
1
  6
CONTINUOUS
 10
-1469.3813179999991
 20
-1129.988321829665
 30
0.0
 11
-1278.381318
 21
-1129.988321829665
 31
0.0
  0
LINE
  5
7AF8
  8
1
  6
CONTINUOUS
 10
-1194.381318
 20
-1146.488321829665
 30
0.0
 11
-1356.381318
 21
-1146.488321829665
 31
0.0
  0
LINE
  5
7AF9
  8
1
  6
CONTINUOUS
 10
-1356.381318
 20
-1189.988321829665
 30
0.0
 11
-1356.381318
 21
-1129.988321829665
 31
0.0
  0
LINE
  5
7AFA
  8
1
  6
CONTINUOUS
 10
-1380.381318
 20
-1189.988321829665
 30
0.0
 11
-1380.381318
 21
-1129.988321829665
 31
0.0
  0
LINE
  5
7AFB
  8
1
  6
CONTINUOUS
 10
-1431.881318
 20
-1189.988321829665
 30
0.0
 11
-1304.881318
 21
-1189.988321829665
 31
0.0
  0
LINE
  5
7AFC
  8
1
  6
CONTINUOUS
 10
-1304.881318
 20
-1224.988321829665
 30
0.0
 11
-1431.881318
 21
-1224.988321829665
 31
0.0
  0
LINE
  5
7AFD
  8
1
  6
CONTINUOUS
 10
-1431.881318
 20
-1224.988321829665
 30
0.0
 11
-1431.881318
 21
-1189.988321829665
 31
0.0
  0
LINE
  5
7AFE
  8
1
  6
CONTINUOUS
 10
-1304.881318
 20
-1189.988321829665
 30
0.0
 11
-1304.881318
 21
-1224.988321829665
 31
0.0
  0
LINE
  5
7AFF
  8
1
  6
CONTINUOUS
 10
-1380.381318
 20
-1224.988321829665
 30
0.0
 11
-1356.381318
 21
-1224.988321829665
 31
0.0
  0
LINE
  5
7B00
  8
1
  6
CONTINUOUS
 10
-1253.881318
 20
-1166.488321829665
 30
0.0
 11
-1253.881318
 21
-1251.488321829665
 31
0.0
  0
LINE
  5
7B01
  8
1
  6
CONTINUOUS
 10
-1224.381318
 20
-1146.488321829665
 30
0.0
 11
-1224.381318
 21
-1251.488321829665
 31
0.0
  0
LINE
  5
7B02
  8
1
  6
CONTINUOUS
 10
-1194.381318
 20
-1251.488321829665
 30
0.0
 11
-1224.381318
 21
-1251.488321829665
 31
0.0
  0
LINE
  5
7B03
  8
1
  6
CONTINUOUS
 10
-1469.3813179999991
 20
-857.98832182966498
 30
0.0
 11
-1278.381318
 21
-857.98832182966498
 31
0.0
  0
LINE
  5
7B04
  8
1
  6
CONTINUOUS
 10
-1224.381318
 20
-651.4883218296651
 30
0.0
 11
-1224.381318
 21
-831.4883218296651
 31
0.0
  0
LINE
  5
7B05
  8
1
  6
CONTINUOUS
 10
-1194.381318
 20
-651.4883218296651
 30
0.0
 11
-1224.381318
 21
-651.4883218296651
 31
0.0
  0
LINE
  5
7B07
  8
1
  6
CONTINUOUS
 10
-862.40355818733292
 20
-2623.7485426581052
 30
0.0
 11
-262.40355818733292
 21
-2623.7485426581052
 31
0.0
  0
LINE
  5
7B08
  8
1
  6
CONTINUOUS
 10
-862.40355818733292
 20
-2653.7485426581052
 30
0.0
 11
-262.40355818733292
 21
-2653.7485426581052
 31
0.0
  0
LINE
  5
7B09
  8
1
  6
CONTINUOUS
 10
-802.40355818733292
 20
-2159.1485426581062
 30
0.0
 11
-661.20355818733276
 21
-2159.1485426581062
 31
0.0
  0
LINE
  5
7B0A
  8
1
  6
CONTINUOUS
 10
-564.20355818733276
 20
-2084.5485426581049
 30
0.0
 11
-728.20355818733276
 21
-2210.7485426581052
 31
0.0
  0
LINE
  5
7B0B
  8
1
  6
CONTINUOUS
 10
-757.40355818733292
 20
-2571.7485426581052
 30
0.0
 11
-442.40355818733292
 21
-2571.7485426581052
 31
0.0
  0
LINE
  5
7B0C
  8
1
  6
CONTINUOUS
 10
-442.40355818733292
 20
-2501.7485426581061
 30
0.0
 11
-757.40355818733292
 21
-2501.7485426581061
 31
0.0
  0
LINE
  5
7B0D
  8
1
  6
CONTINUOUS
 10
-757.40355818733292
 20
-2593.7485426581052
 30
0.0
 11
-442.40355818733292
 21
-2593.7485426581052
 31
0.0
  0
LINE
  5
7B0E
  8
1
  6
CONTINUOUS
 10
-777.40355818733292
 20
-2501.6485426581048
 30
0.0
 11
-777.40355818733292
 21
-1941.748542658105
 31
0.0
  0
LINE
  5
7B0F
  8
1
  6
CONTINUOUS
 10
-862.40355818733292
 20
-2501.6485426581048
 30
0.0
 11
-862.40355818733292
 21
-1941.748542658105
 31
0.0
  0
LINE
  5
7B10
  8
1
  6
CONTINUOUS
 10
-837.40355818733292
 20
-2328.1485426581048
 30
0.0
 11
-837.40355818733292
 21
-2455.1485426581048
 31
0.0
  0
LINE
  5
7B11
  8
1
  6
CONTINUOUS
 10
-802.40355818733292
 20
-2455.1485426581048
 30
0.0
 11
-802.40355818733292
 21
-2328.1485426581048
 31
0.0
  0
LINE
  5
7B12
  8
1
  6
CONTINUOUS
 10
-728.20355818733276
 20
-2210.7485426581052
 30
0.0
 11
-728.20355818733276
 21
-2501.7485426581061
 31
0.0
  0
LINE
  5
7B17
  8
1
  6
CONTINUOUS
 10
-802.40355818733292
 20
-2379.6485426581048
 30
0.0
 11
-728.20355818733276
 21
-2379.6485426581048
 31
0.0
  0
LINE
  5
7B18
  8
1
  6
CONTINUOUS
 10
-802.40355818733292
 20
-2403.6485426581062
 30
0.0
 11
-728.20355818733276
 21
-2403.6485426581062
 31
0.0
  0
LINE
  5
7B19
  8
1
  6
CONTINUOUS
 10
-862.40355818733292
 20
-2623.7485426581052
 30
0.0
 11
-862.40355818733292
 21
-2653.7485426581052
 31
0.0
  0
LINE
  5
7B1A
  8
1
  6
CONTINUOUS
 10
-837.40355818733292
 20
-2455.1485426581048
 30
0.0
 11
-802.40355818733292
 21
-2455.1485426581048
 31
0.0
  0
LINE
  5
7B1B
  8
1
  6
CONTINUOUS
 10
-862.40355818733292
 20
-2501.6485426581048
 30
0.0
 11
-777.40355818733292
 21
-2501.6485426581048
 31
0.0
  0
LINE
  5
7B1C
  8
1
  6
CONTINUOUS
 10
-757.40355818733292
 20
-2501.7485426581061
 30
0.0
 11
-757.40355818733292
 21
-2571.7485426581052
 31
0.0
  0
LINE
  5
7B1D
  8
1
  6
CONTINUOUS
 10
-757.40355818733292
 20
-2593.7485426581052
 30
0.0
 11
-757.40355818733292
 21
-2623.7485426581052
 31
0.0
  0
LINE
  5
7B1E
  8
1
  6
CONTINUOUS
 10
-802.40355818733292
 20
-2184.1485426581048
 30
0.0
 11
-693.60355818733285
 21
-2184.1485426581048
 31
0.0
  0
LINE
  5
7B1F
  8
1
  6
CONTINUOUS
 10
-802.40355818733292
 20
-2328.1485426581048
 30
0.0
 11
-837.40355818733292
 21
-2328.1485426581048
 31
0.0
  0
LINE
  5
7B20
  8
1
  6
CONTINUOUS
 10
-837.40355818733292
 20
-2235.1485426581048
 30
0.0
 11
-802.40355818733292
 21
-2235.1485426581048
 31
0.0
  0
LINE
  5
7B21
  8
1
  6
CONTINUOUS
 10
-802.40355818733292
 20
-2235.1485426581048
 30
0.0
 11
-802.40355818733292
 21
-2108.1485426581048
 31
0.0
  0
LINE
  5
7B22
  8
1
  6
CONTINUOUS
 10
-802.40355818733292
 20
-2108.1485426581048
 30
0.0
 11
-837.40355818733292
 21
-2108.1485426581048
 31
0.0
  0
LINE
  5
7B23
  8
1
  6
CONTINUOUS
 10
-837.40355818733292
 20
-2108.1485426581048
 30
0.0
 11
-837.40355818733292
 21
-2235.1485426581048
 31
0.0
  0
LINE
  5
7B24
  8
1
  6
CONTINUOUS
 10
-862.40355818733292
 20
-1941.748542658105
 30
0.0
 11
-777.40355818733292
 21
-1941.748542658105
 31
0.0
  0
LINE
  5
7B25
  8
1
  6
CONTINUOUS
 10
-321.40355818733292
 20
-2354.2485426581052
 30
0.0
 11
-321.40355818733292
 21
-1989.248542658105
 31
0.0
  0
LINE
  5
7B26
  8
1
  6
CONTINUOUS
 10
-564.20355818733276
 20
-1989.148542658105
 30
0.0
 11
-564.20355818733276
 21
-2501.7485426581061
 31
0.0
  0
LINE
  5
7B27
  8
1
  6
CONTINUOUS
 10
-330.40355818733292
 20
-2373.7485426581052
 30
0.0
 11
-330.40355818733292
 21
-1856.748542658105
 31
0.0
  0
LINE
  5
7B28
  8
1
  6
CONTINUOUS
 10
-554.40355818733292
 20
-1856.748542658105
 30
0.0
 11
-554.40355818733292
 21
-2373.7485426581052
 31
0.0
  0
LINE
  5
7B29
  8
1
  6
CONTINUOUS
 10
-350.40355818733292
 20
-2393.7485426581052
 30
0.0
 11
-534.40355818733281
 21
-2393.7485426581052
 31
0.0
  0
LINE
  5
7B2A
  8
1
  6
CONTINUOUS
 10
-564.20355818733276
 20
-2354.2485426581052
 30
0.0
 11
-554.40355818733292
 21
-2354.2485426581052
 31
0.0
  0
ARC
  5
7B2B
  8
1
  6
CONTINUOUS
 10
-534.40355818733281
 20
-2373.7485426581052
 30
0.0
 40
20.0
 50
180.0
 51
270.0
  0
ARC
  5
7B2C
  8
1
  6
CONTINUOUS
 10
-350.40355818733292
 20
-2373.7485426581052
 30
0.0
 40
20.0
 50
270.0
 51
0.0
  0
LINE
  5
7B2D
  8
1
  6
CONTINUOUS
 10
-442.40355818733292
 20
-2571.7485426581052
 30
0.0
 11
-442.40355818733292
 21
-2501.7485426581061
 31
0.0
  0
LINE
  5
7B2E
  8
1
  6
CONTINUOUS
 10
-442.40355818733292
 20
-2623.7485426581052
 30
0.0
 11
-442.40355818733292
 21
-2593.7485426581052
 31
0.0
  0
LINE
  5
7B2F
  8
1
  6
CONTINUOUS
 10
-262.40355818733292
 20
-2623.7485426581052
 30
0.0
 11
-262.40355818733292
 21
-2653.7485426581052
 31
0.0
  0
LINE
  5
7B30
  8
1
  6
CONTINUOUS
 10
-321.40355818733292
 20
-2354.2485426581052
 30
0.0
 11
-330.40355818733292
 21
-2354.2485426581052
 31
0.0
  0
LINE
  5
7B31
  8
1
  6
CONTINUOUS
 10
-554.40355818733292
 20
-2171.7485426581052
 30
0.0
 11
-330.40355818733292
 21
-1856.748542658105
 31
0.0
  0
LINE
  5
7B32
  8
1
  6
CONTINUOUS
 10
-554.40355818733292
 20
-1856.748542658105
 30
0.0
 11
-330.40355818733292
 21
-2171.7485426581052
 31
0.0
  0
LINE
  5
7B33
  8
1
  6
CONTINUOUS
 10
-554.40355818733292
 20
-2171.7485426581052
 30
0.0
 11
-330.40355818733292
 21
-2171.7485426581052
 31
0.0
  0
LINE
  5
7B34
  8
1
  6
CONTINUOUS
 10
-330.40355818733292
 20
-1856.748542658105
 30
0.0
 11
-554.40355818733292
 21
-1856.748542658105
 31
0.0
  0
LINE
  5
7B35
  8
1
  6
CONTINUOUS
 10
-564.20355818733276
 20
-1989.248542658105
 30
0.0
 11
-554.20355818733276
 21
-1989.248542658105
 31
0.0
  0
LINE
  5
7B36
  8
1
  6
CONTINUOUS
 10
-442.40355818733292
 20
-1856.748542658105
 30
0.0
 11
-330.40355818733292
 21
-1856.748542658105
 31
0.0
  0
LINE
  5
7B37
  8
1
  6
CONTINUOUS
 10
-321.40355818733292
 20
-1989.248542658105
 30
0.0
 11
-330.60355818733291
 21
-1989.248542658105
 31
0.0
  0
DIMENSION
  5
7B4B
  8
3
  6
CONTINUOUS
  2
*D1
 10
-2145.6558209999998
 20
-2171.7485426581052
 30
0.0
 11
-2145.6558209999998
 21
-2005.9342006581051
 31
0.0
 70
   128
 13
-2089.3813180000002
 23
-1856.748542658105
 33
0.0
 14
-2089.3813180000002
 24
-2171.7485426581052
 34
0.0
 50
90.0
1001
ACAD
1000
DSTYLE
1002
{
1070
   287
1070
     3
1070
   287
1070
     3
1070
    40
1040
15.0
1070
   143
1040
0.039
1070
   172
1070
     1
1070
   271
1070
     0
1070
   279
1070
     0
1070
   288
1070
     1
1002
}
  0
DIMENSION
  5
7B58
  8
3
  6
CONTINUOUS
  2
*D2
 10
-2221.5710989999998
 20
-2171.7485426581052
 30
0.0
 11
-2221.5710989999989
 21
-1987.6296086581051
 31
0.0
 70
   128
 13
-2069.3813180000002
 23
-1846.748542658105
 33
0.0
 14
-2089.3813180000002
 24
-2171.7485426581052
 34
0.0
 50
90.0
1001
ACAD
1000
DSTYLE
1002
{
1070
   287
1070
     3
1070
   287
1070
     3
1070
    40
1040
15.0
1070
   143
1040
0.039
1070
   172
1070
     1
1070
   271
1070
     0
1070
   279
1070
     0
1070
   288
1070
     1
1002
}
  0
DIMENSION
  5
7B64
  8
3
  6
CONTINUOUS
  2
*D3
 10
-2221.5710989999989
 20
-2571.7485426581052
 30
0.0
 11
-2259.0710989999989
 21
-2371.7485426581061
 31
0.0
 70
     0
 13
-2089.3813180000002
 23
-2171.7485426581052
 33
0.0
 14
-2074.3813180000002
 24
-2571.7485426581052
 34
0.0
 50
90.0
1001
ACAD
1000
DSTYLE
1002
{
1070
   287
1070
     4
1070
   287
1070
     4
1070
    40
1040
15.0
1070
    75
1070
     1
1070
   143
1040
0.039
1070
   172
1070
     1
1070
   271
1070
     0
1070
   279
1070
     1
1070
   288
1070
     1
1002
}
  0
DIMENSION
  5
7B74
  8
3
  6
CONTINUOUS
  2
*D4
 10
-2221.5710989999989
 20
-2623.7485426581052
 30
0.0
 11
-2234.9213110000001
 21
-2599.5259116581051
 31
0.0
 70
   128
 13
-2074.3813180000002
 23
-2571.7485426581052
 33
0.0
 14
-2104.3813180000002
 24
-2623.7485426581052
 34
0.0
 50
90.0
1001
ACAD
1000
DSTYLE
1002
{
1070
   287
1070
     4
1070
   287
1070
     4
1070
    40
1040
15.0
1070
    75
1070
     1
1070
   143
1040
0.039
1070
   172
1070
     1
1070
   271
1070
     0
1070
   279
1070
     1
1070
   288
1070
     1
1070
     7
1000
DOT
1002
}
  0
DIMENSION
  5
7B84
  8
3
  6
CONTINUOUS
  2
*D5
 10
-2221.5710989999998
 20
-2653.7485426581052
 30
0.0
 11
-2221.5710989999989
 21
-2765.1771140866772
 31
0.0
 70
   128
 13
-2104.3813180000002
 23
-2623.7485426581052
 33
0.0
 14
-2104.3813180000002
 24
-2653.7485426581052
 34
0.0
 50
90.0
1001
ACAD
1000
DSTYLE
1002
{
1070
   287
1070
     3
1070
   287
1070
     3
1070
    40
1040
15.0
1070
   143
1040
0.039
1070
   172
1070
     1
1070
   271
1070
     0
1070
   279
1070
     0
1070
   288
1070
     1
1070
     6
1000
DOT
1002
}
  0
DIMENSION
  5
7BFB
  8
3
  6
CONTINUOUS
  2
*D6
 10
-2323.9254460000002
 20
-2653.7485426581052
 30
0.0
 11
-2323.9254460000002
 21
-2236.0490566581052
 31
0.0
 70
   128
 13
-2089.3813180000002
 23
-1835.248542658105
 33
0.0
 14
-2104.3813180000002
 24
-2653.7485426581052
 34
0.0
 50
90.0
1001
ACAD
1000
DSTYLE
1002
{
1070
   287
1070
     3
1070
   287
1070
     3
1070
    40
1040
15.0
1070
   143
1040
0.039
1070
   172
1070
     1
1070
   271
1070
     0
1070
   279
1070
     0
1070
   288
1070
     1
1002
}
  0
DIMENSION
  5
7C08
  8
3
  6
CONTINUOUS
  2
*D7
 10
-1839.381318
 20
-2759.037350658105
 30
0.0
 11
-1962.6734219999989
 21
-2759.037350658105
 31
0.0
 70
   128
 13
-2104.3813180000002
 23
-2653.7485426581052
 33
0.0
 14
-1839.381318
 24
-2687.633420658105
 34
0.0
1001
ACAD
1000
DSTYLE
1002
{
1070
   287
1070
     3
1070
   287
1070
     3
1070
    40
1040
15.0
1070
   143
1040
0.039
1070
   172
1070
     1
1070
   271
1070
     0
1070
   279
1070
     0
1070
   288
1070
     1
1002
}
  0
DIMENSION
  5
7C14
  8
3
  6
CONTINUOUS
  2
*D8
 10
-1194.381318
 20
-2759.037350658105
 30
0.0
 11
-1516.8813179999991
 21
-2721.537350658105
 31
0.0
 70
     0
 13
-1839.381318
 23
-2687.633420658105
 33
0.0
 14
-1194.381318
 24
-2653.7485426581052
 34
0.0
1001
ACAD
1000
DSTYLE
1002
{
1070
   287
1070
     4
1070
   287
1070
     4
1070
    40
1040
15.0
1070
    75
1070
     1
1070
   143
1040
0.039
1070
   172
1070
     1
1070
   271
1070
     0
1070
   279
1070
     1
1070
   288
1070
     1
1002
}
  0
DIMENSION
  5
7C21
  8
3
  6
CONTINUOUS
  2
*D9
 10
-1839.381318
 20
-1754.119343658105
 30
0.0
 11
-1962.6734219999989
 21
-1754.119343658105
 31
0.0
 70
   128
 13
-2089.3813180000002
 23
-1835.248542658105
 33
0.0
 14
-1839.381318
 24
-1847.836076658105
 34
0.0
1001
ACAD
1000
DSTYLE
1002
{
1070
   287
1070
     3
1070
   287
1070
     3
1070
    40
1040
15.0
1070
   143
1040
0.039
1070
   172
1070
     1
1070
   271
1070
     0
1070
   279
1070
     0
1070
   288
1070
     1
1002
}
  0
DIMENSION
  5
7C2E
  8
3
  6
CONTINUOUS
  2
*D10
 10
-1565.381318
 20
-1754.119343658105
 30
0.0
 11
-1702.3813179999991
 21
-1716.619343658105
 31
0.0
 70
     0
 13
-1839.381318
 23
-1847.836076658105
 33
0.0
 14
-1565.381318
 24
-2146.2485426581052
 34
0.0
1001
ACAD
1000
DSTYLE
1002
{
1070
   287
1070
     4
1070
   287
1070
     4
1070
    40
1040
15.0
1070
    75
1070
     1
1070
   143
1040
0.039
1070
   172
1070
     1
1070
   271
1070
     0
1070
   279
1070
     1
1070
   288
1070
     1
1002
}
  0
DIMENSION
  5
7C3B
  8
3
  6
CONTINUOUS
  2
*D11
 10
-1194.381318
 20
-1364.287143829665
 30
0.0
 11
-1672.101146
 21
-1364.287143829665
 31
0.0
 70
   128
 13
-2104.3813180000002
 23
-1251.488321829665
 33
0.0
 14
-1194.381318
 24
-1251.488321829665
 34
0.0
1001
ACAD
1000
DSTYLE
1002
{
1070
   287
1070
     3
1070
   287
1070
     3
1070
    40
1040
15.0
1070
   143
1040
0.039
1070
   172
1070
     1
1070
   271
1070
     0
1070
   279
1070
     0
1070
   288
1070
     1
1002
}
  0
DIMENSION
  5
7C48
  8
3
  6
CONTINUOUS
  2
*D12
 10
-1051.690067
 20
-1251.488321829665
 30
0.0
 11
-1051.690067
 21
-952.44053782966523
 31
0.0
 70
   128
 13
-1194.381318
 23
-651.4883218296651
 33
0.0
 14
-1194.381318
 24
-1251.488321829665
 34
0.0
 50
90.0
1001
ACAD
1000
DSTYLE
1002
{
1070
   287
1070
     3
1070
   287
1070
     3
1070
    40
1040
15.0
1070
   143
1040
0.039
1070
   172
1070
     1
1070
   271
1070
     0
1070
   279
1070
     0
1070
   288
1070
     1
1002
}
  0
LINE
  5
7C49
  8
2
  6
CENTER
 10
-1501.6437330000001
 20
-831.4883218296651
 30
0.0
 11
-2172.0948909999988
 21
-831.4883218296651
 31
0.0
  0
LINE
  5
7C4A
  8
2
  6
CENTER
 10
-1839.381318
 20
-1272.5039828296649
 30
0.0
 11
-1839.381318
 21
-645.2497198296652
 31
0.0
  0
LINE
  5
7C4B
  8
2
  6
CENTER
 10
-442.40355818733292
 20
-1779.9847296581049
 30
0.0
 11
-442.40355818733292
 21
-2669.869071658105
 31
0.0
  0
LINE
  5
7C4C
  8
2
  6
CENTER
 10
-1356.4006420000001
 20
-2171.7485426581052
 30
0.0
 11
-2151.5692899999999
 21
-2171.7485426581052
 31
0.0
  0
DIMENSION
  5
7C59
  8
3
  6
CONTINUOUS
  2
*D13
 10
-442.40355818733292
 20
-2769.4969856581051
 30
0.0
 11
-635.57107918733288
 21
-2769.4969856581051
 31
0.0
 70
   128
 13
-862.40355818733292
 23
-2653.7485426581052
 33
0.0
 14
-442.40355818733292
 24
-2669.869071658105
 34
0.0
1001
ACAD
1000
DSTYLE
1002
{
1070
   287
1070
     3
1070
   287
1070
     3
1070
    40
1040
15.0
1070
   143
1040
0.039
1070
   172
1070
     1
1070
   271
1070
     0
1070
   279
1070
     0
1070
   288
1070
     1
1002
}
  0
DIMENSION
  5
7C67
  8
3
  6
CONTINUOUS
  2
*D14
 10
-262.40355818733292
 20
-2769.4969856581051
 30
0.0
 11
-352.85210918733281
 21
-2770.017295658105
 31
0.0
 70
   128
 13
-442.40355818733292
 23
-2669.869071658105
 33
0.0
 14
-262.40355818733292
 24
-2653.7485426581052
 34
0.0
1001
ACAD
1000
DSTYLE
1002
{
1070
   287
1070
     4
1070
   287
1070
     4
1070
    40
1040
15.0
1070
    75
1070
     1
1070
   143
1040
0.039
1070
   172
1070
     1
1070
   271
1070
     0
1070
   279
1070
     1
1070
   288
1070
     1
1002
}
  0
DIMENSION
  5
7C8A
  8
3
  6
CONTINUOUS
  2
*D15
 10
-330.40355818733292
 20
-1788.113454658105
 30
0.0
 11
-450.474987187333
 21
-1788.113454658105
 31
0.0
 70
   128
 13
-554.40355818733292
 23
-1856.748542658105
 33
0.0
 14
-330.40355818733292
 24
-1856.748542658105
 34
0.0
1001
ACAD
1000
DSTYLE
1002
{
1070
   287
1070
     3
1070
   287
1070
     3
1070
    40
1040
15.0
1070
   143
1040
0.039
1070
   172
1070
     1
1070
   271
1070
     0
1070
   279
1070
     0
1070
   288
1070
     1
1002
}
  0
DIMENSION
  5
7C97
  8
3
  6
CONTINUOUS
  2
*D16
 10
-442.40355818733292
 20
-1690.5502176581051
 30
0.0
 11
-659.13097218733299
 21
-1690.5502176581051
 31
0.0
 70
   128
  1
MAX\P420
 13
-862.40355818733292
 23
-1941.748542658105
 33
0.0
 14
-442.40355818733292
 24
-1713.791754658105
 34
0.0
1001
ACAD
1000
DSTYLE
1002
{
1070
   287
1070
     3
1070
   287
1070
     3
1070
    40
1040
15.0
1070
   143
1040
0.039
1070
   172
1070
     1
1070
   271
1070
     0
1070
   279
1070
     0
1070
   288
1070
     1
1002
}
  0
DIMENSION
  5
7CA5
  8
3
  6
CONTINUOUS
  2
*D17
 10
-321.40355818733292
 20
-1690.5502176581051
 30
0.0
 11
-394.7363891873328
 21
-1690.5502176581051
 31
0.0
 70
   128
 13
-442.40355818733292
 23
-1713.791754658105
 33
0.0
 14
-321.40355818733292
 24
-1989.248542658105
 34
0.0
1001
ACAD
1000
DSTYLE
1002
{
1070
   287
1070
     4
1070
   287
1070
     4
1070
    40
1040
15.0
1070
    75
1070
     1
1070
   143
1040
0.039
1070
   172
1070
     1
1070
   271
1070
     0
1070
   279
1070
     1
1070
   288
1070
     1
1002
}
  0
LINE
  5
7CBD
  8
3
  6
CONTINUOUS
 10
-321.40355818733292
 20
-2014.248542658105
 30
0.0
 11
-306.55156718733292
 21
-2014.248542658105
 31
0.0
  0
LINE
  5
7CBF
  8
3
  6
CONTINUOUS
 10
-321.40355818733292
 20
-2329.2485426581052
 30
0.0
 11
-308.54987418733299
 21
-2329.2485426581052
 31
0.0
  0
DIMENSION
  5
7CCC
  8
3
  6
CONTINUOUS
  2
*D18
 10
-225.6205641873332
 20
-2329.2485426581052
 30
0.0
 11
-225.6205641873328
 21
-2186.7223476581048
 31
0.0
 70
   128
 13
-321.40355818733292
 23
-2014.248542658105
 33
0.0
 14
-321.40355818733292
 24
-2329.2485426581052
 34
0.0
 50
90.0
1001
ACAD
1000
DSTYLE
1002
{
1070
   287
1070
     3
1070
   287
1070
     3
1070
     3
1000
φ<>
1070
    40
1040
15.0
1070
   143
1040
0.039
1070
   172
1070
     1
1070
   271
1070
     0
1070
   279
1070
     0
1070
   288
1070
     1
1002
}
  0
LINE
  5
7CCD
  8
4
  6
CONTINUOUS
 10
-127.59123099999999
 20
-3035.915074
 30
0.0
 11
-127.59123099999999
 21
-3335.915074
 31
0.0
  0
LINE
  5
7CCE
  8
4
  6
CONTINUOUS
 10
-1177.5912310000001
 20
-3035.915074
 30
0.0
 11
-1177.5912310000001
 21
-3335.915074
 31
0.0
  0
LINE
  5
7CCF
  8
4
  6
CONTINUOUS
 10
-1927.5912310000001
 20
-3035.915074
 30
0.0
 11
-1927.5912310000001
 21
-3335.915074
 31
0.0
  0
LINE
  5
7CD2
  8
4
  6
CONTINUOUS
 10
-1927.5912310000001
 20
-3335.915074
 30
0.0
 11
-127.59123099999999
 21
-3335.915074
 31
0.0
  0
LINE
  5
7CD3
  8
4
  6
CONTINUOUS
 10
-1927.5912310000001
 20
-3185.915074
 30
0.0
 11
-127.59123099999999
 21
-3185.915074
 31
0.0
  0
TEXT
  5
7CD4
  8
4
  6
CONTINUOUS
 10
-1869.8381099999999
 20
-3138.600535
 30
0.0
 40
75.0
  1
機器名称
  0
TEXT
  5
7CD5
  8
4
  6
CONTINUOUS
 10
-1873.2040719999991
 20
-3303.4473389999998
 30
0.0
 40
75.0
  1
機器型番
  0
TEXT
  5
7CD6
  8
4
  6
CONTINUOUS
 10
-1136.0731129999999
 20
-3152.0574200000001
 30
0.0
 40
65.0
  1
ミツヤニューマルチファン
  0
TEXT
  5
7CD7
  8
4
  6
CONTINUOUS
 10
-1122.6094880000001
 20
-3310.1756970000001
 30
0.0
 40
75.0
  1
NM#2-1
  0
TEXT
  5
7CD9
  8
4
  6
CONTINUOUS
 10
-1827.205414999999
 20
-210.77181200000001
 30
0.0
 40
81.0
  1
天井吊防振ベット
  0
TEXT
  5
7CDA
  8
4
  6
CONTINUOUS
 10
-2428.339841
 20
14.906390999999999
 30
0.0
 40
108.0
  1
ベルト駆動式片吸込片持多翼ファン
  0
LINE
  5
7CDB
  8
4
  6
CONTINUOUS
 10
-2527.5912309999999
 20
-81.801941999999997
 30
0.0
 11
-127.59123099999999
 21
-81.801941999999997
 31
0.0
  0
LINE
  5
7CDC
  8
4
  6
CONTINUOUS
 10
-2527.5912309999999
 20
218.198058
 30
0.0
 11
-127.59123099999999
 21
218.198058
 31
0.0
  0
LINE
  5
7CDD
  8
4
  6
CONTINUOUS
 10
-1927.5912310000001
 20
-3035.915074
 30
0.0
 11
-127.59123099999999
 21
-3035.915074
 31
0.0
  0
LINE
  5
7CDE
  8
4
  6
CONTINUOUS
 10
-2527.5912309999999
 20
218.198058
 30
0.0
 11
-2527.5912309999999
 21
-81.801941999999997
 31
0.0
  0
TEXT
  5
7CDF
  8
4
  6
CONTINUOUS
 10
-2480.9936640000001
 20
-212.43585699999991
 30
0.0
 40
81.0
  1
左回転左向
  0
TEXT
  5
7CE0
  8
4
  6
CONTINUOUS
 10
-699.13689199999999
 20
273.17654900000002
 30
0.0
 40
84.0
  1
No.
  0
TEXT
  5
7CE1
  8
4
  6
CONTINUOUS
 10
-775.04235800000004
 20
-210.77181200000001
 30
0.0
 40
81.0
  1
縮尺：1/15
  0
LINE
  5
7CE2
  8
4
  6
CONTINUOUS
 10
-127.59123099999999
 20
218.198058
 30
0.0
 11
-127.59123099999999
 21
-81.801941999999997
 31
0.0
  0
LINE
  5
7CE4
  8
4
  6
CONTINUOUS
 10
-741.66509799999994
 20
235.98030099999991
 30
0.0
 11
-741.66509799999994
 21
394.06331899999992
 31
0.0
  0
LINE
  5
7CE5
  8
4
  6
CONTINUOUS
 10
-741.66509799999994
 20
394.06331899999992
 30
0.0
 11
-127.59123099999999
 21
394.06331899999992
 31
0.0
  0
LINE
  5
7CE6
  8
4
  6
CONTINUOUS
 10
-127.59123099999999
 20
394.06331899999992
 30
0.0
 11
-127.59123099999999
 21
235.98030099999991
 31
0.0
  0
LINE
  5
7CE7
  8
4
  6
CONTINUOUS
 10
-127.59123099999999
 20
235.98030099999991
 30
0.0
 11
-741.66509799999994
 21
235.98030099999991
 31
0.0
  0
DIMENSION
  5
7D80
  8
3
  2
*D20
 10
-1194.381318
 20
-1652.5521137383339
 30
0.0
 11
-1607.308807310106
 21
-1652.5521137383339
 31
0.0
 70
   128
 13
-2089.3813180000002
 23
-1835.248542658105
 33
0.0
 14
-1194.381318
 24
-2593.7485426581052
 34
0.0
1001
ACAD
1000
DSTYLE
1002
{
1070
   287
1070
     3
1070
   287
1070
     3
1070
    40
1040
15.0
1070
   143
1040
0.039
1070
   172
1070
     1
1070
   271
1070
     0
1070
   279
1070
     0
1070
   288
1070
     1
1002
}
  0
ENDSEC
  0
EOF
