  0
SECTION
  2
HEADER
  9
$ACADVER
  1
AC1009
  9
$INSBASE
 10
0.0
 20
0.0
 30
0.0
  9
$EXTMIN
 10
375.0
 20
450.0
 30
0.0
  9
$EXTMAX
 10
2775.0
 20
4179.978392
 30
0.0
  9
$LIMMIN
 10
0.0
 20
0.0
  9
$LIMMAX
 10
297.0
 20
210.0
  9
$ORTHOMODE
 70
     0
  9
$REGENMODE
 70
     1
  9
$FILLMODE
 70
     0
  9
$QTEXTMODE
 70
     0
  9
$MIRRTEXT
 70
     1
  9
$DRAGMODE
 70
     2
  9
$LTSCALE
 40
100.0
  9
$OSMODE
 70
    37
  9
$ATTMODE
 70
     1
  9
$TEXTSIZE
 40
180.0
  9
$TRACEWID
 40
0.05
  9
$TEXTSTYLE
  7
STANDARD
  9
$CLAYER
  8
3
  9
$CELTYPE
  6
BYLAYER
  9
$CECOLOR
 62
   256
  9
$DIMSCALE
 40
15.0
  9
$DIMASZ
 40
2.0
  9
$DIMEXO
 40
0.5
  9
$DIMDLI
 40
10.0
  9
$DIMRND
 40
0.0
  9
$DIMDLE
 40
0.0
  9
$DIMEXE
 40
1.0
  9
$DIMTP
 40
1.0
  9
$DIMTM
 40
1.0
  9
$DIMTXT
 40
3.0
  9
$DIMCEN
 40
0.0
  9
$DIMTSZ
 40
0.0
  9
$DIMTOL
 70
     0
  9
$DIMLIM
 70
     0
  9
$DIMTIH
 70
     0
  9
$DIMTOH
 70
     0
  9
$DIMSE1
 70
     0
  9
$DIMSE2
 70
     0
  9
$DIMTAD
 70
     1
  9
$DIMZIN
 70
     8
  9
$DIMBLK
  1

  9
$DIMASO
 70
     1
  9
$DIMSHO
 70
     1
  9
$DIMPOST
  1

  9
$DIMAPOST
  1

  9
$DIMALT
 70
     0
  9
$DIMALTD
 70
     2
  9
$DIMALTF
 40
0.039
  9
$DIMLFAC
 40
1.0
  9
$DIMTOFL
 70
     1
  9
$DIMTVP
 40
0.0
  9
$DIMTIX
 70
     0
  9
$DIMSOXD
 70
     0
  9
$DIMSAH
 70
     1
  9
$DIMBLK1
  1
OPEN
  9
$DIMBLK2
  1
OPEN
  9
$DIMSTYLE
  2
IGA
  9
$DIMCLRD
 70
     0
  9
$DIMCLRE
 70
     0
  9
$DIMCLRT
 70
     0
  9
$DIMTFAC
 40
10.0
  9
$DIMGAP
 40
1.0
  9
$LUNITS
 70
     2
  9
$LUPREC
 70
     3
  9
$SKETCHINC
 40
0.1
  9
$FILLETRAD
 40
50.0
  9
$AUNITS
 70
     0
  9
$AUPREC
 70
     0
  9
$MENU
  1
acad
  9
$ELEVATION
 40
0.0
  9
$PELEVATION
 40
0.0
  9
$THICKNESS
 40
0.0
  9
$LIMCHECK
 70
     0
  9
$BLIPMODE
 70
     0
  9
$CHAMFERA
 40
0.5
  9
$CHAMFERB
 40
0.5
  9
$SKPOLY
 70
     0
  9
$TDCREATE
 40
2450746.4565623831
  9
$TDUPDATE
 40
2454953.8650201499
  9
$TDINDWG
 40
0.0049786574
  9
$TDUSRTIMER
 40
0.0049786574
  9
$USRTIMER
 70
     1
  9
$ANGBASE
 50
0.0
  9
$ANGDIR
 70
     0
  9
$PDMODE
 70
     0
  9
$PDSIZE
 40
0.0
  9
$PLINEWID
 40
0.0
  9
$COORDS
 70
     1
  9
$SPLFRAME
 70
     0
  9
$SPLINETYPE
 70
     6
  9
$SPLINESEGS
 70
     8
  9
$ATTDIA
 70
     0
  9
$ATTREQ
 70
     1
  9
$HANDLING
 70
 10241
  9
$HANDSEED
  5
7F21
  9
$SURFTAB1
 70
     6
  9
$SURFTAB2
 70
     6
  9
$SURFTYPE
 70
     6
  9
$SURFU
 70
     6
  9
$SURFV
 70
     6
  9
$UCSNAME
  2

  9
$UCSORG
 10
0.0
 20
0.0
 30
0.0
  9
$UCSXDIR
 10
1.0
 20
0.0
 30
0.0
  9
$UCSYDIR
 10
0.0
 20
1.0
 30
0.0
  9
$PUCSNAME
  2

  9
$PUCSORG
 10
0.0
 20
0.0
 30
0.0
  9
$PUCSXDIR
 10
1.0
 20
0.0
 30
0.0
  9
$PUCSYDIR
 10
0.0
 20
1.0
 30
0.0
  9
$USERI1
 70
     0
  9
$USERI2
 70
     0
  9
$USERI3
 70
     0
  9
$USERI4
 70
     0
  9
$USERI5
 70
     0
  9
$USERR1
 40
0.0
  9
$USERR2
 40
0.0
  9
$USERR3
 40
0.0
  9
$USERR4
 40
0.0
  9
$USERR5
 40
0.0
  9
$WORLDVIEW
 70
     1
  9
$SHADEDGE
 70
     3
  9
$SHADEDIF
 70
    70
  9
$TILEMODE
 70
     1
  9
$MAXACTVP
 70
    16
  9
$PLIMCHECK
 70
     0
  9
$PEXTMIN
 10
1.0000000000000000E+020
 20
1.0000000000000000E+020
 30
1.0000000000000000E+020
  9
$PEXTMAX
 10
-1.0000000000000000E+020
 20
-1.0000000000000000E+020
 30
-1.0000000000000000E+020
  9
$PLIMMIN
 10
0.0
 20
0.0
  9
$PLIMMAX
 10
12.0
 20
9.0
  9
$UNITMODE
 70
     0
  9
$VISRETAIN
 70
     0
  9
$PLINEGEN
 70
     0
  9
$PSLTSCALE
 70
     1
  0
ENDSEC
  0
SECTION
  2
TABLES
  0
TABLE
  2
VPORT
 70
     2
  0
VPORT
  2
*ACTIVE
 70
     0
 10
0.0
 20
0.0
 11
1.0
 21
1.0
 12
4359.8613038784306
 22
2939.7948026846889
 13
0.0
 23
0.0
 14
10.0
 24
10.0
 15
10.0
 25
10.0
 16
0.0
 26
0.0
 36
1.0
 17
0.0
 27
0.0
 37
0.0
 40
5790.646323821431
 41
1.5051150895140659
 42
50.0
 43
0.0
 44
0.0
 50
0.0
 51
0.0
 71
     0
 72
   100
 73
     1
 74
     0
 75
     0
 76
     0
 77
     0
 78
     0
  0
ENDTAB
  0
TABLE
  2
LTYPE
 70
     2
  0
LTYPE
  2
CONTINUOUS
 70
     0
  3
Solid line
 72
    65
 73
     0
 40
0.0
  0
LTYPE
  2
CENTER
 70
     0
  3
____ _ ____ _ ____ _ ____ _ ____ _ ____ _ ____ 
 72
    65
 73
     4
 40
2.0
 49
1.25
 49
-0.25
 49
0.25
 49
-0.25
  0
ENDTAB
  0
TABLE
  2
LAYER
 70
     6
  0
LAYER
  2
0
 70
     0
 62
     7
  6
CONTINUOUS
  0
LAYER
  2
3
 70
     0
 62
     2
  6
CONTINUOUS
  0
LAYER
  2
2
 70
     0
 62
     3
  6
CENTER
  0
LAYER
  2
1
 70
     0
 62
     4
  6
CONTINUOUS
  0
LAYER
  2
4
 70
     0
 62
     7
  6
CONTINUOUS
  0
LAYER
  2
DEFPOINTS
 70
     0
 62
     7
  6
CONTINUOUS
  0
ENDTAB
  0
TABLE
  2
STYLE
 70
     1
  0
STYLE
  2
STANDARD
 70
     0
 40
0.0
 41
1.0
 50
0.0
 71
     0
 42
180.0
  3
simplex.shx
  4
extfont.shx
  0
ENDTAB
  0
TABLE
  2
VIEW
 70
     0
  0
ENDTAB
  0
TABLE
  2
UCS
 70
     0
  0
ENDTAB
  0
TABLE
  2
APPID
 70
     1
  0
APPID
  2
ACAD
 70
     0
  0
ENDTAB
  0
TABLE
  2
DIMSTYLE
 70
     1
  0
DIMSTYLE
  2
IGA
 70
     0
  3

  4

  5

  6
OPEN
  7
OPEN
 40
2.0
 41
2.0
 42
0.5
 43
10.0
 44
1.0
 45
0.0
 46
0.0
 47
1.0
 48
1.0
140
3.0
141
0.0
142
0.0
143
0.03937
144
1.0
145
0.0
146
10.0
147
1.0
 71
     0
 72
     0
 73
     0
 74
     0
 75
     0
 76
     0
 77
     1
 78
     8
170
     0
171
     2
172
     0
173
     1
174
     0
175
     0
176
     0
177
     0
178
     0
  0
ENDTAB
  0
ENDSEC
  0
SECTION
  2
BLOCKS
  0
BLOCK
  8
0
  2
$MODEL_SPACE
 70
     0
 10
0.0
 20
0.0
 30
0.0
  3
$MODEL_SPACE
  1

  0
ENDBLK
  5
1B
  8
0
  0
BLOCK
 67
     1
  8
0
  2
$PAPER_SPACE
 70
     0
 10
0.0
 20
0.0
 30
0.0
  3
$PAPER_SPACE
  1

  0
ENDBLK
  5
18
 67
     1
  8
0
  0
BLOCK
  8
0
  2
_OPEN
 70
     0
 10
0.0
 20
0.0
 30
0.0
  3
_OPEN
  1

  0
LINE
  5
7B43
  8
0
  6
BYBLOCK
 62
     0
 10
-1.0
 20
0.166667
 30
0.0
 11
0.0
 21
0.0
 31
0.0
  0
LINE
  5
7B44
  8
0
  6
BYBLOCK
 62
     0
 10
0.0
 20
0.0
 30
0.0
 11
-1.0
 21
-0.166667
 31
0.0
  0
LINE
  5
7B45
  8
0
  6
BYBLOCK
 62
     0
 10
0.0
 20
0.0
 30
0.0
 11
-1.0
 21
0.0
 31
0.0
  0
ENDBLK
  5
7B46
  8
0
  0
BLOCK
  8
0
  2
*D1
 70
     1
 10
0.0
 20
0.0
 30
0.0
  3
*D1
  1

  0
LINE
  5
7E61
  8
3
  6
CONTINUOUS
 62
     0
 10
919.91392200000007
 20
1354.9268712310829
 30
0.0
 11
919.91392200000007
 21
1243.270904231083
 31
0.0
  0
LINE
  5
7E62
  8
3
  6
CONTINUOUS
 62
     0
 10
1154.913921999999
 20
1319.527212231083
 30
0.0
 11
1154.913921999999
 21
1243.270904231083
 31
0.0
  0
LINE
  5
7E63
  8
3
  6
CONTINUOUS
 62
     0
 10
889.91392199999996
 20
1258.270904231083
 30
0.0
 11
859.91392200000007
 21
1258.270904231083
 31
0.0
  0
LINE
  5
7E64
  8
3
  6
CONTINUOUS
 62
     0
 10
1184.913921999999
 20
1258.270904231083
 30
0.0
 11
1214.913922
 21
1258.270904231083
 31
0.0
  0
LINE
  5
7E65
  8
3
  6
CONTINUOUS
 62
     0
 10
919.91392200000007
 20
1258.270904231083
 30
0.0
 11
1154.913921999999
 21
1258.270904231083
 31
0.0
  0
INSERT
  5
7E66
  8
3
  6
CONTINUOUS
 62
     0
  2
_OPEN
 10
919.91392200000007
 20
1258.270904231083
 30
0.0
 41
30.0
 42
30.0
 43
30.0
  0
INSERT
  5
7E67
  8
3
  6
CONTINUOUS
 62
     0
  2
_OPEN
 10
1154.913921999999
 20
1258.270904231083
 30
0.0
 41
30.0
 42
30.0
 43
30.0
 50
180.0
  0
TEXT
  8
3
  40
45
  5
7F0D
  62
0
  72
0
  71
0
 10
962.057
 20
1216.12
 30
0.000000
  1
235
  0
POINT
  5
7E69
  8
DEFPOINTS
  6
CONTINUOUS
 62
     0
 10
919.91392200000007
 20
1362.426871231082
 30
0.0
  0
POINT
  5
7E6A
  8
DEFPOINTS
  6
CONTINUOUS
 62
     0
 10
1154.913921999999
 20
1327.027212231083
 30
0.0
  0
POINT
  5
7E6B
  8
DEFPOINTS
  6
CONTINUOUS
 62
     0
 10
1154.913921999999
 20
1258.270904231083
 30
0.0
  0
ENDBLK
  5
7B53
  8
0
  0
BLOCK
  8
0
  2
*D2
 70
     1
 10
0.0
 20
0.0
 30
0.0
  3
*D2
  1

  0
LINE
  5
7E6C
  8
3
  6
CONTINUOUS
 62
     0
 10
1769.913921999999
 20
1354.9268712310829
 30
0.0
 11
1769.913921999999
 21
1243.270904231083
 31
0.0
  0
LINE
  5
7E6D
  8
3
  6
CONTINUOUS
 62
     0
 10
1184.913921999999
 20
1258.270904231083
 30
0.0
 11
1739.913921999999
 21
1258.270904231083
 31
0.0
  0
INSERT
  5
7E6E
  8
3
  6
CONTINUOUS
 62
     0
  2
_OPEN
 10
1154.913921999999
 20
1258.270904231083
 30
0.0
 41
30.0
 42
30.0
 43
30.0
 50
180.0
  0
INSERT
  5
7E6F
  8
3
  6
CONTINUOUS
 62
     0
  2
_OPEN
 10
1769.913921999999
 20
1258.270904231083
 30
0.0
 41
30.0
 42
30.0
 43
30.0
  0
TEXT
  8
3
  40
45
  5
7F0E
  62
0
  72
0
  71
0
 10
1372.41
 20
1216.12
 30
0.000000
  1
615
  0
POINT
  5
7E71
  8
DEFPOINTS
  6
CONTINUOUS
 62
     0
 10
1154.913921999999
 20
1327.027212231083
 30
0.0
  0
POINT
  5
7E72
  8
DEFPOINTS
  6
CONTINUOUS
 62
     0
 10
1769.913921999999
 20
1362.426871231082
 30
0.0
  0
POINT
  5
7E73
  8
DEFPOINTS
  6
CONTINUOUS
 62
     0
 10
1769.913921999999
 20
1258.270904231083
 30
0.0
  0
ENDBLK
  5
7B5F
  8
0
  0
BLOCK
  8
0
  2
*D3
 70
     1
 10
0.0
 20
0.0
 30
0.0
  3
*D3
  1

  0
LINE
  5
7E74
  8
3
  6
CONTINUOUS
 62
     0
 10
897.41392200000007
 20
1792.4268712310829
 30
0.0
 11
822.73927334826908
 21
1792.4268712310829
 31
0.0
  0
LINE
  5
7E75
  8
3
  6
CONTINUOUS
 62
     0
 10
897.41392200000007
 20
1477.4268712310829
 30
0.0
 11
822.73927334826908
 21
1477.4268712310829
 31
0.0
  0
LINE
  5
7E76
  8
3
  6
CONTINUOUS
 62
     0
 10
837.73927334826897
 20
1762.4268712310829
 30
0.0
 11
837.73927334826897
 21
1507.426871231082
 31
0.0
  0
INSERT
  5
7E77
  8
3
  6
CONTINUOUS
 62
     0
  2
_OPEN
 10
837.73927334826908
 20
1792.4268712310829
 30
0.0
 41
30.0
 42
30.0
 43
30.0
 50
90.0
  0
INSERT
  5
7E78
  8
3
  6
CONTINUOUS
 62
     0
  2
_OPEN
 10
837.73927334826897
 20
1477.4268712310829
 30
0.0
 41
30.0
 42
30.0
 43
30.0
 50
270.0
  0
TEXT
  8
3
  40
45
  5
7F0F
  62
0
  72
0
  71
0
 10
710.239
 20
1546.01
 30
0.000000
  1
315
  0
POINT
  5
7E7A
  8
DEFPOINTS
  6
CONTINUOUS
 62
     0
 10
904.91392199999996
 20
1792.4268712310829
 30
0.0
  0
POINT
  5
7E7B
  8
DEFPOINTS
  6
CONTINUOUS
 62
     0
 10
904.91392199999996
 20
1477.4268712310829
 30
0.0
  0
POINT
  5
7E7C
  8
DEFPOINTS
  6
CONTINUOUS
 62
     0
 10
837.73927334826897
 20
1477.4268712310829
 30
0.0
  0
ENDBLK
  5
7D2D
  8
0
  0
BLOCK
  8
0
  2
*D4
 70
     1
 10
0.0
 20
0.0
 30
0.0
  3
*D4
  1

  0
LINE
  5
7E7D
  8
3
  6
CONTINUOUS
 62
     0
 10
1147.413921999999
 20
2024.672058231082
 30
0.0
 11
649.20824934826919
 21
2024.672058231082
 31
0.0
  0
LINE
  5
7E7E
  8
3
  6
CONTINUOUS
 62
     0
 10
897.41392200000007
 20
1792.4268712310829
 30
0.0
 11
649.20824934826919
 21
1792.4268712310829
 31
0.0
  0
LINE
  5
7E7F
  8
3
  6
CONTINUOUS
 62
     0
 10
664.20824934826931
 20
2054.6720582310832
 30
0.0
 11
664.20824934826931
 21
2084.6720582310832
 31
0.0
  0
LINE
  5
7E80
  8
3
  6
CONTINUOUS
 62
     0
 10
664.20824934826919
 20
1762.4268712310829
 30
0.0
 11
664.20824934826919
 21
1732.4268712310829
 31
0.0
  0
LINE
  5
7E81
  8
3
  6
CONTINUOUS
 62
     0
 10
664.20824934826931
 20
2024.672058231082
 30
0.0
 11
664.20824934826931
 21
1792.4268712310829
 31
0.0
  0
INSERT
  5
7E82
  8
3
  6
CONTINUOUS
 62
     0
  2
_OPEN
 10
664.20824934826931
 20
2024.672058231082
 30
0.0
 41
30.0
 42
30.0
 43
30.0
 50
270.0
  0
INSERT
  5
7E83
  8
3
  6
CONTINUOUS
 62
     0
  2
_OPEN
 10
664.20824934826931
 20
1792.4268712310829
 30
0.0
 41
30.0
 42
30.0
 43
30.0
 50
90.0
  0
TEXT
  8
3
  40
45
  5
7F10
  62
0
  72
0
  71
0
 10
536.708
 20
1815.63
 30
0.000000
  1
232
  0
POINT
  5
7E85
  8
DEFPOINTS
  6
CONTINUOUS
 62
     0
 10
1154.913921999999
 20
2024.672058231082
 30
0.0
  0
POINT
  5
7E86
  8
DEFPOINTS
  6
CONTINUOUS
 62
     0
 10
904.91392199999996
 20
1792.4268712310829
 30
0.0
  0
POINT
  5
7E87
  8
DEFPOINTS
  6
CONTINUOUS
 62
     0
 10
664.20824934826931
 20
1792.4268712310829
 30
0.0
  0
ENDBLK
  5
7D00
  8
0
  0
BLOCK
  8
0
  2
*D5
 70
     1
 10
0.0
 20
0.0
 30
0.0
  3
*D5
  1

  0
LINE
  5
7E88
  8
3
  6
CONTINUOUS
 62
     0
 10
912.41392200000007
 20
1392.4268712310829
 30
0.0
 11
649.20824934826896
 21
1392.4268712310829
 31
0.0
  0
LINE
  5
7E89
  8
3
  6
CONTINUOUS
 62
     0
 10
664.20824934826885
 20
1762.4268712310829
 30
0.0
 11
664.20824934826885
 21
1422.4268712310829
 31
0.0
  0
INSERT
  5
7E8A
  8
3
  6
CONTINUOUS
 62
     0
  2
_OPEN
 10
664.20824934826896
 20
1792.4268712310829
 30
0.0
 41
30.0
 42
30.0
 43
30.0
 50
90.0
  0
INSERT
  5
7E8B
  8
3
  6
CONTINUOUS
 62
     0
  2
_OPEN
 10
664.20824934826885
 20
1392.4268712310829
 30
0.0
 41
30.0
 42
30.0
 43
30.0
 50
270.0
  0
TEXT
  8
3
  40
45
  5
7F11
  62
0
  72
0
  71
0
 10
536.708
 20
1512.78
 30
0.000000
  1
400
  0
POINT
  5
7E8D
  8
DEFPOINTS
  6
CONTINUOUS
 62
     0
 10
904.91392199999996
 20
1792.4268712310829
 30
0.0
  0
POINT
  5
7E8E
  8
DEFPOINTS
  6
CONTINUOUS
 62
     0
 10
919.91392200000007
 20
1392.4268712310829
 30
0.0
  0
POINT
  5
7E8F
  8
DEFPOINTS
  6
CONTINUOUS
 62
     0
 10
664.20824934826885
 20
1392.4268712310829
 30
0.0
  0
ENDBLK
  5
7D17
  8
0
  0
BLOCK
  8
0
  2
*D6
 70
     1
 10
0.0
 20
0.0
 30
0.0
  3
*D6
  1

  0
LINE
  5
7E90
  8
3
  6
CONTINUOUS
 62
     0
 10
912.41392200000007
 20
1392.4268712310829
 30
0.0
 11
649.20824934826908
 21
1392.4268712310829
 31
0.0
  0
LINE
  5
7E91
  8
3
  6
CONTINUOUS
 62
     0
 10
912.41392200000007
 20
1362.426871231082
 30
0.0
 11
649.20824934826908
 21
1362.426871231082
 31
0.0
  0
LINE
  5
7E92
  8
3
  6
CONTINUOUS
 62
     0
 10
664.20824934826919
 20
1422.4268712310829
 30
0.0
 11
664.20824934826919
 21
1452.4268712310829
 31
0.0
  0
LINE
  5
7E93
  8
3
  6
CONTINUOUS
 62
     0
 10
664.20824934826919
 20
1332.426871231082
 30
0.0
 11
664.20824934826896
 21
1199.5697283739401
 31
0.0
  0
LINE
  5
7E94
  8
3
  6
CONTINUOUS
 62
     0
 10
664.20824934826919
 20
1392.4268712310829
 30
0.0
 11
664.20824934826919
 21
1362.426871231082
 31
0.0
  0
INSERT
  5
7E95
  8
3
  6
CONTINUOUS
 62
     0
  2
_OPEN
 10
664.20824934826919
 20
1392.4268712310829
 30
0.0
 41
30.0
 42
30.0
 43
30.0
 50
270.0
  0
INSERT
  5
7E96
  8
3
  6
CONTINUOUS
 62
     0
  2
_OPEN
 10
664.20824934826919
 20
1362.426871231082
 30
0.0
 41
30.0
 42
30.0
 43
30.0
 50
90.0
  0
TEXT
  8
3
  40
45
  5
7F12
  62
0
  72
0
  71
0
 10
536.708
 20
1171.35
 30
0.000000
  1
30
  0
POINT
  5
7E98
  8
DEFPOINTS
  6
CONTINUOUS
 62
     0
 10
919.91392200000007
 20
1392.4268712310829
 30
0.0
  0
POINT
  5
7E99
  8
DEFPOINTS
  6
CONTINUOUS
 62
     0
 10
919.91392200000007
 20
1362.426871231082
 30
0.0
  0
POINT
  5
7E9A
  8
DEFPOINTS
  6
CONTINUOUS
 62
     0
 10
664.20824934826919
 20
1362.426871231082
 30
0.0
  0
ENDBLK
  5
7D0D
  8
0
  0
BLOCK
  8
0
  2
*D7
 70
     1
 10
0.0
 20
0.0
 30
0.0
  3
*D7
  1

  0
LINE
  5
7E9B
  8
3
  6
CONTINUOUS
 62
     0
 10
1147.413921999999
 20
2024.672058231082
 30
0.0
 11
557.76866834826922
 21
2024.672058231082
 31
0.0
  0
LINE
  5
7E9C
  8
3
  6
CONTINUOUS
 62
     0
 10
912.41392200000007
 20
1362.426871231082
 30
0.0
 11
557.76866834826899
 21
1362.426871231082
 31
0.0
  0
LINE
  5
7E9D
  8
3
  6
CONTINUOUS
 62
     0
 10
572.76866834826922
 20
1994.672058231082
 30
0.0
 11
572.7686683482691
 21
1392.4268712310829
 31
0.0
  0
INSERT
  5
7E9E
  8
3
  6
CONTINUOUS
 62
     0
  2
_OPEN
 10
572.76866834826922
 20
2024.672058231082
 30
0.0
 41
30.0
 42
30.0
 43
30.0
 50
90.0
  0
INSERT
  5
7E9F
  8
3
  6
CONTINUOUS
 62
     0
  2
_OPEN
 10
572.7686683482691
 20
1362.426871231082
 30
0.0
 41
30.0
 42
30.0
 43
30.0
 50
270.0
  0
TEXT
  8
3
  40
45
  5
7F13
  62
0
  72
0
  71
0
 10
445.269
 20
1615.23
 30
0.000000
  1
662
  0
POINT
  5
7EA1
  8
DEFPOINTS
  6
CONTINUOUS
 62
     0
 10
1154.913921999999
 20
2024.672058231082
 30
0.0
  0
POINT
  5
7EA2
  8
DEFPOINTS
  6
CONTINUOUS
 62
     0
 10
919.91392200000007
 20
1362.426871231082
 30
0.0
  0
POINT
  5
7EA3
  8
DEFPOINTS
  6
CONTINUOUS
 62
     0
 10
572.7686683482691
 20
1362.426871231082
 30
0.0
  0
ENDBLK
  5
7CF5
  8
0
  0
BLOCK
  8
0
  2
*D8
 70
     1
 10
0.0
 20
0.0
 30
0.0
  3
*D8
  1

  0
LINE
  5
7EA4
  8
3
  6
CONTINUOUS
 62
     0
 10
904.91392199999996
 20
1821.426871231082
 30
0.0
 11
904.91392199999996
 21
2095.9441952310822
 31
0.0
  0
LINE
  5
7EA5
  8
3
  6
CONTINUOUS
 62
     0
 10
1154.913921999999
 20
2032.172058231082
 30
0.0
 11
1154.913921999999
 21
2095.9441952310822
 31
0.0
  0
LINE
  5
7EA6
  8
3
  6
CONTINUOUS
 62
     0
 10
934.91392200000007
 20
2080.9441952310822
 30
0.0
 11
1124.913921999999
 21
2080.9441952310822
 31
0.0
  0
INSERT
  5
7EA7
  8
3
  6
CONTINUOUS
 62
     0
  2
_OPEN
 10
904.91392199999996
 20
2080.9441952310822
 30
0.0
 41
30.0
 42
30.0
 43
30.0
 50
180.0
  0
INSERT
  5
7EA8
  8
3
  6
CONTINUOUS
 62
     0
  2
_OPEN
 10
1154.913921999999
 20
2080.9441952310822
 30
0.0
 41
30.0
 42
30.0
 43
30.0
  0
TEXT
  8
3
  40
45
  5
7F14
  62
0
  72
0
  71
0
 10
944.242
 20
2038.79
 30
0.000000
  1
250
  0
POINT
  5
7EAA
  8
DEFPOINTS
  6
CONTINUOUS
 62
     0
 10
904.91392199999996
 20
1813.9268712310829
 30
0.0
  0
POINT
  5
7EAB
  8
DEFPOINTS
  6
CONTINUOUS
 62
     0
 10
1154.913921999999
 20
2024.672058231082
 30
0.0
  0
POINT
  5
7EAC
  8
DEFPOINTS
  6
CONTINUOUS
 62
     0
 10
1154.913921999999
 20
2080.9441952310822
 30
0.0
  0
ENDBLK
  5
7BC9
  8
0
  0
BLOCK
  8
0
  2
*D9
 70
     1
 10
0.0
 20
0.0
 30
0.0
  3
*D9
  1

  0
LINE
  5
7EAD
  8
3
  6
CONTINUOUS
 62
     0
 10
1428.913922
 20
1774.4268712310829
 30
0.0
 11
1428.913922
 21
2095.9441952310822
 31
0.0
  0
LINE
  5
7EAE
  8
3
  6
CONTINUOUS
 62
     0
 10
1184.913921999999
 20
2080.9441952310822
 30
0.0
 11
1398.913922
 21
2080.9441952310822
 31
0.0
  0
INSERT
  5
7EAF
  8
3
  6
CONTINUOUS
 62
     0
  2
_OPEN
 10
1154.913921999999
 20
2080.9441952310822
 30
0.0
 41
30.0
 42
30.0
 43
30.0
 50
180.0
  0
INSERT
  5
7EB0
  8
3
  6
CONTINUOUS
 62
     0
  2
_OPEN
 10
1428.913922
 20
2080.9441952310822
 30
0.0
 41
30.0
 42
30.0
 43
30.0
  0
TEXT
  8
3
  40
45
  5
7F15
  62
0
  72
0
  71
0
 10
1201.91
 20
2038.79
 30
0.000000
  1
274
  0
POINT
  5
7EB2
  8
DEFPOINTS
  6
CONTINUOUS
 62
     0
 10
1154.913921999999
 20
2024.672058231082
 30
0.0
  0
POINT
  5
7EB3
  8
DEFPOINTS
  6
CONTINUOUS
 62
     0
 10
1428.913922
 20
1766.9268712310829
 30
0.0
  0
POINT
  5
7EB4
  8
DEFPOINTS
  6
CONTINUOUS
 62
     0
 10
1428.913922
 20
2080.9441952310822
 30
0.0
  0
ENDBLK
  5
7D69
  8
0
  0
BLOCK
  8
0
  2
*D10
 70
     1
 10
0.0
 20
0.0
 30
0.0
  3
*D10
  1

  0
LINE
  5
7EB5
  8
3
  6
CONTINUOUS
 62
     0
 10
919.91392200000007
 20
2550.4966641808878
 30
0.0
 11
919.91392200000007
 21
2411.4286321808881
 31
0.0
  0
LINE
  5
7EB6
  8
3
  6
CONTINUOUS
 62
     0
 10
1769.913921999999
 20
2550.4966641808878
 30
0.0
 11
1769.913921999999
 21
2411.4286321808881
 31
0.0
  0
LINE
  5
7EB7
  8
3
  6
CONTINUOUS
 62
     0
 10
949.91392200000007
 20
2426.4286321808881
 30
0.0
 11
1739.913921999999
 21
2426.4286321808881
 31
0.0
  0
INSERT
  5
7EB8
  8
3
  6
CONTINUOUS
 62
     0
  2
_OPEN
 10
919.91392200000007
 20
2426.4286321808881
 30
0.0
 41
30.0
 42
30.0
 43
30.0
 50
180.0
  0
INSERT
  5
7EB9
  8
3
  6
CONTINUOUS
 62
     0
  2
_OPEN
 10
1769.913921999999
 20
2426.4286321808881
 30
0.0
 41
30.0
 42
30.0
 43
30.0
  0
TEXT
  8
3
  40
45
  5
7F16
  62
0
  72
0
  71
0
 10
1253.10
 20
2384.28
 30
0.000000
  1
850
  0
POINT
  5
7EBB
  8
DEFPOINTS
  6
CONTINUOUS
 62
     0
 10
919.91392200000007
 20
2557.9966641808878
 30
0.0
  0
POINT
  5
7EBC
  8
DEFPOINTS
  6
CONTINUOUS
 62
     0
 10
1769.913921999999
 20
2557.9966641808878
 30
0.0
  0
POINT
  5
7EBD
  8
DEFPOINTS
  6
CONTINUOUS
 62
     0
 10
1769.913921999999
 20
2426.4286321808881
 30
0.0
  0
ENDBLK
  5
7BE3
  8
0
  0
BLOCK
  8
0
  2
*D11
 70
     1
 10
0.0
 20
0.0
 30
0.0
  3
*D11
  1

  0
LINE
  5
7EBE
  8
3
  6
CONTINUOUS
 62
     0
 10
1777.413922
 20
3157.9966641808878
 30
0.0
 11
1927.4677429999999
 21
3157.9966641808878
 31
0.0
  0
LINE
  5
7EBF
  8
3
  6
CONTINUOUS
 62
     0
 10
1777.413922
 20
2557.9966641808878
 30
0.0
 11
1927.4677429999999
 21
2557.9966641808878
 31
0.0
  0
LINE
  5
7EC0
  8
3
  6
CONTINUOUS
 62
     0
 10
1912.4677429999999
 20
3127.9966641808878
 30
0.0
 11
1912.4677429999999
 21
2587.9966641808878
 31
0.0
  0
INSERT
  5
7EC1
  8
3
  6
CONTINUOUS
 62
     0
  2
_OPEN
 10
1912.4677429999999
 20
3157.9966641808878
 30
0.0
 41
30.0
 42
30.0
 43
30.0
 50
90.0
  0
INSERT
  5
7EC2
  8
3
  6
CONTINUOUS
 62
     0
  2
_OPEN
 10
1912.4677429999999
 20
2557.9966641808878
 30
0.0
 41
30.0
 42
30.0
 43
30.0
 50
270.0
  0
TEXT
  8
3
  40
45
  5
7F17
  62
0
  72
0
  71
0
 10
1784.97
 20
2792.11
 30
0.000000
  1
600
  0
POINT
  5
7EC4
  8
DEFPOINTS
  6
CONTINUOUS
 62
     0
 10
1769.913921999999
 20
3157.9966641808878
 30
0.0
  0
POINT
  5
7EC5
  8
DEFPOINTS
  6
CONTINUOUS
 62
     0
 10
1769.913921999999
 20
2557.9966641808878
 30
0.0
  0
POINT
  5
7EC6
  8
DEFPOINTS
  6
CONTINUOUS
 62
     0
 10
1912.4677429999999
 20
2557.9966641808878
 30
0.0
  0
ENDBLK
  5
7BF0
  8
0
  0
BLOCK
  8
0
  2
*D12
 70
     1
 10
0.0
 20
0.0
 30
0.0
  3
*D12
  1

  0
LINE
  5
7EC7
  8
3
  6
CONTINUOUS
 62
     0
 10
2003.1460736494901
 20
1354.9268712310829
 30
0.0
 11
2003.1460736494901
 21
1237.3467732310819
 31
0.0
  0
LINE
  5
7EC8
  8
3
  6
CONTINUOUS
 62
     0
 10
2423.1460736494901
 20
1354.9268712310829
 30
0.0
 11
2423.1460736494901
 21
1237.3467732310819
 31
0.0
  0
LINE
  5
7EC9
  8
3
  6
CONTINUOUS
 62
     0
 10
2033.1460736494901
 20
1252.3467732310819
 30
0.0
 11
2393.1460736494901
 21
1252.3467732310819
 31
0.0
  0
INSERT
  5
7ECA
  8
3
  6
CONTINUOUS
 62
     0
  2
_OPEN
 10
2003.1460736494901
 20
1252.3467732310819
 30
0.0
 41
30.0
 42
30.0
 43
30.0
 50
180.0
  0
INSERT
  5
7ECB
  8
3
  6
CONTINUOUS
 62
     0
  2
_OPEN
 10
2423.1460736494901
 20
1252.3467732310819
 30
0.0
 41
30.0
 42
30.0
 43
30.0
  0
TEXT
  8
3
  40
45
  5
7F18
  62
0
  72
0
  71
0
 10
2142.40
 20
1210.20
 30
0.000000
  1
420
  0
POINT
  5
7ECD
  8
DEFPOINTS
  6
CONTINUOUS
 62
     0
 10
2003.1460736494901
 20
1362.426871231082
 30
0.0
  0
POINT
  5
7ECE
  8
DEFPOINTS
  6
CONTINUOUS
 62
     0
 10
2423.1460736494901
 20
1362.426871231082
 30
0.0
  0
POINT
  5
7ECF
  8
DEFPOINTS
  6
CONTINUOUS
 62
     0
 10
2423.1460736494901
 20
1252.3467732310819
 30
0.0
  0
ENDBLK
  5
7C01
  8
0
  0
BLOCK
  8
0
  2
*D13
 70
     1
 10
0.0
 20
0.0
 30
0.0
  3
*D13
  1

  0
LINE
  5
7ED0
  8
3
  6
CONTINUOUS
 62
     0
 10
2603.1460736494901
 20
1354.9268712310829
 30
0.0
 11
2603.1460736494901
 21
1237.3467732310819
 31
0.0
  0
LINE
  5
7ED1
  8
3
  6
CONTINUOUS
 62
     0
 10
2453.1460736494901
 20
1252.3467732310819
 30
0.0
 11
2573.1460736494901
 21
1252.3467732310819
 31
0.0
  0
TEXT
  8
3
  40
45
  5
7F19
  62
0
  72
0
  71
0
 10
2429.86
 20
1209.96
 30
0.000000
  1
180
  0
INSERT
  5
7ED3
  8
3
  6
CONTINUOUS
 62
     0
  2
_OPEN
 10
2423.1460736494901
 20
1252.3467732310819
 30
0.0
 41
30.0
 42
30.0
 43
30.0
 50
180.0
  0
INSERT
  5
7ED4
  8
3
  6
CONTINUOUS
 62
     0
  2
_OPEN
 10
2603.1460736494901
 20
1252.3467732310819
 30
0.0
 41
30.0
 42
30.0
 43
30.0
  0
POINT
  5
7ED5
  8
DEFPOINTS
  6
CONTINUOUS
 62
     0
 10
2423.1460736494901
 20
1362.426871231082
 30
0.0
  0
POINT
  5
7ED6
  8
DEFPOINTS
  6
CONTINUOUS
 62
     0
 10
2603.1460736494901
 20
1362.426871231082
 30
0.0
  0
POINT
  5
7ED7
  8
DEFPOINTS
  6
CONTINUOUS
 62
     0
 10
2603.1460736494901
 20
1252.3467732310819
 30
0.0
  0
ENDBLK
  5
7C26
  8
0
  0
BLOCK
  8
0
  2
*D14
 70
     1
 10
0.0
 20
0.0
 30
0.0
  3
*D14
  1

  0
LINE
  5
7ED8
  8
3
  6
CONTINUOUS
 62
     0
 10
2311.3460736494899
 20
2015.8482182310829
 30
0.0
 11
2311.3460736494899
 21
2084.894672231083
 31
0.0
  0
LINE
  5
7ED9
  8
3
  6
CONTINUOUS
 62
     0
 10
2535.146073649491
 20
2013.0268712310831
 30
0.0
 11
2535.146073649491
 21
2084.894672231083
 31
0.0
  0
LINE
  5
7EDA
  8
3
  6
CONTINUOUS
 62
     0
 10
2341.3460736494899
 20
2069.894672231082
 30
0.0
 11
2505.1460736494901
 21
2069.894672231082
 31
0.0
  0
INSERT
  5
7EDB
  8
3
  6
CONTINUOUS
 62
     0
  2
_OPEN
 10
2311.3460736494899
 20
2069.894672231082
 30
0.0
 41
30.0
 42
30.0
 43
30.0
 50
180.0
  0
INSERT
  5
7EDC
  8
3
  6
CONTINUOUS
 62
     0
  2
_OPEN
 10
2535.146073649491
 20
2069.894672231082
 30
0.0
 41
30.0
 42
30.0
 43
30.0
  0
TEXT
  8
3
  40
45
  5
7F1A
  62
0
  72
0
  71
0
 10
2325.27
 20
2027.74
 30
0.000000
  1
224
  0
POINT
  5
7EDE
  8
DEFPOINTS
  6
CONTINUOUS
 62
     0
 10
2311.3460736494899
 20
2008.348218231082
 30
0.0
  0
POINT
  5
7EDF
  8
DEFPOINTS
  6
CONTINUOUS
 62
     0
 10
2535.146073649491
 20
2005.5268712310819
 30
0.0
  0
POINT
  5
7EE0
  8
DEFPOINTS
  6
CONTINUOUS
 62
     0
 10
2535.146073649491
 20
2069.894672231082
 30
0.0
  0
ENDBLK
  5
7C32
  8
0
  0
BLOCK
  8
0
  2
*D15
 70
     1
 10
0.0
 20
0.0
 30
0.0
  3
*D15
  1

  0
LINE
  5
7EE1
  8
3
  6
CONTINUOUS
 62
     0
 10
2003.1460736494901
 20
2039.4268712310829
 30
0.0
 11
2003.1460736494901
 21
2189.9482442310818
 31
0.0
  0
LINE
  5
7EE2
  8
3
  6
CONTINUOUS
 62
     0
 10
2423.1460736494901
 20
2149.3458262310828
 30
0.0
 11
2423.1460736494901
 21
2189.9482442310818
 31
0.0
  0
LINE
  5
7EE3
  8
3
  6
CONTINUOUS
 62
     0
 10
2033.1460736494901
 20
2174.9482442310832
 30
0.0
 11
2393.1460736494901
 21
2174.9482442310832
 31
0.0
  0
INSERT
  5
7EE4
  8
3
  6
CONTINUOUS
 62
     0
  2
_OPEN
 10
2003.1460736494901
 20
2174.9482442310832
 30
0.0
 41
30.0
 42
30.0
 43
30.0
 50
180.0
  0
INSERT
  5
7EE5
  8
3
  6
CONTINUOUS
 62
     0
  2
_OPEN
 10
2423.1460736494901
 20
2174.9482442310832
 30
0.0
 41
30.0
 42
30.0
 43
30.0
  0
TEXT
  8
3
  40
45
  5
7F1B
  62
0
  72
0
  71
0
 10
2128.38
 20
2170.30
 30
0.000000
  1
MAX
  0
TEXT
  8
3
  40
45
  5
7F1C
  62
0
  72
0
  71
0
 10
2128.38
 20
2111.80
 30
0.000000
  1
420
  0
POINT
  5
7EE7
  8
DEFPOINTS
  6
CONTINUOUS
 62
     0
 10
2003.1460736494901
 20
2031.9268712310829
 30
0.0
  0
POINT
  5
7EE8
  8
DEFPOINTS
  6
CONTINUOUS
 62
     0
 10
2423.1460736494901
 20
2141.8458262310828
 30
0.0
  0
POINT
  5
7EE9
  8
DEFPOINTS
  6
CONTINUOUS
 62
     0
 10
2423.1460736494901
 20
2174.9482442310832
 30
0.0
  0
ENDBLK
  5
7D50
  8
0
  0
BLOCK
  8
0
  2
*D16
 70
     1
 10
0.0
 20
0.0
 30
0.0
  3
*D16
  1

  0
LINE
  5
7EEA
  8
3
  6
CONTINUOUS
 62
     0
 10
2544.1460736494901
 20
1982.4268712310829
 30
0.0
 11
2544.1460736494901
 21
2189.9482442310818
 31
0.0
  0
LINE
  5
7EEB
  8
3
  6
CONTINUOUS
 62
     0
 10
2453.1460736494901
 20
2174.9482442310832
 30
0.0
 11
2514.1460736494901
 21
2174.9482442310832
 31
0.0
  0
TEXT
  8
3
  40
45
  5
7F1D
  62
0
  72
0
  71
0
 10
2390.13
 20
2133.03
 30
0.000000
  1
121
  0
INSERT
  5
7EED
  8
3
  6
CONTINUOUS
 62
     0
  2
_OPEN
 10
2423.1460736494901
 20
2174.9482442310832
 30
0.0
 41
30.0
 42
30.0
 43
30.0
 50
180.0
  0
INSERT
  5
7EEE
  8
3
  6
CONTINUOUS
 62
     0
  2
_OPEN
 10
2544.1460736494901
 20
2174.9482442310832
 30
0.0
 41
30.0
 42
30.0
 43
30.0
  0
POINT
  5
7EEF
  8
DEFPOINTS
  6
CONTINUOUS
 62
     0
 10
2423.1460736494901
 20
2141.8458262310828
 30
0.0
  0
POINT
  5
7EF0
  8
DEFPOINTS
  6
CONTINUOUS
 62
     0
 10
2544.1460736494901
 20
1974.926871231082
 30
0.0
  0
POINT
  5
7EF1
  8
DEFPOINTS
  6
CONTINUOUS
 62
     0
 10
2544.1460736494901
 20
2174.9482442310832
 30
0.0
  0
ENDBLK
  5
7CCD
  8
0
  0
BLOCK
  8
0
  2
*D17
 70
     1
 10
0.0
 20
0.0
 30
0.0
  3
*D17
  1

  0
LINE
  5
7EF2
  8
3
  6
CONTINUOUS
 62
     0
 10
2551.6460736494901
 20
1949.9268712310829
 30
0.0
 11
2647.1571536494898
 21
1949.926871231082
 31
0.0
  0
LINE
  5
7EF3
  8
3
  6
CONTINUOUS
 62
     0
 10
2551.6460736494901
 20
1634.9268712310829
 30
0.0
 11
2647.1571536494898
 21
1634.926871231082
 31
0.0
  0
LINE
  5
7EF4
  8
3
  6
CONTINUOUS
 62
     0
 10
2632.1571536494898
 20
1919.9268712310829
 30
0.0
 11
2632.1571536494898
 21
1664.9268712310829
 31
0.0
  0
INSERT
  5
7EF5
  8
3
  6
CONTINUOUS
 62
     0
  2
_OPEN
 10
2632.1571536494898
 20
1949.926871231082
 30
0.0
 41
30.0
 42
30.0
 43
30.0
 50
90.0
  0
INSERT
  5
7EF6
  8
3
  6
CONTINUOUS
 62
     0
  2
_OPEN
 10
2632.1571536494898
 20
1634.926871231082
 30
0.0
 41
30.0
 42
30.0
 43
30.0
 50
270.0
  0
TEXT
  8
3
  40
45
  5
7F1E
  62
0
  72
0
  71
0
 10
2504.66
 20
1704.00
 30
0.000000
  1
φ315
  0
POINT
  5
7EF8
  8
DEFPOINTS
  6
CONTINUOUS
 62
     0
 10
2544.1460736494901
 20
1949.9268712310829
 30
0.0
  0
POINT
  5
7EF9
  8
DEFPOINTS
  6
CONTINUOUS
 62
     0
 10
2544.1460736494901
 20
1634.9268712310829
 30
0.0
  0
POINT
  5
7EFA
  8
DEFPOINTS
  6
CONTINUOUS
 62
     0
 10
2632.1571536494898
 20
1634.926871231082
 30
0.0
  0
ENDBLK
  5
7D5B
  8
0
  0
BLOCK
  8
0
  2
*D18
 70
     1
 10
0.0
 20
0.0
 30
0.0
  3
*D18
  1

  0
LINE
  5
7EFB
  8
3
  6
CONTINUOUS
 62
     0
 10
897.41392200000007
 20
1792.4268712310829
 30
0.0
 11
738.12456054106428
 21
1792.4268712310829
 31
0.0
  0
LINE
  5
7EFC
  8
3
  6
CONTINUOUS
 62
     0
 10
917.41392199999996
 20
1467.4268712310829
 30
0.0
 11
738.12456054106406
 21
1467.4268712310829
 31
0.0
  0
LINE
  5
7EFD
  8
3
  6
CONTINUOUS
 62
     0
 10
753.12456054106406
 20
1762.4268712310829
 30
0.0
 11
753.12456054106406
 21
1497.426871231082
 31
0.0
  0
INSERT
  5
7EFE
  8
3
  6
CONTINUOUS
 62
     0
  2
_OPEN
 10
753.12456054106417
 20
1792.4268712310829
 30
0.0
 41
30.0
 42
30.0
 43
30.0
 50
90.0
  0
INSERT
  5
7EFF
  8
3
  6
CONTINUOUS
 62
     0
  2
_OPEN
 10
753.12456054106406
 20
1467.4268712310829
 30
0.0
 41
30.0
 42
30.0
 43
30.0
 50
270.0
  0
TEXT
  8
3
  40
45
  5
7F1F
  62
0
  72
0
  71
0
 10
625.625
 20
1541.89
 30
0.000000
  1
325
  0
POINT
  5
7F01
  8
DEFPOINTS
  6
CONTINUOUS
 62
     0
 10
904.91392199999996
 20
1792.4268712310829
 30
0.0
  0
POINT
  5
7F02
  8
DEFPOINTS
  6
CONTINUOUS
 62
     0
 10
924.91392200000007
 20
1467.4268712310829
 30
0.0
  0
POINT
  5
7F03
  8
DEFPOINTS
  6
CONTINUOUS
 62
     0
 10
753.12456054106406
 20
1467.4268712310829
 30
0.0
  0
ENDBLK
  5
7D38
  8
0
  0
BLOCK
  8
0
  2
*D19
 70
     1
 10
0.0
 20
0.0
 30
0.0
  3
*D19
  1

  0
LINE
  5
7F04
  8
3
 62
     0
 10
904.91392199999996
 20
1821.426871231082
 30
0.0
 11
904.91392199999996
 21
2186.4081766401341
 31
0.0
  0
LINE
  5
7F05
  8
3
 62
     0
 10
1769.913921999999
 20
1469.926871231082
 30
0.0
 11
1769.913921999999
 21
2186.4081766401341
 31
0.0
  0
LINE
  5
7F06
  8
3
 62
     0
 10
934.91392200000007
 20
2171.4081766401341
 30
0.0
 11
1739.913921999999
 21
2171.4081766401341
 31
0.0
  0
INSERT
  5
7F07
  8
3
 62
     0
  2
_OPEN
 10
904.91392199999996
 20
2171.4081766401341
 30
0.0
 41
30.0
 42
30.0
 43
30.0
 50
180.0
  0
INSERT
  5
7F08
  8
3
 62
     0
  2
_OPEN
 10
1769.913921999999
 20
2171.4081766401341
 30
0.0
 41
30.0
 42
30.0
 43
30.0
  0
TEXT
  8
3
  40
45
  5
7F20
  62
0
  72
0
  71
0
 10
1238.86
 20
2129.26
 30
0.000000
  1
865
  0
POINT
  5
7F0A
  8
DEFPOINTS
 62
     0
 10
904.91392199999996
 20
1813.9268712310829
 30
0.0
  0
POINT
  5
7F0B
  8
DEFPOINTS
 62
     0
 10
1769.913921999999
 20
1462.4268712310829
 30
0.0
  0
POINT
  5
7F0C
  8
DEFPOINTS
 62
     0
 10
1769.913921999999
 20
2171.4081766401341
 30
0.0
  0
ENDBLK
  5
7D44
  8
0
  0
ENDSEC
  0
SECTION
  2
ENTITIES
  0
CIRCLE
  5
7A91
  8
1
  6
CONTINUOUS
 10
1154.913921999999
 20
1792.4268712310829
 30
0.0
 40
157.5
  0
LINE
  5
7A92
  8
1
  6
CONTINUOUS
 10
1604.413921999999
 20
1523.9268712310829
 30
0.0
 11
1129.2139219999999
 21
1734.326871231083
 31
0.0
  0
LINE
  5
7A93
  8
1
  6
CONTINUOUS
 10
1649.313922
 20
1620.0268712310831
 30
0.0
 11
1182.913922
 21
1849.4268712310829
 31
0.0
  0
LINE
  5
7A94
  8
1
  6
CONTINUOUS
 10
924.91392200000007
 20
3060.9966641808878
 30
0.0
 11
924.91392200000007
 21
2894.9966641808878
 31
0.0
  0
LINE
  5
7A95
  8
1
  6
CONTINUOUS
 10
924.91392200000007
 20
1801.326871231083
 30
0.0
 11
924.91392200000007
 21
1792.4268712310829
 31
0.0
  0
LINE
  5
7A96
  8
1
  6
CONTINUOUS
 10
924.91392200000007
 20
1477.4268712310829
 30
0.0
 11
924.91392200000007
 21
1467.4268712310829
 31
0.0
  0
LINE
  5
7A97
  8
1
  6
CONTINUOUS
 10
924.91392200000007
 20
1762.4268712310829
 30
0.0
 11
924.91392200000007
 21
1507.426871231082
 31
0.0
  0
LINE
  5
7A98
  8
1
  6
CONTINUOUS
 10
924.91392200000007
 20
1467.4268712310829
 30
0.0
 11
1129.413922
 21
1467.4268712310829
 31
0.0
  0
ARC
  5
7A99
  8
1
  6
CONTINUOUS
 10
1129.413922
 20
1766.9268712310829
 30
0.0
 40
299.5
 50
270.0
 51
10.6
  0
ARC
  5
7A9A
  8
1
  6
CONTINUOUS
 10
1175.913922
 20
1771.426871231082
 30
0.0
 40
253.0
 50
11.599999999999991
 51
81.799999999999983
  0
ARC
  5
7A9B
  8
1
  6
CONTINUOUS
 10
886.91392199999996
 20
1869.426871231082
 30
0.0
 40
78.0
 50
299.19999999999987
 51
341.19999999999987
  0
ARC
  5
7A9C
  8
1
  6
CONTINUOUS
 10
1172.913921999999
 20
1810.4268712310829
 30
0.0
 40
215.0
 50
79.400000000000006
 51
171.40000000000001
  0
CIRCLE
  5
7A9D
  8
1
  6
CONTINUOUS
 10
1154.913921999999
 20
1792.4268712310829
 30
0.0
 40
182.5
  0
LINE
  5
7A9E
  8
1
  6
CONTINUOUS
 10
972.41392200000007
 20
2856.1966641808881
 30
0.0
 11
972.41392200000007
 21
2865.9966641808878
 31
0.0
  0
LINE
  5
7A9F
  8
1
  6
CONTINUOUS
 10
904.91392199999996
 20
1782.426871231082
 30
0.0
 11
924.91392200000007
 21
1762.4268712310829
 31
0.0
  0
LINE
  5
7AA0
  8
1
  6
CONTINUOUS
 10
904.91392199999996
 20
1487.426871231082
 30
0.0
 11
924.91392200000007
 21
1507.426871231082
 31
0.0
  0
LINE
  5
7AA1
  8
1
  6
CONTINUOUS
 10
904.91392199999996
 20
3080.9966641808878
 30
0.0
 11
924.91392200000007
 21
3060.9966641808878
 31
0.0
  0
LINE
  5
7AA2
  8
1
  6
CONTINUOUS
 10
904.91392199999996
 20
2874.9966641808878
 30
0.0
 11
924.91392200000007
 21
2894.9966641808878
 31
0.0
  0
LINE
  5
7AA3
  8
1
  6
CONTINUOUS
 10
1142.913921999999
 20
2692.9966641808878
 30
0.0
 11
949.91392200000007
 21
2692.9966641808878
 31
0.0
  0
LINE
  5
7AA4
  8
1
  6
CONTINUOUS
 10
1142.913921999999
 20
2856.1966641808881
 30
0.0
 11
1142.913921999999
 21
2619.4966641808878
 31
0.0
  0
LINE
  5
7AA5
  8
1
  6
CONTINUOUS
 10
1166.913921999999
 20
2856.1966641808881
 30
0.0
 11
1166.913921999999
 21
2619.4966641808878
 31
0.0
  0
LINE
  5
7AA6
  8
1
  6
CONTINUOUS
 10
1740.413922
 20
2642.9966641808878
 30
0.0
 11
1740.413922
 21
2557.9966641808878
 31
0.0
  0
LINE
  5
7AA7
  8
1
  6
CONTINUOUS
 10
1010.413922
 20
2642.9966641808878
 30
0.0
 11
1010.413922
 21
2557.9966641808878
 31
0.0
  0
LINE
  5
7AA8
  8
1
  6
CONTINUOUS
 10
1740.413922
 20
2642.9966641808878
 30
0.0
 11
1010.413922
 21
2642.9966641808878
 31
0.0
  0
LINE
  5
7AA9
  8
1
  6
CONTINUOUS
 10
1740.413922
 20
2557.9966641808878
 30
0.0
 11
1010.413922
 21
2557.9966641808878
 31
0.0
  0
LINE
  5
7AAA
  8
1
  6
CONTINUOUS
 10
1613.913922
 20
2662.9966641808878
 30
0.0
 11
1166.913921999999
 21
2662.9966641808878
 31
0.0
  0
LINE
  5
7AAB
  8
1
  6
CONTINUOUS
 10
1142.913921999999
 20
2662.9966641808878
 30
0.0
 11
919.91392200000007
 21
2662.9966641808878
 31
0.0
  0
LINE
  5
7AAC
  8
1
  6
CONTINUOUS
 10
1562.413922
 20
2584.4966641808878
 30
0.0
 11
1562.413922
 21
2619.4966641808878
 31
0.0
  0
LINE
  5
7AAD
  8
1
  6
CONTINUOUS
 10
1562.413922
 20
2619.4966641808878
 30
0.0
 11
1689.413921999999
 21
2619.4966641808878
 31
0.0
  0
LINE
  5
7AAE
  8
1
  6
CONTINUOUS
 10
1689.413921999999
 20
2619.4966641808878
 30
0.0
 11
1689.413921999999
 21
2584.4966641808878
 31
0.0
  0
LINE
  5
7AAF
  8
1
  6
CONTINUOUS
 10
1689.413921999999
 20
2584.4966641808878
 30
0.0
 11
1562.413922
 21
2584.4966641808878
 31
0.0
  0
LINE
  5
7AB0
  8
1
  6
CONTINUOUS
 10
1210.413922
 20
2031.9268712310829
 30
0.0
 11
1740.413922
 21
1681.9268712310829
 31
0.0
  0
LINE
  5
7AB1
  8
1
  6
CONTINUOUS
 10
1010.413922
 20
1901.9268712310829
 30
0.0
 11
1210.413922
 21
2031.9268712310829
 31
0.0
  0
LINE
  5
7AB2
  8
1
  6
CONTINUOUS
 10
924.91392200000007
 20
1792.4268712310829
 30
0.0
 11
904.91392199999996
 21
1792.4268712310829
 31
0.0
  0
LINE
  5
7AB3
  8
1
  6
CONTINUOUS
 10
1740.413922
 20
1681.9268712310829
 30
0.0
 11
1740.413922
 21
1471.9268712310829
 31
0.0
  0
LINE
  5
7AB4
  8
1
  6
CONTINUOUS
 10
1010.413922
 20
1901.9268712310829
 30
0.0
 11
1010.413922
 21
1462.4268712310829
 31
0.0
  0
LINE
  5
7AB5
  8
1
  6
CONTINUOUS
 10
1524.913922
 20
2679.4966641808878
 30
0.0
 11
1524.913922
 21
2951.4966641808878
 31
0.0
  0
LINE
  5
7AB6
  8
1
  6
CONTINUOUS
 10
1715.913922
 20
2951.4966641808878
 30
0.0
 11
1715.913922
 21
2679.4966641808878
 31
0.0
  0
LINE
  5
7AB7
  8
1
  6
CONTINUOUS
 10
1613.913922
 20
2584.4966641808878
 30
0.0
 11
1637.913922
 21
2584.4966641808878
 31
0.0
  0
LINE
  5
7AB8
  8
1
  6
CONTINUOUS
 10
1524.913922
 20
2951.4966641808878
 30
0.0
 11
1715.913922
 21
2951.4966641808878
 31
0.0
  0
LINE
  5
7AB9
  8
1
  6
CONTINUOUS
 10
1524.913922
 20
2679.4966641808878
 30
0.0
 11
1715.913922
 21
2679.4966641808878
 31
0.0
  0
LINE
  5
7ABA
  8
1
  6
CONTINUOUS
 10
1637.913922
 20
2619.4966641808878
 30
0.0
 11
1637.913922
 21
2679.4966641808878
 31
0.0
  0
LINE
  5
7ABB
  8
1
  6
CONTINUOUS
 10
1613.913922
 20
2619.4966641808878
 30
0.0
 11
1613.913922
 21
2679.4966641808878
 31
0.0
  0
LINE
  5
7ABC
  8
1
  6
CONTINUOUS
 10
1359.913922
 20
2692.9966641808878
 30
0.0
 11
1166.913921999999
 21
2692.9966641808878
 31
0.0
  0
LINE
  5
7ABD
  8
1
  6
CONTINUOUS
 10
949.91392200000007
 20
2692.9966641808878
 30
0.0
 11
949.91392200000007
 21
2856.1966641808881
 31
0.0
  0
LINE
  5
7ABE
  8
1
  6
CONTINUOUS
 10
1359.913922
 20
2692.9966641808878
 30
0.0
 11
1359.913922
 21
2856.1966641808881
 31
0.0
  0
LINE
  5
7ABF
  8
1
  6
CONTINUOUS
 10
1442.913921999999
 20
2977.9966641808878
 30
0.0
 11
1769.913921999999
 21
2977.9966641808878
 31
0.0
  0
LINE
  5
7AC0
  8
1
  6
CONTINUOUS
 10
1218.413922
 20
2584.4966641808878
 30
0.0
 11
1091.413921999999
 21
2584.4966641808878
 31
0.0
  0
LINE
  5
7AC1
  8
1
  6
CONTINUOUS
 10
1218.413922
 20
2619.4966641808878
 30
0.0
 11
1218.413922
 21
2584.4966641808878
 31
0.0
  0
LINE
  5
7AC2
  8
1
  6
CONTINUOUS
 10
1091.413921999999
 20
2619.4966641808878
 30
0.0
 11
1218.413922
 21
2619.4966641808878
 31
0.0
  0
LINE
  5
7AC3
  8
1
  6
CONTINUOUS
 10
1091.413921999999
 20
2584.4966641808878
 30
0.0
 11
1091.413921999999
 21
2619.4966641808878
 31
0.0
  0
ARC
  5
7AC4
  8
1
  6
CONTINUOUS
 10
1422.913922
 20
2885.9966641808878
 30
0.0
 40
20.0
 50
270.0
 51
0.0
  0
ARC
  5
7AC5
  8
1
  6
CONTINUOUS
 10
1422.913922
 20
3069.9966641808878
 30
0.0
 40
20.0
 50
0.0
 51
90.0
  0
LINE
  5
7AC6
  8
1
  6
CONTINUOUS
 10
972.41392200000007
 20
3098.9966641808878
 30
0.0
 11
972.41392200000007
 21
3090.7966641808889
 31
0.0
  0
LINE
  5
7AC7
  8
1
  6
CONTINUOUS
 10
1337.413922
 20
2856.1966641808881
 30
0.0
 11
1337.413922
 21
2865.9966641808878
 31
0.0
  0
LINE
  5
7AC8
  8
1
  6
CONTINUOUS
 10
1442.913921999999
 20
3069.9966641808878
 30
0.0
 11
1442.913921999999
 21
2885.9966641808878
 31
0.0
  0
LINE
  5
7AC9
  8
1
  6
CONTINUOUS
 10
904.91392199999996
 20
2865.9966641808878
 30
0.0
 11
1422.913922
 21
2865.9966641808878
 31
0.0
  0
LINE
  5
7ACA
  8
1
  6
CONTINUOUS
 10
904.91392199999996
 20
3110.9966641808878
 30
0.0
 11
904.91392199999996
 21
2844.9966641808878
 31
0.0
  0
LINE
  5
7ACB
  8
1
  6
CONTINUOUS
 10
1422.913922
 20
3089.9966641808878
 30
0.0
 11
904.91392199999996
 21
3089.9966641808878
 31
0.0
  0
LINE
  5
7ACC
  8
1
  6
CONTINUOUS
 10
1359.913922
 20
2856.1966641808881
 30
0.0
 11
949.91392200000007
 21
2856.1966641808881
 31
0.0
  0
LINE
  5
7ACD
  8
1
  6
CONTINUOUS
 10
1337.413922
 20
3098.9966641808878
 30
0.0
 11
1337.413922
 21
3090.7966641808889
 31
0.0
  0
LINE
  5
7ACE
  8
1
  6
CONTINUOUS
 10
1337.413922
 20
3098.9966641808878
 30
0.0
 11
972.41392200000007
 21
3098.9966641808878
 31
0.0
  0
LINE
  5
7ACF
  8
1
  6
CONTINUOUS
 10
1335.913922
 20
2856.1966641808881
 30
0.0
 11
1173.913922
 21
2856.1966641808881
 31
0.0
  0
LINE
  5
7AD0
  8
1
  6
CONTINUOUS
 10
1769.913921999999
 20
3157.9966641808878
 30
0.0
 11
1769.913921999999
 21
2557.9966641808878
 31
0.0
  0
LINE
  5
7AD1
  8
1
  6
CONTINUOUS
 10
919.91392200000007
 20
2557.9966641808878
 30
0.0
 11
919.91392200000007
 21
2865.9966641808878
 31
0.0
  0
LINE
  5
7AD2
  8
1
  6
CONTINUOUS
 10
1769.913921999999
 20
2662.9966641808878
 30
0.0
 11
1637.913922
 21
2662.9966641808878
 31
0.0
  0
LINE
  5
7AD3
  8
2
  6
CENTER
 10
1678.913922
 20
1572.426871231082
 30
0.0
 11
1572.913922
 21
1572.426871231082
 31
0.0
  0
LINE
  5
7AD4
  8
1
  6
CONTINUOUS
 10
1534.0139220000001
 20
1482.4268712310829
 30
0.0
 11
1545.413922
 21
1511.426871231082
 31
0.0
  0
LINE
  5
7AD5
  8
1
  6
CONTINUOUS
 10
1717.8139219999989
 20
1482.4268712310829
 30
0.0
 11
1706.413922
 21
1511.426871231082
 31
0.0
  0
ARC
  5
7AD6
  8
1
  6
CONTINUOUS
 10
1625.913922
 20
1572.426871231082
 30
0.0
 40
101.0
 50
322.89999999999992
 51
217.09999999999991
  0
CIRCLE
  5
7AD7
  8
1
  6
CONTINUOUS
 10
1625.913922
 20
1572.426871231082
 30
0.0
 40
53.0
  0
CIRCLE
  5
7AD8
  8
1
  6
CONTINUOUS
 10
1154.913921999999
 20
1792.4268712310829
 30
0.0
 40
63.5
  0
LINE
  5
7AD9
  8
2
  6
CENTER
 10
1625.913922
 20
1519.426871231082
 30
0.0
 11
1625.913922
 21
1625.426871231082
 31
0.0
  0
LINE
  5
7ADA
  8
1
  6
CONTINUOUS
 10
1424.913921999999
 20
1462.4268712310829
 30
0.0
 11
1424.913921999999
 21
1482.4268712310829
 31
0.0
  0
LINE
  5
7ADB
  8
1
  6
CONTINUOUS
 10
1739.913921999999
 20
1462.4268712310829
 30
0.0
 11
1739.913921999999
 21
1482.4268712310829
 31
0.0
  0
LINE
  5
7ADC
  8
1
  6
CONTINUOUS
 10
1739.913921999999
 20
1482.4268712310829
 30
0.0
 11
1424.913921999999
 21
1482.4268712310829
 31
0.0
  0
LINE
  5
7ADD
  8
1
  6
CONTINUOUS
 10
1769.913921999999
 20
1392.4268712310829
 30
0.0
 11
919.91392200000007
 21
1392.4268712310829
 31
0.0
  0
LINE
  5
7ADE
  8
1
  6
CONTINUOUS
 10
1769.913921999999
 20
1462.4268712310829
 30
0.0
 11
1769.913921999999
 21
1362.426871231082
 31
0.0
  0
LINE
  5
7ADF
  8
1
  6
CONTINUOUS
 10
919.91392200000007
 20
1462.4268712310829
 30
0.0
 11
919.91392200000007
 21
1362.426871231082
 31
0.0
  0
LINE
  5
7AE0
  8
1
  6
CONTINUOUS
 10
1769.913921999999
 20
1462.4268712310829
 30
0.0
 11
919.91392200000007
 21
1462.4268712310829
 31
0.0
  0
LINE
  5
7AE1
  8
1
  6
CONTINUOUS
 10
949.91392200000007
 20
1462.4268712310829
 30
0.0
 11
949.91392200000007
 21
1877.8268712310819
 31
0.0
  0
LINE
  5
7AE2
  8
1
  6
CONTINUOUS
 10
1062.613922
 20
1972.4268712310829
 30
0.0
 11
949.91392200000007
 21
1877.8268712310819
 31
0.0
  0
LINE
  5
7AE3
  8
1
  6
CONTINUOUS
 10
1247.2139219999999
 20
1972.4268712310829
 30
0.0
 11
1359.913922
 21
1877.8268712310819
 31
0.0
  0
LINE
  5
7AE4
  8
1
  6
CONTINUOUS
 10
1359.913922
 20
1755.926871231082
 30
0.0
 11
949.91392200000007
 21
1755.926871231082
 31
0.0
  0
LINE
  5
7AE5
  8
1
  6
CONTINUOUS
 10
1359.913922
 20
1462.4268712310829
 30
0.0
 11
1359.913922
 21
1877.8268712310819
 31
0.0
  0
LINE
  5
7AE6
  8
1
  6
CONTINUOUS
 10
1247.2139219999999
 20
1972.4268712310829
 30
0.0
 11
1062.613922
 21
1972.4268712310829
 31
0.0
  0
LINE
  5
7AE7
  8
1
  6
CONTINUOUS
 10
904.91392199999996
 20
1477.4268712310829
 30
0.0
 11
924.91392200000007
 21
1477.4268712310829
 31
0.0
  0
LINE
  5
7AE8
  8
1
  6
CONTINUOUS
 10
904.91392199999996
 20
1813.9268712310829
 30
0.0
 11
904.91392199999996
 21
1455.9268712310829
 31
0.0
  0
LINE
  5
7AE9
  8
2
  6
CENTER
 10
1154.913921999999
 20
1327.027212231083
 30
0.0
 11
1154.913921999999
 21
2040.545011231083
 31
0.0
  0
LINE
  5
7AEA
  8
2
  6
CENTER
 10
2565.5265726494899
 20
1792.4268712310829
 30
0.0
 11
1951.9944936494901
 21
1792.4268712310829
 31
0.0
  0
LINE
  5
7AEB
  8
1
  6
CONTINUOUS
 10
1739.913921999999
 20
3157.9966641808878
 30
0.0
 11
1739.913921999999
 21
2977.9966641808878
 31
0.0
  0
LINE
  5
7AEC
  8
1
  6
CONTINUOUS
 10
1769.913921999999
 20
3157.9966641808878
 30
0.0
 11
1739.913921999999
 21
3157.9966641808878
 31
0.0
  0
LINE
  5
7AED
  8
1
  6
CONTINUOUS
 10
1739.913921999999
 20
2662.9966641808878
 30
0.0
 11
1739.913921999999
 21
2557.9966641808878
 31
0.0
  0
LINE
  5
7AEE
  8
1
  6
CONTINUOUS
 10
1769.913921999999
 20
2557.9966641808878
 30
0.0
 11
1739.913921999999
 21
2557.9966641808878
 31
0.0
  0
LINE
  5
7AEF
  8
1
  6
CONTINUOUS
 10
949.91392200000007
 20
2662.9966641808878
 30
0.0
 11
949.91392200000007
 21
2557.9966641808878
 31
0.0
  0
LINE
  5
7AF0
  8
1
  6
CONTINUOUS
 10
949.91392200000007
 20
2557.9966641808878
 30
0.0
 11
919.91392200000007
 21
2557.9966641808878
 31
0.0
  0
LINE
  5
7AF1
  8
1
  6
CONTINUOUS
 10
919.91392200000007
 20
3089.9966641808878
 30
0.0
 11
919.91392200000007
 21
3157.9966641808878
 31
0.0
  0
LINE
  5
7AF2
  8
1
  6
CONTINUOUS
 10
949.91392200000007
 20
3157.9966641808878
 30
0.0
 11
919.91392200000007
 21
3157.9966641808878
 31
0.0
  0
LINE
  5
7AF3
  8
1
  6
CONTINUOUS
 10
949.91392200000007
 20
3157.9966641808878
 30
0.0
 11
949.91392200000007
 21
3089.9966641808878
 31
0.0
  0
LINE
  5
7AF4
  8
1
  6
CONTINUOUS
 10
1739.913921999999
 20
1392.4268712310829
 30
0.0
 11
1739.913921999999
 21
1362.426871231082
 31
0.0
  0
LINE
  5
7AF5
  8
1
  6
CONTINUOUS
 10
1769.913921999999
 20
1362.426871231082
 30
0.0
 11
1739.913921999999
 21
1362.426871231082
 31
0.0
  0
LINE
  5
7AF6
  8
1
  6
CONTINUOUS
 10
919.91392200000007
 20
1362.426871231082
 30
0.0
 11
949.91392200000007
 21
1362.426871231082
 31
0.0
  0
LINE
  5
7AF7
  8
1
  6
CONTINUOUS
 10
949.91392200000007
 20
1392.4268712310829
 30
0.0
 11
949.91392200000007
 21
1362.426871231082
 31
0.0
  0
LINE
  5
7AF8
  8
1
  6
CONTINUOUS
 10
2603.1460736494901
 20
1392.4268712310829
 30
0.0
 11
2603.1460736494901
 21
1362.426871231082
 31
0.0
  0
LINE
  5
7AF9
  8
1
  6
CONTINUOUS
 10
2003.1460736494901
 20
1362.426871231082
 30
0.0
 11
2603.1460736494901
 21
1362.426871231082
 31
0.0
  0
LINE
  5
7AFA
  8
1
  6
CONTINUOUS
 10
2003.1460736494901
 20
1392.4268712310829
 30
0.0
 11
2003.1460736494901
 21
1362.426871231082
 31
0.0
  0
ARC
  5
7AFB
  8
1
  6
CONTINUOUS
 10
2331.1460736494901
 20
2005.5268712310819
 30
0.0
 40
20.0
 50
90.0
 51
180.0
  0
ARC
  5
7AFC
  8
1
  6
CONTINUOUS
 10
2515.1460736494901
 20
2005.5268712310819
 30
0.0
 40
20.0
 50
0.0
 51
90.0
  0
LINE
  5
7AFD
  8
1
  6
CONTINUOUS
 10
2544.1460736494901
 20
1609.9268712310829
 30
0.0
 11
2534.9460736494898
 21
1609.9268712310829
 31
0.0
  0
LINE
  5
7AFE
  8
1
  6
CONTINUOUS
 10
2301.3460736494899
 20
1609.9268712310829
 30
0.0
 11
2311.3460736494899
 21
1609.9268712310829
 31
0.0
  0
LINE
  5
7AFF
  8
1
  6
CONTINUOUS
 10
2063.1460736494901
 20
1560.5268712310831
 30
0.0
 11
2137.3460736494899
 21
1560.5268712310831
 31
0.0
  0
LINE
  5
7B00
  8
1
  6
CONTINUOUS
 10
2063.1460736494901
 20
1584.5268712310819
 30
0.0
 11
2137.3460736494899
 21
1584.5268712310819
 31
0.0
  0
LINE
  5
7B01
  8
1
  6
CONTINUOUS
 10
2535.146073649491
 20
1476.5268712310819
 30
0.0
 11
2311.1460736494901
 21
1793.5268712310819
 31
0.0
  0
LINE
  5
7B02
  8
1
  6
CONTINUOUS
 10
2311.1460736494901
 20
1476.5268712310819
 30
0.0
 11
2535.146073649491
 21
1793.5268712310819
 31
0.0
  0
LINE
  5
7B03
  8
1
  6
CONTINUOUS
 10
2301.3460736494899
 20
1974.926871231082
 30
0.0
 11
2311.3460736494899
 21
1974.926871231082
 31
0.0
  0
LINE
  5
7B04
  8
1
  6
CONTINUOUS
 10
2108.1460736494901
 20
1462.4268712310829
 30
0.0
 11
2108.1460736494901
 21
1392.4268712310829
 31
0.0
  0
LINE
  5
7B05
  8
1
  6
CONTINUOUS
 10
2423.1460736494901
 20
1462.4268712310829
 30
0.0
 11
2108.1460736494901
 21
1462.4268712310829
 31
0.0
  0
LINE
  5
7B06
  8
1
  6
CONTINUOUS
 10
2423.1460736494901
 20
1392.4268712310829
 30
0.0
 11
2423.1460736494901
 21
1462.4268712310829
 31
0.0
  0
LINE
  5
7B07
  8
1
  6
CONTINUOUS
 10
2003.1460736494901
 20
1392.4268712310829
 30
0.0
 11
2603.1460736494901
 21
1392.4268712310829
 31
0.0
  0
LINE
  5
7B08
  8
1
  6
CONTINUOUS
 10
2028.1460736494901
 20
1856.0268712310819
 30
0.0
 11
2028.1460736494901
 21
1729.0268712310831
 31
0.0
  0
LINE
  5
7B09
  8
1
  6
CONTINUOUS
 10
2063.1460736494901
 20
1856.0268712310819
 30
0.0
 11
2028.1460736494901
 21
1856.0268712310819
 31
0.0
  0
LINE
  5
7B0A
  8
1
  6
CONTINUOUS
 10
2063.1460736494901
 20
1729.0268712310831
 30
0.0
 11
2063.1460736494901
 21
1856.0268712310819
 31
0.0
  0
LINE
  5
7B0B
  8
1
  6
CONTINUOUS
 10
2028.1460736494901
 20
1729.0268712310831
 30
0.0
 11
2063.1460736494901
 21
1729.0268712310831
 31
0.0
  0
LINE
  5
7B0C
  8
1
  6
CONTINUOUS
 10
2515.1460736494901
 20
2025.5268712310819
 30
0.0
 11
2331.1460736494901
 21
2025.5268712310819
 31
0.0
  0
LINE
  5
7B0D
  8
1
  6
CONTINUOUS
 10
2535.146073649491
 20
1793.5268712310819
 30
0.0
 11
2311.1460736494901
 21
1793.5268712310819
 31
0.0
  0
LINE
  5
7B0E
  8
1
  6
CONTINUOUS
 10
2311.1460736494901
 20
1476.5268712310819
 30
0.0
 11
2311.1460736494901
 21
2005.5268712310819
 31
0.0
  0
LINE
  5
7B0F
  8
1
  6
CONTINUOUS
 10
2535.146073649491
 20
1476.5268712310819
 30
0.0
 11
2311.1460736494901
 21
1476.5268712310819
 31
0.0
  0
LINE
  5
7B10
  8
1
  6
CONTINUOUS
 10
2535.146073649491
 20
2005.5268712310819
 30
0.0
 11
2535.146073649491
 21
1476.5268712310819
 31
0.0
  0
LINE
  5
7B11
  8
1
  6
CONTINUOUS
 10
2301.3460736494899
 20
1975.0268712310819
 30
0.0
 11
2301.3460736494899
 21
1462.4268712310829
 31
0.0
  0
LINE
  5
7B12
  8
1
  6
CONTINUOUS
 10
2311.3460736494899
 20
2010.5268712310819
 30
0.0
 11
2311.3460736494899
 21
1976.5268712310819
 31
0.0
  0
LINE
  5
7B13
  8
1
  6
CONTINUOUS
 10
2544.1460736494901
 20
1974.926871231082
 30
0.0
 11
2535.146073649491
 21
1974.926871231082
 31
0.0
  0
LINE
  5
7B14
  8
1
  6
CONTINUOUS
 10
2544.1460736494901
 20
1974.926871231082
 30
0.0
 11
2544.1460736494901
 21
1609.9268712310829
 31
0.0
  0
LINE
  5
7B15
  8
1
  6
CONTINUOUS
 10
2137.3460736494899
 20
1753.426871231082
 30
0.0
 11
2137.3460736494899
 21
1462.4268712310829
 31
0.0
  0
LINE
  5
7B16
  8
1
  6
CONTINUOUS
 10
2301.3460736494899
 20
1973.426871231082
 30
0.0
 11
2301.3460736494899
 21
1811.426871231082
 31
0.0
  0
LINE
  5
7B17
  8
1
  6
CONTINUOUS
 10
2301.3460736494899
 20
1879.626871231083
 30
0.0
 11
2137.3460736494899
 21
1753.426871231082
 31
0.0
  0
LINE
  5
7B18
  8
1
  6
CONTINUOUS
 10
2063.1460736494901
 20
1805.0268712310819
 30
0.0
 11
2204.3460736494899
 21
1805.0268712310819
 31
0.0
  0
LINE
  5
7B19
  8
1
  6
CONTINUOUS
 10
2063.1460736494901
 20
1780.0268712310819
 30
0.0
 11
2171.9460736494898
 21
1780.0268712310819
 31
0.0
  0
LINE
  5
7B1A
  8
1
  6
CONTINUOUS
 10
2003.1460736494901
 20
2031.9268712310829
 30
0.0
 11
2088.1460736494901
 21
2031.9268712310829
 31
0.0
  0
LINE
  5
7B1B
  8
1
  6
CONTINUOUS
 10
2003.1460736494901
 20
1462.5268712310831
 30
0.0
 11
2088.1460736494901
 21
1462.5268712310831
 31
0.0
  0
LINE
  5
7B1C
  8
1
  6
CONTINUOUS
 10
2028.1460736494901
 20
1509.0268712310831
 30
0.0
 11
2063.1460736494901
 21
1509.0268712310831
 31
0.0
  0
LINE
  5
7B1D
  8
1
  6
CONTINUOUS
 10
2063.1460736494901
 20
1509.0268712310831
 30
0.0
 11
2063.1460736494901
 21
1636.0268712310831
 31
0.0
  0
LINE
  5
7B1E
  8
1
  6
CONTINUOUS
 10
2063.1460736494901
 20
1636.0268712310831
 30
0.0
 11
2028.1460736494901
 21
1636.0268712310831
 31
0.0
  0
LINE
  5
7B1F
  8
1
  6
CONTINUOUS
 10
2028.1460736494901
 20
1636.0268712310831
 30
0.0
 11
2028.1460736494901
 21
1509.0268712310831
 31
0.0
  0
LINE
  5
7B20
  8
1
  6
CONTINUOUS
 10
2003.1460736494901
 20
1462.5268712310831
 30
0.0
 11
2003.1460736494901
 21
2031.9268712310829
 31
0.0
  0
LINE
  5
7B21
  8
1
  6
CONTINUOUS
 10
2088.1460736494901
 20
1462.5268712310831
 30
0.0
 11
2088.1460736494901
 21
2031.9268712310829
 31
0.0
  0
LINE
  5
7B22
  8
4
  6
CONTINUOUS
 10
2775.0
 20
750.0
 30
0.0
 11
2775.0
 21
450.0
 31
0.0
  0
LINE
  5
7B23
  8
4
  6
CONTINUOUS
 10
1725.0
 20
750.0
 30
0.0
 11
1725.0
 21
450.0
 31
0.0
  0
LINE
  5
7B24
  8
4
  6
CONTINUOUS
 10
975.0
 20
750.0
 30
0.0
 11
975.0
 21
450.0
 31
0.0
  0
LINE
  5
7B27
  8
4
  6
CONTINUOUS
 10
975.0
 20
450.0
 30
0.0
 11
2775.0
 21
450.0
 31
0.0
  0
LINE
  5
7B28
  8
4
  6
CONTINUOUS
 10
975.0
 20
600.0
 30
0.0
 11
2775.0
 21
600.0
 31
0.0
  0
TEXT
  5
7B29
  8
4
  6
CONTINUOUS
 10
1032.753121
 20
647.31453899999985
 30
0.0
 40
75.0
  1
機器名称
  0
TEXT
  5
7B2A
  8
4
  6
CONTINUOUS
 10
1029.387158999999
 20
482.46773499999989
 30
0.0
 40
75.0
  1
機器型番
  0
TEXT
  5
7B2B
  8
4
  6
CONTINUOUS
 10
1766.518118
 20
633.85765300000003
 30
0.0
 40
65.0
  1
ミツヤニューマルチファン
  0
TEXT
  5
7B2C
  8
4
  6
CONTINUOUS
 10
1779.9817430000001
 20
475.73937599999999
 30
0.0
 40
75.0
  1
NM#2-1
  0
TEXT
  5
7B2E
  8
4
  6
CONTINUOUS
 10
1272.179973
 20
3575.1432619999991
 30
0.0
 40
81.0
  1
天井吊ベット
  0
TEXT
  5
7B2F
  8
4
  6
CONTINUOUS
 10
474.25139000000001
 20
3800.8214640000001
 30
0.0
 40
108.0
  1
ベルト駆動式片吸込片持多翼ファン
  0
LINE
  5
7B30
  8
4
  6
CONTINUOUS
 10
375.0
 20
3704.1131310000001
 30
0.0
 11
2775.0
 21
3704.1131310000001
 31
0.0
  0
LINE
  5
7B31
  8
4
  6
CONTINUOUS
 10
375.0
 20
4004.1131310000001
 30
0.0
 11
2775.0
 21
4004.1131310000001
 31
0.0
  0
LINE
  5
7B32
  8
4
  6
CONTINUOUS
 10
975.0
 20
750.0
 30
0.0
 11
2775.0
 21
750.0
 31
0.0
  0
LINE
  5
7B33
  8
4
  6
CONTINUOUS
 10
375.0
 20
4004.1131310000001
 30
0.0
 11
375.0
 21
3704.1131310000001
 31
0.0
  0
TEXT
  5
7B34
  8
4
  6
CONTINUOUS
 10
618.39172499999995
 20
3573.4792159999988
 30
0.0
 40
81.0
  1
右回転左横向
  0
TEXT
  5
7B35
  8
4
  6
CONTINUOUS
 10
2203.454338999999
 20
4059.091621999999
 30
0.0
 40
84.0
  1
No.
  0
TEXT
  5
7B36
  8
4
  6
CONTINUOUS
 10
1966.944094
 20
3575.1432619999991
 30
0.0
 40
81.0
  1
縮尺：1/15
  0
LINE
  5
7B37
  8
4
  6
CONTINUOUS
 10
2775.0
 20
4004.1131310000001
 30
0.0
 11
2775.0
 21
3704.1131310000001
 31
0.0
  0
LINE
  5
7B39
  8
4
  6
CONTINUOUS
 10
2160.9261339999989
 20
4021.8953750000001
 30
0.0
 11
2160.9261339999989
 21
4179.978392
 31
0.0
  0
LINE
  5
7B3A
  8
4
  6
CONTINUOUS
 10
2160.9261339999989
 20
4179.978392
 30
0.0
 11
2775.0
 21
4179.978392
 31
0.0
  0
LINE
  5
7B3B
  8
4
  6
CONTINUOUS
 10
2775.0
 20
4179.978392
 30
0.0
 11
2775.0
 21
4021.8953750000001
 31
0.0
  0
LINE
  5
7B3C
  8
4
  6
CONTINUOUS
 10
2775.0
 20
4021.8953750000001
 30
0.0
 11
2160.9261339999989
 21
4021.8953750000001
 31
0.0
  0
DIMENSION
  5
7B54
  8
3
  6
CONTINUOUS
  2
*D1
 10
1154.913921999999
 20
1258.270904231083
 30
0.0
 11
1052.0567799999999
 21
1258.270904231083
 31
0.0
 70
   128
 13
919.91392200000007
 23
1362.426871231082
 33
0.0
 14
1154.913921999999
 24
1327.027212231083
 34
0.0
1001
ACAD
1000
DSTYLE
1002
{
1070
   287
1070
     3
1070
   287
1070
     3
1070
    40
1040
15.0
1070
   143
1040
0.039
1070
   172
1070
     1
1070
   271
1070
     0
1070
   279
1070
     0
1070
   288
1070
     1
1002
}
  0
DIMENSION
  5
7B60
  8
3
  6
CONTINUOUS
  2
*D2
 10
1769.913921999999
 20
1258.270904231083
 30
0.0
 11
1462.413922
 21
1295.7709042310821
 31
0.0
 70
     0
 13
1154.913921999999
 23
1327.027212231083
 33
0.0
 14
1769.913921999999
 24
1362.426871231082
 34
0.0
1001
ACAD
1000
DSTYLE
1002
{
1070
   287
1070
     4
1070
   287
1070
     4
1070
    40
1040
15.0
1070
    75
1070
     1
1070
   143
1040
0.039
1070
   172
1070
     1
1070
   271
1070
     0
1070
   279
1070
     1
1070
   288
1070
     1
1002
}
  0
DIMENSION
  5
7B6D
  8
3
  6
CONTINUOUS
  2
*D3
 10
837.73927334826897
 20
1477.4268712310829
 30
0.0
 11
837.73927334826885
 21
1625.6640172310831
 31
0.0
 70
   128
 13
904.91392199999996
 23
1792.4268712310829
 33
0.0
 14
904.91392199999996
 24
1477.4268712310829
 34
0.0
 50
90.0
1001
ACAD
1000
DSTYLE
1002
{
1070
   287
1070
     3
1070
   287
1070
     3
1070
    40
1040
15.0
1070
   143
1040
0.039
1070
   172
1070
     1
1070
   271
1070
     0
1070
   279
1070
     0
1070
   288
1070
     1
1002
}
  0
DIMENSION
  5
7B7A
  8
3
  6
CONTINUOUS
  2
*D4
 10
664.20824934826931
 20
1792.4268712310829
 30
0.0
 11
664.20824934826885
 21
1895.2840140882249
 31
0.0
 70
   128
 13
1154.913921999999
 23
2024.672058231082
 33
0.0
 14
904.91392199999996
 24
1792.4268712310829
 34
0.0
 50
90.0
1001
ACAD
1000
DSTYLE
1002
{
1070
   287
1070
     3
1070
   287
1070
     3
1070
    40
1040
15.0
1070
   143
1040
0.039
1070
   172
1070
     1
1070
   271
1070
     0
1070
   279
1070
     0
1070
   288
1070
     1
1002
}
  0
DIMENSION
  5
7B86
  8
3
  6
CONTINUOUS
  2
*D5
 10
664.20824934826885
 20
1392.4268712310829
 30
0.0
 11
626.70824934826874
 21
1592.4268712310829
 31
0.0
 70
     0
 13
904.91392199999996
 23
1792.4268712310829
 33
0.0
 14
919.91392200000007
 24
1392.4268712310829
 34
0.0
 50
90.0
1001
ACAD
1000
DSTYLE
1002
{
1070
   287
1070
     4
1070
   287
1070
     4
1070
    40
1040
15.0
1070
    75
1070
     1
1070
   143
1040
0.039
1070
   172
1070
     1
1070
   271
1070
     0
1070
   279
1070
     1
1070
   288
1070
     1
1002
}
  0
DIMENSION
  5
7B96
  8
3
  6
CONTINUOUS
  2
*D6
 10
664.20824934826919
 20
1362.426871231082
 30
0.0
 11
664.20824934826885
 21
1250.9982998025109
 31
0.0
 70
   128
 13
919.91392200000007
 23
1392.4268712310829
 33
0.0
 14
919.91392200000007
 24
1362.426871231082
 34
0.0
 50
90.0
1001
ACAD
1000
DSTYLE
1002
{
1070
   287
1070
     3
1070
   287
1070
     3
1070
    40
1040
15.0
1070
   143
1040
0.039
1070
   172
1070
     1
1070
   271
1070
     0
1070
   279
1070
     0
1070
   288
1070
     1
1002
}
  0
DIMENSION
  5
7BBD
  8
3
  6
CONTINUOUS
  2
*D7
 10
572.7686683482691
 20
1362.426871231082
 30
0.0
 11
572.76866834826876
 21
1694.8790382310819
 31
0.0
 70
   128
 13
1154.913921999999
 23
2024.672058231082
 33
0.0
 14
919.91392200000007
 24
1362.426871231082
 34
0.0
 50
90.0
1001
ACAD
1000
DSTYLE
1002
{
1070
   287
1070
     3
1070
   287
1070
     3
1070
    40
1040
15.0
1070
   143
1040
0.039
1070
   172
1070
     1
1070
   271
1070
     0
1070
   279
1070
     0
1070
   288
1070
     1
1002
}
  0
DIMENSION
  5
7BCA
  8
3
  6
CONTINUOUS
  2
*D8
 10
1154.913921999999
 20
2080.9441952310822
 30
0.0
 11
1034.2420759999991
 21
2080.9441952310822
 31
0.0
 70
   128
 13
904.91392199999996
 23
1813.9268712310829
 33
0.0
 14
1154.913921999999
 24
2024.672058231082
 34
0.0
1001
ACAD
1000
DSTYLE
1002
{
1070
   287
1070
     3
1070
   287
1070
     3
1070
    40
1040
15.0
1070
   143
1040
0.039
1070
   172
1070
     1
1070
   271
1070
     0
1070
   279
1070
     0
1070
   288
1070
     1
1002
}
  0
DIMENSION
  5
7BD7
  8
3
  6
CONTINUOUS
  2
*D9
 10
1428.913922
 20
2080.9441952310822
 30
0.0
 11
1291.913921999999
 21
2118.4441952310822
 31
0.0
 70
     0
 13
1154.913921999999
 23
2024.672058231082
 33
0.0
 14
1428.913922
 24
1766.9268712310829
 34
0.0
1001
ACAD
1000
DSTYLE
1002
{
1070
   287
1070
     4
1070
   287
1070
     4
1070
    40
1040
15.0
1070
    75
1070
     1
1070
   143
1040
0.039
1070
   172
1070
     1
1070
   271
1070
     0
1070
   279
1070
     1
1070
   288
1070
     1
1002
}
  0
DIMENSION
  5
7BE4
  8
3
  6
CONTINUOUS
  2
*D10
 10
1769.913921999999
 20
2426.4286321808881
 30
0.0
 11
1343.1046220000001
 21
2426.4286321808881
 31
0.0
 70
   128
 13
919.91392200000007
 23
2557.9966641808878
 33
0.0
 14
1769.913921999999
 24
2557.9966641808878
 34
0.0
1001
ACAD
1000
DSTYLE
1002
{
1070
   287
1070
     3
1070
   287
1070
     3
1070
    40
1040
15.0
1070
   143
1040
0.039
1070
   172
1070
     1
1070
   271
1070
     0
1070
   279
1070
     0
1070
   288
1070
     1
1002
}
  0
DIMENSION
  5
7BF1
  8
3
  6
CONTINUOUS
  2
*D11
 10
1912.4677429999999
 20
2557.9966641808878
 30
0.0
 11
1912.467742999999
 21
2871.7617701808881
 31
0.0
 70
   128
 13
1769.913921999999
 23
3157.9966641808878
 33
0.0
 14
1769.913921999999
 24
2557.9966641808878
 34
0.0
 50
90.0
1001
ACAD
1000
DSTYLE
1002
{
1070
   287
1070
     3
1070
   287
1070
     3
1070
    40
1040
15.0
1070
   143
1040
0.039
1070
   172
1070
     1
1070
   271
1070
     0
1070
   279
1070
     0
1070
   288
1070
     1
1002
}
  0
LINE
  5
7BF2
  8
2
  6
CENTER
 10
1501.841643
 20
2977.9966641808878
 30
0.0
 11
868.02464799999996
 21
2977.9966641808878
 31
0.0
  0
LINE
  5
7BF3
  8
2
  6
CENTER
 10
1154.913921999999
 20
2512.0839541808882
 30
0.0
 11
1154.913921999999
 21
3148.7048531808882
 31
0.0
  0
LINE
  5
7BF4
  8
2
  6
CENTER
 10
2423.1460736494901
 20
2075.0170872310832
 30
0.0
 11
2423.1460736494901
 21
1336.6238152310821
 31
0.0
  0
LINE
  5
7BF5
  8
2
  6
CENTER
 10
1640.3824340000001
 20
1792.4268712310829
 30
0.0
 11
860.16437634826866
 21
1792.4268712310829
 31
0.0
  0
DIMENSION
  5
7C02
  8
3
  6
CONTINUOUS
  2
*D12
 10
2423.1460736494901
 20
1252.3467732310819
 30
0.0
 11
2232.3988236494902
 21
1252.3467732310819
 31
0.0
 70
   128
 13
2003.1460736494901
 23
1362.426871231082
 33
0.0
 14
2423.1460736494901
 24
1362.426871231082
 34
0.0
1001
ACAD
1000
DSTYLE
1002
{
1070
   287
1070
     3
1070
   287
1070
     3
1070
    40
1040
15.0
1070
   143
1040
0.039
1070
   172
1070
     1
1070
   271
1070
     0
1070
   279
1070
     0
1070
   288
1070
     1
1002
}
  0
DIMENSION
  5
7C10
  8
3
  6
CONTINUOUS
  2
*D13
 10
2603.1460736494901
 20
1252.3467732310819
 30
0.0
 11
2519.85565164949
 21
1252.1145132310819
 31
0.0
 70
   128
 13
2423.1460736494901
 23
1362.426871231082
 33
0.0
 14
2603.1460736494901
 24
1362.426871231082
 34
0.0
1001
ACAD
1000
DSTYLE
1002
{
1070
   287
1070
     4
1070
   287
1070
     4
1070
    40
1040
15.0
1070
    75
1070
     1
1070
   143
1040
0.039
1070
   172
1070
     1
1070
   271
1070
     0
1070
   279
1070
     1
1070
   288
1070
     1
1002
}
  0
DIMENSION
  5
7C33
  8
3
  6
CONTINUOUS
  2
*D14
 10
2535.146073649491
 20
2069.894672231082
 30
0.0
 11
2415.2746456494901
 21
2069.894672231082
 31
0.0
 70
   128
 13
2311.3460736494899
 23
2008.348218231082
 33
0.0
 14
2535.146073649491
 24
2005.5268712310819
 34
0.0
1001
ACAD
1000
DSTYLE
1002
{
1070
   287
1070
     3
1070
   287
1070
     3
1070
    40
1040
15.0
1070
   143
1040
0.039
1070
   172
1070
     1
1070
   271
1070
     0
1070
   279
1070
     0
1070
   288
1070
     1
1002
}
  0
DIMENSION
  5
7C40
  8
3
  6
CONTINUOUS
  2
*D15
 10
2423.1460736494901
 20
2174.9482442310832
 30
0.0
 11
2218.3765336494898
 21
2174.9482442310832
 31
0.0
 70
   128
  1
MAX\P420
 13
2003.1460736494901
 23
2031.9268712310829
 33
0.0
 14
2423.1460736494901
 24
2141.8458262310828
 34
0.0
1001
ACAD
1000
DSTYLE
1002
{
1070
   287
1070
     3
1070
   287
1070
     3
1070
    40
1040
15.0
1070
   143
1040
0.039
1070
   172
1070
     1
1070
   271
1070
     0
1070
   279
1070
     0
1070
   288
1070
     1
1002
}
  0
DIMENSION
  5
7C4E
  8
3
  6
CONTINUOUS
  2
*D16
 10
2544.1460736494901
 20
2174.9482442310832
 30
0.0
 11
2480.1258446494899
 21
2175.1805142310832
 31
0.0
 70
   128
 13
2423.1460736494901
 23
2141.8458262310828
 33
0.0
 14
2544.1460736494901
 24
1974.926871231082
 34
0.0
1001
ACAD
1000
DSTYLE
1002
{
1070
   287
1070
     4
1070
   287
1070
     4
1070
    40
1040
15.0
1070
    75
1070
     1
1070
   143
1040
0.039
1070
   172
1070
     1
1070
   271
1070
     0
1070
   279
1070
     1
1070
   288
1070
     1
1002
}
  0
LINE
  5
7C66
  8
3
  6
CONTINUOUS
 10
2544.1460736494901
 20
1634.9268712310829
 30
0.0
 11
2557.9317786494898
 21
1634.9268712310829
 31
0.0
  0
LINE
  5
7C68
  8
3
  6
CONTINUOUS
 10
2544.1460736494901
 20
1949.9268712310829
 30
0.0
 11
2560.0844716494898
 21
1949.9268712310829
 31
0.0
  0
DIMENSION
  5
7C75
  8
3
  6
CONTINUOUS
  2
*D17
 10
2632.1571536494898
 20
1634.926871231082
 30
0.0
 11
2632.1571536494898
 21
1783.650175231083
 31
0.0
 70
   128
 13
2544.1460736494901
 23
1949.9268712310829
 33
0.0
 14
2544.1460736494901
 24
1634.9268712310829
 34
0.0
 50
90.0
1001
ACAD
1000
DSTYLE
1002
{
1070
   287
1070
     3
1070
   287
1070
     3
1070
     3
1000
φ<>
1070
    40
1040
15.0
1070
   143
1040
0.039
1070
   172
1070
     1
1070
   271
1070
     0
1070
   279
1070
     0
1070
   288
1070
     1
1002
}
  0
DIMENSION
  5
7CB3
  8
3
  6
CONTINUOUS
  2
*D18
 10
753.12456054106406
 20
1467.4268712310829
 30
0.0
 11
753.12456054106394
 21
1621.536995231083
 31
0.0
 70
   128
 13
904.91392199999996
 23
1792.4268712310829
 33
0.0
 14
924.91392200000007
 24
1467.4268712310829
 34
0.0
 50
90.0
1001
ACAD
1000
DSTYLE
1002
{
1070
   287
1070
     3
1070
   287
1070
     3
1070
    40
1040
15.0
1070
   143
1040
0.039
1070
   172
1070
     1
1070
   271
1070
     0
1070
   279
1070
     0
1070
   288
1070
     1
1002
}
  0
DIMENSION
  5
7D45
  8
3
  2
*D19
 10
1769.913921999999
 20
2171.4081766401341
 30
0.0
 11
1328.857230356972
 21
2171.4081766401341
 31
0.0
 70
   128
 13
904.91392199999996
 23
1813.9268712310829
 33
0.0
 14
1769.913921999999
 24
1462.4268712310829
 34
0.0
1001
ACAD
1000
DSTYLE
1002
{
1070
   287
1070
     3
1070
   287
1070
     3
1070
    40
1040
15.0
1070
   143
1040
0.039
1070
   172
1070
     1
1070
   271
1070
     0
1070
   279
1070
     0
1070
   288
1070
     1
1002
}
  0
ENDSEC
  0
EOF
