  0
SECTION
  2
HEADER
  9
$ACADVER
  1
AC1009
  9
$INSBASE
 10
0.0
 20
0.0
 30
0.0
  9
$EXTMIN
 10
375.0
 20
450.0
 30
0.0
  9
$EXTMAX
 10
2775.0
 20
4179.978392
 30
0.0
  9
$LIMMIN
 10
0.0
 20
0.0
  9
$LIMMAX
 10
297.0
 20
210.0
  9
$ORTHOMODE
 70
     0
  9
$REGENMODE
 70
     1
  9
$FILLMODE
 70
     0
  9
$QTEXTMODE
 70
     0
  9
$MIRRTEXT
 70
     1
  9
$DRAGMODE
 70
     2
  9
$LTSCALE
 40
100.0
  9
$OSMODE
 70
    37
  9
$ATTMODE
 70
     1
  9
$TEXTSIZE
 40
180.0
  9
$TRACEWID
 40
0.05
  9
$TEXTSTYLE
  7
STANDARD
  9
$CLAYER
  8
3
  9
$CELTYPE
  6
BYLAYER
  9
$CECOLOR
 62
   256
  9
$DIMSCALE
 40
15.0
  9
$DIMASZ
 40
2.0
  9
$DIMEXO
 40
0.5
  9
$DIMDLI
 40
10.0
  9
$DIMRND
 40
0.0
  9
$DIMDLE
 40
0.0
  9
$DIMEXE
 40
1.0
  9
$DIMTP
 40
1.0
  9
$DIMTM
 40
1.0
  9
$DIMTXT
 40
3.0
  9
$DIMCEN
 40
0.0
  9
$DIMTSZ
 40
0.0
  9
$DIMTOL
 70
     0
  9
$DIMLIM
 70
     0
  9
$DIMTIH
 70
     0
  9
$DIMTOH
 70
     0
  9
$DIMSE1
 70
     0
  9
$DIMSE2
 70
     0
  9
$DIMTAD
 70
     1
  9
$DIMZIN
 70
     8
  9
$DIMBLK
  1

  9
$DIMASO
 70
     1
  9
$DIMSHO
 70
     1
  9
$DIMPOST
  1

  9
$DIMAPOST
  1

  9
$DIMALT
 70
     0
  9
$DIMALTD
 70
     2
  9
$DIMALTF
 40
0.039
  9
$DIMLFAC
 40
1.0
  9
$DIMTOFL
 70
     1
  9
$DIMTVP
 40
0.0
  9
$DIMTIX
 70
     0
  9
$DIMSOXD
 70
     0
  9
$DIMSAH
 70
     1
  9
$DIMBLK1
  1
OPEN
  9
$DIMBLK2
  1
OPEN
  9
$DIMSTYLE
  2
IGA
  9
$DIMCLRD
 70
     0
  9
$DIMCLRE
 70
     0
  9
$DIMCLRT
 70
     0
  9
$DIMTFAC
 40
10.0
  9
$DIMGAP
 40
1.0
  9
$LUNITS
 70
     2
  9
$LUPREC
 70
     3
  9
$SKETCHINC
 40
0.1
  9
$FILLETRAD
 40
50.0
  9
$AUNITS
 70
     0
  9
$AUPREC
 70
     0
  9
$MENU
  1
acad
  9
$ELEVATION
 40
0.0
  9
$PELEVATION
 40
0.0
  9
$THICKNESS
 40
0.0
  9
$LIMCHECK
 70
     0
  9
$BLIPMODE
 70
     0
  9
$CHAMFERA
 40
0.5
  9
$CHAMFERB
 40
0.5
  9
$SKPOLY
 70
     0
  9
$TDCREATE
 40
2450746.439257639
  9
$TDUPDATE
 40
2454953.8649605322
  9
$TDINDWG
 40
0.0065217708
  9
$TDUSRTIMER
 40
0.0065217708
  9
$USRTIMER
 70
     1
  9
$ANGBASE
 50
0.0
  9
$ANGDIR
 70
     0
  9
$PDMODE
 70
     0
  9
$PDSIZE
 40
0.0
  9
$PLINEWID
 40
0.0
  9
$COORDS
 70
     1
  9
$SPLFRAME
 70
     0
  9
$SPLINETYPE
 70
     6
  9
$SPLINESEGS
 70
     8
  9
$ATTDIA
 70
     0
  9
$ATTREQ
 70
     1
  9
$HANDLING
 70
 10241
  9
$HANDSEED
  5
7E8F
  9
$SURFTAB1
 70
     6
  9
$SURFTAB2
 70
     6
  9
$SURFTYPE
 70
     6
  9
$SURFU
 70
     6
  9
$SURFV
 70
     6
  9
$UCSNAME
  2

  9
$UCSORG
 10
0.0
 20
0.0
 30
0.0
  9
$UCSXDIR
 10
1.0
 20
0.0
 30
0.0
  9
$UCSYDIR
 10
0.0
 20
1.0
 30
0.0
  9
$PUCSNAME
  2

  9
$PUCSORG
 10
0.0
 20
0.0
 30
0.0
  9
$PUCSXDIR
 10
1.0
 20
0.0
 30
0.0
  9
$PUCSYDIR
 10
0.0
 20
1.0
 30
0.0
  9
$USERI1
 70
     0
  9
$USERI2
 70
     0
  9
$USERI3
 70
     0
  9
$USERI4
 70
     0
  9
$USERI5
 70
     0
  9
$USERR1
 40
0.0
  9
$USERR2
 40
0.0
  9
$USERR3
 40
0.0
  9
$USERR4
 40
0.0
  9
$USERR5
 40
0.0
  9
$WORLDVIEW
 70
     1
  9
$SHADEDGE
 70
     3
  9
$SHADEDIF
 70
    70
  9
$TILEMODE
 70
     1
  9
$MAXACTVP
 70
    16
  9
$PLIMCHECK
 70
     0
  9
$PEXTMIN
 10
1.0000000000000000E+020
 20
1.0000000000000000E+020
 30
1.0000000000000000E+020
  9
$PEXTMAX
 10
-1.0000000000000000E+020
 20
-1.0000000000000000E+020
 30
-1.0000000000000000E+020
  9
$PLIMMIN
 10
0.0
 20
0.0
  9
$PLIMMAX
 10
12.0
 20
9.0
  9
$UNITMODE
 70
     0
  9
$VISRETAIN
 70
     0
  9
$PLINEGEN
 70
     0
  9
$PSLTSCALE
 70
     1
  0
ENDSEC
  0
SECTION
  2
TABLES
  0
TABLE
  2
VPORT
 70
     2
  0
VPORT
  2
*ACTIVE
 70
     0
 10
0.0
 20
0.0
 11
1.0
 21
1.0
 12
4401.2983378415538
 22
3057.1997328101929
 13
0.0
 23
0.0
 14
10.0
 24
10.0
 15
10.0
 25
10.0
 16
0.0
 26
0.0
 36
1.0
 17
0.0
 27
0.0
 37
0.0
 40
5790.6463360859261
 41
1.5051150895140659
 42
50.0
 43
0.0
 44
0.0
 50
0.0
 51
0.0
 71
     0
 72
   100
 73
     1
 74
     0
 75
     0
 76
     0
 77
     0
 78
     0
  0
ENDTAB
  0
TABLE
  2
LTYPE
 70
     2
  0
LTYPE
  2
CONTINUOUS
 70
     0
  3
Solid line
 72
    65
 73
     0
 40
0.0
  0
LTYPE
  2
CENTER
 70
     0
  3
____ _ ____ _ ____ _ ____ _ ____ _ ____ _ ____ 
 72
    65
 73
     4
 40
2.0
 49
1.25
 49
-0.25
 49
0.25
 49
-0.25
  0
ENDTAB
  0
TABLE
  2
LAYER
 70
     6
  0
LAYER
  2
0
 70
     0
 62
     7
  6
CONTINUOUS
  0
LAYER
  2
3
 70
     0
 62
     2
  6
CONTINUOUS
  0
LAYER
  2
2
 70
     0
 62
     3
  6
CENTER
  0
LAYER
  2
1
 70
     0
 62
     4
  6
CONTINUOUS
  0
LAYER
  2
4
 70
     0
 62
     7
  6
CONTINUOUS
  0
LAYER
  2
DEFPOINTS
 70
     0
 62
     7
  6
CONTINUOUS
  0
ENDTAB
  0
TABLE
  2
STYLE
 70
     1
  0
STYLE
  2
STANDARD
 70
     0
 40
0.0
 41
1.0
 50
0.0
 71
     0
 42
180.0
  3
simplex.shx
  4
extfont.shx
  0
ENDTAB
  0
TABLE
  2
VIEW
 70
     0
  0
ENDTAB
  0
TABLE
  2
UCS
 70
     0
  0
ENDTAB
  0
TABLE
  2
APPID
 70
     1
  0
APPID
  2
ACAD
 70
     0
  0
ENDTAB
  0
TABLE
  2
DIMSTYLE
 70
     1
  0
DIMSTYLE
  2
IGA
 70
     0
  3

  4

  5

  6
OPEN
  7
OPEN
 40
2.0
 41
2.0
 42
0.5
 43
10.0
 44
1.0
 45
0.0
 46
0.0
 47
1.0
 48
1.0
140
3.0
141
0.0
142
0.0
143
0.03937
144
1.0
145
0.0
146
10.0
147
1.0
 71
     0
 72
     0
 73
     0
 74
     0
 75
     0
 76
     0
 77
     1
 78
     8
170
     0
171
     2
172
     0
173
     1
174
     0
175
     0
176
     0
177
     0
178
     0
  0
ENDTAB
  0
ENDSEC
  0
SECTION
  2
BLOCKS
  0
BLOCK
  8
0
  2
$MODEL_SPACE
 70
     0
 10
0.0
 20
0.0
 30
0.0
  3
$MODEL_SPACE
  1

  0
ENDBLK
  5
1B
  8
0
  0
BLOCK
 67
     1
  8
0
  2
$PAPER_SPACE
 70
     0
 10
0.0
 20
0.0
 30
0.0
  3
$PAPER_SPACE
  1

  0
ENDBLK
  5
18
 67
     1
  8
0
  0
BLOCK
  8
0
  2
_OPEN
 70
     0
 10
0.0
 20
0.0
 30
0.0
  3
_OPEN
  1

  0
LINE
  5
7B43
  8
0
  6
BYBLOCK
 62
     0
 10
-1.0
 20
0.166667
 30
0.0
 11
0.0
 21
0.0
 31
0.0
  0
LINE
  5
7B44
  8
0
  6
BYBLOCK
 62
     0
 10
0.0
 20
0.0
 30
0.0
 11
-1.0
 21
-0.166667
 31
0.0
  0
LINE
  5
7B45
  8
0
  6
BYBLOCK
 62
     0
 10
0.0
 20
0.0
 30
0.0
 11
-1.0
 21
0.0
 31
0.0
  0
ENDBLK
  5
7B46
  8
0
  0
BLOCK
  8
0
  2
*D1
 70
     1
 10
0.0
 20
0.0
 30
0.0
  3
*D1
  1

  0
LINE
  5
7DDB
  8
3
  6
CONTINUOUS
 62
     0
 10
524.18593784084999
 20
1166.8149149999999
 30
0.0
 11
524.18593784084999
 21
1075.684213
 31
0.0
  0
LINE
  5
7DDC
  8
3
  6
CONTINUOUS
 62
     0
 10
1139.1859378408501
 20
1151.7205220000001
 30
0.0
 11
1139.1859378408501
 21
1075.684213
 31
0.0
  0
LINE
  5
7DDD
  8
3
  6
CONTINUOUS
 62
     0
 10
554.1859378408501
 20
1090.684213
 30
0.0
 11
1109.1859378408501
 21
1090.684213
 31
0.0
  0
INSERT
  5
7DDE
  8
3
  6
CONTINUOUS
 62
     0
  2
_OPEN
 10
524.18593784084999
 20
1090.684213
 30
0.0
 41
30.0
 42
30.0
 43
30.0
 50
180.0
  0
INSERT
  5
7DDF
  8
3
  6
CONTINUOUS
 62
     0
  2
_OPEN
 10
1139.1859378408501
 20
1090.684213
 30
0.0
 41
30.0
 42
30.0
 43
30.0
  0
TEXT
  8
3
  40
45
  5
7E7C
  62
0
  72
0
  71
0
 10
746.284
 20
1048.53
 30
0.000000
  1
615
  0
POINT
  5
7DE1
  8
DEFPOINTS
  6
CONTINUOUS
 62
     0
 10
524.18593784084999
 20
1174.314914999999
 30
0.0
  0
POINT
  5
7DE2
  8
DEFPOINTS
  6
CONTINUOUS
 62
     0
 10
1139.1859378408501
 20
1159.2205220000001
 30
0.0
  0
POINT
  5
7DE3
  8
DEFPOINTS
  6
CONTINUOUS
 62
     0
 10
1139.1859378408501
 20
1090.684213
 30
0.0
  0
ENDBLK
  5
7B53
  8
0
  0
BLOCK
  8
0
  2
*D2
 70
     1
 10
0.0
 20
0.0
 30
0.0
  3
*D2
  1

  0
LINE
  5
7DE4
  8
3
  6
CONTINUOUS
 62
     0
 10
1374.1859378408501
 20
1166.8149149999999
 30
0.0
 11
1374.1859378408501
 21
1075.684213
 31
0.0
  0
LINE
  5
7DE5
  8
3
  6
CONTINUOUS
 62
     0
 10
1169.1859378408501
 20
1090.684213
 30
0.0
 11
1344.1859378408501
 21
1090.684213
 31
0.0
  0
INSERT
  5
7DE6
  8
3
  6
CONTINUOUS
 62
     0
  2
_OPEN
 10
1139.1859378408501
 20
1090.684213
 30
0.0
 41
30.0
 42
30.0
 43
30.0
 50
180.0
  0
INSERT
  5
7DE7
  8
3
  6
CONTINUOUS
 62
     0
  2
_OPEN
 10
1374.1859378408501
 20
1090.684213
 30
0.0
 41
30.0
 42
30.0
 43
30.0
  0
TEXT
  8
3
  40
45
  5
7E7D
  62
0
  72
0
  71
0
 10
1166.69
 20
1048.53
 30
0.000000
  1
235
  0
POINT
  5
7DE9
  8
DEFPOINTS
  6
CONTINUOUS
 62
     0
 10
1139.1859378408501
 20
1159.2205220000001
 30
0.0
  0
POINT
  5
7DEA
  8
DEFPOINTS
  6
CONTINUOUS
 62
     0
 10
1374.1859378408501
 20
1174.314914999999
 30
0.0
  0
POINT
  5
7DEB
  8
DEFPOINTS
  6
CONTINUOUS
 62
     0
 10
1374.1859378408501
 20
1090.684213
 30
0.0
  0
ENDBLK
  5
7B5F
  8
0
  0
BLOCK
  8
0
  2
*D3
 70
     1
 10
0.0
 20
0.0
 30
0.0
  3
*D3
  1

  0
LINE
  5
7DEC
  8
3
  6
CONTINUOUS
 62
     0
 10
824.18593784084999
 20
1861.8149149999999
 30
0.0
 11
824.18593784084999
 21
1936.079103
 31
0.0
  0
LINE
  5
7DED
  8
3
  6
CONTINUOUS
 62
     0
 10
1139.1859378408501
 20
1861.8149149999999
 30
0.0
 11
1139.1859378408501
 21
1936.079103
 31
0.0
  0
LINE
  5
7DEE
  8
3
  6
CONTINUOUS
 62
     0
 10
854.1859378408501
 20
1921.079103
 30
0.0
 11
1109.1859378408501
 21
1921.079103
 31
0.0
  0
INSERT
  5
7DEF
  8
3
  6
CONTINUOUS
 62
     0
  2
_OPEN
 10
824.18593784084999
 20
1921.079103
 30
0.0
 41
30.0
 42
30.0
 43
30.0
 50
180.0
  0
INSERT
  5
7DF0
  8
3
  6
CONTINUOUS
 62
     0
  2
_OPEN
 10
1139.1859378408501
 20
1921.079103
 30
0.0
 41
30.0
 42
30.0
 43
30.0
  0
TEXT
  8
3
  40
45
  5
7E7E
  62
0
  72
0
  71
0
 10
899.087
 20
1878.93
 30
0.000000
  1
315
  0
POINT
  5
7DF2
  8
DEFPOINTS
  6
CONTINUOUS
 62
     0
 10
824.18593784084999
 20
1854.3149149999999
 30
0.0
  0
POINT
  5
7DF3
  8
DEFPOINTS
  6
CONTINUOUS
 62
     0
 10
1139.1859378408501
 20
1854.3149149999999
 30
0.0
  0
POINT
  5
7DF4
  8
DEFPOINTS
  6
CONTINUOUS
 62
     0
 10
1139.1859378408501
 20
1921.079103
 30
0.0
  0
ENDBLK
  5
7B6C
  8
0
  0
BLOCK
  8
0
  2
*D4
 70
     1
 10
0.0
 20
0.0
 30
0.0
  3
*D4
  1

  0
LINE
  5
7DF5
  8
3
  6
CONTINUOUS
 62
     0
 10
814.1859378408501
 20
1841.8149149999999
 30
0.0
 11
814.1859378408501
 21
2009.9360889999989
 31
0.0
  0
LINE
  5
7DF6
  8
3
  6
CONTINUOUS
 62
     0
 10
1139.1859378408501
 20
1861.8149149999999
 30
0.0
 11
1139.1859378408501
 21
2009.9360889999989
 31
0.0
  0
LINE
  5
7DF7
  8
3
  6
CONTINUOUS
 62
     0
 10
844.1859378408501
 20
1994.936089
 30
0.0
 11
1109.1859378408501
 21
1994.936089
 31
0.0
  0
INSERT
  5
7DF8
  8
3
  6
CONTINUOUS
 62
     0
  2
_OPEN
 10
814.1859378408501
 20
1994.936089
 30
0.0
 41
30.0
 42
30.0
 43
30.0
 50
180.0
  0
INSERT
  5
7DF9
  8
3
  6
CONTINUOUS
 62
     0
  2
_OPEN
 10
1139.1859378408501
 20
1994.936089
 30
0.0
 41
30.0
 42
30.0
 43
30.0
  0
TEXT
  8
3
  40
45
  5
7E7F
  62
0
  72
0
  71
0
 10
891.693
 20
1952.79
 30
0.000000
  1
325
  0
POINT
  5
7DFB
  8
DEFPOINTS
  6
CONTINUOUS
 62
     0
 10
814.1859378408501
 20
1834.3149149999999
 30
0.0
  0
POINT
  5
7DFC
  8
DEFPOINTS
  6
CONTINUOUS
 62
     0
 10
1139.1859378408501
 20
1854.3149149999999
 30
0.0
  0
POINT
  5
7DFD
  8
DEFPOINTS
  6
CONTINUOUS
 62
     0
 10
1139.1859378408501
 20
1994.936089
 30
0.0
  0
ENDBLK
  5
7B79
  8
0
  0
BLOCK
  8
0
  2
*D5
 70
     1
 10
0.0
 20
0.0
 30
0.0
  3
*D5
  1

  0
LINE
  5
7DFE
  8
3
  6
CONTINUOUS
 62
     0
 10
1371.4311248408501
 20
1611.8149149999999
 30
0.0
 11
1371.4311248408501
 21
2009.9360889999989
 31
0.0
  0
LINE
  5
7DFF
  8
3
  6
CONTINUOUS
 62
     0
 10
1169.1859378408501
 20
1994.936089
 30
0.0
 11
1341.4311248408501
 21
1994.936089
 31
0.0
  0
INSERT
  5
7E00
  8
3
  6
CONTINUOUS
 62
     0
  2
_OPEN
 10
1139.1859378408501
 20
1994.936089
 30
0.0
 41
30.0
 42
30.0
 43
30.0
 50
180.0
  0
INSERT
  5
7E01
  8
3
  6
CONTINUOUS
 62
     0
  2
_OPEN
 10
1371.4311248408501
 20
1994.936089
 30
0.0
 41
30.0
 42
30.0
 43
30.0
  0
TEXT
  8
3
  40
45
  5
7E80
  62
0
  72
0
  71
0
 10
1165.31
 20
1952.79
 30
0.000000
  1
232
  0
POINT
  5
7E03
  8
DEFPOINTS
  6
CONTINUOUS
 62
     0
 10
1139.1859378408501
 20
1854.3149149999999
 30
0.0
  0
POINT
  5
7E04
  8
DEFPOINTS
  6
CONTINUOUS
 62
     0
 10
1371.4311248408501
 20
1604.314914999999
 30
0.0
  0
POINT
  5
7E05
  8
DEFPOINTS
  6
CONTINUOUS
 62
     0
 10
1371.4311248408501
 20
1994.936089
 30
0.0
  0
ENDBLK
  5
7B85
  8
0
  0
BLOCK
  8
0
  2
*D6
 70
     1
 10
0.0
 20
0.0
 30
0.0
  3
*D6
  1

  0
LINE
  5
7E06
  8
3
  6
CONTINUOUS
 62
     0
 10
1168.1859378408501
 20
1854.3149149999999
 30
0.0
 11
1529.03856384085
 21
1854.3149149999999
 31
0.0
  0
LINE
  5
7E07
  8
3
  6
CONTINUOUS
 62
     0
 10
1378.9311248408501
 20
1604.314914999999
 30
0.0
 11
1529.03856384085
 21
1604.314914999999
 31
0.0
  0
LINE
  5
7E08
  8
3
  6
CONTINUOUS
 62
     0
 10
1514.03856384085
 20
1824.3149149999999
 30
0.0
 11
1514.03856384085
 21
1634.3149149999999
 31
0.0
  0
INSERT
  5
7E09
  8
3
  6
CONTINUOUS
 62
     0
  2
_OPEN
 10
1514.03856384085
 20
1854.3149149999999
 30
0.0
 41
30.0
 42
30.0
 43
30.0
 50
90.0
  0
INSERT
  5
7E0A
  8
3
  6
CONTINUOUS
 62
     0
  2
_OPEN
 10
1514.03856384085
 20
1604.314914999999
 30
0.0
 41
30.0
 42
30.0
 43
30.0
 50
270.0
  0
TEXT
  8
3
  40
45
  5
7E81
  62
0
  72
0
  71
0
 10
1386.54
 20
1648.67
 30
0.000000
  1
250
  0
POINT
  5
7E0C
  8
DEFPOINTS
  6
CONTINUOUS
 62
     0
 10
1160.6859378408501
 20
1854.3149149999999
 30
0.0
  0
POINT
  5
7E0D
  8
DEFPOINTS
  6
CONTINUOUS
 62
     0
 10
1371.4311248408501
 20
1604.314914999999
 30
0.0
  0
POINT
  5
7E0E
  8
DEFPOINTS
  6
CONTINUOUS
 62
     0
 10
1514.03856384085
 20
1604.314914999999
 30
0.0
  0
ENDBLK
  5
7B92
  8
0
  0
BLOCK
  8
0
  2
*D7
 70
     1
 10
0.0
 20
0.0
 30
0.0
  3
*D7
  1

  0
LINE
  5
7E0F
  8
3
  6
CONTINUOUS
 62
     0
 10
1381.6859378408501
 20
1204.3149149999999
 30
0.0
 11
1529.03856384085
 21
1204.3149149999999
 31
0.0
  0
LINE
  5
7E10
  8
3
  6
CONTINUOUS
 62
     0
 10
1514.03856384085
 20
1574.314914999999
 30
0.0
 11
1514.03856384085
 21
1234.3149149999999
 31
0.0
  0
INSERT
  5
7E11
  8
3
  6
CONTINUOUS
 62
     0
  2
_OPEN
 10
1514.03856384085
 20
1604.314914999999
 30
0.0
 41
30.0
 42
30.0
 43
30.0
 50
90.0
  0
INSERT
  5
7E12
  8
3
  6
CONTINUOUS
 62
     0
  2
_OPEN
 10
1514.03856384085
 20
1204.3149149999999
 30
0.0
 41
30.0
 42
30.0
 43
30.0
 50
270.0
  0
TEXT
  8
3
  40
45
  5
7E82
  62
0
  72
0
  71
0
 10
1386.54
 20
1324.66
 30
0.000000
  1
400
  0
POINT
  5
7E14
  8
DEFPOINTS
  6
CONTINUOUS
 62
     0
 10
1371.4311248408501
 20
1604.314914999999
 30
0.0
  0
POINT
  5
7E15
  8
DEFPOINTS
  6
CONTINUOUS
 62
     0
 10
1374.1859378408501
 20
1204.3149149999999
 30
0.0
  0
POINT
  5
7E16
  8
DEFPOINTS
  6
CONTINUOUS
 62
     0
 10
1514.03856384085
 20
1204.3149149999999
 30
0.0
  0
ENDBLK
  5
7B9E
  8
0
  0
BLOCK
  8
0
  2
*D8
 70
     1
 10
0.0
 20
0.0
 30
0.0
  3
*D8
  1

  0
LINE
  5
7E17
  8
3
  6
CONTINUOUS
 62
     0
 10
1381.6859378408501
 20
1204.3149149999999
 30
0.0
 11
1529.03856384085
 21
1204.3149149999999
 31
0.0
  0
LINE
  5
7E18
  8
3
  6
CONTINUOUS
 62
     0
 10
1381.6859378408501
 20
1174.314914999999
 30
0.0
 11
1529.03856384085
 21
1174.314914999999
 31
0.0
  0
LINE
  5
7E19
  8
3
  6
CONTINUOUS
 62
     0
 10
1514.03856384085
 20
1234.3149149999999
 30
0.0
 11
1514.03856384085
 21
1264.314914999999
 31
0.0
  0
LINE
  5
7E1A
  8
3
  6
CONTINUOUS
 62
     0
 10
1514.03856384085
 20
1144.3149149999999
 30
0.0
 11
1514.03856384085
 21
1011.457772142857
 31
0.0
  0
LINE
  5
7E1B
  8
3
  6
CONTINUOUS
 62
     0
 10
1514.03856384085
 20
1204.3149149999999
 30
0.0
 11
1514.03856384085
 21
1174.314914999999
 31
0.0
  0
INSERT
  5
7E1C
  8
3
  6
CONTINUOUS
 62
     0
  2
_OPEN
 10
1514.03856384085
 20
1204.3149149999999
 30
0.0
 41
30.0
 42
30.0
 43
30.0
 50
270.0
  0
INSERT
  5
7E1D
  8
3
  6
CONTINUOUS
 62
     0
  2
_OPEN
 10
1514.03856384085
 20
1174.314914999999
 30
0.0
 41
30.0
 42
30.0
 43
30.0
 50
90.0
  0
TEXT
  8
3
  40
45
  5
7E83
  62
0
  72
0
  71
0
 10
1386.54
 20
983.236
 30
0.000000
  1
30
  0
POINT
  5
7E1F
  8
DEFPOINTS
  6
CONTINUOUS
 62
     0
 10
1374.1859378408501
 20
1204.3149149999999
 30
0.0
  0
POINT
  5
7E20
  8
DEFPOINTS
  6
CONTINUOUS
 62
     0
 10
1374.1859378408501
 20
1174.314914999999
 30
0.0
  0
POINT
  5
7E21
  8
DEFPOINTS
  6
CONTINUOUS
 62
     0
 10
1514.03856384085
 20
1174.314914999999
 30
0.0
  0
ENDBLK
  5
7CB4
  8
0
  0
BLOCK
  8
0
  2
*D9
 70
     1
 10
0.0
 20
0.0
 30
0.0
  3
*D9
  1

  0
LINE
  5
7E22
  8
3
  6
CONTINUOUS
 62
     0
 10
1175.6859378408501
 20
1854.3149149999999
 30
0.0
 11
1639.9437898408501
 21
1854.314914999999
 31
0.0
  0
LINE
  5
7E23
  8
3
  6
CONTINUOUS
 62
     0
 10
1381.6859378408501
 20
1174.314914999999
 30
0.0
 11
1639.9437898408501
 21
1174.314914999999
 31
0.0
  0
LINE
  5
7E24
  8
3
  6
CONTINUOUS
 62
     0
 10
1624.9437898408501
 20
1824.314914999999
 30
0.0
 11
1624.9437898408501
 21
1204.314914999999
 31
0.0
  0
INSERT
  5
7E25
  8
3
  6
CONTINUOUS
 62
     0
  2
_OPEN
 10
1624.9437898408501
 20
1854.314914999999
 30
0.0
 41
30.0
 42
30.0
 43
30.0
 50
90.0
  0
INSERT
  5
7E26
  8
3
  6
CONTINUOUS
 62
     0
  2
_OPEN
 10
1624.9437898408501
 20
1174.314914999999
 30
0.0
 41
30.0
 42
30.0
 43
30.0
 50
270.0
  0
TEXT
  8
3
  40
45
  5
7E84
  62
0
  72
0
  71
0
 10
1497.44
 20
1432.02
 30
0.000000
  1
680
  0
POINT
  5
7E28
  8
DEFPOINTS
  6
CONTINUOUS
 62
     0
 10
1168.1859378408501
 20
1854.3149149999999
 30
0.0
  0
POINT
  5
7E29
  8
DEFPOINTS
  6
CONTINUOUS
 62
     0
 10
1374.1859378408501
 20
1174.314914999999
 30
0.0
  0
POINT
  5
7E2A
  8
DEFPOINTS
  6
CONTINUOUS
 62
     0
 10
1624.9437898408501
 20
1174.314914999999
 30
0.0
  0
ENDBLK
  5
7BD5
  8
0
  0
BLOCK
  8
0
  2
*D10
 70
     1
 10
0.0
 20
0.0
 30
0.0
  3
*D10
  1

  0
LINE
  5
7E2B
  8
3
  6
CONTINUOUS
 62
     0
 10
524.18593784084999
 20
2585.5276807993432
 30
0.0
 11
524.18593784084999
 21
2455.5754367993432
 31
0.0
  0
LINE
  5
7E2C
  8
3
  6
CONTINUOUS
 62
     0
 10
1374.1859378408501
 20
2585.5276807993432
 30
0.0
 11
1374.1859378408501
 21
2455.5754367993432
 31
0.0
  0
LINE
  5
7E2D
  8
3
  6
CONTINUOUS
 62
     0
 10
554.1859378408501
 20
2470.5754367993432
 30
0.0
 11
1344.1859378408501
 21
2470.5754367993432
 31
0.0
  0
INSERT
  5
7E2E
  8
3
  6
CONTINUOUS
 62
     0
  2
_OPEN
 10
524.18593784084999
 20
2470.5754367993432
 30
0.0
 41
30.0
 42
30.0
 43
30.0
 50
180.0
  0
INSERT
  5
7E2F
  8
3
  6
CONTINUOUS
 62
     0
  2
_OPEN
 10
1374.1859378408501
 20
2470.5754367993432
 30
0.0
 41
30.0
 42
30.0
 43
30.0
  0
TEXT
  8
3
  40
45
  5
7E85
  62
0
  72
0
  71
0
 10
884.300
 20
2428.43
 30
0.000000
  1
850
  0
POINT
  5
7E31
  8
DEFPOINTS
  6
CONTINUOUS
 62
     0
 10
524.18593784084999
 20
2593.0276807993432
 30
0.0
  0
POINT
  5
7E32
  8
DEFPOINTS
  6
CONTINUOUS
 62
     0
 10
1374.1859378408501
 20
2593.0276807993432
 30
0.0
  0
POINT
  5
7E33
  8
DEFPOINTS
  6
CONTINUOUS
 62
     0
 10
1374.1859378408501
 20
2470.5754367993432
 30
0.0
  0
ENDBLK
  5
7BE2
  8
0
  0
BLOCK
  8
0
  2
*D11
 70
     1
 10
0.0
 20
0.0
 30
0.0
  3
*D11
  1

  0
LINE
  5
7E34
  8
3
  6
CONTINUOUS
 62
     0
 10
1381.6859378408501
 20
3193.0276807993432
 30
0.0
 11
1531.5031568408499
 21
3193.0276807993432
 31
0.0
  0
LINE
  5
7E35
  8
3
  6
CONTINUOUS
 62
     0
 10
1381.6859378408501
 20
2593.0276807993432
 30
0.0
 11
1531.5031568408499
 21
2593.0276807993432
 31
0.0
  0
LINE
  5
7E36
  8
3
  6
CONTINUOUS
 62
     0
 10
1516.5031568408499
 20
3163.0276807993432
 30
0.0
 11
1516.5031568408499
 21
2623.0276807993441
 31
0.0
  0
INSERT
  5
7E37
  8
3
  6
CONTINUOUS
 62
     0
  2
_OPEN
 10
1516.5031568408499
 20
3193.0276807993432
 30
0.0
 41
30.0
 42
30.0
 43
30.0
 50
90.0
  0
INSERT
  5
7E38
  8
3
  6
CONTINUOUS
 62
     0
  2
_OPEN
 10
1516.5031568408499
 20
2593.0276807993432
 30
0.0
 41
30.0
 42
30.0
 43
30.0
 50
270.0
  0
TEXT
  8
3
  40
45
  5
7E86
  62
0
  72
0
  71
0
 10
1389.00
 20
2851.30
 30
0.000000
  1
600
  0
POINT
  5
7E3A
  8
DEFPOINTS
  6
CONTINUOUS
 62
     0
 10
1374.1859378408501
 20
3193.0276807993432
 30
0.0
  0
POINT
  5
7E3B
  8
DEFPOINTS
  6
CONTINUOUS
 62
     0
 10
1374.1859378408501
 20
2593.0276807993432
 30
0.0
  0
POINT
  5
7E3C
  8
DEFPOINTS
  6
CONTINUOUS
 62
     0
 10
1516.5031568408499
 20
2593.0276807993432
 30
0.0
  0
ENDBLK
  5
7BEF
  8
0
  0
BLOCK
  8
0
  2
*D12
 70
     1
 10
0.0
 20
0.0
 30
0.0
  3
*D12
  1

  0
LINE
  5
7E3D
  8
3
  6
CONTINUOUS
 62
     0
 10
2064.5772629999992
 20
1166.8149149999999
 30
0.0
 11
2064.5772629999992
 21
1048.848242999999
 31
0.0
  0
LINE
  5
7E3E
  8
3
  6
CONTINUOUS
 62
     0
 10
2484.5772630000001
 20
1135.1290289999999
 30
0.0
 11
2484.5772630000001
 21
1048.848242999999
 31
0.0
  0
LINE
  5
7E3F
  8
3
  6
CONTINUOUS
 62
     0
 10
2094.5772629999992
 20
1063.8482429999999
 30
0.0
 11
2454.5772630000001
 21
1063.8482429999999
 31
0.0
  0
INSERT
  5
7E40
  8
3
  6
CONTINUOUS
 62
     0
  2
_OPEN
 10
2064.5772629999992
 20
1063.8482429999999
 30
0.0
 41
30.0
 42
30.0
 43
30.0
 50
180.0
  0
INSERT
  5
7E41
  8
3
  6
CONTINUOUS
 62
     0
  2
_OPEN
 10
2484.5772630000001
 20
1063.8482429999999
 30
0.0
 41
30.0
 42
30.0
 43
30.0
  0
TEXT
  8
3
  40
45
  5
7E87
  62
0
  72
0
  71
0
 10
2192.52
 20
1021.70
 30
0.000000
  1
420
  0
POINT
  5
7E43
  8
DEFPOINTS
  6
CONTINUOUS
 62
     0
 10
2064.5772629999992
 20
1174.314914999999
 30
0.0
  0
POINT
  5
7E44
  8
DEFPOINTS
  6
CONTINUOUS
 62
     0
 10
2484.5772630000001
 20
1142.629028999999
 30
0.0
  0
POINT
  5
7E45
  8
DEFPOINTS
  6
CONTINUOUS
 62
     0
 10
2484.5772630000001
 20
1063.8482429999999
 30
0.0
  0
ENDBLK
  5
7BFF
  8
0
  0
BLOCK
  8
0
  2
*D13
 70
     1
 10
0.0
 20
0.0
 30
0.0
  3
*D13
  1

  0
LINE
  5
7E46
  8
3
  6
CONTINUOUS
 62
     0
 10
2664.5772629999992
 20
1166.8149149999999
 30
0.0
 11
2664.5772629999992
 21
1048.848242999999
 31
0.0
  0
LINE
  5
7E47
  8
3
  6
CONTINUOUS
 62
     0
 10
2514.5772629999992
 20
1063.8482429999999
 30
0.0
 11
2634.5772630000001
 21
1063.8482429999999
 31
0.0
  0
TEXT
  8
3
  40
45
  5
7E88
  62
0
  72
0
  71
0
 10
2483.58
 20
1021.45
 30
0.000000
  1
180
  0
INSERT
  5
7E49
  8
3
  6
CONTINUOUS
 62
     0
  2
_OPEN
 10
2484.5772630000001
 20
1063.8482429999999
 30
0.0
 41
30.0
 42
30.0
 43
30.0
 50
180.0
  0
INSERT
  5
7E4A
  8
3
  6
CONTINUOUS
 62
     0
  2
_OPEN
 10
2664.5772629999992
 20
1063.8482429999999
 30
0.0
 41
30.0
 42
30.0
 43
30.0
  0
POINT
  5
7E4B
  8
DEFPOINTS
  6
CONTINUOUS
 62
     0
 10
2484.5772630000001
 20
1142.629028999999
 30
0.0
  0
POINT
  5
7E4C
  8
DEFPOINTS
  6
CONTINUOUS
 62
     0
 10
2664.5772629999992
 20
1174.314914999999
 30
0.0
  0
POINT
  5
7E4D
  8
DEFPOINTS
  6
CONTINUOUS
 62
     0
 10
2664.5772629999992
 20
1063.8482429999999
 30
0.0
  0
ENDBLK
  5
7C31
  8
0
  0
BLOCK
  8
0
  2
*D14
 70
     1
 10
0.0
 20
0.0
 30
0.0
  3
*D14
  1

  0
LINE
  5
7E4E
  8
3
  6
CONTINUOUS
 62
     0
 10
2372.5772629999992
 20
1861.8149149999999
 30
0.0
 11
2372.5772629999992
 21
1911.2151940000001
 31
0.0
  0
LINE
  5
7E4F
  8
3
  6
CONTINUOUS
 62
     0
 10
2596.5772629999992
 20
1861.8149149999999
 30
0.0
 11
2596.5772629999992
 21
1911.2151940000001
 31
0.0
  0
LINE
  5
7E50
  8
3
  6
CONTINUOUS
 62
     0
 10
2342.5772629999992
 20
1896.2151940000001
 30
0.0
 11
2312.5772629999992
 21
1896.2151940000001
 31
0.0
  0
LINE
  5
7E51
  8
3
  6
CONTINUOUS
 62
     0
 10
2626.5772629999992
 20
1896.2151940000001
 30
0.0
 11
2656.5772629999992
 21
1896.2151940000001
 31
0.0
  0
LINE
  5
7E52
  8
3
  6
CONTINUOUS
 62
     0
 10
2372.5772629999992
 20
1896.2151940000001
 30
0.0
 11
2596.5772629999992
 21
1896.2151940000001
 31
0.0
  0
INSERT
  5
7E53
  8
3
  6
CONTINUOUS
 62
     0
  2
_OPEN
 10
2372.5772629999992
 20
1896.2151940000001
 30
0.0
 41
30.0
 42
30.0
 43
30.0
  0
INSERT
  5
7E54
  8
3
  6
CONTINUOUS
 62
     0
  2
_OPEN
 10
2596.5772629999992
 20
1896.2151940000001
 30
0.0
 41
30.0
 42
30.0
 43
30.0
 50
180.0
  0
TEXT
  8
3
  40
45
  5
7E89
  62
0
  72
0
  71
0
 10
2386.51
 20
1854.07
 30
0.000000
  1
224
  0
POINT
  5
7E56
  8
DEFPOINTS
  6
CONTINUOUS
 62
     0
 10
2372.5772629999992
 20
1854.3149149999999
 30
0.0
  0
POINT
  5
7E57
  8
DEFPOINTS
  6
CONTINUOUS
 62
     0
 10
2596.5772629999992
 20
1854.3149149999999
 30
0.0
  0
POINT
  5
7E58
  8
DEFPOINTS
  6
CONTINUOUS
 62
     0
 10
2596.5772629999992
 20
1896.2151940000001
 30
0.0
  0
ENDBLK
  5
7C3D
  8
0
  0
BLOCK
  8
0
  2
*D15
 70
     1
 10
0.0
 20
0.0
 30
0.0
  3
*D15
  1

  0
LINE
  5
7E59
  8
3
  6
CONTINUOUS
 62
     0
 10
2064.5772629999992
 20
1841.8149149999999
 30
0.0
 11
2064.5772629999992
 21
2009.5575318536039
 31
0.0
  0
LINE
  5
7E5A
  8
3
  6
CONTINUOUS
 62
     0
 10
2484.5772630000001
 20
1962.2045169999999
 30
0.0
 11
2484.5772630000001
 21
2009.5575318536039
 31
0.0
  0
LINE
  5
7E5B
  8
3
  6
CONTINUOUS
 62
     0
 10
2094.5772629999992
 20
1994.5575318536039
 30
0.0
 11
2454.5772630000001
 21
1994.5575318536039
 31
0.0
  0
INSERT
  5
7E5C
  8
3
  6
CONTINUOUS
 62
     0
  2
_OPEN
 10
2064.5772629999992
 20
1994.5575318536039
 30
0.0
 41
30.0
 42
30.0
 43
30.0
 50
180.0
  0
INSERT
  5
7E5D
  8
3
  6
CONTINUOUS
 62
     0
  2
_OPEN
 10
2484.5772630000001
 20
1994.5575318536039
 30
0.0
 41
30.0
 42
30.0
 43
30.0
  0
TEXT
  8
3
  40
45
  5
7E8A
  62
0
  72
0
  71
0
 10
2182.90
 20
1989.91
 30
0.000000
  1
MAX
  0
TEXT
  8
3
  40
45
  5
7E8B
  62
0
  72
0
  71
0
 10
2182.90
 20
1931.41
 30
0.000000
  1
420
  0
POINT
  5
7E5F
  8
DEFPOINTS
  6
CONTINUOUS
 62
     0
 10
2064.5772629999992
 20
1834.3149149999999
 30
0.0
  0
POINT
  5
7E60
  8
DEFPOINTS
  6
CONTINUOUS
 62
     0
 10
2484.5772630000001
 20
1954.7045169999999
 30
0.0
  0
POINT
  5
7E61
  8
DEFPOINTS
  6
CONTINUOUS
 62
     0
 10
2484.5772630000001
 20
1994.5575318536039
 30
0.0
  0
ENDBLK
  5
7CD5
  8
0
  0
BLOCK
  8
0
  2
*D16
 70
     1
 10
0.0
 20
0.0
 30
0.0
  3
*D16
  1

  0
LINE
  5
7E62
  8
3
  6
CONTINUOUS
 62
     0
 10
2605.5772629999992
 20
1794.3149149999999
 30
0.0
 11
2605.5772629999992
 21
2009.5575318536039
 31
0.0
  0
LINE
  5
7E63
  8
3
  6
CONTINUOUS
 62
     0
 10
2514.5772629999992
 20
1994.5575318536039
 30
0.0
 11
2575.5772629999992
 21
1994.5575318536039
 31
0.0
  0
TEXT
  8
3
  40
45
  5
7E8C
  62
0
  72
0
  71
0
 10
2451.54
 20
1952.41
 30
0.000000
  1
121
  0
INSERT
  5
7E65
  8
3
  6
CONTINUOUS
 62
     0
  2
_OPEN
 10
2484.5772630000001
 20
1994.5575318536039
 30
0.0
 41
30.0
 42
30.0
 43
30.0
 50
180.0
  0
INSERT
  5
7E66
  8
3
  6
CONTINUOUS
 62
     0
  2
_OPEN
 10
2605.5772629999992
 20
1994.5575318536039
 30
0.0
 41
30.0
 42
30.0
 43
30.0
  0
POINT
  5
7E67
  8
DEFPOINTS
  6
CONTINUOUS
 62
     0
 10
2484.5772630000001
 20
1954.7045169999999
 30
0.0
  0
POINT
  5
7E68
  8
DEFPOINTS
  6
CONTINUOUS
 62
     0
 10
2605.5772629999992
 20
1786.8149149999999
 30
0.0
  0
POINT
  5
7E69
  8
DEFPOINTS
  6
CONTINUOUS
 62
     0
 10
2605.5772629999992
 20
1994.5575318536039
 30
0.0
  0
ENDBLK
  5
7CDF
  8
0
  0
BLOCK
  8
0
  2
*D17
 70
     1
 10
0.0
 20
0.0
 30
0.0
  3
*D17
  1

  0
LINE
  5
7E6A
  8
3
  6
CONTINUOUS
 62
     0
 10
2613.0772629999992
 20
1761.8149149999999
 30
0.0
 11
2731.9482190000008
 21
1761.8149149999999
 31
0.0
  0
LINE
  5
7E6B
  8
3
  6
CONTINUOUS
 62
     0
 10
2613.0772629999992
 20
1446.8149149999999
 30
0.0
 11
2731.9482190000008
 21
1446.8149149999999
 31
0.0
  0
LINE
  5
7E6C
  8
3
  6
CONTINUOUS
 62
     0
 10
2716.9482189999999
 20
1731.8149149999999
 30
0.0
 11
2716.9482189999999
 21
1476.8149149999999
 31
0.0
  0
INSERT
  5
7E6D
  8
3
  6
CONTINUOUS
 62
     0
  2
_OPEN
 10
2716.9482189999999
 20
1761.8149149999999
 30
0.0
 41
30.0
 42
30.0
 43
30.0
 50
90.0
  0
INSERT
  5
7E6E
  8
3
  6
CONTINUOUS
 62
     0
  2
_OPEN
 10
2716.9482189999999
 20
1446.8149149999999
 30
0.0
 41
30.0
 42
30.0
 43
30.0
 50
270.0
  0
TEXT
  8
3
  40
45
  5
7E8D
  62
0
  72
0
  71
0
 10
2589.45
 20
1512.93
 30
0.000000
  1
φ315
  0
POINT
  5
7E70
  8
DEFPOINTS
  6
CONTINUOUS
 62
     0
 10
2605.5772629999992
 20
1761.8149149999999
 30
0.0
  0
POINT
  5
7E71
  8
DEFPOINTS
  6
CONTINUOUS
 62
     0
 10
2605.5772629999992
 20
1446.8149149999999
 30
0.0
  0
POINT
  5
7E72
  8
DEFPOINTS
  6
CONTINUOUS
 62
     0
 10
2716.9482189999999
 20
1446.8149149999999
 30
0.0
  0
ENDBLK
  5
7CCA
  8
0
  0
BLOCK
  8
0
  2
*D18
 70
     1
 10
0.0
 20
0.0
 30
0.0
  3
*D18
  1

  0
LINE
  5
7E73
  8
3
 62
     0
 10
1371.4311248408501
 20
1619.3149149999999
 30
0.0
 11
1371.4311248408501
 21
2109.3572173870612
 31
0.0
  0
LINE
  5
7E74
  8
3
 62
     0
 10
524.18593784084999
 20
1281.814914999999
 30
0.0
 11
524.18593784084999
 21
2109.3572173870612
 31
0.0
  0
LINE
  5
7E75
  8
3
 62
     0
 10
1341.4311248408501
 20
2094.3572173870612
 30
0.0
 11
554.1859378408501
 21
2094.3572173870612
 31
0.0
  0
INSERT
  5
7E76
  8
3
 62
     0
  2
_OPEN
 10
1371.4311248408501
 20
2094.3572173870612
 30
0.0
 41
30.0
 42
30.0
 43
30.0
  0
INSERT
  5
7E77
  8
3
 62
     0
  2
_OPEN
 10
524.18593784084999
 20
2094.3572173870612
 30
0.0
 41
30.0
 42
30.0
 43
30.0
 50
180.0
  0
TEXT
  8
3
  40
45
  5
7E8E
  62
0
  72
0
  71
0
 10
888.784
 20
2052.21
 30
0.000000
  1
847
  0
POINT
  5
7E79
  8
DEFPOINTS
 62
     0
 10
1371.4311248408501
 20
1611.8149149999999
 30
0.0
  0
POINT
  5
7E7A
  8
DEFPOINTS
 62
     0
 10
524.18593784084999
 20
1274.314914999999
 30
0.0
  0
POINT
  5
7E7B
  8
DEFPOINTS
 62
     0
 10
524.18593784084999
 20
2094.3572173870612
 30
0.0
  0
ENDBLK
  5
7CEB
  8
0
  0
ENDSEC
  0
SECTION
  2
ENTITIES
  0
CIRCLE
  5
7A91
  8
1
  6
CONTINUOUS
 10
1139.1859378408501
 20
1604.314914999999
 30
0.0
 40
157.5
  0
LINE
  5
7A92
  8
1
  6
CONTINUOUS
 10
2664.5772629999992
 20
1204.3149149999999
 30
0.0
 11
2664.5772629999992
 21
1174.314914999999
 31
0.0
  0
LINE
  5
7A93
  8
1
  6
CONTINUOUS
 10
2064.5772629999992
 20
1174.314914999999
 30
0.0
 11
2664.5772629999992
 21
1174.314914999999
 31
0.0
  0
LINE
  5
7A94
  8
1
  6
CONTINUOUS
 10
2064.5772629999992
 20
1204.3149149999999
 30
0.0
 11
2064.5772629999992
 21
1174.314914999999
 31
0.0
  0
LINE
  5
7A95
  8
1
  6
CONTINUOUS
 10
1344.1859378408501
 20
1204.3149149999999
 30
0.0
 11
1344.1859378408501
 21
1174.314914999999
 31
0.0
  0
LINE
  5
7A96
  8
1
  6
CONTINUOUS
 10
1374.1859378408501
 20
1174.314914999999
 30
0.0
 11
1344.1859378408501
 21
1174.314914999999
 31
0.0
  0
LINE
  5
7A97
  8
1
  6
CONTINUOUS
 10
524.18593784084999
 20
1174.314914999999
 30
0.0
 11
554.1859378408501
 21
1174.314914999999
 31
0.0
  0
LINE
  5
7A98
  8
1
  6
CONTINUOUS
 10
554.1859378408501
 20
1204.3149149999999
 30
0.0
 11
554.1859378408501
 21
1174.314914999999
 31
0.0
  0
LINE
  5
7A99
  8
1
  6
CONTINUOUS
 10
1344.1859378408501
 20
3193.0276807993432
 30
0.0
 11
1344.1859378408501
 21
3125.0276807993432
 31
0.0
  0
LINE
  5
7A9A
  8
1
  6
CONTINUOUS
 10
1344.1859378408501
 20
3193.0276807993432
 30
0.0
 11
1374.1859378408501
 21
3193.0276807993432
 31
0.0
  0
LINE
  5
7A9B
  8
1
  6
CONTINUOUS
 10
1374.1859378408501
 20
2593.0276807993432
 30
0.0
 11
1374.1859378408501
 21
3193.0276807993432
 31
0.0
  0
LINE
  5
7A9C
  8
1
  6
CONTINUOUS
 10
1344.1859378408501
 20
2593.0276807993432
 30
0.0
 11
1374.1859378408501
 21
2593.0276807993432
 31
0.0
  0
LINE
  5
7A9D
  8
1
  6
CONTINUOUS
 10
1344.1859378408501
 20
2698.0276807993432
 30
0.0
 11
1344.1859378408501
 21
2593.0276807993432
 31
0.0
  0
LINE
  5
7A9E
  8
1
  6
CONTINUOUS
 10
524.18593784084999
 20
2593.0276807993432
 30
0.0
 11
554.1859378408501
 21
2593.0276807993432
 31
0.0
  0
LINE
  5
7A9F
  8
1
  6
CONTINUOUS
 10
554.1859378408501
 20
2698.0276807993432
 30
0.0
 11
554.1859378408501
 21
2593.0276807993432
 31
0.0
  0
LINE
  5
7AA0
  8
1
  6
CONTINUOUS
 10
524.18593784084999
 20
3193.0276807993432
 30
0.0
 11
554.1859378408501
 21
3193.0276807993432
 31
0.0
  0
LINE
  5
7AA1
  8
1
  6
CONTINUOUS
 10
554.1859378408501
 20
3193.0276807993432
 30
0.0
 11
554.1859378408501
 21
3013.0276807993432
 31
0.0
  0
LINE
  5
7AA2
  8
1
  6
CONTINUOUS
 10
1129.1859378408501
 20
1854.3149149999999
 30
0.0
 11
1109.1859378408501
 21
1834.3149149999999
 31
0.0
  0
LINE
  5
7AA3
  8
1
  6
CONTINUOUS
 10
834.18593784084999
 20
1854.3149149999999
 30
0.0
 11
854.1859378408501
 21
1834.3149149999999
 31
0.0
  0
LINE
  5
7AA4
  8
1
  6
CONTINUOUS
 10
1151.185937840849
 20
2728.0276807993432
 30
0.0
 11
1344.1859378408501
 21
2728.0276807993432
 31
0.0
  0
LINE
  5
7AA5
  8
1
  6
CONTINUOUS
 10
1151.185937840849
 20
2891.227680799343
 30
0.0
 11
1151.185937840849
 21
2654.5276807993432
 31
0.0
  0
LINE
  5
7AA6
  8
1
  6
CONTINUOUS
 10
1127.1859378408501
 20
2891.227680799343
 30
0.0
 11
1127.1859378408501
 21
2654.5276807993432
 31
0.0
  0
LINE
  5
7AA7
  8
1
  6
CONTINUOUS
 10
2149.5772629999992
 20
1274.4149150000001
 30
0.0
 11
2149.5772629999992
 21
1834.3149149999999
 31
0.0
  0
LINE
  5
7AA8
  8
1
  6
CONTINUOUS
 10
2064.5772629999992
 20
1274.4149150000001
 30
0.0
 11
2064.5772629999992
 21
1834.3149149999999
 31
0.0
  0
LINE
  5
7AA9
  8
1
  6
CONTINUOUS
 10
553.68593784084999
 20
2678.0276807993441
 30
0.0
 11
553.68593784084999
 21
2593.0276807993432
 31
0.0
  0
LINE
  5
7AAA
  8
1
  6
CONTINUOUS
 10
1283.6859378408501
 20
2678.0276807993441
 30
0.0
 11
1283.6859378408501
 21
2593.0276807993432
 31
0.0
  0
LINE
  5
7AAB
  8
1
  6
CONTINUOUS
 10
553.68593784084999
 20
2678.0276807993441
 30
0.0
 11
1283.6859378408501
 21
2678.0276807993441
 31
0.0
  0
LINE
  5
7AAC
  8
1
  6
CONTINUOUS
 10
553.68593784084999
 20
2593.0276807993432
 30
0.0
 11
1283.6859378408501
 21
2593.0276807993432
 31
0.0
  0
LINE
  5
7AAD
  8
1
  6
CONTINUOUS
 10
680.1859378408501
 20
2698.0276807993432
 30
0.0
 11
1127.1859378408501
 21
2698.0276807993432
 31
0.0
  0
LINE
  5
7AAE
  8
1
  6
CONTINUOUS
 10
1151.185937840849
 20
2698.0276807993432
 30
0.0
 11
1374.1859378408501
 21
2698.0276807993432
 31
0.0
  0
LINE
  5
7AAF
  8
1
  6
CONTINUOUS
 10
731.68593784084999
 20
2619.5276807993432
 30
0.0
 11
731.68593784084999
 21
2654.5276807993432
 31
0.0
  0
LINE
  5
7AB0
  8
1
  6
CONTINUOUS
 10
731.68593784084999
 20
2654.5276807993432
 30
0.0
 11
604.6859378408501
 21
2654.5276807993432
 31
0.0
  0
LINE
  5
7AB1
  8
1
  6
CONTINUOUS
 10
604.6859378408501
 20
2654.5276807993432
 30
0.0
 11
604.6859378408501
 21
2619.5276807993432
 31
0.0
  0
LINE
  5
7AB2
  8
1
  6
CONTINUOUS
 10
604.6859378408501
 20
2619.5276807993432
 30
0.0
 11
731.68593784084999
 21
2619.5276807993432
 31
0.0
  0
LINE
  5
7AB3
  8
1
  6
CONTINUOUS
 10
1083.6859378408501
 20
1834.3149149999999
 30
0.0
 11
553.68593784084999
 21
1484.3149149999999
 31
0.0
  0
LINE
  5
7AB4
  8
1
  6
CONTINUOUS
 10
1283.6859378408501
 20
1704.314914999999
 30
0.0
 11
1083.6859378408501
 21
1834.3149149999999
 31
0.0
  0
LINE
  5
7AB5
  8
1
  6
CONTINUOUS
 10
1139.1859378408501
 20
1834.3149149999999
 30
0.0
 11
1139.1859378408501
 21
1854.3149149999999
 31
0.0
  0
LINE
  5
7AB6
  8
1
  6
CONTINUOUS
 10
553.68593784084999
 20
1484.3149149999999
 30
0.0
 11
553.68593784084999
 21
1274.314914999999
 31
0.0
  0
LINE
  5
7AB7
  8
1
  6
CONTINUOUS
 10
1283.6859378408501
 20
1704.314914999999
 30
0.0
 11
1283.6859378408501
 21
1264.8149149999999
 31
0.0
  0
LINE
  5
7AB8
  8
1
  6
CONTINUOUS
 10
769.18593784084999
 20
2714.5276807993432
 30
0.0
 11
769.18593784084999
 21
2986.5276807993441
 31
0.0
  0
LINE
  5
7AB9
  8
1
  6
CONTINUOUS
 10
578.18593784084999
 20
2986.5276807993441
 30
0.0
 11
578.18593784084999
 21
2714.5276807993432
 31
0.0
  0
LINE
  5
7ABA
  8
1
  6
CONTINUOUS
 10
680.1859378408501
 20
2619.5276807993432
 30
0.0
 11
656.1859378408501
 21
2619.5276807993432
 31
0.0
  0
LINE
  5
7ABB
  8
1
  6
CONTINUOUS
 10
769.18593784084999
 20
2986.5276807993441
 30
0.0
 11
578.18593784084999
 21
2986.5276807993441
 31
0.0
  0
LINE
  5
7ABC
  8
1
  6
CONTINUOUS
 10
769.18593784084999
 20
2714.5276807993432
 30
0.0
 11
578.18593784084999
 21
2714.5276807993432
 31
0.0
  0
LINE
  5
7ABD
  8
1
  6
CONTINUOUS
 10
656.1859378408501
 20
2654.5276807993432
 30
0.0
 11
656.1859378408501
 21
2714.5276807993432
 31
0.0
  0
LINE
  5
7ABE
  8
1
  6
CONTINUOUS
 10
680.1859378408501
 20
2654.5276807993432
 30
0.0
 11
680.1859378408501
 21
2714.5276807993432
 31
0.0
  0
LINE
  5
7ABF
  8
1
  6
CONTINUOUS
 10
934.18593784084999
 20
2728.0276807993432
 30
0.0
 11
1127.1859378408501
 21
2728.0276807993432
 31
0.0
  0
LINE
  5
7AC0
  8
1
  6
CONTINUOUS
 10
1344.1859378408501
 20
2728.0276807993432
 30
0.0
 11
1344.1859378408501
 21
2891.227680799343
 31
0.0
  0
LINE
  5
7AC1
  8
1
  6
CONTINUOUS
 10
934.18593784084999
 20
2728.0276807993432
 30
0.0
 11
934.18593784084999
 21
2891.227680799343
 31
0.0
  0
LINE
  5
7AC2
  8
1
  6
CONTINUOUS
 10
824.18593784084999
 20
3013.0276807993432
 30
0.0
 11
524.18593784084999
 21
3013.0276807993432
 31
0.0
  0
LINE
  5
7AC3
  8
1
  6
CONTINUOUS
 10
1075.6859378408501
 20
2619.5276807993432
 30
0.0
 11
1202.6859378408501
 21
2619.5276807993432
 31
0.0
  0
LINE
  5
7AC4
  8
1
  6
CONTINUOUS
 10
1075.6859378408501
 20
2654.5276807993432
 30
0.0
 11
1075.6859378408501
 21
2619.5276807993432
 31
0.0
  0
LINE
  5
7AC5
  8
1
  6
CONTINUOUS
 10
1202.6859378408501
 20
2654.5276807993432
 30
0.0
 11
1075.6859378408501
 21
2654.5276807993432
 31
0.0
  0
LINE
  5
7AC6
  8
1
  6
CONTINUOUS
 10
1202.6859378408501
 20
2619.5276807993432
 30
0.0
 11
1202.6859378408501
 21
2654.5276807993432
 31
0.0
  0
LINE
  5
7AC7
  8
1
  6
CONTINUOUS
 10
524.18593784084999
 20
3193.0276807993432
 30
0.0
 11
524.18593784084999
 21
2593.0276807993432
 31
0.0
  0
LINE
  5
7AC8
  8
1
  6
CONTINUOUS
 10
1374.1859378408501
 20
3013.0276807993432
 30
0.0
 11
1361.1859378408501
 21
3013.0276807993432
 31
0.0
  0
LINE
  5
7AC9
  8
1
  6
CONTINUOUS
 10
524.18593784084999
 20
2698.0276807993432
 30
0.0
 11
656.1859378408501
 21
2698.0276807993432
 31
0.0
  0
LINE
  5
7ACA
  8
2
  6
CENTER
 10
615.18593784084999
 20
1384.3149149999999
 30
0.0
 11
721.1859378408501
 21
1384.3149149999999
 31
0.0
  0
LINE
  5
7ACB
  8
1
  6
CONTINUOUS
 10
760.08593784085008
 20
1294.3149149999999
 30
0.0
 11
748.68593784084999
 21
1323.3149149999999
 31
0.0
  0
LINE
  5
7ACC
  8
1
  6
CONTINUOUS
 10
576.28593784085012
 20
1294.3149149999999
 30
0.0
 11
587.6859378408501
 21
1323.3149149999999
 31
0.0
  0
ARC
  5
7ACD
  8
1
  6
CONTINUOUS
 10
668.1859378408501
 20
1384.3149149999999
 30
0.0
 40
101.0
 50
322.89999999999992
 51
217.09999999999991
  0
LINE
  5
7ACE
  8
1
  6
CONTINUOUS
 10
2089.5772629999992
 20
1447.9149150000001
 30
0.0
 11
2089.5772629999992
 21
1320.9149150000001
 31
0.0
  0
LINE
  5
7ACF
  8
1
  6
CONTINUOUS
 10
2124.5772629999992
 20
1447.9149150000001
 30
0.0
 11
2089.5772629999992
 21
1447.9149150000001
 31
0.0
  0
LINE
  5
7AD0
  8
1
  6
CONTINUOUS
 10
2124.5772629999992
 20
1320.9149150000001
 30
0.0
 11
2124.5772629999992
 21
1447.9149150000001
 31
0.0
  0
LINE
  5
7AD1
  8
1
  6
CONTINUOUS
 10
2089.5772629999992
 20
1320.9149150000001
 30
0.0
 11
2124.5772629999992
 21
1320.9149150000001
 31
0.0
  0
CIRCLE
  5
7AD2
  8
1
  6
CONTINUOUS
 10
668.1859378408501
 20
1384.3149149999999
 30
0.0
 40
53.0
  0
CIRCLE
  5
7AD3
  8
1
  6
CONTINUOUS
 10
1139.1859378408501
 20
1604.314914999999
 30
0.0
 40
63.5
  0
LINE
  5
7AD4
  8
1
  6
CONTINUOUS
 10
2064.5772629999992
 20
1274.4149150000001
 30
0.0
 11
2149.5772629999992
 21
1274.4149150000001
 31
0.0
  0
LINE
  5
7AD5
  8
1
  6
CONTINUOUS
 10
2064.5772629999992
 20
1834.3149149999999
 30
0.0
 11
2149.5772629999992
 21
1834.3149149999999
 31
0.0
  0
LINE
  5
7AD6
  8
1
  6
CONTINUOUS
 10
2124.5772629999992
 20
1591.9149150000001
 30
0.0
 11
2233.1772629999991
 21
1591.9149150000001
 31
0.0
  0
LINE
  5
7AD7
  8
1
  6
CONTINUOUS
 10
2124.5772629999992
 20
1616.9149150000001
 30
0.0
 11
2265.5772629999992
 21
1616.9149150000001
 31
0.0
  0
LINE
  5
7AD8
  8
1
  6
CONTINUOUS
 10
2362.5772629999992
 20
1691.5149149999991
 30
0.0
 11
2198.5772629999992
 21
1565.3149149999999
 31
0.0
  0
LINE
  5
7AD9
  8
1
  6
CONTINUOUS
 10
2198.5772629999992
 20
1565.3149149999999
 30
0.0
 11
2198.5772629999992
 21
1274.314914999999
 31
0.0
  0
LINE
  5
7ADA
  8
2
  6
CENTER
 10
668.1859378408501
 20
1331.3149149999999
 30
0.0
 11
668.1859378408501
 21
1437.314914999999
 31
0.0
  0
LINE
  5
7ADB
  8
1
  6
CONTINUOUS
 10
869.1859378408501
 20
1274.314914999999
 30
0.0
 11
869.1859378408501
 21
1294.3149149999999
 31
0.0
  0
LINE
  5
7ADC
  8
1
  6
CONTINUOUS
 10
554.1859378408501
 20
1274.314914999999
 30
0.0
 11
554.1859378408501
 21
1294.3149149999999
 31
0.0
  0
LINE
  5
7ADD
  8
1
  6
CONTINUOUS
 10
554.1859378408501
 20
1294.3149149999999
 30
0.0
 11
869.1859378408501
 21
1294.3149149999999
 31
0.0
  0
LINE
  5
7ADE
  8
1
  6
CONTINUOUS
 10
524.18593784084999
 20
1204.3149149999999
 30
0.0
 11
1374.1859378408501
 21
1204.3149149999999
 31
0.0
  0
LINE
  5
7ADF
  8
1
  6
CONTINUOUS
 10
524.18593784084999
 20
1274.314914999999
 30
0.0
 11
524.18593784084999
 21
1174.314914999999
 31
0.0
  0
LINE
  5
7AE0
  8
1
  6
CONTINUOUS
 10
1374.1859378408501
 20
1274.314914999999
 30
0.0
 11
1374.1859378408501
 21
1174.314914999999
 31
0.0
  0
LINE
  5
7AE1
  8
1
  6
CONTINUOUS
 10
524.18593784084999
 20
1274.314914999999
 30
0.0
 11
1374.1859378408501
 21
1274.314914999999
 31
0.0
  0
LINE
  5
7AE2
  8
1
  6
CONTINUOUS
 10
1344.1859378408501
 20
1274.314914999999
 30
0.0
 11
1344.1859378408501
 21
1689.7149149999991
 31
0.0
  0
LINE
  5
7AE3
  8
1
  6
CONTINUOUS
 10
1231.4859378408501
 20
1784.314914999999
 30
0.0
 11
1344.1859378408501
 21
1689.7149149999991
 31
0.0
  0
LINE
  5
7AE4
  8
1
  6
CONTINUOUS
 10
1046.8859378408499
 20
1784.314914999999
 30
0.0
 11
934.18593784084999
 21
1689.7149149999991
 31
0.0
  0
LINE
  5
7AE5
  8
1
  6
CONTINUOUS
 10
934.18593784084999
 20
1567.8149149999999
 30
0.0
 11
1344.1859378408501
 21
1567.8149149999999
 31
0.0
  0
LINE
  5
7AE6
  8
1
  6
CONTINUOUS
 10
934.18593784084999
 20
1274.314914999999
 30
0.0
 11
934.18593784084999
 21
1689.7149149999991
 31
0.0
  0
LINE
  5
7AE7
  8
1
  6
CONTINUOUS
 10
1046.8859378408499
 20
1784.314914999999
 30
0.0
 11
1231.4859378408501
 21
1784.314914999999
 31
0.0
  0
LINE
  5
7AE8
  8
1
  6
CONTINUOUS
 10
1160.6859378408501
 20
1854.3149149999999
 30
0.0
 11
802.68593784084999
 21
1854.3149149999999
 31
0.0
  0
LINE
  5
7AE9
  8
1
  6
CONTINUOUS
 10
2362.5772629999992
 20
1786.9149149999989
 30
0.0
 11
2362.5772629999992
 21
1274.314914999999
 31
0.0
  0
LINE
  5
7AEA
  8
1
  6
CONTINUOUS
 10
2089.5772629999992
 20
1540.9149150000001
 30
0.0
 11
2124.5772629999992
 21
1540.9149150000001
 31
0.0
  0
LINE
  5
7AEB
  8
1
  6
CONTINUOUS
 10
2124.5772629999992
 20
1540.9149150000001
 30
0.0
 11
2124.5772629999992
 21
1667.9149150000001
 31
0.0
  0
LINE
  5
7AEC
  8
1
  6
CONTINUOUS
 10
2124.5772629999992
 20
1667.9149150000001
 30
0.0
 11
2089.5772629999992
 21
1667.9149150000001
 31
0.0
  0
LINE
  5
7AED
  8
1
  6
CONTINUOUS
 10
2089.5772629999992
 20
1667.9149150000001
 30
0.0
 11
2089.5772629999992
 21
1540.9149150000001
 31
0.0
  0
LINE
  5
7AEE
  8
1
  6
CONTINUOUS
 10
2064.5772629999992
 20
1204.3149149999999
 30
0.0
 11
2664.5772629999992
 21
1204.3149149999999
 31
0.0
  0
LINE
  5
7AEF
  8
1
  6
CONTINUOUS
 10
2484.3772629999999
 20
1204.3149149999999
 30
0.0
 11
2484.3772629999999
 21
1274.314914999999
 31
0.0
  0
LINE
  5
7AF0
  8
1
  6
CONTINUOUS
 10
2484.3772629999999
 20
1274.314914999999
 30
0.0
 11
2169.3772629999989
 21
1274.314914999999
 31
0.0
  0
LINE
  5
7AF1
  8
1
  6
CONTINUOUS
 10
2169.3772629999989
 20
1274.314914999999
 30
0.0
 11
2169.3772629999989
 21
1204.3149149999999
 31
0.0
  0
LINE
  5
7AF2
  8
1
  6
CONTINUOUS
 10
2124.5772629999992
 20
1396.4149150000001
 30
0.0
 11
2198.5772629999992
 21
1396.4149150000001
 31
0.0
  0
LINE
  5
7AF3
  8
1
  6
CONTINUOUS
 10
2124.5772629999992
 20
1372.4149150000001
 30
0.0
 11
2198.5772629999992
 21
1372.4149150000001
 31
0.0
  0
LINE
  5
7AF4
  8
2
  6
CENTER
 10
1139.1859378408501
 20
1159.2205220000001
 30
0.0
 11
1139.1859378408501
 21
1875.527693
 31
0.0
  0
LINE
  5
7AF5
  8
2
  6
CENTER
 10
693.67903984085024
 20
1604.314914999999
 30
0.0
 11
1421.9935008408499
 21
1604.314914999999
 31
0.0
  0
ARC
  5
7AF6
  8
1
  6
CONTINUOUS
 10
1341.1859378408501
 20
2921.0276807993441
 30
0.0
 40
20.0
 50
270.0
 51
0.0
  0
ARC
  5
7AF7
  8
1
  6
CONTINUOUS
 10
1341.1859378408501
 20
3105.0276807993432
 30
0.0
 40
20.0
 50
0.0
 51
90.0
  0
LINE
  5
7AF8
  8
1
  6
CONTINUOUS
 10
956.6859378408501
 20
3134.0276807993432
 30
0.0
 11
956.6859378408501
 21
3125.0276807993432
 31
0.0
  0
LINE
  5
7AF9
  8
1
  6
CONTINUOUS
 10
824.18593784084999
 20
3125.0276807993432
 30
0.0
 11
1139.1859378408501
 21
2901.0276807993441
 31
0.0
  0
LINE
  5
7AFA
  8
1
  6
CONTINUOUS
 10
824.18593784084999
 20
2901.0276807993441
 30
0.0
 11
1139.1859378408501
 21
3125.0276807993432
 31
0.0
  0
LINE
  5
7AFB
  8
1
  6
CONTINUOUS
 10
1361.1859378408501
 20
3105.0276807993432
 30
0.0
 11
1361.1859378408501
 21
2921.0276807993441
 31
0.0
  0
LINE
  5
7AFC
  8
1
  6
CONTINUOUS
 10
1139.1859378408501
 20
3125.0276807993432
 30
0.0
 11
1139.1859378408501
 21
2901.0276807993441
 31
0.0
  0
LINE
  5
7AFD
  8
1
  6
CONTINUOUS
 10
824.18593784084999
 20
2901.0276807993441
 30
0.0
 11
1341.1859378408501
 21
2901.0276807993441
 31
0.0
  0
LINE
  5
7AFE
  8
1
  6
CONTINUOUS
 10
824.18593784084999
 20
3125.0276807993432
 30
0.0
 11
824.18593784084999
 21
2901.0276807993441
 31
0.0
  0
LINE
  5
7AFF
  8
1
  6
CONTINUOUS
 10
1341.1859378408501
 20
3125.0276807993432
 30
0.0
 11
824.18593784084999
 21
3125.0276807993432
 31
0.0
  0
LINE
  5
7B00
  8
1
  6
CONTINUOUS
 10
1321.6859378408501
 20
3134.0276807993432
 30
0.0
 11
1321.6859378408501
 21
3125.0276807993432
 31
0.0
  0
LINE
  5
7B01
  8
1
  6
CONTINUOUS
 10
1321.6859378408501
 20
3134.0276807993432
 30
0.0
 11
956.6859378408501
 21
3134.0276807993432
 31
0.0
  0
LINE
  5
7B02
  8
1
  6
CONTINUOUS
 10
956.6859378408501
 20
2891.0276807993432
 30
0.0
 11
1321.6859378408501
 21
2891.0276807993432
 31
0.0
  0
LINE
  5
7B03
  8
1
  6
CONTINUOUS
 10
1321.6859378408501
 20
2891.0276807993432
 30
0.0
 11
1321.6859378408501
 21
2901.0276807993441
 31
0.0
  0
LINE
  5
7B04
  8
1
  6
CONTINUOUS
 10
956.6859378408501
 20
2891.0276807993432
 30
0.0
 11
956.6859378408501
 21
2901.0276807993441
 31
0.0
  0
LINE
  5
7B05
  8
1
  6
CONTINUOUS
 10
2362.5772629999992
 20
1421.8149149999999
 30
0.0
 11
2362.5772629999992
 21
1786.8149149999999
 31
0.0
  0
LINE
  5
7B06
  8
1
  6
CONTINUOUS
 10
2362.5772629999992
 20
1421.8149149999999
 30
0.0
 11
2371.777262999999
 21
1421.8149149999999
 31
0.0
  0
LINE
  5
7B07
  8
1
  6
CONTINUOUS
 10
2372.5772629999992
 20
1336.314914999999
 30
0.0
 11
2372.5772629999992
 21
1854.3149149999999
 31
0.0
  0
LINE
  5
7B08
  8
1
  6
CONTINUOUS
 10
2351.5772629999992
 20
1854.3149149999999
 30
0.0
 11
2617.5772629999992
 21
1854.3149149999999
 31
0.0
  0
LINE
  5
7B09
  8
1
  6
CONTINUOUS
 10
2596.5772629999992
 20
1854.3149149999999
 30
0.0
 11
2596.5772629999992
 21
1336.314914999999
 31
0.0
  0
LINE
  5
7B0A
  8
1
  6
CONTINUOUS
 10
2392.5772629999992
 20
1316.314914999999
 30
0.0
 11
2576.5772629999992
 21
1316.314914999999
 31
0.0
  0
LINE
  5
7B0B
  8
1
  6
CONTINUOUS
 10
2605.5772629999992
 20
1421.8149149999999
 30
0.0
 11
2596.5772629999992
 21
1421.8149149999999
 31
0.0
  0
LINE
  5
7B0C
  8
1
  6
CONTINUOUS
 10
2362.5772629999992
 20
1786.8149149999999
 30
0.0
 11
2371.777262999999
 21
1786.8149149999999
 31
0.0
  0
ARC
  5
7B0D
  8
1
  6
CONTINUOUS
 10
2392.5772629999992
 20
1336.314914999999
 30
0.0
 40
20.0
 50
180.0
 51
270.0
  0
ARC
  5
7B0E
  8
1
  6
CONTINUOUS
 10
2576.5772629999992
 20
1336.314914999999
 30
0.0
 40
20.0
 50
270.0
 51
0.0
  0
LINE
  5
7B0F
  8
1
  6
CONTINUOUS
 10
2587.5772630000001
 20
1854.3149149999999
 30
0.0
 11
2567.5772629999992
 21
1834.3149149999999
 31
0.0
  0
LINE
  5
7B10
  8
1
  6
CONTINUOUS
 10
2381.5772630000001
 20
1854.3149149999999
 30
0.0
 11
2401.5772630000001
 21
1834.3149149999999
 31
0.0
  0
LINE
  5
7B11
  8
1
  6
CONTINUOUS
 10
2605.5772629999992
 20
1786.8149149999999
 30
0.0
 11
2597.3772629999999
 21
1786.8149149999999
 31
0.0
  0
LINE
  5
7B12
  8
1
  6
CONTINUOUS
 10
1344.1859378408501
 20
2891.227680799343
 30
0.0
 11
934.18593784084999
 21
2891.227680799343
 31
0.0
  0
CIRCLE
  5
7B13
  8
1
  6
CONTINUOUS
 10
1139.1859378408501
 20
1604.314914999999
 30
0.0
 40
182.5
  0
LINE
  5
7B14
  8
1
  6
CONTINUOUS
 10
2605.5772629999992
 20
1786.8149149999999
 30
0.0
 11
2605.5772629999992
 21
1421.8149149999999
 31
0.0
  0
LINE
  5
7B15
  8
1
  6
CONTINUOUS
 10
1109.1859378408501
 20
1834.3149149999999
 30
0.0
 11
854.1859378408501
 21
1834.3149149999999
 31
0.0
  0
LINE
  5
7B16
  8
1
  6
CONTINUOUS
 10
1148.08593784085
 20
1834.3149149999999
 30
0.0
 11
1139.1859378408501
 21
1834.3149149999999
 31
0.0
  0
LINE
  5
7B17
  8
1
  6
CONTINUOUS
 10
814.1859378408501
 20
1834.3149149999999
 30
0.0
 11
814.1859378408501
 21
1629.8149149999999
 31
0.0
  0
ARC
  5
7B18
  8
1
  6
CONTINUOUS
 10
1113.6859378408501
 20
1629.8149149999999
 30
0.0
 40
299.5
 50
180.0
 51
280.60000000000002
  0
ARC
  5
7B19
  8
1
  6
CONTINUOUS
 10
1118.1859378408501
 20
1583.314914999999
 30
0.0
 40
253.0
 50
281.60000000000002
 51
351.80000000000001
  0
ARC
  5
7B1A
  8
1
  6
CONTINUOUS
 10
1157.1859378408501
 20
1586.314914999999
 30
0.0
 40
215.0
 50
349.39999999999992
 51
81.40000000000002
  0
ARC
  5
7B1B
  8
1
  6
CONTINUOUS
 10
1216.1859378408501
 20
1872.3149149999999
 30
0.0
 40
78.0
 50
209.0
 51
251.19999999999999
  0
LINE
  5
7B1C
  8
1
  6
CONTINUOUS
 10
824.18593784084999
 20
1854.3149149999999
 30
0.0
 11
824.18593784084999
 21
1834.3149149999999
 31
0.0
  0
LINE
  5
7B1D
  8
1
  6
CONTINUOUS
 10
1109.1859378408501
 20
1834.3149149999999
 30
0.0
 11
854.1859378408501
 21
1834.3149149999999
 31
0.0
  0
LINE
  5
7B1E
  8
1
  6
CONTINUOUS
 10
824.18593784084999
 20
1834.3149149999999
 30
0.0
 11
814.1859378408501
 21
1834.3149149999999
 31
0.0
  0
LINE
  5
7B1F
  8
1
  6
CONTINUOUS
 10
2401.5772630000001
 20
1834.3149149999999
 30
0.0
 11
2567.5772629999992
 21
1834.3149149999999
 31
0.0
  0
LINE
  5
7B20
  8
1
  6
CONTINUOUS
 10
644.78593784085012
 20
1431.9149150000001
 30
0.0
 11
1111.1859378408501
 21
1661.314914999999
 31
0.0
  0
LINE
  5
7B21
  8
1
  6
CONTINUOUS
 10
689.6859378408501
 20
1335.8149149999999
 30
0.0
 11
1164.8859378408499
 21
1546.214915
 31
0.0
  0
LINE
  5
7B22
  8
4
  6
CONTINUOUS
 10
2775.0
 20
750.0
 30
0.0
 11
2775.0
 21
450.0
 31
0.0
  0
LINE
  5
7B23
  8
4
  6
CONTINUOUS
 10
1725.0
 20
750.0
 30
0.0
 11
1725.0
 21
450.0
 31
0.0
  0
LINE
  5
7B24
  8
4
  6
CONTINUOUS
 10
975.0
 20
750.0
 30
0.0
 11
975.0
 21
450.0
 31
0.0
  0
LINE
  5
7B27
  8
4
  6
CONTINUOUS
 10
975.0
 20
450.0
 30
0.0
 11
2775.0
 21
450.0
 31
0.0
  0
LINE
  5
7B28
  8
4
  6
CONTINUOUS
 10
975.0
 20
600.0
 30
0.0
 11
2775.0
 21
600.0
 31
0.0
  0
TEXT
  5
7B29
  8
4
  6
CONTINUOUS
 10
1032.753121
 20
647.31453899999985
 30
0.0
 40
75.0
  1
機器名称
  0
TEXT
  5
7B2A
  8
4
  6
CONTINUOUS
 10
1029.387158999999
 20
482.46773499999989
 30
0.0
 40
75.0
  1
機器型番
  0
TEXT
  5
7B2B
  8
4
  6
CONTINUOUS
 10
1766.518118
 20
633.85765300000003
 30
0.0
 40
65.0
  1
ミツヤニューマルチファン
  0
TEXT
  5
7B2C
  8
4
  6
CONTINUOUS
 10
1779.9817430000001
 20
475.73937599999999
 30
0.0
 40
75.0
  1
MF#2-1
  0
TEXT
  5
7B2E
  8
4
  6
CONTINUOUS
 10
1211.192965
 20
3575.1432619999991
 30
0.0
 40
81.0
  1
天井吊ベット
  0
TEXT
  5
7B2F
  8
4
  6
CONTINUOUS
 10
474.25139000000001
 20
3800.8214640000001
 30
0.0
 40
108.0
  1
ベルト駆動式片吸込片持多翼ファン
  0
LINE
  5
7B30
  8
4
  6
CONTINUOUS
 10
375.0
 20
3704.1131310000001
 30
0.0
 11
2775.0
 21
3704.1131310000001
 31
0.0
  0
LINE
  5
7B31
  8
4
  6
CONTINUOUS
 10
375.0
 20
4004.1131310000001
 30
0.0
 11
2775.0
 21
4004.1131310000001
 31
0.0
  0
LINE
  5
7B32
  8
4
  6
CONTINUOUS
 10
975.0
 20
750.0
 30
0.0
 11
2775.0
 21
750.0
 31
0.0
  0
LINE
  5
7B33
  8
4
  6
CONTINUOUS
 10
375.0
 20
4004.1131310000001
 30
0.0
 11
375.0
 21
3704.1131310000001
 31
0.0
  0
TEXT
  5
7B34
  8
4
  6
CONTINUOUS
 10
557.40471700000001
 20
3573.4792159999988
 30
0.0
 40
81.0
  1
右回転上向
  0
TEXT
  5
7B35
  8
4
  6
CONTINUOUS
 10
2203.454338999999
 20
4059.091621999999
 30
0.0
 40
84.0
  1
No.
  0
TEXT
  5
7B36
  8
4
  6
CONTINUOUS
 10
1966.944094
 20
3575.1432619999991
 30
0.0
 40
81.0
  1
縮尺：1/15
  0
LINE
  5
7B37
  8
4
  6
CONTINUOUS
 10
2775.0
 20
4004.1131310000001
 30
0.0
 11
2775.0
 21
3704.1131310000001
 31
0.0
  0
LINE
  5
7B39
  8
4
  6
CONTINUOUS
 10
2160.9261339999989
 20
4021.8953750000001
 30
0.0
 11
2160.9261339999989
 21
4179.978392
 31
0.0
  0
LINE
  5
7B3A
  8
4
  6
CONTINUOUS
 10
2160.9261339999989
 20
4179.978392
 30
0.0
 11
2775.0
 21
4179.978392
 31
0.0
  0
LINE
  5
7B3B
  8
4
  6
CONTINUOUS
 10
2775.0
 20
4179.978392
 30
0.0
 11
2775.0
 21
4021.8953750000001
 31
0.0
  0
LINE
  5
7B3C
  8
4
  6
CONTINUOUS
 10
2775.0
 20
4021.8953750000001
 30
0.0
 11
2160.9261339999989
 21
4021.8953750000001
 31
0.0
  0
DIMENSION
  5
7B54
  8
3
  6
CONTINUOUS
  2
*D1
 10
1139.1859378408501
 20
1090.684213
 30
0.0
 11
836.28436584085
 21
1090.684213
 31
0.0
 70
   128
 13
524.18593784084999
 23
1174.314914999999
 33
0.0
 14
1139.1859378408501
 24
1159.2205220000001
 34
0.0
1001
ACAD
1000
DSTYLE
1002
{
1070
   287
1070
     3
1070
   287
1070
     3
1070
    40
1040
15.0
1070
   143
1040
0.039
1070
   172
1070
     1
1070
   271
1070
     0
1070
   279
1070
     0
1070
   288
1070
     1
1002
}
  0
DIMENSION
  5
7B60
  8
3
  6
CONTINUOUS
  2
*D2
 10
1374.1859378408501
 20
1090.684213
 30
0.0
 11
1256.6859378408501
 21
1128.1842129999991
 31
0.0
 70
     0
 13
1139.1859378408501
 23
1159.2205220000001
 33
0.0
 14
1374.1859378408501
 24
1174.314914999999
 34
0.0
1001
ACAD
1000
DSTYLE
1002
{
1070
   287
1070
     4
1070
   287
1070
     4
1070
    40
1040
15.0
1070
    75
1070
     1
1070
   143
1040
0.039
1070
   172
1070
     1
1070
   271
1070
     0
1070
   279
1070
     1
1070
   288
1070
     1
1002
}
  0
DIMENSION
  5
7B6D
  8
3
  6
CONTINUOUS
  2
*D3
 10
1139.1859378408501
 20
1921.079103
 30
0.0
 11
989.08712084084993
 21
1921.079103
 31
0.0
 70
   128
 13
824.18593784084999
 23
1854.3149149999999
 33
0.0
 14
1139.1859378408501
 24
1854.3149149999999
 34
0.0
1001
ACAD
1000
DSTYLE
1002
{
1070
   287
1070
     3
1070
   287
1070
     3
1070
    40
1040
15.0
1070
   143
1040
0.039
1070
   172
1070
     1
1070
   271
1070
     0
1070
   279
1070
     0
1070
   288
1070
     1
1002
}
  0
DIMENSION
  5
7B7A
  8
3
  6
CONTINUOUS
  2
*D4
 10
1139.1859378408501
 20
1994.936089
 30
0.0
 11
981.69344884085012
 21
1994.936089
 31
0.0
 70
   128
 13
814.1859378408501
 23
1834.3149149999999
 33
0.0
 14
1139.1859378408501
 24
1854.3149149999999
 34
0.0
1001
ACAD
1000
DSTYLE
1002
{
1070
   287
1070
     3
1070
   287
1070
     3
1070
    40
1040
15.0
1070
   143
1040
0.039
1070
   172
1070
     1
1070
   271
1070
     0
1070
   279
1070
     0
1070
   288
1070
     1
1002
}
  0
DIMENSION
  5
7B86
  8
3
  6
CONTINUOUS
  2
*D5
 10
1371.4311248408501
 20
1994.936089
 30
0.0
 11
1255.3085313408501
 21
2032.436089
 31
0.0
 70
     0
 13
1139.1859378408501
 23
1854.3149149999999
 33
0.0
 14
1371.4311248408501
 24
1604.314914999999
 34
0.0
1001
ACAD
1000
DSTYLE
1002
{
1070
   287
1070
     4
1070
   287
1070
     4
1070
    40
1040
15.0
1070
    75
1070
     1
1070
   143
1040
0.039
1070
   172
1070
     1
1070
   271
1070
     0
1070
   279
1070
     1
1070
   288
1070
     1
1002
}
  0
DIMENSION
  5
7B93
  8
3
  6
CONTINUOUS
  2
*D6
 10
1514.03856384085
 20
1604.314914999999
 30
0.0
 11
1514.03856384085
 21
1728.316176999999
 31
0.0
 70
   128
 13
1160.6859378408501
 23
1854.3149149999999
 33
0.0
 14
1371.4311248408501
 24
1604.314914999999
 34
0.0
 50
90.0
1001
ACAD
1000
DSTYLE
1002
{
1070
   287
1070
     3
1070
   287
1070
     3
1070
    40
1040
15.0
1070
   143
1040
0.039
1070
   172
1070
     1
1070
   271
1070
     0
1070
   279
1070
     0
1070
   288
1070
     1
1002
}
  0
DIMENSION
  5
7B9F
  8
3
  6
CONTINUOUS
  2
*D7
 10
1514.03856384085
 20
1204.3149149999999
 30
0.0
 11
1476.53856384085
 21
1404.3149149999999
 31
0.0
 70
     0
 13
1371.4311248408501
 23
1604.314914999999
 33
0.0
 14
1374.1859378408501
 24
1204.3149149999999
 34
0.0
 50
90.0
1001
ACAD
1000
DSTYLE
1002
{
1070
   287
1070
     4
1070
   287
1070
     4
1070
    40
1040
15.0
1070
    75
1070
     1
1070
   143
1040
0.039
1070
   172
1070
     1
1070
   271
1070
     0
1070
   279
1070
     1
1070
   288
1070
     1
1002
}
  0
DIMENSION
  5
7BAF
  8
3
  6
CONTINUOUS
  2
*D8
 10
1514.03856384085
 20
1174.314914999999
 30
0.0
 11
1514.03856384085
 21
1062.8863435714279
 31
0.0
 70
   128
 13
1374.1859378408501
 23
1204.3149149999999
 33
0.0
 14
1374.1859378408501
 24
1174.314914999999
 34
0.0
 50
90.0
1001
ACAD
1000
DSTYLE
1002
{
1070
   287
1070
     3
1070
   287
1070
     3
1070
    40
1040
15.0
1070
   143
1040
0.039
1070
   172
1070
     1
1070
   271
1070
     0
1070
   279
1070
     0
1070
   288
1070
     1
1002
}
  0
DIMENSION
  5
7BD6
  8
3
  6
CONTINUOUS
  2
*D9
 10
1624.9437898408501
 20
1174.314914999999
 30
0.0
 11
1624.9437898408501
 21
1511.66903
 31
0.0
 70
   128
 13
1168.1859378408501
 23
1854.3149149999999
 33
0.0
 14
1374.1859378408501
 24
1174.314914999999
 34
0.0
 50
90.0
1001
ACAD
1000
DSTYLE
1002
{
1070
   287
1070
     3
1070
   287
1070
     3
1070
    40
1040
15.0
1070
   143
1040
0.039
1070
   172
1070
     1
1070
   271
1070
     0
1070
   279
1070
     0
1070
   288
1070
     1
1002
}
  0
DIMENSION
  5
7BE3
  8
3
  6
CONTINUOUS
  2
*D10
 10
1374.1859378408501
 20
2470.5754367993432
 30
0.0
 11
974.2997768408502
 21
2470.5754367993432
 31
0.0
 70
   128
 13
524.18593784084999
 23
2593.0276807993432
 33
0.0
 14
1374.1859378408501
 24
2593.0276807993432
 34
0.0
1001
ACAD
1000
DSTYLE
1002
{
1070
   287
1070
     3
1070
   287
1070
     3
1070
    40
1040
15.0
1070
   143
1040
0.039
1070
   172
1070
     1
1070
   271
1070
     0
1070
   279
1070
     0
1070
   288
1070
     1
1002
}
  0
DIMENSION
  5
7BF0
  8
3
  6
CONTINUOUS
  2
*D11
 10
1516.5031568408499
 20
2593.0276807993432
 30
0.0
 11
1516.5031568408499
 21
2930.9506367993431
 31
0.0
 70
   128
 13
1374.1859378408501
 23
3193.0276807993432
 33
0.0
 14
1374.1859378408501
 24
2593.0276807993432
 34
0.0
 50
90.0
1001
ACAD
1000
DSTYLE
1002
{
1070
   287
1070
     3
1070
   287
1070
     3
1070
    40
1040
15.0
1070
   143
1040
0.039
1070
   172
1070
     1
1070
   271
1070
     0
1070
   279
1070
     0
1070
   288
1070
     1
1002
}
  0
LINE
  5
7BF1
  8
2
  6
CENTER
 10
797.07575284085021
 20
3013.0276807993432
 30
0.0
 11
1400.66877984085
 21
3013.0276807993432
 31
0.0
  0
LINE
  5
7BF2
  8
2
  6
CENTER
 10
1139.1859378408501
 20
2576.1731587993431
 30
0.0
 11
1139.1859378408501
 21
3163.1704647993429
 31
0.0
  0
LINE
  5
7BF3
  8
2
  6
CENTER
 10
2484.5772630000001
 20
1902.8616079999999
 30
0.0
 11
2484.5772630000001
 21
1142.629028999999
 31
0.0
  0
DIMENSION
  5
7C00
  8
3
  6
CONTINUOUS
  2
*D12
 10
2484.5772630000001
 20
1063.8482429999999
 30
0.0
 11
2282.516126
 21
1063.8482429999999
 31
0.0
 70
   128
 13
2064.5772629999992
 23
1174.314914999999
 33
0.0
 14
2484.5772630000001
 24
1142.629028999999
 34
0.0
1001
ACAD
1000
DSTYLE
1002
{
1070
   287
1070
     3
1070
   287
1070
     3
1070
    40
1040
15.0
1070
   143
1040
0.039
1070
   172
1070
     1
1070
   271
1070
     0
1070
   279
1070
     0
1070
   288
1070
     1
1002
}
  0
DIMENSION
  5
7C0E
  8
3
  6
CONTINUOUS
  2
*D13
 10
2664.5772629999992
 20
1063.8482429999999
 30
0.0
 11
2573.5803959999998
 21
1063.603306
 31
0.0
 70
   128
 13
2484.5772630000001
 23
1142.629028999999
 33
0.0
 14
2664.5772629999992
 24
1174.314914999999
 34
0.0
1001
ACAD
1000
DSTYLE
1002
{
1070
   287
1070
     4
1070
   287
1070
     4
1070
    40
1040
15.0
1070
    75
1070
     1
1070
   143
1040
0.039
1070
   172
1070
     1
1070
   271
1070
     0
1070
   279
1070
     1
1070
   288
1070
     1
1002
}
  0
DIMENSION
  5
7C3E
  8
3
  6
CONTINUOUS
  2
*D14
 10
2596.5772629999992
 20
1896.2151940000001
 30
0.0
 11
2476.505834
 21
1896.2151940000001
 31
0.0
 70
   128
 13
2372.5772629999992
 23
1854.3149149999999
 33
0.0
 14
2596.5772629999992
 24
1854.3149149999999
 34
0.0
1001
ACAD
1000
DSTYLE
1002
{
1070
   287
1070
     3
1070
   287
1070
     3
1070
    40
1040
15.0
1070
   143
1040
0.039
1070
   172
1070
     1
1070
   271
1070
     0
1070
   279
1070
     0
1070
   288
1070
     1
1002
}
  0
DIMENSION
  5
7C4B
  8
3
  6
CONTINUOUS
  2
*D15
 10
2484.5772630000001
 20
1994.5575318536039
 30
0.0
 11
2272.9039630000002
 21
1994.5575318536039
 31
0.0
 70
   128
  1
MAX\P420
 13
2064.5772629999992
 23
1834.3149149999999
 33
0.0
 14
2484.5772630000001
 24
1954.7045169999999
 34
0.0
1001
ACAD
1000
DSTYLE
1002
{
1070
   287
1070
     3
1070
   287
1070
     3
1070
    40
1040
15.0
1070
   143
1040
0.039
1070
   172
1070
     1
1070
   271
1070
     0
1070
   279
1070
     0
1070
   288
1070
     1
1002
}
  0
DIMENSION
  5
7C59
  8
3
  6
CONTINUOUS
  2
*D16
 10
2605.5772629999992
 20
1994.5575318536039
 30
0.0
 11
2541.541095999999
 21
1994.5575318536039
 31
0.0
 70
   128
 13
2484.5772630000001
 23
1954.7045169999999
 33
0.0
 14
2605.5772629999992
 24
1786.8149149999999
 34
0.0
1001
ACAD
1000
DSTYLE
1002
{
1070
   287
1070
     4
1070
   287
1070
     4
1070
    40
1040
15.0
1070
    75
1070
     1
1070
   143
1040
0.039
1070
   172
1070
     1
1070
   271
1070
     0
1070
   279
1070
     1
1070
   288
1070
     1
1002
}
  0
LINE
  5
7C73
  8
3
  6
CONTINUOUS
 10
2605.5772629999992
 20
1761.8149149999999
 30
0.0
 11
2619.927291
 21
1761.8149149999999
 31
0.0
  0
LINE
  5
7C75
  8
3
  6
CONTINUOUS
 10
2605.5772629999992
 20
1446.8149149999999
 30
0.0
 11
2618.729511999999
 21
1446.8149149999999
 31
0.0
  0
DIMENSION
  5
7C82
  8
3
  6
CONTINUOUS
  2
*D17
 10
2716.9482189999999
 20
1446.8149149999999
 30
0.0
 11
2716.9482189999999
 21
1592.584063
 31
0.0
 70
   128
 13
2605.5772629999992
 23
1761.8149149999999
 33
0.0
 14
2605.5772629999992
 24
1446.8149149999999
 34
0.0
 50
90.0
1001
ACAD
1000
DSTYLE
1002
{
1070
   287
1070
     3
1070
   287
1070
     3
1070
     3
1000
φ<>
1070
    40
1040
15.0
1070
   143
1040
0.039
1070
   172
1070
     1
1070
   271
1070
     0
1070
   279
1070
     0
1070
   288
1070
     1
1002
}
  0
LINE
  5
7C83
  8
2
  6
CENTER
 10
2020.433855999999
 20
1604.314914999999
 30
0.0
 11
2617.0798490000002
 21
1604.314914999999
 31
0.0
  0
DIMENSION
  5
7CEC
  8
3
  2
*D18
 10
524.18593784084999
 20
2094.3572173870612
 30
0.0
 11
978.78363370554155
 21
2094.3572173870612
 31
0.0
 70
   128
 13
1371.4311248408501
 23
1611.8149149999999
 33
0.0
 14
524.18593784084999
 24
1274.314914999999
 34
0.0
1001
ACAD
1000
DSTYLE
1002
{
1070
   287
1070
     3
1070
   287
1070
     3
1070
    40
1040
15.0
1070
   143
1040
0.039
1070
   172
1070
     1
1070
   271
1070
     0
1070
   279
1070
     0
1070
   288
1070
     1
1002
}
  0
ENDSEC
  0
EOF
