  0
SECTION
  2
HEADER
  9
$ACADVER
  1
AC1009
  9
$INSBASE
 10
0.0
 20
0.0
 30
0.0
  9
$EXTMIN
 10
-2564.5669199999988
 20
-1501.439155
 30
0.0
  9
$EXTMAX
 10
-164.5669199999999
 20
2228.539237
 30
0.0
  9
$LIMMIN
 10
0.0
 20
0.0
  9
$LIMMAX
 10
297.0
 20
210.0
  9
$ORTHOMODE
 70
     0
  9
$REGENMODE
 70
     1
  9
$FILLMODE
 70
     0
  9
$QTEXTMODE
 70
     0
  9
$MIRRTEXT
 70
     1
  9
$DRAGMODE
 70
     2
  9
$LTSCALE
 40
100.0
  9
$OSMODE
 70
    37
  9
$ATTMODE
 70
     1
  9
$TEXTSIZE
 40
180.0
  9
$TRACEWID
 40
0.05
  9
$TEXTSTYLE
  7
STANDARD
  9
$CLAYER
  8
3
  9
$CELTYPE
  6
BYLAYER
  9
$CECOLOR
 62
   256
  9
$DIMSCALE
 40
15.0
  9
$DIMASZ
 40
2.0
  9
$DIMEXO
 40
0.5
  9
$DIMDLI
 40
10.0
  9
$DIMRND
 40
0.0
  9
$DIMDLE
 40
0.0
  9
$DIMEXE
 40
1.0
  9
$DIMTP
 40
1.0
  9
$DIMTM
 40
1.0
  9
$DIMTXT
 40
3.0
  9
$DIMCEN
 40
0.0
  9
$DIMTSZ
 40
0.0
  9
$DIMTOL
 70
     0
  9
$DIMLIM
 70
     0
  9
$DIMTIH
 70
     0
  9
$DIMTOH
 70
     0
  9
$DIMSE1
 70
     0
  9
$DIMSE2
 70
     0
  9
$DIMTAD
 70
     1
  9
$DIMZIN
 70
     8
  9
$DIMBLK
  1

  9
$DIMASO
 70
     1
  9
$DIMSHO
 70
     1
  9
$DIMPOST
  1

  9
$DIMAPOST
  1

  9
$DIMALT
 70
     0
  9
$DIMALTD
 70
     2
  9
$DIMALTF
 40
0.039
  9
$DIMLFAC
 40
1.0
  9
$DIMTOFL
 70
     1
  9
$DIMTVP
 40
0.0
  9
$DIMTIX
 70
     0
  9
$DIMSOXD
 70
     0
  9
$DIMSAH
 70
     1
  9
$DIMBLK1
  1
OPEN
  9
$DIMBLK2
  1
OPEN
  9
$DIMSTYLE
  2
IGA
  9
$DIMCLRD
 70
     0
  9
$DIMCLRE
 70
     0
  9
$DIMCLRT
 70
     0
  9
$DIMTFAC
 40
10.0
  9
$DIMGAP
 40
1.0
  9
$LUNITS
 70
     2
  9
$LUPREC
 70
     3
  9
$SKETCHINC
 40
0.1
  9
$FILLETRAD
 40
50.0
  9
$AUNITS
 70
     0
  9
$AUPREC
 70
     0
  9
$MENU
  1
acad
  9
$ELEVATION
 40
0.0
  9
$PELEVATION
 40
0.0
  9
$THICKNESS
 40
0.0
  9
$LIMCHECK
 70
     0
  9
$BLIPMODE
 70
     0
  9
$CHAMFERA
 40
0.5
  9
$CHAMFERB
 40
0.5
  9
$SKPOLY
 70
     0
  9
$TDCREATE
 40
2450746.397581018
  9
$TDUPDATE
 40
2454953.8649010882
  9
$TDINDWG
 40
0.0425667014
  9
$TDUSRTIMER
 40
0.0425667014
  9
$USRTIMER
 70
     1
  9
$ANGBASE
 50
0.0
  9
$ANGDIR
 70
     0
  9
$PDMODE
 70
     0
  9
$PDSIZE
 40
0.0
  9
$PLINEWID
 40
0.0
  9
$COORDS
 70
     1
  9
$SPLFRAME
 70
     0
  9
$SPLINETYPE
 70
     6
  9
$SPLINESEGS
 70
     8
  9
$ATTDIA
 70
     0
  9
$ATTREQ
 70
     1
  9
$HANDLING
 70
 10241
  9
$HANDSEED
  5
7EAD
  9
$SURFTAB1
 70
     6
  9
$SURFTAB2
 70
     6
  9
$SURFTYPE
 70
     6
  9
$SURFU
 70
     6
  9
$SURFV
 70
     6
  9
$UCSNAME
  2

  9
$UCSORG
 10
0.0
 20
0.0
 30
0.0
  9
$UCSXDIR
 10
1.0
 20
0.0
 30
0.0
  9
$UCSYDIR
 10
0.0
 20
1.0
 30
0.0
  9
$PUCSNAME
  2

  9
$PUCSORG
 10
0.0
 20
0.0
 30
0.0
  9
$PUCSXDIR
 10
1.0
 20
0.0
 30
0.0
  9
$PUCSYDIR
 10
0.0
 20
1.0
 30
0.0
  9
$USERI1
 70
     0
  9
$USERI2
 70
     0
  9
$USERI3
 70
     0
  9
$USERI4
 70
     0
  9
$USERI5
 70
     0
  9
$USERR1
 40
0.0
  9
$USERR2
 40
0.0
  9
$USERR3
 40
0.0
  9
$USERR4
 40
0.0
  9
$USERR5
 40
0.0
  9
$WORLDVIEW
 70
     1
  9
$SHADEDGE
 70
     3
  9
$SHADEDIF
 70
    70
  9
$TILEMODE
 70
     1
  9
$MAXACTVP
 70
    16
  9
$PLIMCHECK
 70
     0
  9
$PEXTMIN
 10
1.0000000000000000E+020
 20
1.0000000000000000E+020
 30
1.0000000000000000E+020
  9
$PEXTMAX
 10
-1.0000000000000000E+020
 20
-1.0000000000000000E+020
 30
-1.0000000000000000E+020
  9
$PLIMMIN
 10
0.0
 20
0.0
  9
$PLIMMAX
 10
12.0
 20
9.0
  9
$UNITMODE
 70
     0
  9
$VISRETAIN
 70
     0
  9
$PLINEGEN
 70
     0
  9
$PSLTSCALE
 70
     1
  0
ENDSEC
  0
SECTION
  2
TABLES
  0
TABLE
  2
VPORT
 70
     2
  0
VPORT
  2
*ACTIVE
 70
     0
 10
0.0
 20
0.0
 11
1.0
 21
1.0
 12
1594.9579678168559
 22
1340.8653463447811
 13
0.0
 23
0.0
 14
10.0
 24
10.0
 15
10.0
 25
10.0
 16
0.0
 26
0.0
 36
1.0
 17
0.0
 27
0.0
 37
0.0
 40
6365.6756671278663
 41
1.5051150895140659
 42
50.0
 43
0.0
 44
0.0
 50
0.0
 51
0.0
 71
     0
 72
   100
 73
     1
 74
     0
 75
     0
 76
     0
 77
     0
 78
     0
  0
ENDTAB
  0
TABLE
  2
LTYPE
 70
     2
  0
LTYPE
  2
CONTINUOUS
 70
     0
  3
Solid line
 72
    65
 73
     0
 40
0.0
  0
LTYPE
  2
CENTER
 70
     0
  3
____ _ ____ _ ____ _ ____ _ ____ _ ____ _ ____ 
 72
    65
 73
     4
 40
2.0
 49
1.25
 49
-0.25
 49
0.25
 49
-0.25
  0
ENDTAB
  0
TABLE
  2
LAYER
 70
     6
  0
LAYER
  2
0
 70
     0
 62
     7
  6
CONTINUOUS
  0
LAYER
  2
3
 70
     0
 62
     2
  6
CONTINUOUS
  0
LAYER
  2
2
 70
     0
 62
     3
  6
CENTER
  0
LAYER
  2
1
 70
     0
 62
     4
  6
CONTINUOUS
  0
LAYER
  2
4
 70
     0
 62
     7
  6
CONTINUOUS
  0
LAYER
  2
DEFPOINTS
 70
     0
 62
     7
  6
CONTINUOUS
  0
ENDTAB
  0
TABLE
  2
STYLE
 70
     1
  0
STYLE
  2
STANDARD
 70
     0
 40
0.0
 41
1.0
 50
0.0
 71
     0
 42
180.0
  3
simplex.shx
  4
extfont.shx
  0
ENDTAB
  0
TABLE
  2
VIEW
 70
     0
  0
ENDTAB
  0
TABLE
  2
UCS
 70
     0
  0
ENDTAB
  0
TABLE
  2
APPID
 70
     1
  0
APPID
  2
ACAD
 70
     0
  0
ENDTAB
  0
TABLE
  2
DIMSTYLE
 70
     1
  0
DIMSTYLE
  2
IGA
 70
     0
  3

  4

  5

  6
OPEN
  7
OPEN
 40
2.0
 41
2.0
 42
0.5
 43
10.0
 44
1.0
 45
0.0
 46
0.0
 47
1.0
 48
1.0
140
3.0
141
0.0
142
0.0
143
0.03937
144
1.0
145
0.0
146
10.0
147
1.0
 71
     0
 72
     0
 73
     0
 74
     0
 75
     0
 76
     0
 77
     1
 78
     8
170
     0
171
     2
172
     0
173
     1
174
     0
175
     0
176
     0
177
     0
178
     0
  0
ENDTAB
  0
ENDSEC
  0
SECTION
  2
BLOCKS
  0
BLOCK
  8
0
  2
$MODEL_SPACE
 70
     0
 10
0.0
 20
0.0
 30
0.0
  3
$MODEL_SPACE
  1

  0
ENDBLK
  5
1B
  8
0
  0
BLOCK
 67
     1
  8
0
  2
$PAPER_SPACE
 70
     0
 10
0.0
 20
0.0
 30
0.0
  3
$PAPER_SPACE
  1

  0
ENDBLK
  5
18
 67
     1
  8
0
  0
BLOCK
  8
0
  2
_OPEN
 70
     0
 10
0.0
 20
0.0
 30
0.0
  3
_OPEN
  1

  0
LINE
  5
7B3F
  8
0
  6
BYBLOCK
 62
     0
 10
-1.0
 20
0.166667
 30
0.0
 11
0.0
 21
0.0
 31
0.0
  0
LINE
  5
7B40
  8
0
  6
BYBLOCK
 62
     0
 10
0.0
 20
0.0
 30
0.0
 11
-1.0
 21
-0.166667
 31
0.0
  0
LINE
  5
7B41
  8
0
  6
BYBLOCK
 62
     0
 10
0.0
 20
0.0
 30
0.0
 11
-1.0
 21
0.0
 31
0.0
  0
ENDBLK
  5
7B42
  8
0
  0
BLOCK
  8
0
  2
*D1
 70
     1
 10
0.0
 20
0.0
 30
0.0
  3
*D1
  1

  0
LINE
  5
7DF9
  8
3
  6
CONTINUOUS
 62
     0
 10
-2362.0690928987651
 20
-732.54304705663731
 30
0.0
 11
-2362.0690928987651
 21
-861.76416605663735
 31
0.0
  0
LINE
  5
7DFA
  8
3
  6
CONTINUOUS
 62
     0
 10
-1747.0690928987649
 20
-762.47634505663723
 30
0.0
 11
-1747.0690928987649
 21
-861.76416605663735
 31
0.0
  0
LINE
  5
7DFB
  8
3
  6
CONTINUOUS
 62
     0
 10
-2332.0690928987651
 20
-846.76416605663735
 30
0.0
 11
-1777.0690928987649
 21
-846.76416605663735
 31
0.0
  0
INSERT
  5
7DFC
  8
3
  6
CONTINUOUS
 62
     0
  2
_OPEN
 10
-2362.0690928987651
 20
-846.76416605663735
 30
0.0
 41
30.0
 42
30.0
 43
30.0
 50
180.0
  0
INSERT
  5
7DFD
  8
3
  6
CONTINUOUS
 62
     0
  2
_OPEN
 10
-1747.0690928987649
 20
-846.76416605663735
 30
0.0
 41
30.0
 42
30.0
 43
30.0
  0
TEXT
  8
3
  40
45
  5
7E9A
  62
0
  72
0
  71
0
 10
-2128.58
 20
-888.914
 30
0.000000
  1
615
  0
POINT
  5
7DFF
  8
DEFPOINTS
  6
CONTINUOUS
 62
     0
 10
-2362.0690928987651
 20
-725.04304705663731
 30
0.0
  0
POINT
  5
7E00
  8
DEFPOINTS
  6
CONTINUOUS
 62
     0
 10
-1747.0690928987649
 20
-754.97634505663723
 30
0.0
  0
POINT
  5
7E01
  8
DEFPOINTS
  6
CONTINUOUS
 62
     0
 10
-1747.0690928987649
 20
-846.76416605663735
 30
0.0
  0
ENDBLK
  5
7B4F
  8
0
  0
BLOCK
  8
0
  2
*D2
 70
     1
 10
0.0
 20
0.0
 30
0.0
  3
*D2
  1

  0
LINE
  5
7E02
  8
3
  6
CONTINUOUS
 62
     0
 10
-1512.0690928987649
 20
-732.54304705663731
 30
0.0
 11
-1512.0690928987649
 21
-861.76416605663735
 31
0.0
  0
LINE
  5
7E03
  8
3
  6
CONTINUOUS
 62
     0
 10
-1717.0690928987649
 20
-846.76416605663735
 30
0.0
 11
-1542.0690928987649
 21
-846.76416605663735
 31
0.0
  0
INSERT
  5
7E04
  8
3
  6
CONTINUOUS
 62
     0
  2
_OPEN
 10
-1747.0690928987649
 20
-846.76416605663735
 30
0.0
 41
30.0
 42
30.0
 43
30.0
 50
180.0
  0
INSERT
  5
7E05
  8
3
  6
CONTINUOUS
 62
     0
  2
_OPEN
 10
-1512.0690928987649
 20
-846.76416605663735
 30
0.0
 41
30.0
 42
30.0
 43
30.0
  0
TEXT
  8
3
  40
45
  5
7E9B
  62
0
  72
0
  71
0
 10
-1719.57
 20
-888.914
 30
0.000000
  1
235
  0
POINT
  5
7E07
  8
DEFPOINTS
  6
CONTINUOUS
 62
     0
 10
-1747.0690928987649
 20
-754.97634505663723
 30
0.0
  0
POINT
  5
7E08
  8
DEFPOINTS
  6
CONTINUOUS
 62
     0
 10
-1512.0690928987649
 20
-725.04304705663731
 30
0.0
  0
POINT
  5
7E09
  8
DEFPOINTS
  6
CONTINUOUS
 62
     0
 10
-1512.0690928987649
 20
-846.76416605663735
 30
0.0
  0
ENDBLK
  5
7B5B
  8
0
  0
BLOCK
  8
0
  2
*D3
 70
     1
 10
0.0
 20
0.0
 30
0.0
  3
*D3
  1

  0
LINE
  5
7E0A
  8
3
  6
CONTINUOUS
 62
     0
 10
-1489.5690928987649
 20
19.95695294336269
 30
0.0
 11
-1362.3285708987639
 21
19.956952943362651
 31
0.0
  0
LINE
  5
7E0B
  8
3
  6
CONTINUOUS
 62
     0
 10
-1489.5690928987649
 20
-295.04304705663731
 30
0.0
 11
-1362.3285708987639
 21
-295.04304705663731
 31
0.0
  0
LINE
  5
7E0C
  8
3
  6
CONTINUOUS
 62
     0
 10
-1377.3285708987651
 20
-10.04304705663734
 30
0.0
 11
-1377.3285708987651
 21
-265.04304705663731
 31
0.0
  0
INSERT
  5
7E0D
  8
3
  6
CONTINUOUS
 62
     0
  2
_OPEN
 10
-1377.3285708987651
 20
19.956952943362658
 30
0.0
 41
30.0
 42
30.0
 43
30.0
 50
90.0
  0
INSERT
  5
7E0E
  8
3
  6
CONTINUOUS
 62
     0
  2
_OPEN
 10
-1377.3285708987651
 20
-295.04304705663731
 30
0.0
 41
30.0
 42
30.0
 43
30.0
 50
270.0
  0
TEXT
  8
3
  40
45
  5
7E9C
  62
0
  72
0
  71
0
 10
-1504.83
 20
-206.541
 30
0.000000
  1
315
  0
POINT
  5
7E10
  8
DEFPOINTS
  6
CONTINUOUS
 62
     0
 10
-1497.0690928987649
 20
19.95695294336269
 30
0.0
  0
POINT
  5
7E11
  8
DEFPOINTS
  6
CONTINUOUS
 62
     0
 10
-1497.0690928987649
 20
-295.04304705663731
 30
0.0
  0
POINT
  5
7E12
  8
DEFPOINTS
  6
CONTINUOUS
 62
     0
 10
-1377.3285708987651
 20
-295.04304705663731
 30
0.0
  0
ENDBLK
  5
7B68
  8
0
  0
BLOCK
  8
0
  2
*D4
 70
     1
 10
0.0
 20
0.0
 30
0.0
  3
*D4
  1

  0
LINE
  5
7E13
  8
3
  6
CONTINUOUS
 62
     0
 10
-1509.5690928987649
 20
29.95695294336269
 30
0.0
 11
-1264.880299898764
 21
29.956952943362619
 31
0.0
  0
LINE
  5
7E14
  8
3
  6
CONTINUOUS
 62
     0
 10
-1489.5690928987649
 20
-295.04304705663731
 30
0.0
 11
-1264.880299898764
 21
-295.04304705663731
 31
0.0
  0
LINE
  5
7E15
  8
3
  6
CONTINUOUS
 62
     0
 10
-1279.880299898764
 20
-0.0430470566373736
 30
0.0
 11
-1279.880299898764
 21
-265.04304705663731
 31
0.0
  0
INSERT
  5
7E16
  8
3
  6
CONTINUOUS
 62
     0
  2
_OPEN
 10
-1279.880299898764
 20
29.95695294336263
 30
0.0
 41
30.0
 42
30.0
 43
30.0
 50
90.0
  0
INSERT
  5
7E17
  8
3
  6
CONTINUOUS
 62
     0
  2
_OPEN
 10
-1279.880299898764
 20
-295.04304705663731
 30
0.0
 41
30.0
 42
30.0
 43
30.0
 50
270.0
  0
TEXT
  8
3
  40
45
  5
7E9D
  62
0
  72
0
  71
0
 10
-1407.38
 20
-210.576
 30
0.000000
  1
325
  0
POINT
  5
7E19
  8
DEFPOINTS
  6
CONTINUOUS
 62
     0
 10
-1517.0690928987649
 20
29.95695294336269
 30
0.0
  0
POINT
  5
7E1A
  8
DEFPOINTS
  6
CONTINUOUS
 62
     0
 10
-1497.0690928987649
 20
-295.04304705663731
 30
0.0
  0
POINT
  5
7E1B
  8
DEFPOINTS
  6
CONTINUOUS
 62
     0
 10
-1279.880299898764
 20
-295.04304705663731
 30
0.0
  0
ENDBLK
  5
7B75
  8
0
  0
BLOCK
  8
0
  2
*D5
 70
     1
 10
0.0
 20
0.0
 30
0.0
  3
*D5
  1

  0
LINE
  5
7E1C
  8
3
  6
CONTINUOUS
 62
     0
 10
-1504.5690928987649
 20
-695.04304705663731
 30
0.0
 11
-1264.880299898764
 21
-695.04304705663742
 31
0.0
  0
LINE
  5
7E1D
  8
3
  6
CONTINUOUS
 62
     0
 10
-1279.880299898764
 20
-325.04304705663731
 30
0.0
 11
-1279.880299898764
 21
-665.04304705663742
 31
0.0
  0
INSERT
  5
7E1E
  8
3
  6
CONTINUOUS
 62
     0
  2
_OPEN
 10
-1279.880299898764
 20
-295.04304705663731
 30
0.0
 41
30.0
 42
30.0
 43
30.0
 50
90.0
  0
INSERT
  5
7E1F
  8
3
  6
CONTINUOUS
 62
     0
  2
_OPEN
 10
-1279.880299898764
 20
-695.04304705663742
 30
0.0
 41
30.0
 42
30.0
 43
30.0
 50
270.0
  0
TEXT
  8
3
  40
45
  5
7E9E
  62
0
  72
0
  71
0
 10
-1407.38
 20
-574.693
 30
0.000000
  1
400
  0
POINT
  5
7E21
  8
DEFPOINTS
  6
CONTINUOUS
 62
     0
 10
-1497.0690928987649
 20
-295.04304705663731
 30
0.0
  0
POINT
  5
7E22
  8
DEFPOINTS
  6
CONTINUOUS
 62
     0
 10
-1512.0690928987649
 20
-695.04304705663731
 30
0.0
  0
POINT
  5
7E23
  8
DEFPOINTS
  6
CONTINUOUS
 62
     0
 10
-1279.880299898764
 20
-695.04304705663742
 30
0.0
  0
ENDBLK
  5
7B81
  8
0
  0
BLOCK
  8
0
  2
*D6
 70
     1
 10
0.0
 20
0.0
 30
0.0
  3
*D6
  1

  0
LINE
  5
7E24
  8
3
  6
CONTINUOUS
 62
     0
 10
-1504.5690928987649
 20
-695.04304705663731
 30
0.0
 11
-1264.8802998987651
 21
-695.04304705663742
 31
0.0
  0
LINE
  5
7E25
  8
3
  6
CONTINUOUS
 62
     0
 10
-1504.5690928987649
 20
-725.04304705663731
 30
0.0
 11
-1264.8802998987651
 21
-725.04304705663742
 31
0.0
  0
LINE
  5
7E26
  8
3
  6
CONTINUOUS
 62
     0
 10
-1279.8802998987651
 20
-665.04304705663742
 30
0.0
 11
-1279.8802998987651
 21
-635.04304705663742
 31
0.0
  0
LINE
  5
7E27
  8
3
  6
CONTINUOUS
 62
     0
 10
-1279.8802998987651
 20
-755.04304705663742
 30
0.0
 11
-1279.8802998987651
 21
-887.90018991378031
 31
0.0
  0
LINE
  5
7E28
  8
3
  6
CONTINUOUS
 62
     0
 10
-1279.8802998987651
 20
-695.04304705663742
 30
0.0
 11
-1279.8802998987651
 21
-725.04304705663742
 31
0.0
  0
INSERT
  5
7E29
  8
3
  6
CONTINUOUS
 62
     0
  2
_OPEN
 10
-1279.8802998987651
 20
-695.04304705663742
 30
0.0
 41
30.0
 42
30.0
 43
30.0
 50
270.0
  0
INSERT
  5
7E2A
  8
3
  6
CONTINUOUS
 62
     0
  2
_OPEN
 10
-1279.8802998987651
 20
-725.04304705663742
 30
0.0
 41
30.0
 42
30.0
 43
30.0
 50
90.0
  0
TEXT
  8
3
  40
45
  5
7E9F
  62
0
  72
0
  71
0
 10
-1407.38
 20
-916.122
 30
0.000000
  1
30
  0
POINT
  5
7E2C
  8
DEFPOINTS
  6
CONTINUOUS
 62
     0
 10
-1512.0690928987649
 20
-695.04304705663731
 30
0.0
  0
POINT
  5
7E2D
  8
DEFPOINTS
  6
CONTINUOUS
 62
     0
 10
-1512.0690928987649
 20
-725.04304705663731
 30
0.0
  0
POINT
  5
7E2E
  8
DEFPOINTS
  6
CONTINUOUS
 62
     0
 10
-1279.8802998987651
 20
-725.04304705663742
 30
0.0
  0
ENDBLK
  5
7CA3
  8
0
  0
BLOCK
  8
0
  2
*D7
 70
     1
 10
0.0
 20
0.0
 30
0.0
  3
*D7
  1

  0
LINE
  5
7E2F
  8
3
  6
CONTINUOUS
 62
     0
 10
-1489.5690928987649
 20
41.456952943362687
 30
0.0
 11
-1159.5576958987649
 21
41.456952943362587
 31
0.0
  0
LINE
  5
7E30
  8
3
  6
CONTINUOUS
 62
     0
 10
-1504.5690928987649
 20
-725.04304705663731
 30
0.0
 11
-1159.5576958987649
 21
-725.04304705663742
 31
0.0
  0
LINE
  5
7E31
  8
3
  6
CONTINUOUS
 62
     0
 10
-1174.5576958987649
 20
11.456952943362589
 30
0.0
 11
-1174.5576958987649
 21
-695.04304705663742
 31
0.0
  0
INSERT
  5
7E32
  8
3
  6
CONTINUOUS
 62
     0
  2
_OPEN
 10
-1174.5576958987649
 20
41.456952943362602
 30
0.0
 41
30.0
 42
30.0
 43
30.0
 50
90.0
  0
INSERT
  5
7E33
  8
3
  6
CONTINUOUS
 62
     0
  2
_OPEN
 10
-1174.5576958987649
 20
-725.04304705663742
 30
0.0
 41
30.0
 42
30.0
 43
30.0
 50
270.0
  0
TEXT
  8
3
  40
45
  5
7EA0
  62
0
  72
0
  71
0
 10
-1302.06
 20
-413.141
 30
0.000000
  1
767
  0
POINT
  5
7E35
  8
DEFPOINTS
  6
CONTINUOUS
 62
     0
 10
-1497.0690928987649
 20
41.456952943362687
 30
0.0
  0
POINT
  5
7E36
  8
DEFPOINTS
  6
CONTINUOUS
 62
     0
 10
-1512.0690928987649
 20
-725.04304705663731
 30
0.0
  0
POINT
  5
7E37
  8
DEFPOINTS
  6
CONTINUOUS
 62
     0
 10
-1174.5576958987649
 20
-725.04304705663742
 30
0.0
  0
ENDBLK
  5
7BB8
  8
0
  0
BLOCK
  8
0
  2
*D8
 70
     1
 10
0.0
 20
0.0
 30
0.0
  3
*D8
  1

  0
LINE
  5
7E38
  8
3
  6
CONTINUOUS
 62
     0
 10
-2021.0690928987649
 20
-262.04304705663731
 30
0.0
 11
-2021.0690928987649
 21
111.4239621224432
 31
0.0
  0
LINE
  5
7E39
  8
3
  6
CONTINUOUS
 62
     0
 10
-1747.0690928987649
 20
36.369418943362689
 30
0.0
 11
-1747.0690928987649
 21
111.4239621224432
 31
0.0
  0
LINE
  5
7E3A
  8
3
  6
CONTINUOUS
 62
     0
 10
-1991.0690928987649
 20
96.423962122443299
 30
0.0
 11
-1777.0690928987649
 21
96.423962122443299
 31
0.0
  0
INSERT
  5
7E3B
  8
3
  6
CONTINUOUS
 62
     0
  2
_OPEN
 10
-2021.0690928987649
 20
96.423962122443299
 30
0.0
 41
30.0
 42
30.0
 43
30.0
 50
180.0
  0
INSERT
  5
7E3C
  8
3
  6
CONTINUOUS
 62
     0
  2
_OPEN
 10
-1747.0690928987649
 20
96.423962122443299
 30
0.0
 41
30.0
 42
30.0
 43
30.0
  0
TEXT
  8
3
  40
45
  5
7EA1
  62
0
  72
0
  71
0
 10
-1974.24
 20
54.2740
 30
0.000000
  1
274
  0
POINT
  5
7E3E
  8
DEFPOINTS
  6
CONTINUOUS
 62
     0
 10
-2021.0690928987649
 20
-269.54304705663719
 30
0.0
  0
POINT
  5
7E3F
  8
DEFPOINTS
  6
CONTINUOUS
 62
     0
 10
-1747.0690928987649
 20
28.869418943362689
 30
0.0
  0
POINT
  5
7E40
  8
DEFPOINTS
  6
CONTINUOUS
 62
     0
 10
-1747.0690928987649
 20
96.423962122443299
 30
0.0
  0
ENDBLK
  5
7D0A
  8
0
  0
BLOCK
  8
0
  2
*D9
 70
     1
 10
0.0
 20
0.0
 30
0.0
  3
*D9
  1

  0
LINE
  5
7E41
  8
3
  6
CONTINUOUS
 62
     0
 10
-1497.0690928987649
 20
48.956952943362687
 30
0.0
 11
-1497.0690928987649
 21
111.4239621224432
 31
0.0
  0
LINE
  5
7E42
  8
3
  6
CONTINUOUS
 62
     0
 10
-1717.0690928987649
 20
96.423962122443299
 30
0.0
 11
-1527.0690928987649
 21
96.423962122443299
 31
0.0
  0
INSERT
  5
7E43
  8
3
  6
CONTINUOUS
 62
     0
  2
_OPEN
 10
-1747.0690928987649
 20
96.423962122443299
 30
0.0
 41
30.0
 42
30.0
 43
30.0
 50
180.0
  0
INSERT
  5
7E44
  8
3
  6
CONTINUOUS
 62
     0
  2
_OPEN
 10
-1497.0690928987649
 20
96.423962122443299
 30
0.0
 41
30.0
 42
30.0
 43
30.0
  0
TEXT
  8
3
  40
45
  5
7EA2
  62
0
  72
0
  71
0
 10
-1712.07
 20
54.2740
 30
0.000000
  1
250
  0
POINT
  5
7E46
  8
DEFPOINTS
  6
CONTINUOUS
 62
     0
 10
-1747.0690928987649
 20
28.869418943362689
 30
0.0
  0
POINT
  5
7E47
  8
DEFPOINTS
  6
CONTINUOUS
 62
     0
 10
-1497.0690928987649
 20
41.456952943362687
 30
0.0
  0
POINT
  5
7E48
  8
DEFPOINTS
  6
CONTINUOUS
 62
     0
 10
-1497.0690928987649
 20
96.423962122443299
 30
0.0
  0
ENDBLK
  5
7CF0
  8
0
  0
BLOCK
  8
0
  2
*D10
 70
     1
 10
0.0
 20
0.0
 30
0.0
  3
*D10
  1

  0
LINE
  5
7E49
  8
3
  6
CONTINUOUS
 62
     0
 10
-2362.0690928987651
 20
727.37726455770985
 30
0.0
 11
-2362.0690928987651
 21
584.37705755771003
 31
0.0
  0
LINE
  5
7E4A
  8
3
  6
CONTINUOUS
 62
     0
 10
-1512.0690928987649
 20
727.37726455770985
 30
0.0
 11
-1512.0690928987649
 21
584.37705755771003
 31
0.0
  0
LINE
  5
7E4B
  8
3
  6
CONTINUOUS
 62
     0
 10
-2332.0690928987651
 20
599.37705755771003
 30
0.0
 11
-1542.0690928987649
 21
599.37705755771003
 31
0.0
  0
INSERT
  5
7E4C
  8
3
  6
CONTINUOUS
 62
     0
  2
_OPEN
 10
-2362.0690928987651
 20
599.37705755771003
 30
0.0
 41
30.0
 42
30.0
 43
30.0
 50
180.0
  0
INSERT
  5
7E4D
  8
3
  6
CONTINUOUS
 62
     0
  2
_OPEN
 10
-1512.0690928987649
 20
599.37705755771003
 30
0.0
 41
30.0
 42
30.0
 43
30.0
  0
TEXT
  8
3
  40
45
  5
7EA3
  62
0
  72
0
  71
0
 10
-2036.40
 20
557.227
 30
0.000000
  1
850
  0
POINT
  5
7E4F
  8
DEFPOINTS
  6
CONTINUOUS
 62
     0
 10
-2362.0690928987651
 20
734.87726455770985
 30
0.0
  0
POINT
  5
7E50
  8
DEFPOINTS
  6
CONTINUOUS
 62
     0
 10
-1512.0690928987649
 20
734.87726455770985
 30
0.0
  0
POINT
  5
7E51
  8
DEFPOINTS
  6
CONTINUOUS
 62
     0
 10
-1512.0690928987649
 20
599.37705755771003
 30
0.0
  0
ENDBLK
  5
7BDF
  8
0
  0
BLOCK
  8
0
  2
*D11
 70
     1
 10
0.0
 20
0.0
 30
0.0
  3
*D11
  1

  0
LINE
  5
7E52
  8
3
  6
CONTINUOUS
 62
     0
 10
-1504.5690928987649
 20
1334.8772645577101
 30
0.0
 11
-1314.963076898764
 21
1334.8772645577101
 31
0.0
  0
LINE
  5
7E53
  8
3
  6
CONTINUOUS
 62
     0
 10
-1504.5690928987649
 20
734.87726455770985
 30
0.0
 11
-1314.963076898764
 21
734.87726455770985
 31
0.0
  0
LINE
  5
7E54
  8
3
  6
CONTINUOUS
 62
     0
 10
-1329.963076898764
 20
1304.8772645577101
 30
0.0
 11
-1329.963076898764
 21
764.87726455770985
 31
0.0
  0
INSERT
  5
7E55
  8
3
  6
CONTINUOUS
 62
     0
  2
_OPEN
 10
-1329.963076898764
 20
1334.8772645577101
 30
0.0
 41
30.0
 42
30.0
 43
30.0
 50
90.0
  0
INSERT
  5
7E56
  8
3
  6
CONTINUOUS
 62
     0
  2
_OPEN
 10
-1329.963076898764
 20
734.87726455770985
 30
0.0
 41
30.0
 42
30.0
 43
30.0
 50
270.0
  0
TEXT
  8
3
  40
45
  5
7EA4
  62
0
  72
0
  71
0
 10
-1457.46
 20
960.082
 30
0.000000
  1
600
  0
POINT
  5
7E58
  8
DEFPOINTS
  6
CONTINUOUS
 62
     0
 10
-1512.0690928987649
 20
1334.8772645577101
 30
0.0
  0
POINT
  5
7E59
  8
DEFPOINTS
  6
CONTINUOUS
 62
     0
 10
-1512.0690928987649
 20
734.87726455770985
 30
0.0
  0
POINT
  5
7E5A
  8
DEFPOINTS
  6
CONTINUOUS
 62
     0
 10
-1329.963076898764
 20
734.87726455770985
 30
0.0
  0
ENDBLK
  5
7BEC
  8
0
  0
BLOCK
  8
0
  2
*D12
 70
     1
 10
0.0
 20
0.0
 30
0.0
  3
*D12
  1

  0
LINE
  5
7E5B
  8
3
  6
CONTINUOUS
 62
     0
 10
-638.1363980000001
 20
27.45695294336268
 30
0.0
 11
-638.1363980000001
 21
108.6759029433627
 31
0.0
  0
LINE
  5
7E5C
  8
3
  6
CONTINUOUS
 62
     0
 10
-414.1363980000001
 20
27.45695294336268
 30
0.0
 11
-414.1363980000001
 21
108.6759029433627
 31
0.0
  0
LINE
  5
7E5D
  8
3
  6
CONTINUOUS
 62
     0
 10
-668.1363980000001
 20
93.675902943362686
 30
0.0
 11
-698.1363980000001
 21
93.675902943362686
 31
0.0
  0
LINE
  5
7E5E
  8
3
  6
CONTINUOUS
 62
     0
 10
-384.13639799999999
 20
93.675902943362686
 30
0.0
 11
-354.1363980000001
 21
93.675902943362686
 31
0.0
  0
LINE
  5
7E5F
  8
3
  6
CONTINUOUS
 62
     0
 10
-638.1363980000001
 20
93.675902943362686
 30
0.0
 11
-414.1363980000001
 21
93.675902943362686
 31
0.0
  0
INSERT
  5
7E60
  8
3
  6
CONTINUOUS
 62
     0
  2
_OPEN
 10
-638.1363980000001
 20
93.675902943362686
 30
0.0
 41
30.0
 42
30.0
 43
30.0
  0
INSERT
  5
7E61
  8
3
  6
CONTINUOUS
 62
     0
  2
_OPEN
 10
-414.1363980000001
 20
93.675902943362686
 30
0.0
 41
30.0
 42
30.0
 43
30.0
 50
180.0
  0
TEXT
  8
3
  40
45
  5
7EA5
  62
0
  72
0
  71
0
 10
-624.208
 20
51.5259
 30
0.000000
  1
224
  0
POINT
  5
7E63
  8
DEFPOINTS
  6
CONTINUOUS
 62
     0
 10
-638.1363980000001
 20
19.95695294336268
 30
0.0
  0
POINT
  5
7E64
  8
DEFPOINTS
  6
CONTINUOUS
 62
     0
 10
-414.1363980000001
 20
19.95695294336268
 30
0.0
  0
POINT
  5
7E65
  8
DEFPOINTS
  6
CONTINUOUS
 62
     0
 10
-414.1363980000001
 20
93.675902943362686
 30
0.0
  0
ENDBLK
  5
7BFC
  8
0
  0
BLOCK
  8
0
  2
*D13
 70
     1
 10
0.0
 20
0.0
 30
0.0
  3
*D13
  1

  0
LINE
  5
7E66
  8
3
  6
CONTINUOUS
 62
     0
 10
-946.1363980000001
 20
-732.54304705663731
 30
0.0
 11
-946.1363980000001
 21
-857.92405105663727
 31
0.0
  0
LINE
  5
7E67
  8
3
  6
CONTINUOUS
 62
     0
 10
-526.1363980000001
 20
-772.80528205663734
 30
0.0
 11
-526.1363980000001
 21
-857.92405105663727
 31
0.0
  0
LINE
  5
7E68
  8
3
  6
CONTINUOUS
 62
     0
 10
-916.13639799999999
 20
-842.92405105663727
 30
0.0
 11
-556.1363980000001
 21
-842.92405105663727
 31
0.0
  0
INSERT
  5
7E69
  8
3
  6
CONTINUOUS
 62
     0
  2
_OPEN
 10
-946.1363980000001
 20
-842.92405105663727
 30
0.0
 41
30.0
 42
30.0
 43
30.0
 50
180.0
  0
INSERT
  5
7E6A
  8
3
  6
CONTINUOUS
 62
     0
  2
_OPEN
 10
-526.1363980000001
 20
-842.92405105663727
 30
0.0
 41
30.0
 42
30.0
 43
30.0
  0
TEXT
  8
3
  40
45
  5
7EA6
  62
0
  72
0
  71
0
 10
-816.582
 20
-885.074
 30
0.000000
  1
420
  0
POINT
  5
7E6C
  8
DEFPOINTS
  6
CONTINUOUS
 62
     0
 10
-946.1363980000001
 20
-725.04304705663731
 30
0.0
  0
POINT
  5
7E6D
  8
DEFPOINTS
  6
CONTINUOUS
 62
     0
 10
-526.1363980000001
 20
-765.30528205663734
 30
0.0
  0
POINT
  5
7E6E
  8
DEFPOINTS
  6
CONTINUOUS
 62
     0
 10
-526.1363980000001
 20
-842.92405105663727
 30
0.0
  0
ENDBLK
  5
7C09
  8
0
  0
BLOCK
  8
0
  2
*D14
 70
     1
 10
0.0
 20
0.0
 30
0.0
  3
*D14
  1

  0
LINE
  5
7E6F
  8
3
  6
CONTINUOUS
 62
     0
 10
-346.1363980000001
 20
-732.54304705663731
 30
0.0
 11
-346.1363980000001
 21
-857.92405105663727
 31
0.0
  0
LINE
  5
7E70
  8
3
  6
CONTINUOUS
 62
     0
 10
-496.13639799999999
 20
-842.92405105663727
 30
0.0
 11
-376.13639799999999
 21
-842.92405105663727
 31
0.0
  0
TEXT
  8
3
  40
45
  5
7EA7
  62
0
  72
0
  71
0
 10
-523.902
 20
-885.589
 30
0.000000
  1
180
  0
INSERT
  5
7E72
  8
3
  6
CONTINUOUS
 62
     0
  2
_OPEN
 10
-526.1363980000001
 20
-842.92405105663727
 30
0.0
 41
30.0
 42
30.0
 43
30.0
 50
180.0
  0
INSERT
  5
7E73
  8
3
  6
CONTINUOUS
 62
     0
  2
_OPEN
 10
-346.1363980000001
 20
-842.92405105663727
 30
0.0
 41
30.0
 42
30.0
 43
30.0
  0
POINT
  5
7E74
  8
DEFPOINTS
  6
CONTINUOUS
 62
     0
 10
-526.1363980000001
 20
-765.30528205663734
 30
0.0
  0
POINT
  5
7E75
  8
DEFPOINTS
  6
CONTINUOUS
 62
     0
 10
-346.1363980000001
 20
-725.04304705663731
 30
0.0
  0
POINT
  5
7E76
  8
DEFPOINTS
  6
CONTINUOUS
 62
     0
 10
-346.1363980000001
 20
-842.92405105663727
 30
0.0
  0
ENDBLK
  5
7C2E
  8
0
  0
BLOCK
  8
0
  2
*D15
 70
     1
 10
0.0
 20
0.0
 30
0.0
  3
*D15
  1

  0
LINE
  5
7E77
  8
3
  6
CONTINUOUS
 62
     0
 10
-946.1363980000001
 20
-57.543047056637313
 30
0.0
 11
-946.1363980000001
 21
212.0690796912267
 31
0.0
  0
LINE
  5
7E78
  8
3
  6
CONTINUOUS
 62
     0
 10
-526.1363980000001
 20
170.17514694336259
 30
0.0
 11
-526.1363980000001
 21
212.0690796912267
 31
0.0
  0
LINE
  5
7E79
  8
3
  6
CONTINUOUS
 62
     0
 10
-916.13639799999999
 20
197.0690796912267
 30
0.0
 11
-556.1363980000001
 21
197.0690796912267
 31
0.0
  0
INSERT
  5
7E7A
  8
3
  6
CONTINUOUS
 62
     0
  2
_OPEN
 10
-946.1363980000001
 20
197.0690796912267
 30
0.0
 41
30.0
 42
30.0
 43
30.0
 50
180.0
  0
INSERT
  5
7E7B
  8
3
  6
CONTINUOUS
 62
     0
  2
_OPEN
 10
-526.1363980000001
 20
197.0690796912267
 30
0.0
 41
30.0
 42
30.0
 43
30.0
  0
TEXT
  8
3
  40
45
  5
7EA8
  62
0
  72
0
  71
0
 10
-845.073
 20
192.419
 30
0.000000
  1
MAX
  0
TEXT
  8
3
  40
45
  5
7EA9
  62
0
  72
0
  71
0
 10
-845.073
 20
133.919
 30
0.000000
  1
420
  0
POINT
  5
7E7D
  8
DEFPOINTS
  6
CONTINUOUS
 62
     0
 10
-946.1363980000001
 20
-65.043047056637306
 30
0.0
  0
POINT
  5
7E7E
  8
DEFPOINTS
  6
CONTINUOUS
 62
     0
 10
-526.1363980000001
 20
162.67514694336259
 30
0.0
  0
POINT
  5
7E7F
  8
DEFPOINTS
  6
CONTINUOUS
 62
     0
 10
-526.1363980000001
 20
197.0690796912267
 30
0.0
  0
ENDBLK
  5
7CD1
  8
0
  0
BLOCK
  8
0
  2
*D16
 70
     1
 10
0.0
 20
0.0
 30
0.0
  3
*D16
  1

  0
LINE
  5
7E80
  8
3
  6
CONTINUOUS
 62
     0
 10
-405.1363980000001
 20
-105.04304705663731
 30
0.0
 11
-405.1363980000001
 21
212.0690796912267
 31
0.0
  0
LINE
  5
7E81
  8
3
  6
CONTINUOUS
 62
     0
 10
-496.13639799999999
 20
197.0690796912267
 30
0.0
 11
-435.1363980000001
 21
197.0690796912267
 31
0.0
  0
TEXT
  8
3
  40
45
  5
7EAA
  62
0
  72
0
  71
0
 10
-560.163
 20
154.919
 30
0.000000
  1
121
  0
INSERT
  5
7E83
  8
3
  6
CONTINUOUS
 62
     0
  2
_OPEN
 10
-526.1363980000001
 20
197.0690796912267
 30
0.0
 41
30.0
 42
30.0
 43
30.0
 50
180.0
  0
INSERT
  5
7E84
  8
3
  6
CONTINUOUS
 62
     0
  2
_OPEN
 10
-405.1363980000001
 20
197.0690796912267
 30
0.0
 41
30.0
 42
30.0
 43
30.0
  0
POINT
  5
7E85
  8
DEFPOINTS
  6
CONTINUOUS
 62
     0
 10
-526.1363980000001
 20
162.67514694336259
 30
0.0
  0
POINT
  5
7E86
  8
DEFPOINTS
  6
CONTINUOUS
 62
     0
 10
-405.1363980000001
 20
-112.54304705663731
 30
0.0
  0
POINT
  5
7E87
  8
DEFPOINTS
  6
CONTINUOUS
 62
     0
 10
-405.1363980000001
 20
197.0690796912267
 30
0.0
  0
ENDBLK
  5
7CDB
  8
0
  0
BLOCK
  8
0
  2
*D17
 70
     1
 10
0.0
 20
0.0
 30
0.0
  3
*D17
  1

  0
LINE
  5
7E88
  8
3
  6
CONTINUOUS
 62
     0
 10
-397.6363980000001
 20
-140.1303370566373
 30
0.0
 11
-256.12190700000002
 21
-140.1303370566373
 31
0.0
  0
LINE
  5
7E89
  8
3
  6
CONTINUOUS
 62
     0
 10
-397.6363980000001
 20
-455.13033705663719
 30
0.0
 11
-256.12190700000002
 21
-455.1303370566373
 31
0.0
  0
LINE
  5
7E8A
  8
3
  6
CONTINUOUS
 62
     0
 10
-271.12190700000002
 20
-170.1303370566373
 30
0.0
 11
-271.12190700000002
 21
-425.1303370566373
 31
0.0
  0
INSERT
  5
7E8B
  8
3
  6
CONTINUOUS
 62
     0
  2
_OPEN
 10
-271.12190700000002
 20
-140.1303370566373
 30
0.0
 41
30.0
 42
30.0
 43
30.0
 50
90.0
  0
INSERT
  5
7E8C
  8
3
  6
CONTINUOUS
 62
     0
  2
_OPEN
 10
-271.12190700000002
 20
-455.1303370566373
 30
0.0
 41
30.0
 42
30.0
 43
30.0
 50
270.0
  0
TEXT
  8
3
  40
45
  5
7EAB
  62
0
  72
0
  71
0
 10
-398.622
 20
-391.210
 30
0.000000
  1
φ315
  0
POINT
  5
7E8E
  8
DEFPOINTS
  6
CONTINUOUS
 62
     0
 10
-405.1363980000001
 20
-140.1303370566373
 30
0.0
  0
POINT
  5
7E8F
  8
DEFPOINTS
  6
CONTINUOUS
 62
     0
 10
-405.1363980000001
 20
-455.13033705663719
 30
0.0
  0
POINT
  5
7E90
  8
DEFPOINTS
  6
CONTINUOUS
 62
     0
 10
-271.12190700000002
 20
-455.1303370566373
 30
0.0
  0
ENDBLK
  5
7CB9
  8
0
  0
BLOCK
  8
0
  2
*D18
 70
     1
 10
0.0
 20
0.0
 30
0.0
  3
*D18
  1

  0
LINE
  5
7E91
  8
3
 62
     0
 10
-1497.0690928987649
 20
48.956952943362687
 30
0.0
 11
-1497.0690928987649
 21
208.57988163289519
 31
0.0
  0
LINE
  5
7E92
  8
3
 62
     0
 10
-2362.0690928987651
 20
-617.54304705663719
 30
0.0
 11
-2362.0690928987651
 21
208.57988163289519
 31
0.0
  0
LINE
  5
7E93
  8
3
 62
     0
 10
-1527.0690928987649
 20
193.57988163289511
 30
0.0
 11
-2332.0690928987651
 21
193.57988163289511
 31
0.0
  0
INSERT
  5
7E94
  8
3
 62
     0
  2
_OPEN
 10
-1497.0690928987649
 20
193.57988163289511
 30
0.0
 41
30.0
 42
30.0
 43
30.0
  0
INSERT
  5
7E95
  8
3
 62
     0
  2
_OPEN
 10
-2362.0690928987651
 20
193.57988163289511
 30
0.0
 41
30.0
 42
30.0
 43
30.0
 50
180.0
  0
TEXT
  8
3
  40
45
  5
7EAC
  62
0
  72
0
  71
0
 10
-2026.02
 20
151.430
 30
0.000000
  1
865
  0
POINT
  5
7E97
  8
DEFPOINTS
 62
     0
 10
-1497.0690928987649
 20
41.456952943362687
 30
0.0
  0
POINT
  5
7E98
  8
DEFPOINTS
 62
     0
 10
-2362.0690928987651
 20
-625.04304705663731
 30
0.0
  0
POINT
  5
7E99
  8
DEFPOINTS
 62
     0
 10
-2362.0690928987651
 20
193.57988163289511
 30
0.0
  0
ENDBLK
  5
7CE6
  8
0
  0
ENDSEC
  0
SECTION
  2
ENTITIES
  0
CIRCLE
  5
7A8F
  8
1
  6
CONTINUOUS
 10
-1747.0690928987649
 20
-295.04304705663731
 30
0.0
 40
157.5
  0
LINE
  5
7A90
  8
1
  6
CONTINUOUS
 10
-1512.0690928987649
 20
-725.04304705663731
 30
0.0
 11
-1542.0690928987649
 21
-725.04304705663731
 31
0.0
  0
LINE
  5
7A91
  8
1
  6
CONTINUOUS
 10
-946.1363980000001
 20
-725.04304705663731
 30
0.0
 11
-346.1363980000001
 21
-725.04304705663731
 31
0.0
  0
LINE
  5
7A92
  8
1
  6
CONTINUOUS
 10
-1512.0690928987649
 20
1266.8772645577089
 30
0.0
 11
-1512.0690928987649
 21
1334.8772645577101
 31
0.0
  0
LINE
  5
7A93
  8
1
  6
CONTINUOUS
 10
-1542.0690928987649
 20
839.87726455770996
 30
0.0
 11
-1542.0690928987649
 21
734.87726455770985
 31
0.0
  0
LINE
  5
7A94
  8
1
  6
CONTINUOUS
 10
-1542.0690928987649
 20
734.87726455770985
 30
0.0
 11
-1512.0690928987649
 21
734.87726455770985
 31
0.0
  0
LINE
  5
7A95
  8
1
  6
CONTINUOUS
 10
-1542.0690928987649
 20
1334.8772645577101
 30
0.0
 11
-1512.0690928987649
 21
1334.8772645577101
 31
0.0
  0
LINE
  5
7A96
  8
1
  6
CONTINUOUS
 10
-2332.0690928987651
 20
839.87726455770996
 30
0.0
 11
-2332.0690928987651
 21
734.87726455770985
 31
0.0
  0
LINE
  5
7A97
  8
1
  6
CONTINUOUS
 10
-2332.0690928987651
 20
1334.8772645577101
 30
0.0
 11
-2332.0690928987651
 21
1154.8772645577089
 31
0.0
  0
LINE
  5
7A98
  8
1
  6
CONTINUOUS
 10
-1542.0690928987649
 20
1334.8772645577101
 30
0.0
 11
-1542.0690928987649
 21
1266.8772645577089
 31
0.0
  0
LINE
  5
7A99
  8
1
  6
CONTINUOUS
 10
-2362.0690928987651
 20
1334.8772645577101
 30
0.0
 11
-2332.0690928987651
 21
1334.8772645577101
 31
0.0
  0
LINE
  5
7A9A
  8
1
  6
CONTINUOUS
 10
-2362.0690928987651
 20
734.87726455770985
 30
0.0
 11
-2332.0690928987651
 21
734.87726455770985
 31
0.0
  0
LINE
  5
7A9B
  8
1
  6
CONTINUOUS
 10
-346.1363980000001
 20
-695.04304705663731
 30
0.0
 11
-346.1363980000001
 21
-725.04304705663731
 31
0.0
  0
LINE
  5
7A9C
  8
1
  6
CONTINUOUS
 10
-946.1363980000001
 20
-695.04304705663731
 30
0.0
 11
-946.1363980000001
 21
-725.04304705663731
 31
0.0
  0
LINE
  5
7A9D
  8
1
  6
CONTINUOUS
 10
-1542.0690928987649
 20
-695.04304705663731
 30
0.0
 11
-1542.0690928987649
 21
-725.04304705663731
 31
0.0
  0
LINE
  5
7A9E
  8
1
  6
CONTINUOUS
 10
-2332.0690928987651
 20
-695.04304705663731
 30
0.0
 11
-2332.0690928987651
 21
-725.04304705663731
 31
0.0
  0
LINE
  5
7A9F
  8
1
  6
CONTINUOUS
 10
-2362.0690928987651
 20
-725.04304705663731
 30
0.0
 11
-2332.0690928987651
 21
-725.04304705663731
 31
0.0
  0
ARC
  5
7AA0
  8
1
  6
CONTINUOUS
 10
-618.1363980000001
 20
-497.04304705663719
 30
0.0
 40
20.0
 50
180.0
 51
270.0
  0
ARC
  5
7AA1
  8
1
  6
CONTINUOUS
 10
-434.1363980000001
 20
-497.04304705663719
 30
0.0
 40
20.0
 50
270.0
 51
0.0
  0
LINE
  5
7AA2
  8
1
  6
CONTINUOUS
 10
-405.1363980000001
 20
-112.54304705663731
 30
0.0
 11
-414.33639799999992
 21
-112.54304705663731
 31
0.0
  0
LINE
  5
7AA3
  8
1
  6
CONTINUOUS
 10
-647.93639800000005
 20
-112.54304705663731
 30
0.0
 11
-637.93639800000005
 21
-112.54304705663731
 31
0.0
  0
LINE
  5
7AA4
  8
1
  6
CONTINUOUS
 10
-886.1363980000001
 20
-526.94304705663728
 30
0.0
 11
-811.93639800000005
 21
-526.94304705663728
 31
0.0
  0
LINE
  5
7AA5
  8
1
  6
CONTINUOUS
 10
-886.1363980000001
 20
-502.94304705663728
 30
0.0
 11
-811.93639800000005
 21
-502.94304705663728
 31
0.0
  0
LINE
  5
7AA6
  8
1
  6
CONTINUOUS
 10
-647.93639800000005
 20
-477.54304705663731
 30
0.0
 11
-638.1363980000001
 21
-477.54304705663731
 31
0.0
  0
LINE
  5
7AA7
  8
1
  6
CONTINUOUS
 10
-841.13639799999999
 20
-625.04304705663731
 30
0.0
 11
-841.13639799999999
 21
-695.04304705663731
 31
0.0
  0
LINE
  5
7AA8
  8
1
  6
CONTINUOUS
 10
-526.1363980000001
 20
-625.04304705663731
 30
0.0
 11
-841.13639799999999
 21
-625.04304705663731
 31
0.0
  0
LINE
  5
7AA9
  8
1
  6
CONTINUOUS
 10
-526.1363980000001
 20
-695.04304705663731
 30
0.0
 11
-526.1363980000001
 21
-625.04304705663731
 31
0.0
  0
LINE
  5
7AAA
  8
1
  6
CONTINUOUS
 10
-946.1363980000001
 20
-695.04304705663731
 30
0.0
 11
-346.1363980000001
 21
-695.04304705663731
 31
0.0
  0
LINE
  5
7AAB
  8
1
  6
CONTINUOUS
 10
-921.1363980000001
 20
-231.44304705663731
 30
0.0
 11
-921.1363980000001
 21
-358.44304705663728
 31
0.0
  0
LINE
  5
7AAC
  8
1
  6
CONTINUOUS
 10
-886.1363980000001
 20
-231.44304705663731
 30
0.0
 11
-921.1363980000001
 21
-231.44304705663731
 31
0.0
  0
LINE
  5
7AAD
  8
1
  6
CONTINUOUS
 10
-886.1363980000001
 20
-358.44304705663728
 30
0.0
 11
-886.1363980000001
 21
-231.44304705663731
 31
0.0
  0
LINE
  5
7AAE
  8
1
  6
CONTINUOUS
 10
-921.1363980000001
 20
-358.44304705663728
 30
0.0
 11
-886.1363980000001
 21
-358.44304705663728
 31
0.0
  0
LINE
  5
7AAF
  8
1
  6
CONTINUOUS
 10
-434.1363980000001
 20
-517.04304705663731
 30
0.0
 11
-618.1363980000001
 21
-517.04304705663731
 31
0.0
  0
LINE
  5
7AB0
  8
1
  6
CONTINUOUS
 10
-638.1363980000001
 20
19.95695294336268
 30
0.0
 11
-638.1363980000001
 21
-497.04304705663719
 31
0.0
  0
LINE
  5
7AB1
  8
1
  6
CONTINUOUS
 10
-414.1363980000001
 20
19.95695294336268
 30
0.0
 11
-638.1363980000001
 21
19.95695294336268
 31
0.0
  0
LINE
  5
7AB2
  8
1
  6
CONTINUOUS
 10
-414.1363980000001
 20
-497.04304705663719
 30
0.0
 11
-414.1363980000001
 21
19.95695294336268
 31
0.0
  0
LINE
  5
7AB3
  8
1
  6
CONTINUOUS
 10
-647.93639800000005
 20
-112.4430470566373
 30
0.0
 11
-647.93639800000005
 21
-625.04304705663731
 31
0.0
  0
LINE
  5
7AB4
  8
1
  6
CONTINUOUS
 10
-405.1363980000001
 20
-477.54304705663731
 30
0.0
 11
-414.1363980000001
 21
-477.54304705663731
 31
0.0
  0
LINE
  5
7AB5
  8
1
  6
CONTINUOUS
 10
-405.1363980000001
 20
-477.54304705663731
 30
0.0
 11
-405.1363980000001
 21
-112.54304705663731
 31
0.0
  0
LINE
  5
7AB6
  8
1
  6
CONTINUOUS
 10
-811.93639800000005
 20
-334.04304705663719
 30
0.0
 11
-811.93639800000005
 21
-625.04304705663731
 31
0.0
  0
LINE
  5
7AB7
  8
1
  6
CONTINUOUS
 10
-647.93639800000005
 20
-207.84304705663729
 30
0.0
 11
-811.93639800000005
 21
-334.04304705663719
 31
0.0
  0
LINE
  5
7AB8
  8
1
  6
CONTINUOUS
 10
-886.1363980000001
 20
-282.44304705663728
 30
0.0
 11
-744.93639800000005
 21
-282.44304705663728
 31
0.0
  0
LINE
  5
7AB9
  8
1
  6
CONTINUOUS
 10
-886.1363980000001
 20
-307.44304705663728
 30
0.0
 11
-777.33639800000003
 21
-307.44304705663728
 31
0.0
  0
LINE
  5
7ABA
  8
1
  6
CONTINUOUS
 10
-946.1363980000001
 20
-65.043047056637306
 30
0.0
 11
-861.1363980000001
 21
-65.043047056637306
 31
0.0
  0
LINE
  5
7ABB
  8
1
  6
CONTINUOUS
 10
-946.1363980000001
 20
-624.94304705663717
 30
0.0
 11
-861.1363980000001
 21
-624.94304705663717
 31
0.0
  0
LINE
  5
7ABC
  8
1
  6
CONTINUOUS
 10
-921.1363980000001
 20
-578.44304705663717
 30
0.0
 11
-886.1363980000001
 21
-578.44304705663717
 31
0.0
  0
LINE
  5
7ABD
  8
1
  6
CONTINUOUS
 10
-886.1363980000001
 20
-578.44304705663717
 30
0.0
 11
-886.1363980000001
 21
-451.44304705663728
 31
0.0
  0
LINE
  5
7ABE
  8
1
  6
CONTINUOUS
 10
-886.1363980000001
 20
-451.44304705663728
 30
0.0
 11
-921.1363980000001
 21
-451.44304705663728
 31
0.0
  0
LINE
  5
7ABF
  8
1
  6
CONTINUOUS
 10
-921.1363980000001
 20
-451.44304705663728
 30
0.0
 11
-921.1363980000001
 21
-578.44304705663717
 31
0.0
  0
LINE
  5
7AC0
  8
1
  6
CONTINUOUS
 10
-946.1363980000001
 20
-624.94304705663717
 30
0.0
 11
-946.1363980000001
 21
-65.043047056637306
 31
0.0
  0
LINE
  5
7AC1
  8
1
  6
CONTINUOUS
 10
-861.1363980000001
 20
-624.94304705663717
 30
0.0
 11
-861.1363980000001
 21
-65.043047056637306
 31
0.0
  0
LINE
  5
7AC2
  8
1
  6
CONTINUOUS
 10
-1497.0690928987649
 20
-285.04304705663731
 30
0.0
 11
-1517.0690928987649
 21
-265.04304705663731
 31
0.0
  0
LINE
  5
7AC3
  8
1
  6
CONTINUOUS
 10
-1497.0690928987649
 20
9.9569529433626922
 30
0.0
 11
-1517.0690928987649
 21
-10.043047056637301
 31
0.0
  0
LINE
  5
7AC4
  8
1
  6
CONTINUOUS
 10
-1802.5690928987649
 20
-65.043047056637306
 30
0.0
 11
-2332.5690928987651
 21
-415.04304705663731
 31
0.0
  0
LINE
  5
7AC5
  8
1
  6
CONTINUOUS
 10
-1602.5690928987649
 20
-195.04304705663731
 30
0.0
 11
-1802.5690928987649
 21
-65.043047056637306
 31
0.0
  0
LINE
  5
7AC6
  8
1
  6
CONTINUOUS
 10
-1517.0690928987649
 20
-295.04304705663731
 30
0.0
 11
-1497.0690928987649
 21
-295.04304705663731
 31
0.0
  0
LINE
  5
7AC7
  8
1
  6
CONTINUOUS
 10
-2332.5690928987651
 20
-415.04304705663731
 30
0.0
 11
-2332.5690928987651
 21
-625.04304705663731
 31
0.0
  0
LINE
  5
7AC8
  8
1
  6
CONTINUOUS
 10
-1602.5690928987649
 20
-195.04304705663731
 30
0.0
 11
-1602.5690928987649
 21
-634.54304705663719
 31
0.0
  0
LINE
  5
7AC9
  8
2
  6
CENTER
 10
-2271.0690928987651
 20
-515.04304705663731
 30
0.0
 11
-2165.0690928987651
 21
-515.04304705663731
 31
0.0
  0
LINE
  5
7ACA
  8
1
  6
CONTINUOUS
 10
-2126.169092898765
 20
-605.04304705663719
 30
0.0
 11
-2137.5690928987651
 21
-576.04304705663719
 31
0.0
  0
LINE
  5
7ACB
  8
1
  6
CONTINUOUS
 10
-2309.9690928987652
 20
-605.04304705663719
 30
0.0
 11
-2298.5690928987651
 21
-576.04304705663719
 31
0.0
  0
ARC
  5
7ACC
  8
1
  6
CONTINUOUS
 10
-2218.0690928987651
 20
-515.04304705663731
 30
0.0
 40
101.0
 50
322.89999999999992
 51
217.09999999999991
  0
CIRCLE
  5
7ACD
  8
1
  6
CONTINUOUS
 10
-2218.0690928987651
 20
-515.04304705663731
 30
0.0
 40
53.0
  0
CIRCLE
  5
7ACE
  8
1
  6
CONTINUOUS
 10
-1747.0690928987649
 20
-295.04304705663731
 30
0.0
 40
63.5
  0
LINE
  5
7ACF
  8
2
  6
CENTER
 10
-2218.0690928987651
 20
-568.04304705663719
 30
0.0
 11
-2218.0690928987651
 21
-462.04304705663731
 31
0.0
  0
LINE
  5
7AD0
  8
1
  6
CONTINUOUS
 10
-2017.069092898764
 20
-625.04304705663731
 30
0.0
 11
-2017.069092898764
 21
-605.04304705663719
 31
0.0
  0
LINE
  5
7AD1
  8
1
  6
CONTINUOUS
 10
-2332.0690928987651
 20
-625.04304705663731
 30
0.0
 11
-2332.0690928987651
 21
-605.04304705663719
 31
0.0
  0
LINE
  5
7AD2
  8
1
  6
CONTINUOUS
 10
-2332.0690928987651
 20
-605.04304705663719
 30
0.0
 11
-2017.069092898764
 21
-605.04304705663719
 31
0.0
  0
LINE
  5
7AD3
  8
1
  6
CONTINUOUS
 10
-2362.0690928987651
 20
-695.04304705663731
 30
0.0
 11
-1512.0690928987649
 21
-695.04304705663731
 31
0.0
  0
LINE
  5
7AD4
  8
1
  6
CONTINUOUS
 10
-2362.0690928987651
 20
-625.04304705663731
 30
0.0
 11
-2362.0690928987651
 21
-725.04304705663731
 31
0.0
  0
LINE
  5
7AD5
  8
1
  6
CONTINUOUS
 10
-1512.0690928987649
 20
-625.04304705663731
 30
0.0
 11
-1512.0690928987649
 21
-725.04304705663731
 31
0.0
  0
LINE
  5
7AD6
  8
1
  6
CONTINUOUS
 10
-2362.0690928987651
 20
-625.04304705663731
 30
0.0
 11
-1512.0690928987649
 21
-625.04304705663731
 31
0.0
  0
LINE
  5
7AD7
  8
1
  6
CONTINUOUS
 10
-1542.0690928987649
 20
-625.04304705663731
 30
0.0
 11
-1542.0690928987649
 21
-209.6430470566373
 31
0.0
  0
LINE
  5
7AD8
  8
1
  6
CONTINUOUS
 10
-1654.7690928987649
 20
-115.04304705663731
 30
0.0
 11
-1542.0690928987649
 21
-209.6430470566373
 31
0.0
  0
LINE
  5
7AD9
  8
1
  6
CONTINUOUS
 10
-1839.3690928987651
 20
-115.04304705663731
 30
0.0
 11
-1952.0690928987649
 21
-209.6430470566373
 31
0.0
  0
LINE
  5
7ADA
  8
1
  6
CONTINUOUS
 10
-1952.0690928987649
 20
-331.54304705663731
 30
0.0
 11
-1542.0690928987649
 21
-331.54304705663731
 31
0.0
  0
LINE
  5
7ADB
  8
1
  6
CONTINUOUS
 10
-1952.0690928987649
 20
-625.04304705663731
 30
0.0
 11
-1952.0690928987649
 21
-209.6430470566373
 31
0.0
  0
LINE
  5
7ADC
  8
1
  6
CONTINUOUS
 10
-1839.3690928987651
 20
-115.04304705663731
 30
0.0
 11
-1654.7690928987649
 21
-115.04304705663731
 31
0.0
  0
LINE
  5
7ADD
  8
1
  6
CONTINUOUS
 10
-1497.0690928987649
 20
19.95695294336269
 30
0.0
 11
-1517.0690928987649
 21
19.95695294336269
 31
0.0
  0
LINE
  5
7ADE
  8
1
  6
CONTINUOUS
 10
-1497.0690928987649
 20
-316.54304705663731
 30
0.0
 11
-1497.0690928987649
 21
41.456952943362687
 31
0.0
  0
LINE
  5
7ADF
  8
2
  6
CENTER
 10
-1747.0690928987649
 20
-754.97634505663723
 30
0.0
 11
-1747.0690928987649
 21
59.255610943362633
 31
0.0
  0
LINE
  5
7AE0
  8
2
  6
CENTER
 10
-2211.5545888987649
 20
-297.63033705663719
 30
0.0
 11
-1454.4461628987649
 21
-297.63033705663719
 31
0.0
  0
LINE
  5
7AE1
  8
1
  6
CONTINUOUS
 10
-1564.5690928987649
 20
1033.077264557709
 30
0.0
 11
-1564.5690928987649
 21
1042.8772645577101
 31
0.0
  0
LINE
  5
7AE2
  8
1
  6
CONTINUOUS
 10
-1497.0690928987649
 20
1257.8772645577089
 30
0.0
 11
-1517.0690928987649
 21
1237.8772645577101
 31
0.0
  0
LINE
  5
7AE3
  8
1
  6
CONTINUOUS
 10
-1497.0690928987649
 20
1051.8772645577089
 30
0.0
 11
-1517.0690928987649
 21
1071.8772645577089
 31
0.0
  0
LINE
  5
7AE4
  8
1
  6
CONTINUOUS
 10
-1735.0690928987649
 20
869.87726455770985
 30
0.0
 11
-1542.0690928987649
 21
869.87726455770985
 31
0.0
  0
LINE
  5
7AE5
  8
1
  6
CONTINUOUS
 10
-1735.0690928987649
 20
1033.077264557709
 30
0.0
 11
-1735.0690928987649
 21
796.37726455770985
 31
0.0
  0
LINE
  5
7AE6
  8
1
  6
CONTINUOUS
 10
-1759.0690928987649
 20
1033.077264557709
 30
0.0
 11
-1759.0690928987649
 21
796.37726455770985
 31
0.0
  0
LINE
  5
7AE7
  8
1
  6
CONTINUOUS
 10
-2332.5690928987651
 20
819.87726455770985
 30
0.0
 11
-2332.5690928987651
 21
734.87726455770985
 31
0.0
  0
LINE
  5
7AE8
  8
1
  6
CONTINUOUS
 10
-1602.5690928987649
 20
819.87726455770985
 30
0.0
 11
-1602.5690928987649
 21
734.87726455770985
 31
0.0
  0
LINE
  5
7AE9
  8
1
  6
CONTINUOUS
 10
-2332.5690928987651
 20
819.87726455770985
 30
0.0
 11
-1602.5690928987649
 21
819.87726455770985
 31
0.0
  0
LINE
  5
7AEA
  8
1
  6
CONTINUOUS
 10
-2332.5690928987651
 20
734.87726455770985
 30
0.0
 11
-1602.5690928987649
 21
734.87726455770985
 31
0.0
  0
LINE
  5
7AEB
  8
1
  6
CONTINUOUS
 10
-2206.0690928987642
 20
839.87726455770996
 30
0.0
 11
-1759.0690928987649
 21
839.87726455770996
 31
0.0
  0
LINE
  5
7AEC
  8
1
  6
CONTINUOUS
 10
-1735.0690928987649
 20
839.87726455770996
 30
0.0
 11
-1512.0690928987649
 21
839.87726455770996
 31
0.0
  0
LINE
  5
7AED
  8
1
  6
CONTINUOUS
 10
-2154.5690928987651
 20
761.37726455770996
 30
0.0
 11
-2154.5690928987651
 21
796.37726455770985
 31
0.0
  0
LINE
  5
7AEE
  8
1
  6
CONTINUOUS
 10
-2154.5690928987651
 20
796.37726455770985
 30
0.0
 11
-2281.5690928987651
 21
796.37726455770985
 31
0.0
  0
LINE
  5
7AEF
  8
1
  6
CONTINUOUS
 10
-2281.5690928987651
 20
796.37726455770985
 30
0.0
 11
-2281.5690928987651
 21
761.37726455770996
 31
0.0
  0
LINE
  5
7AF0
  8
1
  6
CONTINUOUS
 10
-2281.5690928987651
 20
761.37726455770996
 30
0.0
 11
-2154.5690928987651
 21
761.37726455770996
 31
0.0
  0
LINE
  5
7AF1
  8
1
  6
CONTINUOUS
 10
-2117.0690928987642
 20
856.37726455770985
 30
0.0
 11
-2117.0690928987642
 21
1128.3772645577089
 31
0.0
  0
LINE
  5
7AF2
  8
1
  6
CONTINUOUS
 10
-2308.0690928987651
 20
1128.3772645577089
 30
0.0
 11
-2308.0690928987651
 21
856.37726455770985
 31
0.0
  0
LINE
  5
7AF3
  8
1
  6
CONTINUOUS
 10
-2206.0690928987642
 20
761.37726455770996
 30
0.0
 11
-2230.0690928987651
 21
761.37726455770996
 31
0.0
  0
LINE
  5
7AF4
  8
1
  6
CONTINUOUS
 10
-2117.0690928987642
 20
1128.3772645577089
 30
0.0
 11
-2308.0690928987651
 21
1128.3772645577089
 31
0.0
  0
LINE
  5
7AF5
  8
1
  6
CONTINUOUS
 10
-2117.0690928987642
 20
856.37726455770985
 30
0.0
 11
-2308.0690928987651
 21
856.37726455770985
 31
0.0
  0
LINE
  5
7AF6
  8
1
  6
CONTINUOUS
 10
-2230.0690928987651
 20
796.37726455770985
 30
0.0
 11
-2230.0690928987651
 21
856.37726455770985
 31
0.0
  0
LINE
  5
7AF7
  8
1
  6
CONTINUOUS
 10
-2206.0690928987642
 20
796.37726455770985
 30
0.0
 11
-2206.0690928987642
 21
856.37726455770985
 31
0.0
  0
LINE
  5
7AF8
  8
1
  6
CONTINUOUS
 10
-1952.0690928987649
 20
869.87726455770985
 30
0.0
 11
-1759.0690928987649
 21
869.87726455770985
 31
0.0
  0
LINE
  5
7AF9
  8
1
  6
CONTINUOUS
 10
-1542.0690928987649
 20
869.87726455770985
 30
0.0
 11
-1542.0690928987649
 21
1033.077264557709
 31
0.0
  0
LINE
  5
7AFA
  8
1
  6
CONTINUOUS
 10
-1952.0690928987649
 20
869.87726455770985
 30
0.0
 11
-1952.0690928987649
 21
1033.077264557709
 31
0.0
  0
LINE
  5
7AFB
  8
1
  6
CONTINUOUS
 10
-2035.0690928987649
 20
1154.8772645577089
 30
0.0
 11
-2362.0690928987651
 21
1154.8772645577089
 31
0.0
  0
LINE
  5
7AFC
  8
1
  6
CONTINUOUS
 10
-1810.5690928987649
 20
761.37726455770996
 30
0.0
 11
-1683.5690928987649
 21
761.37726455770996
 31
0.0
  0
LINE
  5
7AFD
  8
1
  6
CONTINUOUS
 10
-1810.5690928987649
 20
796.37726455770985
 30
0.0
 11
-1810.5690928987649
 21
761.37726455770996
 31
0.0
  0
LINE
  5
7AFE
  8
1
  6
CONTINUOUS
 10
-1683.5690928987649
 20
796.37726455770985
 30
0.0
 11
-1810.5690928987649
 21
796.37726455770985
 31
0.0
  0
LINE
  5
7AFF
  8
1
  6
CONTINUOUS
 10
-1683.5690928987649
 20
761.37726455770996
 30
0.0
 11
-1683.5690928987649
 21
796.37726455770985
 31
0.0
  0
ARC
  5
7B00
  8
1
  6
CONTINUOUS
 10
-2015.0690928987649
 20
1062.8772645577101
 30
0.0
 40
20.0
 50
180.0
 51
270.0
  0
ARC
  5
7B01
  8
1
  6
CONTINUOUS
 10
-2015.0690928987649
 20
1246.8772645577089
 30
0.0
 40
20.0
 50
90.0
 51
180.0
  0
LINE
  5
7B02
  8
1
  6
CONTINUOUS
 10
-1564.5690928987649
 20
1275.8772645577089
 30
0.0
 11
-1564.5690928987649
 21
1267.6772645577089
 31
0.0
  0
LINE
  5
7B03
  8
1
  6
CONTINUOUS
 10
-1929.569092898764
 20
1033.077264557709
 30
0.0
 11
-1929.569092898764
 21
1042.8772645577101
 31
0.0
  0
LINE
  5
7B04
  8
1
  6
CONTINUOUS
 10
-2035.0690928987649
 20
1246.8772645577089
 30
0.0
 11
-2035.0690928987649
 21
1062.8772645577101
 31
0.0
  0
LINE
  5
7B05
  8
1
  6
CONTINUOUS
 10
-1497.0690928987649
 20
1042.8772645577101
 30
0.0
 11
-2015.0690928987649
 21
1042.8772645577101
 31
0.0
  0
LINE
  5
7B06
  8
1
  6
CONTINUOUS
 10
-1497.0690928987649
 20
1287.8772645577089
 30
0.0
 11
-1497.0690928987649
 21
1021.87726455771
 31
0.0
  0
LINE
  5
7B07
  8
1
  6
CONTINUOUS
 10
-2015.0690928987649
 20
1266.8772645577089
 30
0.0
 11
-1497.0690928987649
 21
1266.8772645577089
 31
0.0
  0
LINE
  5
7B08
  8
1
  6
CONTINUOUS
 10
-1952.0690928987649
 20
1033.077264557709
 30
0.0
 11
-1542.0690928987649
 21
1033.077264557709
 31
0.0
  0
LINE
  5
7B09
  8
1
  6
CONTINUOUS
 10
-1929.569092898764
 20
1275.8772645577089
 30
0.0
 11
-1929.569092898764
 21
1267.6772645577089
 31
0.0
  0
LINE
  5
7B0A
  8
1
  6
CONTINUOUS
 10
-1929.569092898764
 20
1275.8772645577089
 30
0.0
 11
-1564.5690928987649
 21
1275.8772645577089
 31
0.0
  0
LINE
  5
7B0B
  8
1
  6
CONTINUOUS
 10
-2362.0690928987651
 20
1334.8772645577101
 30
0.0
 11
-2362.0690928987651
 21
734.87726455770985
 31
0.0
  0
LINE
  5
7B0C
  8
1
  6
CONTINUOUS
 10
-1512.0690928987649
 20
734.87726455770985
 30
0.0
 11
-1512.0690928987649
 21
1042.8772645577101
 31
0.0
  0
LINE
  5
7B0D
  8
1
  6
CONTINUOUS
 10
-2362.0690928987651
 20
839.87726455770996
 30
0.0
 11
-2230.0690928987651
 21
839.87726455770996
 31
0.0
  0
CIRCLE
  5
7B0E
  8
1
  6
CONTINUOUS
 10
-1747.0690928987649
 20
-295.04304705663731
 30
0.0
 40
182.5
  0
LINE
  5
7B0F
  8
1
  6
CONTINUOUS
 10
-1517.0690928987649
 20
-303.9430470566374
 30
0.0
 11
-1517.0690928987649
 21
-295.04304705663731
 31
0.0
  0
LINE
  5
7B10
  8
1
  6
CONTINUOUS
 10
-1517.0690928987649
 20
29.95695294336269
 30
0.0
 11
-1721.5690928987649
 21
29.95695294336269
 31
0.0
  0
ARC
  5
7B11
  8
1
  6
CONTINUOUS
 10
-1721.5690928987649
 20
-269.54304705663719
 30
0.0
 40
299.5
 50
90.0
 51
190.59999999999999
  0
ARC
  5
7B12
  8
1
  6
CONTINUOUS
 10
-1768.0690928987649
 20
-274.04304705663719
 30
0.0
 40
253.0
 50
191.59999999999991
 51
261.80000000000001
  0
ARC
  5
7B13
  8
1
  6
CONTINUOUS
 10
-1765.0690928987649
 20
-313.04304705663731
 30
0.0
 40
215.0
 50
259.39999999999992
 51
351.39999999999992
  0
ARC
  5
7B14
  8
1
  6
CONTINUOUS
 10
-1479.0690928987649
 20
-372.04304705663731
 30
0.0
 40
78.0
 50
119.2
 51
161.1999999999999
  0
LINE
  5
7B15
  8
1
  6
CONTINUOUS
 10
-1517.0690928987649
 20
19.95695294336269
 30
0.0
 11
-1517.0690928987649
 21
29.95695294336269
 31
0.0
  0
LINE
  5
7B16
  8
1
  6
CONTINUOUS
 10
-1517.0690928987649
 20
1237.8772645577101
 30
0.0
 11
-1517.0690928987649
 21
1071.8772645577089
 31
0.0
  0
LINE
  5
7B17
  8
1
  6
CONTINUOUS
 10
-1517.0690928987649
 20
-265.04304705663731
 30
0.0
 11
-1517.0690928987649
 21
-10.043047056637301
 31
0.0
  0
LINE
  5
7B18
  8
1
  6
CONTINUOUS
 10
-2241.4690928987652
 20
-467.44304705663711
 30
0.0
 11
-1775.0690928987649
 21
-238.04304705663731
 31
0.0
  0
LINE
  5
7B19
  8
1
  6
CONTINUOUS
 10
-2196.5690928987651
 20
-563.54304705663719
 30
0.0
 11
-1721.3690928987651
 21
-353.14304705663727
 31
0.0
  0
LINE
  5
7B1A
  8
1
  6
CONTINUOUS
 10
-526.1363980000001
 20
19.95695294336268
 30
0.0
 11
-414.1363980000001
 21
19.95695294336268
 31
0.0
  0
LINE
  5
7B1B
  8
1
  6
CONTINUOUS
 10
-638.1363980000001
 20
-295.04304705663731
 30
0.0
 11
-414.1363980000001
 21
-295.04304705663731
 31
0.0
  0
LINE
  5
7B1C
  8
1
  6
CONTINUOUS
 10
-638.1363980000001
 20
19.95695294336268
 30
0.0
 11
-414.1363980000001
 21
-295.04304705663731
 31
0.0
  0
LINE
  5
7B1D
  8
1
  6
CONTINUOUS
 10
-638.1363980000001
 20
-295.04304705663731
 30
0.0
 11
-414.1363980000001
 21
19.95695294336268
 31
0.0
  0
LINE
  5
7B1E
  8
4
  6
CONTINUOUS
 10
-164.5669199999999
 20
-1201.439155
 30
0.0
 11
-164.5669199999999
 21
-1501.439155
 31
0.0
  0
LINE
  5
7B1F
  8
4
  6
CONTINUOUS
 10
-1214.56692
 20
-1201.439155
 30
0.0
 11
-1214.56692
 21
-1501.439155
 31
0.0
  0
LINE
  5
7B20
  8
4
  6
CONTINUOUS
 10
-1964.56692
 20
-1201.439155
 30
0.0
 11
-1964.5669199999991
 21
-1501.439155
 31
0.0
  0
LINE
  5
7B23
  8
4
  6
CONTINUOUS
 10
-1964.56692
 20
-1501.439155
 30
0.0
 11
-164.5669199999999
 21
-1501.439155
 31
0.0
  0
LINE
  5
7B24
  8
4
  6
CONTINUOUS
 10
-1964.56692
 20
-1351.439155
 30
0.0
 11
-164.5669199999999
 21
-1351.439155
 31
0.0
  0
TEXT
  5
7B25
  8
4
  6
CONTINUOUS
 10
-1906.8137989999991
 20
-1304.1246169999999
 30
0.0
 40
75.0
  1
機器名称
  0
TEXT
  5
7B26
  8
4
  6
CONTINUOUS
 10
-1910.1797610000001
 20
-1468.9714199999989
 30
0.0
 40
75.0
  1
機器型番
  0
TEXT
  5
7B27
  8
4
  6
CONTINUOUS
 10
-1173.048802
 20
-1317.581502
 30
0.0
 40
65.0
  1
ミツヤニューマルチファン
  0
TEXT
  5
7B28
  8
4
  6
CONTINUOUS
 10
-1159.5851759999989
 20
-1475.6997789999989
 30
0.0
 40
75.0
  1
NM#2-1
  0
TEXT
  5
7B2A
  8
4
  6
CONTINUOUS
 10
-1726.4538359999999
 20
1623.704107
 30
0.0
 40
81.0
  1
天井吊ベット
  0
TEXT
  5
7B2B
  8
4
  6
CONTINUOUS
 10
-2465.3155299999989
 20
1849.3823090000001
 30
0.0
 40
108.0
  1
ベルト駆動式片吸込片持多翼ファン
  0
LINE
  5
7B2C
  8
4
  6
CONTINUOUS
 10
-2564.5669199999988
 20
1752.673976
 30
0.0
 11
-164.5669199999999
 21
1752.673976
 31
0.0
  0
LINE
  5
7B2D
  8
4
  6
CONTINUOUS
 10
-2564.5669199999988
 20
2052.673976
 30
0.0
 11
-164.5669199999999
 21
2052.673976
 31
0.0
  0
LINE
  5
7B2E
  8
4
  6
CONTINUOUS
 10
-1964.56692
 20
-1201.439155
 30
0.0
 11
-164.5669199999999
 21
-1201.439155
 31
0.0
  0
LINE
  5
7B2F
  8
4
  6
CONTINUOUS
 10
-2564.5669199999988
 20
2052.673976
 30
0.0
 11
-2564.5669199999988
 21
1752.673976
 31
0.0
  0
TEXT
  5
7B30
  8
4
  6
CONTINUOUS
 10
-2380.242084
 20
1622.040060999999
 30
0.0
 40
81.0
  1
右回転右横向
  0
TEXT
  5
7B31
  8
4
  6
CONTINUOUS
 10
-736.11258099999986
 20
2107.6524669999999
 30
0.0
 40
84.0
  1
No.
  0
TEXT
  5
7B32
  8
4
  6
CONTINUOUS
 10
-972.62282600000003
 20
1623.704107
 30
0.0
 40
81.0
  1
縮尺：1/15
  0
LINE
  5
7B33
  8
4
  6
CONTINUOUS
 10
-164.5669199999999
 20
2052.673976
 30
0.0
 11
-164.5669199999999
 21
1752.673976
 31
0.0
  0
LINE
  5
7B35
  8
4
  6
CONTINUOUS
 10
-778.64078600000005
 20
2070.4562189999988
 30
0.0
 11
-778.64078600000005
 21
2228.539237
 31
0.0
  0
LINE
  5
7B36
  8
4
  6
CONTINUOUS
 10
-778.64078600000005
 20
2228.539237
 30
0.0
 11
-164.5669199999999
 21
2228.539237
 31
0.0
  0
LINE
  5
7B37
  8
4
  6
CONTINUOUS
 10
-164.5669199999999
 20
2228.539237
 30
0.0
 11
-164.5669199999999
 21
2070.4562189999988
 31
0.0
  0
LINE
  5
7B38
  8
4
  6
CONTINUOUS
 10
-164.5669199999999
 20
2070.4562189999988
 30
0.0
 11
-778.64078600000005
 21
2070.4562189999988
 31
0.0
  0
DIMENSION
  5
7B50
  8
3
  6
CONTINUOUS
  2
*D1
 10
-1747.0690928987649
 20
-846.76416605663735
 30
0.0
 11
-2038.5843718987639
 21
-846.76416605663735
 31
0.0
 70
   128
 13
-2362.0690928987651
 23
-725.04304705663731
 33
0.0
 14
-1747.0690928987649
 24
-754.97634505663723
 34
0.0
1001
ACAD
1000
DSTYLE
1002
{
1070
   287
1070
     3
1070
   287
1070
     3
1070
    40
1040
15.0
1070
   143
1040
0.039
1070
   172
1070
     1
1070
   271
1070
     0
1070
   279
1070
     0
1070
   288
1070
     1
1002
}
  0
DIMENSION
  5
7B5C
  8
3
  6
CONTINUOUS
  2
*D2
 10
-1512.0690928987649
 20
-846.76416605663735
 30
0.0
 11
-1629.5690928987649
 21
-809.26416605663735
 31
0.0
 70
     0
 13
-1747.0690928987649
 23
-754.97634505663723
 33
0.0
 14
-1512.0690928987649
 24
-725.04304705663731
 34
0.0
1001
ACAD
1000
DSTYLE
1002
{
1070
   287
1070
     4
1070
   287
1070
     4
1070
    40
1040
15.0
1070
    75
1070
     1
1070
   143
1040
0.039
1070
   172
1070
     1
1070
   271
1070
     0
1070
   279
1070
     1
1070
   288
1070
     1
1002
}
  0
DIMENSION
  5
7B69
  8
3
  6
CONTINUOUS
  2
*D3
 10
-1377.3285708987651
 20
-295.04304705663731
 30
0.0
 11
-1377.3285708987651
 21
-126.8910510566372
 31
0.0
 70
   128
 13
-1497.0690928987649
 23
19.95695294336269
 33
0.0
 14
-1497.0690928987649
 24
-295.04304705663731
 34
0.0
 50
90.0
1001
ACAD
1000
DSTYLE
1002
{
1070
   287
1070
     3
1070
   287
1070
     3
1070
    40
1040
15.0
1070
   143
1040
0.039
1070
   172
1070
     1
1070
   271
1070
     0
1070
   279
1070
     0
1070
   288
1070
     1
1002
}
  0
DIMENSION
  5
7B76
  8
3
  6
CONTINUOUS
  2
*D4
 10
-1279.880299898764
 20
-295.04304705663731
 30
0.0
 11
-1279.880299898764
 21
-130.92600105663729
 31
0.0
 70
   128
 13
-1517.0690928987649
 23
29.95695294336269
 33
0.0
 14
-1497.0690928987649
 24
-295.04304705663731
 34
0.0
 50
90.0
1001
ACAD
1000
DSTYLE
1002
{
1070
   287
1070
     3
1070
   287
1070
     3
1070
    40
1040
15.0
1070
   143
1040
0.039
1070
   172
1070
     1
1070
   271
1070
     0
1070
   279
1070
     0
1070
   288
1070
     1
1002
}
  0
DIMENSION
  5
7B82
  8
3
  6
CONTINUOUS
  2
*D5
 10
-1279.880299898764
 20
-695.04304705663742
 30
0.0
 11
-1317.380299898764
 21
-495.04304705663748
 31
0.0
 70
     0
 13
-1497.0690928987649
 23
-295.04304705663731
 33
0.0
 14
-1512.0690928987649
 24
-695.04304705663731
 34
0.0
 50
90.0
1001
ACAD
1000
DSTYLE
1002
{
1070
   287
1070
     4
1070
   287
1070
     4
1070
    40
1040
15.0
1070
    75
1070
     1
1070
   143
1040
0.039
1070
   172
1070
     1
1070
   271
1070
     0
1070
   279
1070
     1
1070
   288
1070
     1
1002
}
  0
DIMENSION
  5
7B92
  8
3
  6
CONTINUOUS
  2
*D6
 10
-1279.8802998987651
 20
-725.04304705663742
 30
0.0
 11
-1279.880299898764
 21
-836.47161848520898
 31
0.0
 70
   128
 13
-1512.0690928987649
 23
-695.04304705663731
 33
0.0
 14
-1512.0690928987649
 24
-725.04304705663731
 34
0.0
 50
90.0
1001
ACAD
1000
DSTYLE
1002
{
1070
   287
1070
     3
1070
   287
1070
     3
1070
    40
1040
15.0
1070
   143
1040
0.039
1070
   172
1070
     1
1070
   271
1070
     0
1070
   279
1070
     0
1070
   288
1070
     1
1002
}
  0
DIMENSION
  5
7BB9
  8
3
  6
CONTINUOUS
  2
*D7
 10
-1174.5576958987649
 20
-725.04304705663742
 30
0.0
 11
-1174.5576958987649
 21
-333.49148505663732
 31
0.0
 70
   128
 13
-1497.0690928987649
 23
41.456952943362687
 33
0.0
 14
-1512.0690928987649
 24
-725.04304705663731
 34
0.0
 50
90.0
1001
ACAD
1000
DSTYLE
1002
{
1070
   287
1070
     3
1070
   287
1070
     3
1070
    40
1040
15.0
1070
   143
1040
0.039
1070
   172
1070
     1
1070
   271
1070
     0
1070
   279
1070
     0
1070
   288
1070
     1
1002
}
  0
DIMENSION
  5
7BC7
  8
3
  6
CONTINUOUS
  2
*D8
 10
-1747.0690928987649
 20
96.423962122443299
 30
0.0
 11
-1884.242227898764
 21
96.423962122443299
 31
0.0
 70
   128
 13
-2021.0690928987649
 23
-269.54304705663719
 33
0.0
 14
-1747.0690928987649
 24
28.869418943362689
 34
0.0
1001
ACAD
1000
DSTYLE
1002
{
1070
   287
1070
     3
1070
   287
1070
     3
1070
    40
1040
15.0
1070
   143
1040
0.039
1070
   172
1070
     1
1070
   271
1070
     0
1070
   279
1070
     0
1070
   288
1070
     1
1002
}
  0
DIMENSION
  5
7BD3
  8
3
  6
CONTINUOUS
  2
*D9
 10
-1497.0690928987649
 20
96.423962122443299
 30
0.0
 11
-1622.0690928987649
 21
133.9239621224433
 31
0.0
 70
     0
 13
-1747.0690928987649
 23
28.869418943362689
 33
0.0
 14
-1497.0690928987649
 24
41.456952943362687
 34
0.0
1001
ACAD
1000
DSTYLE
1002
{
1070
   287
1070
     4
1070
   287
1070
     4
1070
    40
1040
15.0
1070
    75
1070
     1
1070
   143
1040
0.039
1070
   172
1070
     1
1070
   271
1070
     0
1070
   279
1070
     1
1070
   288
1070
     1
1002
}
  0
DIMENSION
  5
7BE0
  8
3
  6
CONTINUOUS
  2
*D10
 10
-1512.0690928987649
 20
599.37705755771003
 30
0.0
 11
-1946.4043908987651
 21
599.37705755771003
 31
0.0
 70
   128
 13
-2362.0690928987651
 23
734.87726455770985
 33
0.0
 14
-1512.0690928987649
 24
734.87726455770985
 34
0.0
1001
ACAD
1000
DSTYLE
1002
{
1070
   287
1070
     3
1070
   287
1070
     3
1070
    40
1040
15.0
1070
   143
1040
0.039
1070
   172
1070
     1
1070
   271
1070
     0
1070
   279
1070
     0
1070
   288
1070
     1
1002
}
  0
DIMENSION
  5
7BED
  8
3
  6
CONTINUOUS
  2
*D11
 10
-1329.963076898764
 20
734.87726455770985
 30
0.0
 11
-1329.963076898764
 21
1039.73163355771
 31
0.0
 70
   128
 13
-1512.0690928987649
 23
1334.8772645577101
 33
0.0
 14
-1512.0690928987649
 24
734.87726455770985
 34
0.0
 50
90.0
1001
ACAD
1000
DSTYLE
1002
{
1070
   287
1070
     3
1070
   287
1070
     3
1070
    40
1040
15.0
1070
   143
1040
0.039
1070
   172
1070
     1
1070
   271
1070
     0
1070
   279
1070
     0
1070
   288
1070
     1
1002
}
  0
LINE
  5
7BEE
  8
2
  6
CENTER
 10
-2081.6907108987648
 20
1154.8772645577089
 30
0.0
 11
-1441.336919898765
 21
1154.8772645577089
 31
0.0
  0
LINE
  5
7BEF
  8
2
  6
CENTER
 10
-1747.0690928987649
 20
699.76670055771001
 30
0.0
 11
-1747.0690928987649
 21
1322.0507915577091
 31
0.0
  0
LINE
  5
7BF0
  8
2
  6
CENTER
 10
-526.1363980000001
 20
99.679918943362694
 30
0.0
 11
-526.1363980000001
 21
-765.30528205663734
 31
0.0
  0
DIMENSION
  5
7BFD
  8
3
  6
CONTINUOUS
  2
*D12
 10
-414.1363980000001
 20
93.675902943362686
 30
0.0
 11
-534.20782699999995
 21
93.675902943362686
 31
0.0
 70
   128
 13
-638.1363980000001
 23
19.95695294336268
 33
0.0
 14
-414.1363980000001
 24
19.95695294336268
 34
0.0
1001
ACAD
1000
DSTYLE
1002
{
1070
   287
1070
     3
1070
   287
1070
     3
1070
    40
1040
15.0
1070
   143
1040
0.039
1070
   172
1070
     1
1070
   271
1070
     0
1070
   279
1070
     0
1070
   288
1070
     1
1002
}
  0
DIMENSION
  5
7C0A
  8
3
  6
CONTINUOUS
  2
*D13
 10
-526.1363980000001
 20
-842.92405105663727
 30
0.0
 11
-726.58223399999986
 21
-842.92405105663727
 31
0.0
 70
   128
 13
-946.1363980000001
 23
-725.04304705663731
 33
0.0
 14
-526.1363980000001
 24
-765.30528205663734
 34
0.0
1001
ACAD
1000
DSTYLE
1002
{
1070
   287
1070
     3
1070
   287
1070
     3
1070
    40
1040
15.0
1070
   143
1040
0.039
1070
   172
1070
     1
1070
   271
1070
     0
1070
   279
1070
     0
1070
   288
1070
     1
1002
}
  0
DIMENSION
  5
7C18
  8
3
  6
CONTINUOUS
  2
*D14
 10
-346.1363980000001
 20
-842.92405105663727
 30
0.0
 11
-433.90211299999999
 21
-843.4388590566374
 31
0.0
 70
   128
 13
-526.1363980000001
 23
-765.30528205663734
 33
0.0
 14
-346.1363980000001
 24
-725.04304705663731
 34
0.0
1001
ACAD
1000
DSTYLE
1002
{
1070
   287
1070
     4
1070
   287
1070
     4
1070
    40
1040
15.0
1070
    75
1070
     1
1070
   143
1040
0.039
1070
   172
1070
     1
1070
   271
1070
     0
1070
   279
1070
     1
1070
   288
1070
     1
1002
}
  0
DIMENSION
  5
7C3B
  8
3
  6
CONTINUOUS
  2
*D15
 10
-526.1363980000001
 20
197.0690796912267
 30
0.0
 11
-755.07321000000002
 21
197.0690796912267
 31
0.0
 70
   128
  1
MAX\P420
 13
-946.1363980000001
 23
-65.043047056637306
 33
0.0
 14
-526.1363980000001
 24
162.67514694336259
 34
0.0
1001
ACAD
1000
DSTYLE
1002
{
1070
   287
1070
     3
1070
   287
1070
     3
1070
    40
1040
15.0
1070
   143
1040
0.039
1070
   172
1070
     1
1070
   271
1070
     0
1070
   279
1070
     0
1070
   288
1070
     1
1002
}
  0
DIMENSION
  5
7C49
  8
3
  6
CONTINUOUS
  2
*D16
 10
-405.1363980000001
 20
197.0690796912267
 30
0.0
 11
-470.16336199999989
 21
197.0690796912267
 31
0.0
 70
   128
 13
-526.1363980000001
 23
162.67514694336259
 33
0.0
 14
-405.1363980000001
 24
-112.54304705663731
 34
0.0
1001
ACAD
1000
DSTYLE
1002
{
1070
   287
1070
     4
1070
   287
1070
     4
1070
    40
1040
15.0
1070
    75
1070
     1
1070
   143
1040
0.039
1070
   172
1070
     1
1070
   271
1070
     0
1070
   279
1070
     1
1070
   288
1070
     1
1002
}
  0
LINE
  5
7C61
  8
3
  6
CONTINUOUS
 10
-405.1363980000001
 20
-140.1303370566373
 30
0.0
 11
-384.65086100000002
 21
-140.1303370566373
 31
0.0
  0
LINE
  5
7C63
  8
3
  6
CONTINUOUS
 10
-405.1363980000001
 20
-455.13033705663719
 30
0.0
 11
-391.53140400000001
 21
-455.13033705663719
 31
0.0
  0
DIMENSION
  5
7C70
  8
3
  6
CONTINUOUS
  2
*D17
 10
-271.12190700000002
 20
-455.1303370566373
 30
0.0
 11
-271.12190699999991
 21
-311.55997705663719
 31
0.0
 70
   128
 13
-405.1363980000001
 23
-140.1303370566373
 33
0.0
 14
-405.1363980000001
 24
-455.13033705663719
 34
0.0
 50
90.0
1001
ACAD
1000
DSTYLE
1002
{
1070
   287
1070
     3
1070
   287
1070
     3
1070
     3
1000
φ<>
1070
    40
1040
15.0
1070
   143
1040
0.039
1070
   172
1070
     1
1070
   271
1070
     0
1070
   279
1070
     0
1070
   288
1070
     1
1002
}
  0
LINE
  5
7C72
  8
2
  6
CENTER
 10
-1006.468034
 20
-297.6303370566373
 30
0.0
 11
-375.26701799999989
 21
-297.6303370566373
 31
0.0
  0
DIMENSION
  5
7CC6
  8
3
  2
*D18
 10
-2362.0690928987651
 20
193.57988163289511
 30
0.0
 11
-1936.019102010559
 21
193.57988163289511
 31
0.0
 70
   128
 13
-1497.0690928987649
 23
41.456952943362687
 33
0.0
 14
-2362.0690928987651
 24
-625.04304705663731
 34
0.0
1001
ACAD
1000
DSTYLE
1002
{
1070
   287
1070
     3
1070
   287
1070
     3
1070
    40
1040
15.0
1070
   143
1040
0.039
1070
   172
1070
     1
1070
   271
1070
     0
1070
   279
1070
     0
1070
   288
1070
     1
1002
}
  0
ENDSEC
  0
EOF
