  0
SECTION
  2
HEADER
  9
$ACADVER
  1
AC1009
  9
$INSBASE
 10
0.0
 20
0.0
 30
0.0
  9
$EXTMIN
 10
375.0
 20
450.0
 30
0.0
  9
$EXTMAX
 10
2775.0
 20
4179.978392
 30
0.0
  9
$LIMMIN
 10
0.0
 20
0.0
  9
$LIMMAX
 10
297.0
 20
210.0
  9
$ORTHOMODE
 70
     0
  9
$REGENMODE
 70
     1
  9
$FILLMODE
 70
     0
  9
$QTEXTMODE
 70
     0
  9
$MIRRTEXT
 70
     1
  9
$DRAGMODE
 70
     2
  9
$LTSCALE
 40
100.0
  9
$OSMODE
 70
    37
  9
$ATTMODE
 70
     1
  9
$TEXTSIZE
 40
180.0
  9
$TRACEWID
 40
0.05
  9
$TEXTSTYLE
  7
STANDARD
  9
$CLAYER
  8
3
  9
$CELTYPE
  6
BYLAYER
  9
$CECOLOR
 62
   256
  9
$DIMSCALE
 40
15.0
  9
$DIMASZ
 40
2.0
  9
$DIMEXO
 40
0.5
  9
$DIMDLI
 40
10.0
  9
$DIMRND
 40
0.0
  9
$DIMDLE
 40
0.0
  9
$DIMEXE
 40
1.0
  9
$DIMTP
 40
1.0
  9
$DIMTM
 40
1.0
  9
$DIMTXT
 40
3.0
  9
$DIMCEN
 40
0.0
  9
$DIMTSZ
 40
0.0
  9
$DIMTOL
 70
     0
  9
$DIMLIM
 70
     0
  9
$DIMTIH
 70
     0
  9
$DIMTOH
 70
     0
  9
$DIMSE1
 70
     0
  9
$DIMSE2
 70
     0
  9
$DIMTAD
 70
     1
  9
$DIMZIN
 70
     8
  9
$DIMBLK
  1

  9
$DIMASO
 70
     1
  9
$DIMSHO
 70
     1
  9
$DIMPOST
  1

  9
$DIMAPOST
  1

  9
$DIMALT
 70
     0
  9
$DIMALTD
 70
     2
  9
$DIMALTF
 40
0.039
  9
$DIMLFAC
 40
1.0
  9
$DIMTOFL
 70
     1
  9
$DIMTVP
 40
0.0
  9
$DIMTIX
 70
     0
  9
$DIMSOXD
 70
     0
  9
$DIMSAH
 70
     1
  9
$DIMBLK1
  1
OPEN
  9
$DIMBLK2
  1
OPEN
  9
$DIMSTYLE
  2
IGA
  9
$DIMCLRD
 70
     0
  9
$DIMCLRE
 70
     0
  9
$DIMCLRT
 70
     0
  9
$DIMTFAC
 40
10.0
  9
$DIMGAP
 40
1.0
  9
$LUNITS
 70
     2
  9
$LUPREC
 70
     3
  9
$SKETCHINC
 40
0.1
  9
$FILLETRAD
 40
50.0
  9
$AUNITS
 70
     0
  9
$AUPREC
 70
     0
  9
$MENU
  1
acad
  9
$ELEVATION
 40
0.0
  9
$PELEVATION
 40
0.0
  9
$THICKNESS
 40
0.0
  9
$LIMCHECK
 70
     0
  9
$BLIPMODE
 70
     0
  9
$CHAMFERA
 40
0.5
  9
$CHAMFERB
 40
0.5
  9
$SKPOLY
 70
     0
  9
$TDCREATE
 40
2450746.4109004629
  9
$TDUPDATE
 40
2454953.8647834719
  9
$TDINDWG
 40
0.0038139005
  9
$TDUSRTIMER
 40
0.0038139005
  9
$USRTIMER
 70
     1
  9
$ANGBASE
 50
0.0
  9
$ANGDIR
 70
     0
  9
$PDMODE
 70
     0
  9
$PDSIZE
 40
0.0
  9
$PLINEWID
 40
0.0
  9
$COORDS
 70
     1
  9
$SPLFRAME
 70
     0
  9
$SPLINETYPE
 70
     6
  9
$SPLINESEGS
 70
     8
  9
$ATTDIA
 70
     0
  9
$ATTREQ
 70
     1
  9
$HANDLING
 70
 10241
  9
$HANDSEED
  5
7EA6
  9
$SURFTAB1
 70
     6
  9
$SURFTAB2
 70
     6
  9
$SURFTYPE
 70
     6
  9
$SURFU
 70
     6
  9
$SURFV
 70
     6
  9
$UCSNAME
  2

  9
$UCSORG
 10
0.0
 20
0.0
 30
0.0
  9
$UCSXDIR
 10
1.0
 20
0.0
 30
0.0
  9
$UCSYDIR
 10
0.0
 20
1.0
 30
0.0
  9
$PUCSNAME
  2

  9
$PUCSORG
 10
0.0
 20
0.0
 30
0.0
  9
$PUCSXDIR
 10
1.0
 20
0.0
 30
0.0
  9
$PUCSYDIR
 10
0.0
 20
1.0
 30
0.0
  9
$USERI1
 70
     0
  9
$USERI2
 70
     0
  9
$USERI3
 70
     0
  9
$USERI4
 70
     0
  9
$USERI5
 70
     0
  9
$USERR1
 40
0.0
  9
$USERR2
 40
0.0
  9
$USERR3
 40
0.0
  9
$USERR4
 40
0.0
  9
$USERR5
 40
0.0
  9
$WORLDVIEW
 70
     1
  9
$SHADEDGE
 70
     3
  9
$SHADEDIF
 70
    70
  9
$TILEMODE
 70
     1
  9
$MAXACTVP
 70
    16
  9
$PLIMCHECK
 70
     0
  9
$PEXTMIN
 10
1.0000000000000000E+020
 20
1.0000000000000000E+020
 30
1.0000000000000000E+020
  9
$PEXTMAX
 10
-1.0000000000000000E+020
 20
-1.0000000000000000E+020
 30
-1.0000000000000000E+020
  9
$PLIMMIN
 10
0.0
 20
0.0
  9
$PLIMMAX
 10
12.0
 20
9.0
  9
$UNITMODE
 70
     0
  9
$VISRETAIN
 70
     0
  9
$PLINEGEN
 70
     0
  9
$PSLTSCALE
 70
     1
  0
ENDSEC
  0
SECTION
  2
TABLES
  0
TABLE
  2
VPORT
 70
     2
  0
VPORT
  2
*ACTIVE
 70
     0
 10
0.0
 20
0.0
 11
1.0
 21
1.0
 12
4373.6736454562251
 22
3029.575039389877
 13
0.0
 23
0.0
 14
10.0
 24
10.0
 15
10.0
 25
10.0
 16
0.0
 26
0.0
 36
1.0
 17
0.0
 27
0.0
 37
0.0
 40
5790.6463238214319
 41
1.5051150895140659
 42
50.0
 43
0.0
 44
0.0
 50
0.0
 51
0.0
 71
     0
 72
   100
 73
     1
 74
     0
 75
     0
 76
     0
 77
     0
 78
     0
  0
ENDTAB
  0
TABLE
  2
LTYPE
 70
     2
  0
LTYPE
  2
CONTINUOUS
 70
     0
  3
Solid line
 72
    65
 73
     0
 40
0.0
  0
LTYPE
  2
CENTER
 70
     0
  3
____ _ ____ _ ____ _ ____ _ ____ _ ____ _ ____ 
 72
    65
 73
     4
 40
2.0
 49
1.25
 49
-0.25
 49
0.25
 49
-0.25
  0
ENDTAB
  0
TABLE
  2
LAYER
 70
     6
  0
LAYER
  2
0
 70
     0
 62
     7
  6
CONTINUOUS
  0
LAYER
  2
3
 70
     0
 62
     2
  6
CONTINUOUS
  0
LAYER
  2
2
 70
     0
 62
     3
  6
CENTER
  0
LAYER
  2
1
 70
     0
 62
     4
  6
CONTINUOUS
  0
LAYER
  2
4
 70
     0
 62
     7
  6
CONTINUOUS
  0
LAYER
  2
DEFPOINTS
 70
     0
 62
     7
  6
CONTINUOUS
  0
ENDTAB
  0
TABLE
  2
STYLE
 70
     1
  0
STYLE
  2
STANDARD
 70
     0
 40
0.0
 41
1.0
 50
0.0
 71
     0
 42
180.0
  3
simplex.shx
  4
extfont.shx
  0
ENDTAB
  0
TABLE
  2
VIEW
 70
     0
  0
ENDTAB
  0
TABLE
  2
UCS
 70
     0
  0
ENDTAB
  0
TABLE
  2
APPID
 70
     1
  0
APPID
  2
ACAD
 70
     0
  0
ENDTAB
  0
TABLE
  2
DIMSTYLE
 70
     1
  0
DIMSTYLE
  2
IGA
 70
     0
  3

  4

  5

  6
OPEN
  7
OPEN
 40
2.0
 41
2.0
 42
0.5
 43
10.0
 44
1.0
 45
0.0
 46
0.0
 47
1.0
 48
1.0
140
3.0
141
0.0
142
0.0
143
0.03937
144
1.0
145
0.0
146
10.0
147
1.0
 71
     0
 72
     0
 73
     0
 74
     0
 75
     0
 76
     0
 77
     1
 78
     8
170
     0
171
     2
172
     0
173
     1
174
     0
175
     0
176
     0
177
     0
178
     0
  0
ENDTAB
  0
ENDSEC
  0
SECTION
  2
BLOCKS
  0
BLOCK
  8
0
  2
$MODEL_SPACE
 70
     0
 10
0.0
 20
0.0
 30
0.0
  3
$MODEL_SPACE
  1

  0
ENDBLK
  5
1B
  8
0
  0
BLOCK
 67
     1
  8
0
  2
$PAPER_SPACE
 70
     0
 10
0.0
 20
0.0
 30
0.0
  3
$PAPER_SPACE
  1

  0
ENDBLK
  5
18
 67
     1
  8
0
  0
BLOCK
  8
0
  2
_OPEN
 70
     0
 10
0.0
 20
0.0
 30
0.0
  3
_OPEN
  1

  0
LINE
  5
7B44
  8
0
  6
BYBLOCK
 62
     0
 10
-1.0
 20
0.166667
 30
0.0
 11
0.0
 21
0.0
 31
0.0
  0
LINE
  5
7B45
  8
0
  6
BYBLOCK
 62
     0
 10
0.0
 20
0.0
 30
0.0
 11
-1.0
 21
-0.166667
 31
0.0
  0
LINE
  5
7B46
  8
0
  6
BYBLOCK
 62
     0
 10
0.0
 20
0.0
 30
0.0
 11
-1.0
 21
0.0
 31
0.0
  0
ENDBLK
  5
7B47
  8
0
  0
BLOCK
  8
0
  2
*D1
 70
     1
 10
0.0
 20
0.0
 30
0.0
  3
*D1
  1

  0
LINE
  5
7DF2
  8
3
  6
CONTINUOUS
 62
     0
 10
651.31218755483064
 20
1144.2958410000001
 30
0.0
 11
651.31218755483064
 21
1051.376487
 31
0.0
  0
LINE
  5
7DF3
  8
3
  6
CONTINUOUS
 62
     0
 10
886.31218755483064
 20
1129.9419580000001
 30
0.0
 11
886.31218755483064
 21
1051.376487
 31
0.0
  0
LINE
  5
7DF4
  8
3
  6
CONTINUOUS
 62
     0
 10
681.31218755483064
 20
1066.376487
 30
0.0
 11
856.31218755483064
 21
1066.376487
 31
0.0
  0
INSERT
  5
7DF5
  8
3
  6
CONTINUOUS
 62
     0
  2
_OPEN
 10
651.31218755483064
 20
1066.376487
 30
0.0
 41
30.0
 42
30.0
 43
30.0
 50
180.0
  0
INSERT
  5
7DF6
  8
3
  6
CONTINUOUS
 62
     0
  2
_OPEN
 10
886.31218755483064
 20
1066.376487
 30
0.0
 41
30.0
 42
30.0
 43
30.0
  0
TEXT
  8
3
  40
45
  5
7E93
  62
0
  72
0
  71
0
 10
664.169
 20
1024.23
 30
0.000000
  1
235
  0
POINT
  5
7DF8
  8
DEFPOINTS
  6
CONTINUOUS
 62
     0
 10
651.31218755483064
 20
1151.7958410000001
 30
0.0
  0
POINT
  5
7DF9
  8
DEFPOINTS
  6
CONTINUOUS
 62
     0
 10
886.31218755483064
 20
1137.4419580000001
 30
0.0
  0
POINT
  5
7DFA
  8
DEFPOINTS
  6
CONTINUOUS
 62
     0
 10
886.31218755483064
 20
1066.376487
 30
0.0
  0
ENDBLK
  5
7B54
  8
0
  0
BLOCK
  8
0
  2
*D2
 70
     1
 10
0.0
 20
0.0
 30
0.0
  3
*D2
  1

  0
LINE
  5
7DFB
  8
3
  6
CONTINUOUS
 62
     0
 10
1501.31218755483
 20
1144.2958410000001
 30
0.0
 11
1501.31218755483
 21
1051.376487
 31
0.0
  0
LINE
  5
7DFC
  8
3
  6
CONTINUOUS
 62
     0
 10
916.31218755483064
 20
1066.376487
 30
0.0
 11
1471.31218755483
 21
1066.376487
 31
0.0
  0
INSERT
  5
7DFD
  8
3
  6
CONTINUOUS
 62
     0
  2
_OPEN
 10
886.31218755483064
 20
1066.376487
 30
0.0
 41
30.0
 42
30.0
 43
30.0
 50
180.0
  0
INSERT
  5
7DFE
  8
3
  6
CONTINUOUS
 62
     0
  2
_OPEN
 10
1501.31218755483
 20
1066.376487
 30
0.0
 41
30.0
 42
30.0
 43
30.0
  0
TEXT
  8
3
  40
45
  5
7E94
  62
0
  72
0
  71
0
 10
1103.81
 20
1024.23
 30
0.000000
  1
615
  0
POINT
  5
7E00
  8
DEFPOINTS
  6
CONTINUOUS
 62
     0
 10
886.31218755483064
 20
1137.4419580000001
 30
0.0
  0
POINT
  5
7E01
  8
DEFPOINTS
  6
CONTINUOUS
 62
     0
 10
1501.31218755483
 20
1151.7958410000001
 30
0.0
  0
POINT
  5
7E02
  8
DEFPOINTS
  6
CONTINUOUS
 62
     0
 10
1501.31218755483
 20
1066.376487
 30
0.0
  0
ENDBLK
  5
7B60
  8
0
  0
BLOCK
  8
0
  2
*D3
 70
     1
 10
0.0
 20
0.0
 30
0.0
  3
*D3
  1

  0
LINE
  5
7E03
  8
3
  6
CONTINUOUS
 62
     0
 10
1230.31218755483
 20
1831.7958410000001
 30
0.0
 11
1668.0156517859471
 21
1831.795840999999
 31
0.0
  0
LINE
  5
7E04
  8
3
  6
CONTINUOUS
 62
     0
 10
1217.7246545548301
 20
1581.7958410000001
 30
0.0
 11
1668.0156517859471
 21
1581.795840999999
 31
0.0
  0
LINE
  5
7E05
  8
3
  6
CONTINUOUS
 62
     0
 10
1653.0156517859471
 20
1801.795840999999
 30
0.0
 11
1653.0156517859471
 21
1611.7958410000001
 31
0.0
  0
INSERT
  5
7E06
  8
3
  6
CONTINUOUS
 62
     0
  2
_OPEN
 10
1653.0156517859471
 20
1831.795840999999
 30
0.0
 41
30.0
 42
30.0
 43
30.0
 50
90.0
  0
INSERT
  5
7E07
  8
3
  6
CONTINUOUS
 62
     0
  2
_OPEN
 10
1653.0156517859471
 20
1581.795840999999
 30
0.0
 41
30.0
 42
30.0
 43
30.0
 50
270.0
  0
TEXT
  8
3
  40
45
  5
7E95
  62
0
  72
0
  71
0
 10
1525.52
 20
1631.23
 30
0.000000
  1
250
  0
POINT
  5
7E09
  8
DEFPOINTS
  6
CONTINUOUS
 62
     0
 10
1222.81218755483
 20
1831.7958410000001
 30
0.0
  0
POINT
  5
7E0A
  8
DEFPOINTS
  6
CONTINUOUS
 62
     0
 10
1210.2246545548301
 20
1581.7958410000001
 30
0.0
  0
POINT
  5
7E0B
  8
DEFPOINTS
  6
CONTINUOUS
 62
     0
 10
1653.0156517859471
 20
1581.795840999999
 30
0.0
  0
ENDBLK
  5
7CEB
  8
0
  0
BLOCK
  8
0
  2
*D4
 70
     1
 10
0.0
 20
0.0
 30
0.0
  3
*D4
  1

  0
LINE
  5
7E0C
  8
3
  6
CONTINUOUS
 62
     0
 10
1508.81218755483
 20
1181.7958410000001
 30
0.0
 11
1668.0156517859471
 21
1181.7958410000001
 31
0.0
  0
LINE
  5
7E0D
  8
3
  6
CONTINUOUS
 62
     0
 10
1653.0156517859471
 20
1551.795840999999
 30
0.0
 11
1653.0156517859471
 21
1211.7958410000001
 31
0.0
  0
INSERT
  5
7E0E
  8
3
  6
CONTINUOUS
 62
     0
  2
_OPEN
 10
1653.0156517859471
 20
1581.795840999999
 30
0.0
 41
30.0
 42
30.0
 43
30.0
 50
90.0
  0
INSERT
  5
7E0F
  8
3
  6
CONTINUOUS
 62
     0
  2
_OPEN
 10
1653.0156517859471
 20
1181.7958410000001
 30
0.0
 41
30.0
 42
30.0
 43
30.0
 50
270.0
  0
TEXT
  8
3
  40
45
  5
7E96
  62
0
  72
0
  71
0
 10
1525.52
 20
1302.15
 30
0.000000
  1
400
  0
POINT
  5
7E11
  8
DEFPOINTS
  6
CONTINUOUS
 62
     0
 10
1210.2246545548301
 20
1581.7958410000001
 30
0.0
  0
POINT
  5
7E12
  8
DEFPOINTS
  6
CONTINUOUS
 62
     0
 10
1501.31218755483
 20
1181.7958410000001
 30
0.0
  0
POINT
  5
7E13
  8
DEFPOINTS
  6
CONTINUOUS
 62
     0
 10
1653.0156517859471
 20
1181.7958410000001
 30
0.0
  0
ENDBLK
  5
7CE0
  8
0
  0
BLOCK
  8
0
  2
*D5
 70
     1
 10
0.0
 20
0.0
 30
0.0
  3
*D5
  1

  0
LINE
  5
7E14
  8
3
  6
CONTINUOUS
 62
     0
 10
1508.81218755483
 20
1181.7958410000001
 30
0.0
 11
1668.2612547859469
 21
1181.7958410000001
 31
0.0
  0
LINE
  5
7E15
  8
3
  6
CONTINUOUS
 62
     0
 10
1508.81218755483
 20
1151.7958410000001
 30
0.0
 11
1668.2612547859469
 21
1151.795840999999
 31
0.0
  0
LINE
  5
7E16
  8
3
  6
CONTINUOUS
 62
     0
 10
1653.2612547859469
 20
1211.7958410000001
 30
0.0
 11
1653.2612547859469
 21
1241.7958410000001
 31
0.0
  0
LINE
  5
7E17
  8
3
  6
CONTINUOUS
 62
     0
 10
1653.2612547859469
 20
1121.795840999999
 30
0.0
 11
1653.2612547859469
 21
988.93869814285699
 31
0.0
  0
LINE
  5
7E18
  8
3
  6
CONTINUOUS
 62
     0
 10
1653.2612547859469
 20
1181.7958410000001
 30
0.0
 11
1653.2612547859469
 21
1151.795840999999
 31
0.0
  0
INSERT
  5
7E19
  8
3
  6
CONTINUOUS
 62
     0
  2
_OPEN
 10
1653.2612547859469
 20
1181.7958410000001
 30
0.0
 41
30.0
 42
30.0
 43
30.0
 50
270.0
  0
INSERT
  5
7E1A
  8
3
  6
CONTINUOUS
 62
     0
  2
_OPEN
 10
1653.2612547859469
 20
1151.795840999999
 30
0.0
 41
30.0
 42
30.0
 43
30.0
 50
90.0
  0
TEXT
  8
3
  40
45
  5
7E97
  62
0
  72
0
  71
0
 10
1525.76
 20
960.717
 30
0.000000
  1
30
  0
POINT
  5
7E1C
  8
DEFPOINTS
  6
CONTINUOUS
 62
     0
 10
1501.31218755483
 20
1181.7958410000001
 30
0.0
  0
POINT
  5
7E1D
  8
DEFPOINTS
  6
CONTINUOUS
 62
     0
 10
1501.31218755483
 20
1151.7958410000001
 30
0.0
  0
POINT
  5
7E1E
  8
DEFPOINTS
  6
CONTINUOUS
 62
     0
 10
1653.2612547859469
 20
1151.795840999999
 30
0.0
  0
ENDBLK
  5
7CF8
  8
0
  0
BLOCK
  8
0
  2
*D6
 70
     1
 10
0.0
 20
0.0
 30
0.0
  3
*D6
  1

  0
LINE
  5
7E1F
  8
3
  6
CONTINUOUS
 62
     0
 10
1230.31218755483
 20
1831.7958410000001
 30
0.0
 11
1770.4869160872181
 21
1831.795840999999
 31
0.0
  0
LINE
  5
7E20
  8
3
  6
CONTINUOUS
 62
     0
 10
1508.81218755483
 20
1151.7958410000001
 30
0.0
 11
1770.486916087217
 21
1151.795840999999
 31
0.0
  0
LINE
  5
7E21
  8
3
  6
CONTINUOUS
 62
     0
 10
1755.4869160872181
 20
1801.795840999999
 30
0.0
 11
1755.486916087217
 21
1181.7958410000001
 31
0.0
  0
INSERT
  5
7E22
  8
3
  6
CONTINUOUS
 62
     0
  2
_OPEN
 10
1755.4869160872181
 20
1831.795840999999
 30
0.0
 41
30.0
 42
30.0
 43
30.0
 50
90.0
  0
INSERT
  5
7E23
  8
3
  6
CONTINUOUS
 62
     0
  2
_OPEN
 10
1755.486916087217
 20
1151.795840999999
 30
0.0
 41
30.0
 42
30.0
 43
30.0
 50
270.0
  0
TEXT
  8
3
  40
45
  5
7E98
  62
0
  72
0
  71
0
 10
1627.99
 20
1419.91
 30
0.000000
  1
680
  0
POINT
  5
7E25
  8
DEFPOINTS
  6
CONTINUOUS
 62
     0
 10
1222.81218755483
 20
1831.7958410000001
 30
0.0
  0
POINT
  5
7E26
  8
DEFPOINTS
  6
CONTINUOUS
 62
     0
 10
1501.31218755483
 20
1151.7958410000001
 30
0.0
  0
POINT
  5
7E27
  8
DEFPOINTS
  6
CONTINUOUS
 62
     0
 10
1755.486916087217
 20
1151.795840999999
 30
0.0
  0
ENDBLK
  5
7D03
  8
0
  0
BLOCK
  8
0
  2
*D7
 70
     1
 10
0.0
 20
0.0
 30
0.0
  3
*D7
  1

  0
LINE
  5
7E28
  8
3
  6
CONTINUOUS
 62
     0
 10
886.31218755483064
 20
1839.2958410000001
 30
0.0
 11
886.31218755483064
 21
1930.061371999999
 31
0.0
  0
LINE
  5
7E29
  8
3
  6
CONTINUOUS
 62
     0
 10
1201.31218755483
 20
1839.2958410000001
 30
0.0
 11
1201.31218755483
 21
1930.061371999999
 31
0.0
  0
LINE
  5
7E2A
  8
3
  6
CONTINUOUS
 62
     0
 10
916.31218755483064
 20
1915.0613719999999
 30
0.0
 11
1171.31218755483
 21
1915.0613719999999
 31
0.0
  0
INSERT
  5
7E2B
  8
3
  6
CONTINUOUS
 62
     0
  2
_OPEN
 10
886.31218755483064
 20
1915.0613719999999
 30
0.0
 41
30.0
 42
30.0
 43
30.0
 50
180.0
  0
INSERT
  5
7E2C
  8
3
  6
CONTINUOUS
 62
     0
  2
_OPEN
 10
1201.31218755483
 20
1915.0613719999999
 30
0.0
 41
30.0
 42
30.0
 43
30.0
  0
TEXT
  8
3
  40
45
  5
7E99
  62
0
  72
0
  71
0
 10
952.397
 20
1872.91
 30
0.000000
  1
315
  0
POINT
  5
7E2E
  8
DEFPOINTS
  6
CONTINUOUS
 62
     0
 10
886.31218755483064
 20
1831.7958410000001
 30
0.0
  0
POINT
  5
7E2F
  8
DEFPOINTS
  6
CONTINUOUS
 62
     0
 10
1201.31218755483
 20
1831.7958410000001
 30
0.0
  0
POINT
  5
7E30
  8
DEFPOINTS
  6
CONTINUOUS
 62
     0
 10
1201.31218755483
 20
1915.0613719999999
 30
0.0
  0
ENDBLK
  5
7BBD
  8
0
  0
BLOCK
  8
0
  2
*D8
 70
     1
 10
0.0
 20
0.0
 30
0.0
  3
*D8
  1

  0
LINE
  5
7E31
  8
3
  6
CONTINUOUS
 62
     0
 10
654.06700155483054
 20
1589.2958410000001
 30
0.0
 11
654.06700155483054
 21
2016.060631999999
 31
0.0
  0
LINE
  5
7E32
  8
3
  6
CONTINUOUS
 62
     0
 10
886.31218755483064
 20
1839.2958410000001
 30
0.0
 11
886.31218755483064
 21
2016.060631999999
 31
0.0
  0
LINE
  5
7E33
  8
3
  6
CONTINUOUS
 62
     0
 10
684.06700155483054
 20
2001.0606319999999
 30
0.0
 11
856.31218755483064
 21
2001.0606319999999
 31
0.0
  0
INSERT
  5
7E34
  8
3
  6
CONTINUOUS
 62
     0
  2
_OPEN
 10
654.06700155483054
 20
2001.0606319999999
 30
0.0
 41
30.0
 42
30.0
 43
30.0
 50
180.0
  0
INSERT
  5
7E35
  8
3
  6
CONTINUOUS
 62
     0
  2
_OPEN
 10
886.31218755483064
 20
2001.0606319999999
 30
0.0
 41
30.0
 42
30.0
 43
30.0
  0
TEXT
  8
3
  40
45
  5
7E9A
  62
0
  72
0
  71
0
 10
693.455
 20
1958.91
 30
0.000000
  1
232
  0
POINT
  5
7E37
  8
DEFPOINTS
  6
CONTINUOUS
 62
     0
 10
654.06700155483054
 20
1581.7958410000001
 30
0.0
  0
POINT
  5
7E38
  8
DEFPOINTS
  6
CONTINUOUS
 62
     0
 10
886.31218755483064
 20
1831.7958410000001
 30
0.0
  0
POINT
  5
7E39
  8
DEFPOINTS
  6
CONTINUOUS
 62
     0
 10
886.31218755483064
 20
2001.0606319999999
 30
0.0
  0
ENDBLK
  5
7BCA
  8
0
  0
BLOCK
  8
0
  2
*D9
 70
     1
 10
0.0
 20
0.0
 30
0.0
  3
*D9
  1

  0
LINE
  5
7E3A
  8
3
  6
CONTINUOUS
 62
     0
 10
1211.31218755483
 20
1819.2958410000001
 30
0.0
 11
1211.31218755483
 21
2016.060631999999
 31
0.0
  0
LINE
  5
7E3B
  8
3
  6
CONTINUOUS
 62
     0
 10
916.31218755483064
 20
2001.0606319999999
 30
0.0
 11
1181.31218755483
 21
2001.0606319999999
 31
0.0
  0
INSERT
  5
7E3C
  8
3
  6
CONTINUOUS
 62
     0
  2
_OPEN
 10
886.31218755483064
 20
2001.0606319999999
 30
0.0
 41
30.0
 42
30.0
 43
30.0
 50
180.0
  0
INSERT
  5
7E3D
  8
3
  6
CONTINUOUS
 62
     0
  2
_OPEN
 10
1211.31218755483
 20
2001.0606319999999
 30
0.0
 41
30.0
 42
30.0
 43
30.0
  0
TEXT
  8
3
  40
45
  5
7E9B
  62
0
  72
0
  71
0
 10
958.812
 20
1958.91
 30
0.000000
  1
325
  0
POINT
  5
7E3F
  8
DEFPOINTS
  6
CONTINUOUS
 62
     0
 10
886.31218755483064
 20
1831.7958410000001
 30
0.0
  0
POINT
  5
7E40
  8
DEFPOINTS
  6
CONTINUOUS
 62
     0
 10
1211.31218755483
 20
1811.7958410000001
 30
0.0
  0
POINT
  5
7E41
  8
DEFPOINTS
  6
CONTINUOUS
 62
     0
 10
1211.31218755483
 20
2001.0606319999999
 30
0.0
  0
ENDBLK
  5
7BD6
  8
0
  0
BLOCK
  8
0
  2
*D10
 70
     1
 10
0.0
 20
0.0
 30
0.0
  3
*D10
  1

  0
LINE
  5
7E42
  8
3
  6
CONTINUOUS
 62
     0
 10
651.31218755483064
 20
2535.7843819999998
 30
0.0
 11
651.31218755483064
 21
2395.904794999999
 31
0.0
  0
LINE
  5
7E43
  8
3
  6
CONTINUOUS
 62
     0
 10
1501.31218755483
 20
2535.7843819999998
 30
0.0
 11
1501.31218755483
 21
2395.904794999999
 31
0.0
  0
LINE
  5
7E44
  8
3
  6
CONTINUOUS
 62
     0
 10
681.31218755483064
 20
2410.9047949999999
 30
0.0
 11
1471.31218755483
 21
2410.9047949999999
 31
0.0
  0
INSERT
  5
7E45
  8
3
  6
CONTINUOUS
 62
     0
  2
_OPEN
 10
651.31218755483064
 20
2410.9047949999999
 30
0.0
 41
30.0
 42
30.0
 43
30.0
 50
180.0
  0
INSERT
  5
7E46
  8
3
  6
CONTINUOUS
 62
     0
  2
_OPEN
 10
1501.31218755483
 20
2410.9047949999999
 30
0.0
 41
30.0
 42
30.0
 43
30.0
  0
TEXT
  8
3
  40
45
  5
7E9C
  62
0
  72
0
  71
0
 10
947.477
 20
2368.75
 30
0.000000
  1
850
  0
POINT
  5
7E48
  8
DEFPOINTS
  6
CONTINUOUS
 62
     0
 10
651.31218755483064
 20
2543.2843819999989
 30
0.0
  0
POINT
  5
7E49
  8
DEFPOINTS
  6
CONTINUOUS
 62
     0
 10
1501.31218755483
 20
2543.2843819999989
 30
0.0
  0
POINT
  5
7E4A
  8
DEFPOINTS
  6
CONTINUOUS
 62
     0
 10
1501.31218755483
 20
2410.9047949999999
 30
0.0
  0
ENDBLK
  5
7BE4
  8
0
  0
BLOCK
  8
0
  2
*D11
 70
     1
 10
0.0
 20
0.0
 30
0.0
  3
*D11
  1

  0
LINE
  5
7E4B
  8
3
  6
CONTINUOUS
 62
     0
 10
1508.81218755483
 20
3143.2843819999998
 30
0.0
 11
1652.6632115548309
 21
3143.2843819999998
 31
0.0
  0
LINE
  5
7E4C
  8
3
  6
CONTINUOUS
 62
     0
 10
1508.81218755483
 20
2543.2843819999989
 30
0.0
 11
1652.66321155483
 21
2543.2843819999989
 31
0.0
  0
LINE
  5
7E4D
  8
3
  6
CONTINUOUS
 62
     0
 10
1637.6632115548309
 20
3113.2843819999989
 30
0.0
 11
1637.6632115548309
 21
2573.2843819999998
 31
0.0
  0
INSERT
  5
7E4E
  8
3
  6
CONTINUOUS
 62
     0
  2
_OPEN
 10
1637.6632115548309
 20
3143.2843819999998
 30
0.0
 41
30.0
 42
30.0
 43
30.0
 50
90.0
  0
INSERT
  5
7E4F
  8
3
  6
CONTINUOUS
 62
     0
  2
_OPEN
 10
1637.6632115548309
 20
2543.2843819999989
 30
0.0
 41
30.0
 42
30.0
 43
30.0
 50
270.0
  0
TEXT
  8
3
  40
45
  5
7E9D
  62
0
  72
0
  71
0
 10
1510.16
 20
2779.18
 30
0.000000
  1
600
  0
POINT
  5
7E51
  8
DEFPOINTS
  6
CONTINUOUS
 62
     0
 10
1501.31218755483
 20
3143.2843819999998
 30
0.0
  0
POINT
  5
7E52
  8
DEFPOINTS
  6
CONTINUOUS
 62
     0
 10
1501.31218755483
 20
2543.2843819999989
 30
0.0
  0
POINT
  5
7E53
  8
DEFPOINTS
  6
CONTINUOUS
 62
     0
 10
1637.6632115548309
 20
2543.2843819999989
 30
0.0
  0
ENDBLK
  5
7BF1
  8
0
  0
BLOCK
  8
0
  2
*D12
 70
     1
 10
0.0
 20
0.0
 30
0.0
  3
*D12
  1

  0
LINE
  5
7E54
  8
3
  6
CONTINUOUS
 62
     0
 10
2090.7783879999988
 20
1144.2958410000001
 30
0.0
 11
2090.7783879999988
 21
1034.6717709999989
 31
0.0
  0
LINE
  5
7E55
  8
3
  6
CONTINUOUS
 62
     0
 10
2510.7783880000002
 20
1144.2958410000001
 30
0.0
 11
2510.7783880000002
 21
1034.6717709999989
 31
0.0
  0
LINE
  5
7E56
  8
3
  6
CONTINUOUS
 62
     0
 10
2120.7783879999988
 20
1049.671771
 30
0.0
 11
2480.7783880000002
 21
1049.671771
 31
0.0
  0
INSERT
  5
7E57
  8
3
  6
CONTINUOUS
 62
     0
  2
_OPEN
 10
2090.7783879999988
 20
1049.671771
 30
0.0
 41
30.0
 42
30.0
 43
30.0
 50
180.0
  0
INSERT
  5
7E58
  8
3
  6
CONTINUOUS
 62
     0
  2
_OPEN
 10
2510.7783880000002
 20
1049.671771
 30
0.0
 41
30.0
 42
30.0
 43
30.0
  0
TEXT
  8
3
  40
45
  5
7E9E
  62
0
  72
0
  71
0
 10
2224.88
 20
1007.52
 30
0.000000
  1
420
  0
POINT
  5
7E5A
  8
DEFPOINTS
  6
CONTINUOUS
 62
     0
 10
2090.7783879999988
 20
1151.7958410000001
 30
0.0
  0
POINT
  5
7E5B
  8
DEFPOINTS
  6
CONTINUOUS
 62
     0
 10
2510.7783880000002
 20
1151.7958410000001
 30
0.0
  0
POINT
  5
7E5C
  8
DEFPOINTS
  6
CONTINUOUS
 62
     0
 10
2510.7783880000002
 20
1049.671771
 30
0.0
  0
ENDBLK
  5
7C01
  8
0
  0
BLOCK
  8
0
  2
*D13
 70
     1
 10
0.0
 20
0.0
 30
0.0
  3
*D13
  1

  0
LINE
  5
7E5D
  8
3
  6
CONTINUOUS
 62
     0
 10
2690.7783880000002
 20
1144.2958410000001
 30
0.0
 11
2690.7783880000002
 21
1034.6717709999989
 31
0.0
  0
LINE
  5
7E5E
  8
3
  6
CONTINUOUS
 62
     0
 10
2540.7783879999988
 20
1049.671771
 30
0.0
 11
2660.7783880000002
 21
1049.671771
 31
0.0
  0
TEXT
  8
3
  40
45
  5
7E9F
  62
0
  72
0
  71
0
 10
2505.54
 20
1007.28
 30
0.000000
  1
180
  0
INSERT
  5
7E60
  8
3
  6
CONTINUOUS
 62
     0
  2
_OPEN
 10
2510.7783880000002
 20
1049.671771
 30
0.0
 41
30.0
 42
30.0
 43
30.0
 50
180.0
  0
INSERT
  5
7E61
  8
3
  6
CONTINUOUS
 62
     0
  2
_OPEN
 10
2690.7783880000002
 20
1049.671771
 30
0.0
 41
30.0
 42
30.0
 43
30.0
  0
POINT
  5
7E62
  8
DEFPOINTS
  6
CONTINUOUS
 62
     0
 10
2510.7783880000002
 20
1151.7958410000001
 30
0.0
  0
POINT
  5
7E63
  8
DEFPOINTS
  6
CONTINUOUS
 62
     0
 10
2690.7783880000002
 20
1151.7958410000001
 30
0.0
  0
POINT
  5
7E64
  8
DEFPOINTS
  6
CONTINUOUS
 62
     0
 10
2690.7783880000002
 20
1049.671771
 30
0.0
  0
ENDBLK
  5
7C26
  8
0
  0
BLOCK
  8
0
  2
*D14
 70
     1
 10
0.0
 20
0.0
 30
0.0
  3
*D14
  1

  0
LINE
  5
7E65
  8
3
  6
CONTINUOUS
 62
     0
 10
2398.7783879999988
 20
1839.2958410000001
 30
0.0
 11
2398.7783879999988
 21
1898.1250239999999
 31
0.0
  0
LINE
  5
7E66
  8
3
  6
CONTINUOUS
 62
     0
 10
2622.7783879999988
 20
1839.2958410000001
 30
0.0
 11
2622.7783879999988
 21
1898.1250239999999
 31
0.0
  0
LINE
  5
7E67
  8
3
  6
CONTINUOUS
 62
     0
 10
2368.7783879999988
 20
1883.125023999999
 30
0.0
 11
2338.7783879999988
 21
1883.125023999999
 31
0.0
  0
LINE
  5
7E68
  8
3
  6
CONTINUOUS
 62
     0
 10
2652.7783879999988
 20
1883.125023999999
 30
0.0
 11
2682.7783880000002
 21
1883.125023999999
 31
0.0
  0
LINE
  5
7E69
  8
3
  6
CONTINUOUS
 62
     0
 10
2398.7783879999988
 20
1883.125023999999
 30
0.0
 11
2622.7783879999988
 21
1883.125023999999
 31
0.0
  0
INSERT
  5
7E6A
  8
3
  6
CONTINUOUS
 62
     0
  2
_OPEN
 10
2398.7783879999988
 20
1883.125023999999
 30
0.0
 41
30.0
 42
30.0
 43
30.0
  0
INSERT
  5
7E6B
  8
3
  6
CONTINUOUS
 62
     0
  2
_OPEN
 10
2622.7783879999988
 20
1883.125023999999
 30
0.0
 41
30.0
 42
30.0
 43
30.0
 50
180.0
  0
TEXT
  8
3
  40
45
  5
7EA0
  62
0
  72
0
  71
0
 10
2412.71
 20
1840.98
 30
0.000000
  1
224
  0
POINT
  5
7E6D
  8
DEFPOINTS
  6
CONTINUOUS
 62
     0
 10
2398.7783879999988
 20
1831.7958410000001
 30
0.0
  0
POINT
  5
7E6E
  8
DEFPOINTS
  6
CONTINUOUS
 62
     0
 10
2622.7783879999988
 20
1831.7958410000001
 30
0.0
  0
POINT
  5
7E6F
  8
DEFPOINTS
  6
CONTINUOUS
 62
     0
 10
2622.7783879999988
 20
1883.125023999999
 30
0.0
  0
ENDBLK
  5
7C32
  8
0
  0
BLOCK
  8
0
  2
*D15
 70
     1
 10
0.0
 20
0.0
 30
0.0
  3
*D15
  1

  0
LINE
  5
7E70
  8
3
  6
CONTINUOUS
 62
     0
 10
2090.7783879999988
 20
1819.2958410000001
 30
0.0
 11
2090.7783879999988
 21
1989.0385359999991
 31
0.0
  0
LINE
  5
7E71
  8
3
  6
CONTINUOUS
 62
     0
 10
2510.7783880000002
 20
1959.689451
 30
0.0
 11
2510.7783880000002
 21
1989.0385359999991
 31
0.0
  0
LINE
  5
7E72
  8
3
  6
CONTINUOUS
 62
     0
 10
2120.7783879999988
 20
1974.038536
 30
0.0
 11
2480.7783880000002
 21
1974.038536
 31
0.0
  0
INSERT
  5
7E73
  8
3
  6
CONTINUOUS
 62
     0
  2
_OPEN
 10
2090.7783879999988
 20
1974.038536
 30
0.0
 41
30.0
 42
30.0
 43
30.0
 50
180.0
  0
INSERT
  5
7E74
  8
3
  6
CONTINUOUS
 62
     0
  2
_OPEN
 10
2510.7783880000002
 20
1974.038536
 30
0.0
 41
30.0
 42
30.0
 43
30.0
  0
TEXT
  8
3
  40
45
  5
7EA1
  62
0
  72
0
  71
0
 10
2200.53
 20
1969.39
 30
0.000000
  1
MAX
  0
TEXT
  8
3
  40
45
  5
7EA2
  62
0
  72
0
  71
0
 10
2200.53
 20
1910.89
 30
0.000000
  1
420
  0
POINT
  5
7E76
  8
DEFPOINTS
  6
CONTINUOUS
 62
     0
 10
2090.7783879999988
 20
1811.7958410000001
 30
0.0
  0
POINT
  5
7E77
  8
DEFPOINTS
  6
CONTINUOUS
 62
     0
 10
2510.7783880000002
 20
1952.189451
 30
0.0
  0
POINT
  5
7E78
  8
DEFPOINTS
  6
CONTINUOUS
 62
     0
 10
2510.7783880000002
 20
1974.038536
 30
0.0
  0
ENDBLK
  5
7CA6
  8
0
  0
BLOCK
  8
0
  2
*D16
 70
     1
 10
0.0
 20
0.0
 30
0.0
  3
*D16
  1

  0
LINE
  5
7E79
  8
3
  6
CONTINUOUS
 62
     0
 10
2631.7783879999988
 20
1771.7958410000001
 30
0.0
 11
2631.7783879999988
 21
1989.0385359999991
 31
0.0
  0
LINE
  5
7E7A
  8
3
  6
CONTINUOUS
 62
     0
 10
2540.7783879999988
 20
1974.038536
 30
0.0
 11
2601.7783879999988
 21
1974.038536
 31
0.0
  0
TEXT
  8
3
  40
45
  5
7EA3
  62
0
  72
0
  71
0
 10
2476.03
 20
1931.89
 30
0.000000
  1
121
  0
INSERT
  5
7E7C
  8
3
  6
CONTINUOUS
 62
     0
  2
_OPEN
 10
2510.7783880000002
 20
1974.038536
 30
0.0
 41
30.0
 42
30.0
 43
30.0
 50
180.0
  0
INSERT
  5
7E7D
  8
3
  6
CONTINUOUS
 62
     0
  2
_OPEN
 10
2631.7783879999988
 20
1974.038536
 30
0.0
 41
30.0
 42
30.0
 43
30.0
  0
POINT
  5
7E7E
  8
DEFPOINTS
  6
CONTINUOUS
 62
     0
 10
2510.7783880000002
 20
1952.189451
 30
0.0
  0
POINT
  5
7E7F
  8
DEFPOINTS
  6
CONTINUOUS
 62
     0
 10
2631.7783879999988
 20
1764.2958410000001
 30
0.0
  0
POINT
  5
7E80
  8
DEFPOINTS
  6
CONTINUOUS
 62
     0
 10
2631.7783879999988
 20
1974.038536
 30
0.0
  0
ENDBLK
  5
7C85
  8
0
  0
BLOCK
  8
0
  2
*D17
 70
     1
 10
0.0
 20
0.0
 30
0.0
  3
*D17
  1

  0
LINE
  5
7E81
  8
3
  6
CONTINUOUS
 62
     0
 10
2639.2783879999988
 20
1739.2958410000001
 30
0.0
 11
2754.4007769999998
 21
1739.2958410000001
 31
0.0
  0
LINE
  5
7E82
  8
3
  6
CONTINUOUS
 62
     0
 10
2639.2783879999988
 20
1424.2958410000001
 30
0.0
 11
2754.4007769999998
 21
1424.2958410000001
 31
0.0
  0
LINE
  5
7E83
  8
3
  6
CONTINUOUS
 62
     0
 10
2739.4007769999998
 20
1709.2958410000001
 30
0.0
 11
2739.4007769999998
 21
1454.2958410000001
 31
0.0
  0
INSERT
  5
7E84
  8
3
  6
CONTINUOUS
 62
     0
  2
_OPEN
 10
2739.4007769999998
 20
1739.2958410000001
 30
0.0
 41
30.0
 42
30.0
 43
30.0
 50
90.0
  0
INSERT
  5
7E85
  8
3
  6
CONTINUOUS
 62
     0
  2
_OPEN
 10
2739.4007769999998
 20
1424.2958410000001
 30
0.0
 41
30.0
 42
30.0
 43
30.0
 50
270.0
  0
TEXT
  8
3
  40
45
  5
7EA4
  62
0
  72
0
  71
0
 10
2611.90
 20
1487.21
 30
0.000000
  1
φ315
  0
POINT
  5
7E87
  8
DEFPOINTS
  6
CONTINUOUS
 62
     0
 10
2631.7783879999988
 20
1739.2958410000001
 30
0.0
  0
POINT
  5
7E88
  8
DEFPOINTS
  6
CONTINUOUS
 62
     0
 10
2631.7783879999988
 20
1424.2958410000001
 30
0.0
  0
POINT
  5
7E89
  8
DEFPOINTS
  6
CONTINUOUS
 62
     0
 10
2739.4007769999998
 20
1424.2958410000001
 30
0.0
  0
ENDBLK
  5
7CB1
  8
0
  0
BLOCK
  8
0
  2
*D18
 70
     1
 10
0.0
 20
0.0
 30
0.0
  3
*D18
  1

  0
LINE
  5
7E8A
  8
3
 62
     0
 10
654.06700155483054
 20
1596.7958410000001
 30
0.0
 11
654.06700155483054
 21
2109.1101977430508
 31
0.0
  0
LINE
  5
7E8B
  8
3
 62
     0
 10
1501.31218755483
 20
1259.2958410000001
 30
0.0
 11
1501.31218755483
 21
2109.1101977430508
 31
0.0
  0
LINE
  5
7E8C
  8
3
 62
     0
 10
684.06700155483054
 20
2094.1101977430508
 30
0.0
 11
1471.31218755483
 21
2094.1101977430508
 31
0.0
  0
INSERT
  5
7E8D
  8
3
 62
     0
  2
_OPEN
 10
654.06700155483054
 20
2094.1101977430508
 30
0.0
 41
30.0
 42
30.0
 43
30.0
 50
180.0
  0
INSERT
  5
7E8E
  8
3
 62
     0
  2
_OPEN
 10
1501.31218755483
 20
2094.1101977430508
 30
0.0
 41
30.0
 42
30.0
 43
30.0
  0
TEXT
  8
3
  40
45
  5
7EA5
  62
0
  72
0
  71
0
 10
1040.76
 20
2051.96
 30
0.000000
  1
847
  0
POINT
  5
7E90
  8
DEFPOINTS
 62
     0
 10
654.06700155483054
 20
1589.2958410000001
 30
0.0
  0
POINT
  5
7E91
  8
DEFPOINTS
 62
     0
 10
1501.31218755483
 20
1251.7958410000001
 30
0.0
  0
POINT
  5
7E92
  8
DEFPOINTS
 62
     0
 10
1501.31218755483
 20
2094.1101977430508
 30
0.0
  0
ENDBLK
  5
7CCA
  8
0
  0
ENDSEC
  0
SECTION
  2
ENTITIES
  0
CIRCLE
  5
7A91
  8
1
  6
CONTINUOUS
 10
886.31218755483064
 20
1581.7958410000001
 30
0.0
 40
157.5
  0
LINE
  5
7A92
  8
1
  6
CONTINUOUS
 10
1335.81218755483
 20
1313.2958410000001
 30
0.0
 11
860.61218755483048
 21
1523.695841
 31
0.0
  0
LINE
  5
7A93
  8
1
  6
CONTINUOUS
 10
1380.7121875548301
 20
1409.395841
 30
0.0
 11
914.31218755483064
 21
1638.7958410000001
 31
0.0
  0
LINE
  5
7A94
  8
1
  6
CONTINUOUS
 10
1201.31218755483
 20
1811.7958410000001
 30
0.0
 11
1211.31218755483
 21
1811.7958410000001
 31
0.0
  0
LINE
  5
7A95
  8
1
  6
CONTINUOUS
 10
916.31218755483064
 20
1811.7958410000001
 30
0.0
 11
1171.31218755483
 21
1811.7958410000001
 31
0.0
  0
LINE
  5
7A96
  8
1
  6
CONTINUOUS
 10
1201.31218755483
 20
1831.7958410000001
 30
0.0
 11
1201.31218755483
 21
1811.7958410000001
 31
0.0
  0
ARC
  5
7A97
  8
1
  6
CONTINUOUS
 10
809.31218755483053
 20
1849.7958410000001
 30
0.0
 40
78.0
 50
288.80000000000001
 51
331.0
  0
ARC
  5
7A98
  8
1
  6
CONTINUOUS
 10
868.31218755483064
 20
1563.7958410000001
 30
0.0
 40
215.0
 50
98.599999999999994
 51
190.59999999999999
  0
ARC
  5
7A99
  8
1
  6
CONTINUOUS
 10
907.31218755483064
 20
1560.7958410000001
 30
0.0
 40
253.0
 50
188.1999999999999
 51
258.39999999999992
  0
ARC
  5
7A9A
  8
1
  6
CONTINUOUS
 10
911.81218755483064
 20
1607.2958410000001
 30
0.0
 40
299.5
 50
259.39999999999992
 51
0.0
  0
LINE
  5
7A9B
  8
1
  6
CONTINUOUS
 10
1211.31218755483
 20
1811.7958410000001
 30
0.0
 11
1211.31218755483
 21
1607.2958410000001
 31
0.0
  0
LINE
  5
7A9C
  8
1
  6
CONTINUOUS
 10
877.41218755483055
 20
1811.7958410000001
 30
0.0
 11
886.31218755483064
 21
1811.7958410000001
 31
0.0
  0
LINE
  5
7A9D
  8
1
  6
CONTINUOUS
 10
916.31218755483064
 20
1811.7958410000001
 30
0.0
 11
1171.31218755483
 21
1811.7958410000001
 31
0.0
  0
CIRCLE
  5
7A9E
  8
1
  6
CONTINUOUS
 10
886.31218755483064
 20
1581.7958410000001
 30
0.0
 40
182.5
  0
LINE
  5
7A9F
  8
1
  6
CONTINUOUS
 10
681.31218755483064
 20
2841.4843820000001
 30
0.0
 11
1091.31218755483
 21
2841.4843820000001
 31
0.0
  0
LINE
  5
7AA0
  8
1
  6
CONTINUOUS
 10
1068.81218755483
 20
2841.2843819999989
 30
0.0
 11
1068.81218755483
 21
2851.2843819999998
 31
0.0
  0
LINE
  5
7AA1
  8
1
  6
CONTINUOUS
 10
703.81218755483064
 20
2841.2843819999989
 30
0.0
 11
703.81218755483064
 21
2851.2843819999998
 31
0.0
  0
LINE
  5
7AA2
  8
1
  6
CONTINUOUS
 10
1068.81218755483
 20
2841.2843819999989
 30
0.0
 11
703.81218755483064
 21
2841.2843819999989
 31
0.0
  0
LINE
  5
7AA3
  8
1
  6
CONTINUOUS
 10
703.81218755483064
 20
3084.2843819999989
 30
0.0
 11
1068.81218755483
 21
3084.2843819999989
 31
0.0
  0
LINE
  5
7AA4
  8
1
  6
CONTINUOUS
 10
703.81218755483064
 20
3084.2843819999989
 30
0.0
 11
703.81218755483064
 21
3075.2843819999989
 31
0.0
  0
LINE
  5
7AA5
  8
1
  6
CONTINUOUS
 10
684.31218755483064
 20
3075.2843819999989
 30
0.0
 11
1201.31218755483
 21
3075.2843819999989
 31
0.0
  0
LINE
  5
7AA6
  8
1
  6
CONTINUOUS
 10
1201.31218755483
 20
3075.2843819999989
 30
0.0
 11
1201.31218755483
 21
2851.2843819999998
 31
0.0
  0
LINE
  5
7AA7
  8
1
  6
CONTINUOUS
 10
1201.31218755483
 20
2851.2843819999998
 30
0.0
 11
684.31218755483064
 21
2851.2843819999998
 31
0.0
  0
LINE
  5
7AA8
  8
1
  6
CONTINUOUS
 10
886.31218755483064
 20
3075.2843819999989
 30
0.0
 11
886.31218755483064
 21
2851.2843819999998
 31
0.0
  0
LINE
  5
7AA9
  8
1
  6
CONTINUOUS
 10
664.31218755483064
 20
3055.2843819999989
 30
0.0
 11
664.31218755483064
 21
2871.2843819999998
 31
0.0
  0
LINE
  5
7AAA
  8
1
  6
CONTINUOUS
 10
1201.31218755483
 20
2851.2843819999998
 30
0.0
 11
886.31218755483064
 21
3075.2843819999989
 31
0.0
  0
LINE
  5
7AAB
  8
1
  6
CONTINUOUS
 10
1201.31218755483
 20
3075.2843819999989
 30
0.0
 11
886.31218755483064
 21
2851.2843819999998
 31
0.0
  0
LINE
  5
7AAC
  8
1
  6
CONTINUOUS
 10
1068.81218755483
 20
3084.2843819999989
 30
0.0
 11
1068.81218755483
 21
3075.2843819999989
 31
0.0
  0
ARC
  5
7AAD
  8
1
  6
CONTINUOUS
 10
684.31218755483064
 20
3055.2843819999989
 30
0.0
 40
20.0
 50
90.0
 51
180.0
  0
ARC
  5
7AAE
  8
1
  6
CONTINUOUS
 10
684.31218755483064
 20
2871.2843819999998
 30
0.0
 40
20.0
 50
180.0
 51
270.0
  0
LINE
  5
7AAF
  8
2
  6
CENTER
 10
2645.9901019999988
 20
1581.7958410000001
 30
0.0
 11
2070.6291890000002
 21
1581.7958410000001
 31
0.0
  0
LINE
  5
7AB0
  8
2
  6
CENTER
 10
886.31218755483064
 20
1137.4419580000001
 30
0.0
 11
886.31218755483064
 21
1852.893642999999
 31
0.0
  0
LINE
  5
7AB1
  8
1
  6
CONTINUOUS
 10
864.81218755483064
 20
1831.7958410000001
 30
0.0
 11
1222.81218755483
 21
1831.7958410000001
 31
0.0
  0
LINE
  5
7AB2
  8
1
  6
CONTINUOUS
 10
978.61218755483048
 20
1761.7958410000001
 30
0.0
 11
794.01218755483058
 21
1761.7958410000001
 31
0.0
  0
LINE
  5
7AB3
  8
1
  6
CONTINUOUS
 10
1091.31218755483
 20
1251.7958410000001
 30
0.0
 11
1091.31218755483
 21
1667.1958409999991
 31
0.0
  0
LINE
  5
7AB4
  8
1
  6
CONTINUOUS
 10
1091.31218755483
 20
1545.2958410000001
 30
0.0
 11
681.31218755483064
 21
1545.2958410000001
 31
0.0
  0
LINE
  5
7AB5
  8
1
  6
CONTINUOUS
 10
978.61218755483048
 20
1761.7958410000001
 30
0.0
 11
1091.31218755483
 21
1667.1958409999991
 31
0.0
  0
LINE
  5
7AB6
  8
1
  6
CONTINUOUS
 10
794.01218755483058
 20
1761.7958410000001
 30
0.0
 11
681.31218755483064
 21
1667.1958409999991
 31
0.0
  0
LINE
  5
7AB7
  8
1
  6
CONTINUOUS
 10
681.31218755483064
 20
1251.7958410000001
 30
0.0
 11
681.31218755483064
 21
1667.1958409999991
 31
0.0
  0
LINE
  5
7AB8
  8
1
  6
CONTINUOUS
 10
1501.31218755483
 20
1251.7958410000001
 30
0.0
 11
651.31218755483064
 21
1251.7958410000001
 31
0.0
  0
LINE
  5
7AB9
  8
1
  6
CONTINUOUS
 10
651.31218755483064
 20
1251.7958410000001
 30
0.0
 11
651.31218755483064
 21
1151.7958410000001
 31
0.0
  0
LINE
  5
7ABA
  8
1
  6
CONTINUOUS
 10
1501.31218755483
 20
1251.7958410000001
 30
0.0
 11
1501.31218755483
 21
1151.7958410000001
 31
0.0
  0
LINE
  5
7ABB
  8
1
  6
CONTINUOUS
 10
1501.31218755483
 20
1181.7958410000001
 30
0.0
 11
651.31218755483064
 21
1181.7958410000001
 31
0.0
  0
LINE
  5
7ABC
  8
1
  6
CONTINUOUS
 10
1471.31218755483
 20
1271.7958410000001
 30
0.0
 11
1156.31218755483
 21
1271.7958410000001
 31
0.0
  0
LINE
  5
7ABD
  8
1
  6
CONTINUOUS
 10
1471.31218755483
 20
1251.7958410000001
 30
0.0
 11
1471.31218755483
 21
1271.7958410000001
 31
0.0
  0
LINE
  5
7ABE
  8
1
  6
CONTINUOUS
 10
1156.31218755483
 20
1251.7958410000001
 30
0.0
 11
1156.31218755483
 21
1271.7958410000001
 31
0.0
  0
LINE
  5
7ABF
  8
2
  6
CENTER
 10
1357.31218755483
 20
1308.7958410000001
 30
0.0
 11
1357.31218755483
 21
1414.7958410000001
 31
0.0
  0
CIRCLE
  5
7AC0
  8
1
  6
CONTINUOUS
 10
886.31218755483064
 20
1581.7958410000001
 30
0.0
 40
63.5
  0
CIRCLE
  5
7AC1
  8
1
  6
CONTINUOUS
 10
1357.31218755483
 20
1361.7958410000001
 30
0.0
 40
53.0
  0
ARC
  5
7AC2
  8
1
  6
CONTINUOUS
 10
1357.31218755483
 20
1361.7958410000001
 30
0.0
 40
101.0
 50
322.89999999999992
 51
217.09999999999991
  0
LINE
  5
7AC3
  8
1
  6
CONTINUOUS
 10
1449.2121875548301
 20
1271.7958410000001
 30
0.0
 11
1437.81218755483
 21
1300.7958410000001
 31
0.0
  0
LINE
  5
7AC4
  8
1
  6
CONTINUOUS
 10
1265.4121875548301
 20
1271.7958410000001
 30
0.0
 11
1276.81218755483
 21
1300.7958410000001
 31
0.0
  0
LINE
  5
7AC5
  8
2
  6
CENTER
 10
1410.31218755483
 20
1361.7958410000001
 30
0.0
 11
1304.31218755483
 21
1361.7958410000001
 31
0.0
  0
LINE
  5
7AC6
  8
1
  6
CONTINUOUS
 10
1501.31218755483
 20
2648.2843819999989
 30
0.0
 11
1369.31218755483
 21
2648.2843819999989
 31
0.0
  0
LINE
  5
7AC7
  8
1
  6
CONTINUOUS
 10
651.31218755483064
 20
2963.2843819999989
 30
0.0
 11
664.31218755483064
 21
2963.2843819999989
 31
0.0
  0
LINE
  5
7AC8
  8
1
  6
CONTINUOUS
 10
1501.31218755483
 20
3143.2843819999998
 30
0.0
 11
1501.31218755483
 21
2543.2843819999989
 31
0.0
  0
LINE
  5
7AC9
  8
1
  6
CONTINUOUS
 10
822.81218755483064
 20
2569.7843819999989
 30
0.0
 11
822.81218755483064
 21
2604.7843819999998
 31
0.0
  0
LINE
  5
7ACA
  8
1
  6
CONTINUOUS
 10
822.81218755483064
 20
2604.7843819999998
 30
0.0
 11
949.81218755483064
 21
2604.7843819999998
 31
0.0
  0
LINE
  5
7ACB
  8
1
  6
CONTINUOUS
 10
949.81218755483064
 20
2604.7843819999998
 30
0.0
 11
949.81218755483064
 21
2569.7843819999989
 31
0.0
  0
LINE
  5
7ACC
  8
1
  6
CONTINUOUS
 10
949.81218755483064
 20
2569.7843819999989
 30
0.0
 11
822.81218755483064
 21
2569.7843819999989
 31
0.0
  0
LINE
  5
7ACD
  8
1
  6
CONTINUOUS
 10
1201.31218755483
 20
2963.2843819999989
 30
0.0
 11
1501.31218755483
 21
2963.2843819999989
 31
0.0
  0
LINE
  5
7ACE
  8
1
  6
CONTINUOUS
 10
1091.31218755483
 20
2678.2843819999998
 30
0.0
 11
1091.31218755483
 21
2841.4843820000001
 31
0.0
  0
LINE
  5
7ACF
  8
1
  6
CONTINUOUS
 10
681.31218755483064
 20
2678.2843819999998
 30
0.0
 11
681.31218755483064
 21
2841.4843820000001
 31
0.0
  0
LINE
  5
7AD0
  8
1
  6
CONTINUOUS
 10
1091.31218755483
 20
2678.2843819999998
 30
0.0
 11
898.31218755483064
 21
2678.2843819999998
 31
0.0
  0
LINE
  5
7AD1
  8
1
  6
CONTINUOUS
 10
1345.31218755483
 20
2604.7843819999998
 30
0.0
 11
1345.31218755483
 21
2664.7843819999998
 31
0.0
  0
LINE
  5
7AD2
  8
1
  6
CONTINUOUS
 10
1369.31218755483
 20
2604.7843819999998
 30
0.0
 11
1369.31218755483
 21
2664.7843819999998
 31
0.0
  0
LINE
  5
7AD3
  8
1
  6
CONTINUOUS
 10
1256.31218755483
 20
2664.7843819999998
 30
0.0
 11
1447.31218755483
 21
2664.7843819999998
 31
0.0
  0
LINE
  5
7AD4
  8
1
  6
CONTINUOUS
 10
1256.31218755483
 20
2936.7843819999989
 30
0.0
 11
1447.31218755483
 21
2936.7843819999989
 31
0.0
  0
LINE
  5
7AD5
  8
1
  6
CONTINUOUS
 10
1345.31218755483
 20
2569.7843819999989
 30
0.0
 11
1369.31218755483
 21
2569.7843819999989
 31
0.0
  0
LINE
  5
7AD6
  8
1
  6
CONTINUOUS
 10
1447.31218755483
 20
2936.7843819999989
 30
0.0
 11
1447.31218755483
 21
2664.7843819999998
 31
0.0
  0
LINE
  5
7AD7
  8
1
  6
CONTINUOUS
 10
1256.31218755483
 20
2664.7843819999998
 30
0.0
 11
1256.31218755483
 21
2936.7843819999989
 31
0.0
  0
LINE
  5
7AD8
  8
1
  6
CONTINUOUS
 10
741.81218755483064
 20
1681.7958410000001
 30
0.0
 11
741.81218755483064
 21
1242.2958410000001
 31
0.0
  0
LINE
  5
7AD9
  8
1
  6
CONTINUOUS
 10
1471.81218755483
 20
1461.7958410000001
 30
0.0
 11
1471.81218755483
 21
1251.7958410000001
 31
0.0
  0
LINE
  5
7ADA
  8
1
  6
CONTINUOUS
 10
886.31218755483064
 20
1811.7958410000001
 30
0.0
 11
886.31218755483064
 21
1831.7958410000001
 31
0.0
  0
LINE
  5
7ADB
  8
1
  6
CONTINUOUS
 10
741.81218755483064
 20
1681.7958410000001
 30
0.0
 11
941.81218755483064
 21
1811.7958410000001
 31
0.0
  0
LINE
  5
7ADC
  8
1
  6
CONTINUOUS
 10
941.81218755483064
 20
1811.7958410000001
 30
0.0
 11
1471.81218755483
 21
1461.7958410000001
 31
0.0
  0
LINE
  5
7ADD
  8
1
  6
CONTINUOUS
 10
1420.81218755483
 20
2569.7843819999989
 30
0.0
 11
1293.81218755483
 21
2569.7843819999989
 31
0.0
  0
LINE
  5
7ADE
  8
1
  6
CONTINUOUS
 10
1420.81218755483
 20
2604.7843819999998
 30
0.0
 11
1420.81218755483
 21
2569.7843819999989
 31
0.0
  0
LINE
  5
7ADF
  8
1
  6
CONTINUOUS
 10
1293.81218755483
 20
2604.7843819999998
 30
0.0
 11
1420.81218755483
 21
2604.7843819999998
 31
0.0
  0
LINE
  5
7AE0
  8
1
  6
CONTINUOUS
 10
1293.81218755483
 20
2569.7843819999989
 30
0.0
 11
1293.81218755483
 21
2604.7843819999998
 31
0.0
  0
LINE
  5
7AE1
  8
1
  6
CONTINUOUS
 10
874.31218755483064
 20
2648.2843819999989
 30
0.0
 11
651.31218755483064
 21
2648.2843819999989
 31
0.0
  0
LINE
  5
7AE2
  8
1
  6
CONTINUOUS
 10
1345.31218755483
 20
2648.2843819999989
 30
0.0
 11
898.31218755483064
 21
2648.2843819999989
 31
0.0
  0
LINE
  5
7AE3
  8
1
  6
CONTINUOUS
 10
1471.81218755483
 20
2543.2843819999989
 30
0.0
 11
741.81218755483064
 21
2543.2843819999989
 31
0.0
  0
LINE
  5
7AE4
  8
1
  6
CONTINUOUS
 10
1471.81218755483
 20
2628.2843819999998
 30
0.0
 11
741.81218755483064
 21
2628.2843819999998
 31
0.0
  0
LINE
  5
7AE5
  8
1
  6
CONTINUOUS
 10
741.81218755483064
 20
2628.2843819999998
 30
0.0
 11
741.81218755483064
 21
2543.2843819999989
 31
0.0
  0
LINE
  5
7AE6
  8
1
  6
CONTINUOUS
 10
1471.81218755483
 20
2628.2843819999998
 30
0.0
 11
1471.81218755483
 21
2543.2843819999989
 31
0.0
  0
LINE
  5
7AE7
  8
1
  6
CONTINUOUS
 10
898.31218755483064
 20
2841.4843820000001
 30
0.0
 11
898.31218755483064
 21
2604.7843819999998
 31
0.0
  0
LINE
  5
7AE8
  8
1
  6
CONTINUOUS
 10
874.31218755483064
 20
2841.4843820000001
 30
0.0
 11
874.31218755483064
 21
2604.7843819999998
 31
0.0
  0
LINE
  5
7AE9
  8
1
  6
CONTINUOUS
 10
874.31218755483064
 20
2678.2843819999998
 30
0.0
 11
681.31218755483064
 21
2678.2843819999998
 31
0.0
  0
LINE
  5
7AEA
  8
1
  6
CONTINUOUS
 10
1191.31218755483
 20
1831.7958410000001
 30
0.0
 11
1171.31218755483
 21
1811.7958410000001
 31
0.0
  0
LINE
  5
7AEB
  8
1
  6
CONTINUOUS
 10
896.31218755483064
 20
1831.7958410000001
 30
0.0
 11
916.31218755483064
 21
1811.7958410000001
 31
0.0
  0
LINE
  5
7AEC
  8
1
  6
CONTINUOUS
 10
1471.31218755483
 20
3143.2843819999998
 30
0.0
 11
1471.31218755483
 21
2963.2843819999989
 31
0.0
  0
LINE
  5
7AED
  8
1
  6
CONTINUOUS
 10
1501.31218755483
 20
3143.2843819999998
 30
0.0
 11
1471.31218755483
 21
3143.2843819999998
 31
0.0
  0
LINE
  5
7AEE
  8
1
  6
CONTINUOUS
 10
1471.31218755483
 20
2648.2843819999989
 30
0.0
 11
1471.31218755483
 21
2543.2843819999989
 31
0.0
  0
LINE
  5
7AEF
  8
1
  6
CONTINUOUS
 10
1501.31218755483
 20
2543.2843819999989
 30
0.0
 11
1471.31218755483
 21
2543.2843819999989
 31
0.0
  0
LINE
  5
7AF0
  8
1
  6
CONTINUOUS
 10
681.31218755483064
 20
2648.2843819999989
 30
0.0
 11
681.31218755483064
 21
2543.2843819999989
 31
0.0
  0
LINE
  5
7AF1
  8
1
  6
CONTINUOUS
 10
681.31218755483064
 20
2543.2843819999989
 30
0.0
 11
651.31218755483064
 21
2543.2843819999989
 31
0.0
  0
LINE
  5
7AF2
  8
1
  6
CONTINUOUS
 10
651.31218755483064
 20
2543.2843819999989
 30
0.0
 11
651.31218755483064
 21
3143.2843819999998
 31
0.0
  0
LINE
  5
7AF3
  8
1
  6
CONTINUOUS
 10
681.31218755483064
 20
3143.2843819999998
 30
0.0
 11
651.31218755483064
 21
3143.2843819999998
 31
0.0
  0
LINE
  5
7AF4
  8
1
  6
CONTINUOUS
 10
681.31218755483064
 20
3143.2843819999998
 30
0.0
 11
681.31218755483064
 21
3075.2843819999989
 31
0.0
  0
LINE
  5
7AF5
  8
1
  6
CONTINUOUS
 10
1471.31218755483
 20
1181.7958410000001
 30
0.0
 11
1471.31218755483
 21
1151.7958410000001
 31
0.0
  0
LINE
  5
7AF6
  8
1
  6
CONTINUOUS
 10
1501.31218755483
 20
1151.7958410000001
 30
0.0
 11
1471.31218755483
 21
1151.7958410000001
 31
0.0
  0
LINE
  5
7AF7
  8
1
  6
CONTINUOUS
 10
651.31218755483064
 20
1151.7958410000001
 30
0.0
 11
681.31218755483064
 21
1151.7958410000001
 31
0.0
  0
LINE
  5
7AF8
  8
1
  6
CONTINUOUS
 10
681.31218755483064
 20
1181.7958410000001
 30
0.0
 11
681.31218755483064
 21
1151.7958410000001
 31
0.0
  0
LINE
  5
7AF9
  8
1
  6
CONTINUOUS
 10
2690.7783880000002
 20
1181.7958410000001
 30
0.0
 11
2690.7783880000002
 21
1151.7958410000001
 31
0.0
  0
LINE
  5
7AFA
  8
1
  6
CONTINUOUS
 10
2090.7783879999988
 20
1151.7958410000001
 30
0.0
 11
2690.7783880000002
 21
1151.7958410000001
 31
0.0
  0
LINE
  5
7AFB
  8
1
  6
CONTINUOUS
 10
2090.7783879999988
 20
1181.7958410000001
 30
0.0
 11
2090.7783879999988
 21
1151.7958410000001
 31
0.0
  0
LINE
  5
7AFC
  8
1
  6
CONTINUOUS
 10
2175.7783879999988
 20
1251.895841
 30
0.0
 11
2175.7783879999988
 21
1811.7958410000001
 31
0.0
  0
LINE
  5
7AFD
  8
1
  6
CONTINUOUS
 10
2090.7783879999988
 20
1251.895841
 30
0.0
 11
2090.7783879999988
 21
1811.7958410000001
 31
0.0
  0
LINE
  5
7AFE
  8
1
  6
CONTINUOUS
 10
2115.7783879999988
 20
1425.395841
 30
0.0
 11
2115.7783879999988
 21
1298.395841
 31
0.0
  0
LINE
  5
7AFF
  8
1
  6
CONTINUOUS
 10
2150.7783879999988
 20
1425.395841
 30
0.0
 11
2115.7783879999988
 21
1425.395841
 31
0.0
  0
LINE
  5
7B00
  8
1
  6
CONTINUOUS
 10
2150.7783879999988
 20
1298.395841
 30
0.0
 11
2150.7783879999988
 21
1425.395841
 31
0.0
  0
LINE
  5
7B01
  8
1
  6
CONTINUOUS
 10
2115.7783879999988
 20
1298.395841
 30
0.0
 11
2150.7783879999988
 21
1298.395841
 31
0.0
  0
LINE
  5
7B02
  8
1
  6
CONTINUOUS
 10
2090.7783879999988
 20
1251.895841
 30
0.0
 11
2175.7783879999988
 21
1251.895841
 31
0.0
  0
LINE
  5
7B03
  8
1
  6
CONTINUOUS
 10
2090.7783879999988
 20
1811.7958410000001
 30
0.0
 11
2175.7783879999988
 21
1811.7958410000001
 31
0.0
  0
LINE
  5
7B04
  8
1
  6
CONTINUOUS
 10
2150.7783879999988
 20
1569.395841
 30
0.0
 11
2259.3783880000001
 21
1569.395841
 31
0.0
  0
LINE
  5
7B05
  8
1
  6
CONTINUOUS
 10
2150.7783879999988
 20
1594.395841
 30
0.0
 11
2291.7783879999988
 21
1594.395841
 31
0.0
  0
LINE
  5
7B06
  8
1
  6
CONTINUOUS
 10
2388.7783879999988
 20
1668.9958409999999
 30
0.0
 11
2224.7783879999988
 21
1542.7958410000001
 31
0.0
  0
LINE
  5
7B07
  8
1
  6
CONTINUOUS
 10
2224.7783879999988
 20
1542.7958410000001
 30
0.0
 11
2224.7783879999988
 21
1251.7958410000001
 31
0.0
  0
LINE
  5
7B08
  8
1
  6
CONTINUOUS
 10
2388.7783879999988
 20
1764.3958409999991
 30
0.0
 11
2388.7783879999988
 21
1251.7958410000001
 31
0.0
  0
LINE
  5
7B09
  8
1
  6
CONTINUOUS
 10
2115.7783879999988
 20
1518.395841
 30
0.0
 11
2150.7783879999988
 21
1518.395841
 31
0.0
  0
LINE
  5
7B0A
  8
1
  6
CONTINUOUS
 10
2150.7783879999988
 20
1518.395841
 30
0.0
 11
2150.7783879999988
 21
1645.395841
 31
0.0
  0
LINE
  5
7B0B
  8
1
  6
CONTINUOUS
 10
2150.7783879999988
 20
1645.395841
 30
0.0
 11
2115.7783879999988
 21
1645.395841
 31
0.0
  0
LINE
  5
7B0C
  8
1
  6
CONTINUOUS
 10
2115.7783879999988
 20
1645.395841
 30
0.0
 11
2115.7783879999988
 21
1518.395841
 31
0.0
  0
LINE
  5
7B0D
  8
1
  6
CONTINUOUS
 10
2090.7783879999988
 20
1181.7958410000001
 30
0.0
 11
2690.7783880000002
 21
1181.7958410000001
 31
0.0
  0
LINE
  5
7B0E
  8
1
  6
CONTINUOUS
 10
2510.5783879999999
 20
1181.7958410000001
 30
0.0
 11
2510.5783879999999
 21
1251.7958410000001
 31
0.0
  0
LINE
  5
7B0F
  8
1
  6
CONTINUOUS
 10
2510.5783879999999
 20
1251.7958410000001
 30
0.0
 11
2195.578387999999
 21
1251.7958410000001
 31
0.0
  0
LINE
  5
7B10
  8
1
  6
CONTINUOUS
 10
2195.578387999999
 20
1251.7958410000001
 30
0.0
 11
2195.578387999999
 21
1181.7958410000001
 31
0.0
  0
LINE
  5
7B11
  8
1
  6
CONTINUOUS
 10
2150.7783879999988
 20
1373.895841
 30
0.0
 11
2224.7783879999988
 21
1373.895841
 31
0.0
  0
LINE
  5
7B12
  8
1
  6
CONTINUOUS
 10
2150.7783879999988
 20
1349.895841
 30
0.0
 11
2224.7783879999988
 21
1349.895841
 31
0.0
  0
LINE
  5
7B13
  8
1
  6
CONTINUOUS
 10
2388.7783879999988
 20
1399.2958410000001
 30
0.0
 11
2388.7783879999988
 21
1764.2958410000001
 31
0.0
  0
LINE
  5
7B14
  8
1
  6
CONTINUOUS
 10
2388.7783879999988
 20
1399.2958410000001
 30
0.0
 11
2397.9783879999991
 21
1399.2958410000001
 31
0.0
  0
LINE
  5
7B15
  8
1
  6
CONTINUOUS
 10
2398.7783879999988
 20
1313.7958410000001
 30
0.0
 11
2398.7783879999988
 21
1831.7958410000001
 31
0.0
  0
LINE
  5
7B16
  8
1
  6
CONTINUOUS
 10
2377.7783879999988
 20
1831.7958410000001
 30
0.0
 11
2643.7783879999988
 21
1831.7958410000001
 31
0.0
  0
LINE
  5
7B17
  8
1
  6
CONTINUOUS
 10
2622.7783879999988
 20
1831.7958410000001
 30
0.0
 11
2622.7783879999988
 21
1313.7958410000001
 31
0.0
  0
LINE
  5
7B18
  8
1
  6
CONTINUOUS
 10
2418.7783879999988
 20
1293.7958410000001
 30
0.0
 11
2602.7783879999988
 21
1293.7958410000001
 31
0.0
  0
LINE
  5
7B19
  8
1
  6
CONTINUOUS
 10
2631.7783879999988
 20
1399.2958410000001
 30
0.0
 11
2622.7783879999988
 21
1399.2958410000001
 31
0.0
  0
LINE
  5
7B1A
  8
1
  6
CONTINUOUS
 10
2388.7783879999988
 20
1764.2958410000001
 30
0.0
 11
2397.9783879999991
 21
1764.2958410000001
 31
0.0
  0
ARC
  5
7B1B
  8
1
  6
CONTINUOUS
 10
2418.7783879999988
 20
1313.7958410000001
 30
0.0
 40
20.0
 50
180.0
 51
270.0
  0
ARC
  5
7B1C
  8
1
  6
CONTINUOUS
 10
2602.7783879999988
 20
1313.7958410000001
 30
0.0
 40
20.0
 50
270.0
 51
0.0
  0
LINE
  5
7B1D
  8
1
  6
CONTINUOUS
 10
2613.7783880000002
 20
1831.7958410000001
 30
0.0
 11
2593.7783880000002
 21
1811.7958410000001
 31
0.0
  0
LINE
  5
7B1E
  8
1
  6
CONTINUOUS
 10
2407.7783880000002
 20
1831.7958410000001
 30
0.0
 11
2427.7783880000002
 21
1811.7958410000001
 31
0.0
  0
LINE
  5
7B1F
  8
1
  6
CONTINUOUS
 10
2631.7783879999988
 20
1764.2958410000001
 30
0.0
 11
2623.5783879999999
 21
1764.2958410000001
 31
0.0
  0
LINE
  5
7B21
  8
1
  6
CONTINUOUS
 10
2427.7783880000002
 20
1811.7958410000001
 30
0.0
 11
2593.7783880000002
 21
1811.7958410000001
 31
0.0
  0
LINE
  5
7B22
  8
4
  6
CONTINUOUS
 10
2775.0
 20
750.0
 30
0.0
 11
2775.0
 21
450.0
 31
0.0
  0
LINE
  5
7B23
  8
4
  6
CONTINUOUS
 10
1725.0
 20
750.0
 30
0.0
 11
1725.0
 21
450.0
 31
0.0
  0
LINE
  5
7B24
  8
4
  6
CONTINUOUS
 10
975.0
 20
750.0
 30
0.0
 11
975.0
 21
450.0
 31
0.0
  0
LINE
  5
7B27
  8
4
  6
CONTINUOUS
 10
975.0
 20
450.0
 30
0.0
 11
2775.0
 21
450.0
 31
0.0
  0
LINE
  5
7B28
  8
4
  6
CONTINUOUS
 10
975.0
 20
600.0
 30
0.0
 11
2775.0
 21
600.0
 31
0.0
  0
TEXT
  5
7B29
  8
4
  6
CONTINUOUS
 10
1032.753121
 20
647.31453899999985
 30
0.0
 40
75.0
  1
機器名称
  0
TEXT
  5
7B2A
  8
4
  6
CONTINUOUS
 10
1029.387158999999
 20
482.46773499999989
 30
0.0
 40
75.0
  1
機器型番
  0
TEXT
  5
7B2B
  8
4
  6
CONTINUOUS
 10
1766.518118
 20
633.85765300000003
 30
0.0
 40
65.0
  1
ミツヤニューマルチファン
  0
TEXT
  5
7B2C
  8
4
  6
CONTINUOUS
 10
1779.9817430000001
 20
475.73937599999999
 30
0.0
 40
75.0
  1
NM#2-1
  0
TEXT
  5
7B2E
  8
4
  6
CONTINUOUS
 10
1357.1786480000001
 20
3575.1432619999991
 30
0.0
 40
81.0
  1
天井吊ベット
  0
TEXT
  5
7B2F
  8
4
  6
CONTINUOUS
 10
474.25139000000001
 20
3800.8214640000001
 30
0.0
 40
108.0
  1
ベルト駆動式片吸込片持多翼ファン
  0
LINE
  5
7B30
  8
4
  6
CONTINUOUS
 10
375.0
 20
3704.1131310000001
 30
0.0
 11
2775.0
 21
3704.1131310000001
 31
0.0
  0
LINE
  5
7B31
  8
4
  6
CONTINUOUS
 10
375.0
 20
4004.1131310000001
 30
0.0
 11
2775.0
 21
4004.1131310000001
 31
0.0
  0
LINE
  5
7B32
  8
4
  6
CONTINUOUS
 10
975.0
 20
750.0
 30
0.0
 11
2775.0
 21
750.0
 31
0.0
  0
LINE
  5
7B33
  8
4
  6
CONTINUOUS
 10
375.0
 20
4004.1131310000001
 30
0.0
 11
375.0
 21
3704.1131310000001
 31
0.0
  0
TEXT
  5
7B34
  8
4
  6
CONTINUOUS
 10
703.39039999999989
 20
3573.4792159999988
 30
0.0
 40
81.0
  1
左回転上向
  0
TEXT
  5
7B35
  8
4
  6
CONTINUOUS
 10
2203.454338999999
 20
4059.091621999999
 30
0.0
 40
84.0
  1
No.
  0
TEXT
  5
7B36
  8
4
  6
CONTINUOUS
 10
1966.944094
 20
3575.1432619999991
 30
0.0
 40
81.0
  1
縮尺：1/15
  0
LINE
  5
7B37
  8
4
  6
CONTINUOUS
 10
2775.0
 20
4004.1131310000001
 30
0.0
 11
2775.0
 21
3704.1131310000001
 31
0.0
  0
LINE
  5
7B39
  8
4
  6
CONTINUOUS
 10
2160.9261339999989
 20
4021.8953750000001
 30
0.0
 11
2160.9261339999989
 21
4179.978392
 31
0.0
  0
LINE
  5
7B3A
  8
4
  6
CONTINUOUS
 10
2160.9261339999989
 20
4179.978392
 30
0.0
 11
2775.0
 21
4179.978392
 31
0.0
  0
LINE
  5
7B3B
  8
4
  6
CONTINUOUS
 10
2775.0
 20
4179.978392
 30
0.0
 11
2775.0
 21
4021.8953750000001
 31
0.0
  0
LINE
  5
7B3C
  8
4
  6
CONTINUOUS
 10
2775.0
 20
4021.8953750000001
 30
0.0
 11
2160.9261339999989
 21
4021.8953750000001
 31
0.0
  0
DIMENSION
  5
7B55
  8
3
  6
CONTINUOUS
  2
*D1
 10
886.31218755483064
 20
1066.376487
 30
0.0
 11
754.16933055483059
 21
1066.376487
 31
0.0
 70
   128
 13
651.31218755483064
 23
1151.7958410000001
 33
0.0
 14
886.31218755483064
 24
1137.4419580000001
 34
0.0
1001
ACAD
1000
DSTYLE
1002
{
1070
   287
1070
     3
1070
   287
1070
     3
1070
    40
1040
15.0
1070
   143
1040
0.039
1070
   172
1070
     1
1070
   271
1070
     0
1070
   279
1070
     0
1070
   288
1070
     1
1002
}
  0
DIMENSION
  5
7B61
  8
3
  6
CONTINUOUS
  2
*D2
 10
1501.31218755483
 20
1066.376487
 30
0.0
 11
1193.81218755483
 21
1103.8764869999991
 31
0.0
 70
     0
 13
886.31218755483064
 23
1137.4419580000001
 33
0.0
 14
1501.31218755483
 24
1151.7958410000001
 34
0.0
1001
ACAD
1000
DSTYLE
1002
{
1070
   287
1070
     4
1070
   287
1070
     4
1070
    40
1040
15.0
1070
    75
1070
     1
1070
   143
1040
0.039
1070
   172
1070
     1
1070
   271
1070
     0
1070
   279
1070
     1
1070
   288
1070
     1
1002
}
  0
DIMENSION
  5
7B6E
  8
3
  6
CONTINUOUS
  2
*D3
 10
1653.0156517859471
 20
1581.795840999999
 30
0.0
 11
1653.0156517859471
 21
1710.8757840000001
 31
0.0
 70
   128
 13
1222.81218755483
 23
1831.7958410000001
 33
0.0
 14
1210.2246545548301
 24
1581.7958410000001
 34
0.0
 50
90.0
1001
ACAD
1000
DSTYLE
1002
{
1070
   287
1070
     3
1070
   287
1070
     3
1070
    40
1040
15.0
1070
   143
1040
0.039
1070
   172
1070
     1
1070
   271
1070
     0
1070
   279
1070
     0
1070
   288
1070
     1
1002
}
  0
DIMENSION
  5
7B7A
  8
3
  6
CONTINUOUS
  2
*D4
 10
1653.0156517859471
 20
1181.7958410000001
 30
0.0
 11
1615.5156517859471
 21
1381.7958410000001
 31
0.0
 70
     0
 13
1210.2246545548301
 23
1581.7958410000001
 33
0.0
 14
1501.31218755483
 24
1181.7958410000001
 34
0.0
 50
90.0
1001
ACAD
1000
DSTYLE
1002
{
1070
   287
1070
     4
1070
   287
1070
     4
1070
    40
1040
15.0
1070
    75
1070
     1
1070
   143
1040
0.039
1070
   172
1070
     1
1070
   271
1070
     0
1070
   279
1070
     1
1070
   288
1070
     1
1002
}
  0
DIMENSION
  5
7B8A
  8
3
  6
CONTINUOUS
  2
*D5
 10
1653.2612547859469
 20
1151.795840999999
 30
0.0
 11
1653.2612547859469
 21
1040.3672695714281
 31
0.0
 70
   128
 13
1501.31218755483
 23
1181.7958410000001
 33
0.0
 14
1501.31218755483
 24
1151.7958410000001
 34
0.0
 50
90.0
1001
ACAD
1000
DSTYLE
1002
{
1070
   287
1070
     3
1070
   287
1070
     3
1070
    40
1040
15.0
1070
   143
1040
0.039
1070
   172
1070
     1
1070
   271
1070
     0
1070
   279
1070
     0
1070
   288
1070
     1
1002
}
  0
DIMENSION
  5
7B97
  8
3
  6
CONTINUOUS
  2
*D6
 10
1755.486916087217
 20
1151.795840999999
 30
0.0
 11
1755.486916087217
 21
1499.563314
 31
0.0
 70
   128
 13
1222.81218755483
 23
1831.7958410000001
 33
0.0
 14
1501.31218755483
 24
1151.7958410000001
 34
0.0
 50
90.0
1001
ACAD
1000
DSTYLE
1002
{
1070
   287
1070
     3
1070
   287
1070
     3
1070
    40
1040
15.0
1070
   143
1040
0.039
1070
   172
1070
     1
1070
   271
1070
     0
1070
   279
1070
     0
1070
   288
1070
     1
1002
}
  0
DIMENSION
  5
7BBE
  8
3
  6
CONTINUOUS
  2
*D7
 10
1201.31218755483
 20
1915.0613719999999
 30
0.0
 11
1042.3968925548299
 21
1915.0613719999999
 31
0.0
 70
   128
 13
886.31218755483064
 23
1831.7958410000001
 33
0.0
 14
1201.31218755483
 24
1831.7958410000001
 34
0.0
1001
ACAD
1000
DSTYLE
1002
{
1070
   287
1070
     3
1070
   287
1070
     3
1070
    40
1040
15.0
1070
   143
1040
0.039
1070
   172
1070
     1
1070
   271
1070
     0
1070
   279
1070
     0
1070
   288
1070
     1
1002
}
  0
DIMENSION
  5
7BCB
  8
3
  6
CONTINUOUS
  2
*D8
 10
886.31218755483064
 20
2001.0606319999999
 30
0.0
 11
783.45504455483047
 21
2001.0606319999999
 31
0.0
 70
   128
 13
654.06700155483054
 23
1581.7958410000001
 33
0.0
 14
886.31218755483064
 24
1831.7958410000001
 34
0.0
1001
ACAD
1000
DSTYLE
1002
{
1070
   287
1070
     3
1070
   287
1070
     3
1070
    40
1040
15.0
1070
   143
1040
0.039
1070
   172
1070
     1
1070
   271
1070
     0
1070
   279
1070
     0
1070
   288
1070
     1
1002
}
  0
DIMENSION
  5
7BD7
  8
3
  6
CONTINUOUS
  2
*D9
 10
1211.31218755483
 20
2001.0606319999999
 30
0.0
 11
1048.81218755483
 21
2038.5606319999999
 31
0.0
 70
     0
 13
886.31218755483064
 23
1831.7958410000001
 33
0.0
 14
1211.31218755483
 24
1811.7958410000001
 34
0.0
1001
ACAD
1000
DSTYLE
1002
{
1070
   287
1070
     4
1070
   287
1070
     4
1070
    40
1040
15.0
1070
    75
1070
     1
1070
   143
1040
0.039
1070
   172
1070
     1
1070
   271
1070
     0
1070
   279
1070
     1
1070
   288
1070
     1
1002
}
  0
LINE
  5
7BD8
  8
2
  6
CENTER
 10
1349.8691475548301
 20
1581.7958410000001
 30
0.0
 11
621.11039155483058
 21
1581.7958410000001
 31
0.0
  0
DIMENSION
  5
7BE5
  8
3
  6
CONTINUOUS
  2
*D10
 10
1501.31218755483
 20
2410.9047949999999
 30
0.0
 11
1037.4773485548301
 21
2410.9047949999999
 31
0.0
 70
   128
 13
651.31218755483064
 23
2543.2843819999989
 33
0.0
 14
1501.31218755483
 24
2543.2843819999989
 34
0.0
1001
ACAD
1000
DSTYLE
1002
{
1070
   287
1070
     3
1070
   287
1070
     3
1070
    40
1040
15.0
1070
   143
1040
0.039
1070
   172
1070
     1
1070
   271
1070
     0
1070
   279
1070
     0
1070
   288
1070
     1
1002
}
  0
DIMENSION
  5
7BF2
  8
3
  6
CONTINUOUS
  2
*D11
 10
1637.6632115548309
 20
2543.2843819999989
 30
0.0
 11
1637.66321155483
 21
2858.8343490000002
 31
0.0
 70
   128
 13
1501.31218755483
 23
3143.2843819999998
 33
0.0
 14
1501.31218755483
 24
2543.2843819999989
 34
0.0
 50
90.0
1001
ACAD
1000
DSTYLE
1002
{
1070
   287
1070
     3
1070
   287
1070
     3
1070
    40
1040
15.0
1070
   143
1040
0.039
1070
   172
1070
     1
1070
   271
1070
     0
1070
   279
1070
     0
1070
   288
1070
     1
1002
}
  0
LINE
  5
7BF3
  8
2
  6
CENTER
 10
1235.7490915548301
 20
2963.2843819999989
 30
0.0
 11
614.39553155483065
 21
2963.2843819999989
 31
0.0
  0
LINE
  5
7BF4
  8
2
  6
CENTER
 10
886.31218755483064
 20
2513.8594509999998
 30
0.0
 11
886.31218755483064
 21
3120.0453399999992
 31
0.0
  0
LINE
  5
7BF5
  8
2
  6
CENTER
 10
2510.7783880000002
 20
1890.6612359999999
 30
0.0
 11
2510.7783880000002
 21
1044.7575380000001
 31
0.0
  0
DIMENSION
  5
7C02
  8
3
  6
CONTINUOUS
  2
*D12
 10
2510.7783880000002
 20
1049.671771
 30
0.0
 11
2314.8841209999991
 21
1049.671771
 31
0.0
 70
   128
 13
2090.7783879999988
 23
1151.7958410000001
 33
0.0
 14
2510.7783880000002
 24
1151.7958410000001
 34
0.0
1001
ACAD
1000
DSTYLE
1002
{
1070
   287
1070
     3
1070
   287
1070
     3
1070
    40
1040
15.0
1070
   143
1040
0.039
1070
   172
1070
     1
1070
   271
1070
     0
1070
   279
1070
     0
1070
   288
1070
     1
1002
}
  0
DIMENSION
  5
7C10
  8
3
  6
CONTINUOUS
  2
*D13
 10
2690.7783880000002
 20
1049.671771
 30
0.0
 11
2595.5444480000001
 21
1049.427314
 31
0.0
 70
   128
 13
2510.7783880000002
 23
1151.7958410000001
 33
0.0
 14
2690.7783880000002
 24
1151.7958410000001
 34
0.0
1001
ACAD
1000
DSTYLE
1002
{
1070
   287
1070
     4
1070
   287
1070
     4
1070
    40
1040
15.0
1070
    75
1070
     1
1070
   143
1040
0.039
1070
   172
1070
     1
1070
   271
1070
     0
1070
   279
1070
     1
1070
   288
1070
     1
1002
}
  0
DIMENSION
  5
7C33
  8
3
  6
CONTINUOUS
  2
*D14
 10
2622.7783879999988
 20
1883.125023999999
 30
0.0
 11
2502.7069590000001
 21
1883.125023999999
 31
0.0
 70
   128
 13
2398.7783879999988
 23
1831.7958410000001
 33
0.0
 14
2622.7783879999988
 24
1831.7958410000001
 34
0.0
1001
ACAD
1000
DSTYLE
1002
{
1070
   287
1070
     3
1070
   287
1070
     3
1070
    40
1040
15.0
1070
   143
1040
0.039
1070
   172
1070
     1
1070
   271
1070
     0
1070
   279
1070
     0
1070
   288
1070
     1
1002
}
  0
DIMENSION
  5
7C40
  8
3
  6
CONTINUOUS
  2
*D15
 10
2510.7783880000002
 20
1974.038536
 30
0.0
 11
2290.5319559999998
 21
1974.038536
 31
0.0
 70
   128
  1
MAX\P420
 13
2090.7783879999988
 23
1811.7958410000001
 33
0.0
 14
2510.7783880000002
 24
1952.189451
 34
0.0
1001
ACAD
1000
DSTYLE
1002
{
1070
   287
1070
     3
1070
   287
1070
     3
1070
    40
1040
15.0
1070
   143
1040
0.039
1070
   172
1070
     1
1070
   271
1070
     0
1070
   279
1070
     0
1070
   288
1070
     1
1002
}
  0
DIMENSION
  5
7C4E
  8
3
  6
CONTINUOUS
  2
*D16
 10
2631.7783879999988
 20
1974.038536
 30
0.0
 11
2566.0271039999989
 21
1974.038536
 31
0.0
 70
   128
 13
2510.7783880000002
 23
1952.189451
 33
0.0
 14
2631.7783879999988
 24
1764.2958410000001
 34
0.0
1001
ACAD
1000
DSTYLE
1002
{
1070
   287
1070
     4
1070
   287
1070
     4
1070
    40
1040
15.0
1070
    75
1070
     1
1070
   143
1040
0.039
1070
   172
1070
     1
1070
   271
1070
     0
1070
   279
1070
     1
1070
   288
1070
     1
1002
}
  0
LINE
  5
7C67
  8
3
  6
CONTINUOUS
 10
2631.7783879999988
 20
1739.2958410000001
 30
0.0
 11
2644.8526550000001
 21
1739.2958410000001
 31
0.0
  0
LINE
  5
7C69
  8
3
  6
CONTINUOUS
 10
2631.7783879999988
 20
1424.2958410000001
 30
0.0
 11
2651.0866059999989
 21
1424.2958410000001
 31
0.0
  0
DIMENSION
  5
7C76
  8
3
  6
CONTINUOUS
  2
*D17
 10
2739.4007769999998
 20
1424.2958410000001
 30
0.0
 11
2739.4007769999998
 21
1566.8565410000001
 31
0.0
 70
   128
 13
2631.7783879999988
 23
1739.2958410000001
 33
0.0
 14
2631.7783879999988
 24
1424.2958410000001
 34
0.0
 50
90.0
1001
ACAD
1000
DSTYLE
1002
{
1070
   287
1070
     3
1070
   287
1070
     3
1070
     3
1000
φ<>
1070
    40
1040
15.0
1070
   143
1040
0.039
1070
   172
1070
     1
1070
   271
1070
     0
1070
   279
1070
     0
1070
   288
1070
     1
1002
}
  0
LINE
  5
7C91
  8
1
  6
CONTINUOUS
 10
2631.7783879999988
 20
1764.2958410000001
 30
0.0
 11
2631.7783879999988
 21
1399.2958410000001
 31
0.0
  0
DIMENSION
  5
7CCB
  8
3
  2
*D18
 10
1501.31218755483
 20
2094.1101977430508
 30
0.0
 11
1130.7620221720149
 21
2094.1101977430508
 31
0.0
 70
   128
 13
654.06700155483054
 23
1589.2958410000001
 33
0.0
 14
1501.31218755483
 24
1251.7958410000001
 34
0.0
1001
ACAD
1000
DSTYLE
1002
{
1070
   287
1070
     3
1070
   287
1070
     3
1070
    40
1040
15.0
1070
   143
1040
0.039
1070
   172
1070
     1
1070
   271
1070
     0
1070
   279
1070
     0
1070
   288
1070
     1
1002
}
  0
ENDSEC
  0
EOF
