  0
SECTION
  2
HEADER
  9
$ACADVER
  1
AC1009
  9
$INSBASE
 10
0.0
 20
0.0
 30
0.0
  9
$EXTMIN
 10
375.0
 20
450.0
 30
0.0
  9
$EXTMAX
 10
2775.0
 20
4179.978392
 30
0.0
  9
$LIMMIN
 10
0.0
 20
0.0
  9
$LIMMAX
 10
297.0
 20
210.0
  9
$ORTHOMODE
 70
     0
  9
$REGENMODE
 70
     1
  9
$FILLMODE
 70
     0
  9
$QTEXTMODE
 70
     0
  9
$MIRRTEXT
 70
     1
  9
$DRAGMODE
 70
     2
  9
$LTSCALE
 40
100.0
  9
$OSMODE
 70
    37
  9
$ATTMODE
 70
     1
  9
$TEXTSIZE
 40
180.0
  9
$TRACEWID
 40
0.05
  9
$TEXTSTYLE
  7
STANDARD
  9
$CLAYER
  8
3
  9
$CELTYPE
  6
BYLAYER
  9
$CECOLOR
 62
   256
  9
$DIMSCALE
 40
15.0
  9
$DIMASZ
 40
2.0
  9
$DIMEXO
 40
0.5
  9
$DIMDLI
 40
10.0
  9
$DIMRND
 40
0.0
  9
$DIMDLE
 40
0.0
  9
$DIMEXE
 40
1.0
  9
$DIMTP
 40
1.0
  9
$DIMTM
 40
1.0
  9
$DIMTXT
 40
3.0
  9
$DIMCEN
 40
0.0
  9
$DIMTSZ
 40
0.0
  9
$DIMTOL
 70
     0
  9
$DIMLIM
 70
     0
  9
$DIMTIH
 70
     0
  9
$DIMTOH
 70
     0
  9
$DIMSE1
 70
     0
  9
$DIMSE2
 70
     0
  9
$DIMTAD
 70
     1
  9
$DIMZIN
 70
     8
  9
$DIMBLK
  1

  9
$DIMASO
 70
     1
  9
$DIMSHO
 70
     1
  9
$DIMPOST
  1

  9
$DIMAPOST
  1

  9
$DIMALT
 70
     0
  9
$DIMALTD
 70
     2
  9
$DIMALTF
 40
0.039
  9
$DIMLFAC
 40
1.0
  9
$DIMTOFL
 70
     1
  9
$DIMTVP
 40
0.0
  9
$DIMTIX
 70
     0
  9
$DIMSOXD
 70
     0
  9
$DIMSAH
 70
     1
  9
$DIMBLK1
  1
OPEN
  9
$DIMBLK2
  1
OPEN
  9
$DIMSTYLE
  2
IGA
  9
$DIMCLRD
 70
     0
  9
$DIMCLRE
 70
     0
  9
$DIMCLRT
 70
     0
  9
$DIMTFAC
 40
10.0
  9
$DIMGAP
 40
1.0
  9
$LUNITS
 70
     2
  9
$LUPREC
 70
     3
  9
$SKETCHINC
 40
0.1
  9
$FILLETRAD
 40
50.0
  9
$AUNITS
 70
     0
  9
$AUPREC
 70
     0
  9
$MENU
  1
acad
  9
$ELEVATION
 40
0.0
  9
$PELEVATION
 40
0.0
  9
$THICKNESS
 40
0.0
  9
$LIMCHECK
 70
     0
  9
$BLIPMODE
 70
     0
  9
$CHAMFERA
 40
0.5
  9
$CHAMFERB
 40
0.5
  9
$SKPOLY
 70
     0
  9
$TDCREATE
 40
2450746.3807296292
  9
$TDUPDATE
 40
2454953.8647236689
  9
$TDINDWG
 40
0.006612338
  9
$TDUSRTIMER
 40
0.006612338
  9
$USRTIMER
 70
     1
  9
$ANGBASE
 50
0.0
  9
$ANGDIR
 70
     0
  9
$PDMODE
 70
     0
  9
$PDSIZE
 40
0.0
  9
$PLINEWID
 40
0.0
  9
$COORDS
 70
     1
  9
$SPLFRAME
 70
     0
  9
$SPLINETYPE
 70
     6
  9
$SPLINESEGS
 70
     8
  9
$ATTDIA
 70
     0
  9
$ATTREQ
 70
     1
  9
$HANDLING
 70
 10241
  9
$HANDSEED
  5
7E89
  9
$SURFTAB1
 70
     6
  9
$SURFTAB2
 70
     6
  9
$SURFTYPE
 70
     6
  9
$SURFU
 70
     6
  9
$SURFV
 70
     6
  9
$UCSNAME
  2

  9
$UCSORG
 10
0.0
 20
0.0
 30
0.0
  9
$UCSXDIR
 10
1.0
 20
0.0
 30
0.0
  9
$UCSYDIR
 10
0.0
 20
1.0
 30
0.0
  9
$PUCSNAME
  2

  9
$PUCSORG
 10
0.0
 20
0.0
 30
0.0
  9
$PUCSXDIR
 10
1.0
 20
0.0
 30
0.0
  9
$PUCSYDIR
 10
0.0
 20
1.0
 30
0.0
  9
$USERI1
 70
     0
  9
$USERI2
 70
     0
  9
$USERI3
 70
     0
  9
$USERI4
 70
     0
  9
$USERI5
 70
     0
  9
$USERR1
 40
0.0
  9
$USERR2
 40
0.0
  9
$USERR3
 40
0.0
  9
$USERR4
 40
0.0
  9
$USERR5
 40
0.0
  9
$WORLDVIEW
 70
     1
  9
$SHADEDGE
 70
     3
  9
$SHADEDIF
 70
    70
  9
$TILEMODE
 70
     1
  9
$MAXACTVP
 70
    16
  9
$PLIMCHECK
 70
     0
  9
$PEXTMIN
 10
1.0000000000000000E+020
 20
1.0000000000000000E+020
 30
1.0000000000000000E+020
  9
$PEXTMAX
 10
-1.0000000000000000E+020
 20
-1.0000000000000000E+020
 30
-1.0000000000000000E+020
  9
$PLIMMIN
 10
0.0
 20
0.0
  9
$PLIMMAX
 10
12.0
 20
9.0
  9
$UNITMODE
 70
     0
  9
$VISRETAIN
 70
     0
  9
$PLINEGEN
 70
     0
  9
$PSLTSCALE
 70
     1
  0
ENDSEC
  0
SECTION
  2
TABLES
  0
TABLE
  2
VPORT
 70
     2
  0
VPORT
  2
*ACTIVE
 70
     0
 10
0.0
 20
0.0
 11
1.0
 21
1.0
 12
4332.2366114931001
 22
2960.513321264028
 13
0.0
 23
0.0
 14
10.0
 24
10.0
 15
10.0
 25
10.0
 16
0.0
 26
0.0
 36
1.0
 17
0.0
 27
0.0
 37
0.0
 40
5790.646336085927
 41
1.5051150895140659
 42
50.0
 43
0.0
 44
0.0
 50
0.0
 51
0.0
 71
     0
 72
   100
 73
     1
 74
     0
 75
     0
 76
     0
 77
     0
 78
     0
  0
ENDTAB
  0
TABLE
  2
LTYPE
 70
     2
  0
LTYPE
  2
CONTINUOUS
 70
     0
  3
Solid line
 72
    65
 73
     0
 40
0.0
  0
LTYPE
  2
CENTER
 70
     0
  3
____ _ ____ _ ____ _ ____ _ ____ _ ____ _ ____ 
 72
    65
 73
     4
 40
2.0
 49
1.25
 49
-0.25
 49
0.25
 49
-0.25
  0
ENDTAB
  0
TABLE
  2
LAYER
 70
     6
  0
LAYER
  2
0
 70
     0
 62
     7
  6
CONTINUOUS
  0
LAYER
  2
3
 70
     0
 62
     2
  6
CONTINUOUS
  0
LAYER
  2
2
 70
     0
 62
     3
  6
CENTER
  0
LAYER
  2
1
 70
     0
 62
     4
  6
CONTINUOUS
  0
LAYER
  2
4
 70
     0
 62
     7
  6
CONTINUOUS
  0
LAYER
  2
DEFPOINTS
 70
     0
 62
     7
  6
CONTINUOUS
  0
ENDTAB
  0
TABLE
  2
STYLE
 70
     1
  0
STYLE
  2
STANDARD
 70
     0
 40
0.0
 41
1.0
 50
0.0
 71
     0
 42
180.0
  3
simplex.shx
  4
extfont.shx
  0
ENDTAB
  0
TABLE
  2
VIEW
 70
     0
  0
ENDTAB
  0
TABLE
  2
UCS
 70
     0
  0
ENDTAB
  0
TABLE
  2
APPID
 70
     1
  0
APPID
  2
ACAD
 70
     0
  0
ENDTAB
  0
TABLE
  2
DIMSTYLE
 70
     1
  0
DIMSTYLE
  2
IGA
 70
     0
  3

  4

  5

  6
OPEN
  7
OPEN
 40
2.0
 41
2.0
 42
0.5
 43
10.0
 44
1.0
 45
0.0
 46
0.0
 47
1.0
 48
1.0
140
3.0
141
0.0
142
0.0
143
0.03937
144
1.0
145
0.0
146
10.0
147
1.0
 71
     0
 72
     0
 73
     0
 74
     0
 75
     0
 76
     0
 77
     1
 78
     8
170
     0
171
     2
172
     0
173
     1
174
     0
175
     0
176
     0
177
     0
178
     0
  0
ENDTAB
  0
ENDSEC
  0
SECTION
  2
BLOCKS
  0
BLOCK
  8
0
  2
$MODEL_SPACE
 70
     0
 10
0.0
 20
0.0
 30
0.0
  3
$MODEL_SPACE
  1

  0
ENDBLK
  5
1B
  8
0
  0
BLOCK
 67
     1
  8
0
  2
$PAPER_SPACE
 70
     0
 10
0.0
 20
0.0
 30
0.0
  3
$PAPER_SPACE
  1

  0
ENDBLK
  5
18
 67
     1
  8
0
  0
BLOCK
  8
0
  2
_OPEN
 70
     0
 10
0.0
 20
0.0
 30
0.0
  3
_OPEN
  1

  0
LINE
  5
7B20
  8
0
  6
BYBLOCK
 62
     0
 10
-1.0
 20
0.166667
 30
0.0
 11
0.0
 21
0.0
 31
0.0
  0
LINE
  5
7B21
  8
0
  6
BYBLOCK
 62
     0
 10
0.0
 20
0.0
 30
0.0
 11
-1.0
 21
-0.166667
 31
0.0
  0
LINE
  5
7B22
  8
0
  6
BYBLOCK
 62
     0
 10
0.0
 20
0.0
 30
0.0
 11
-1.0
 21
0.0
 31
0.0
  0
ENDBLK
  5
7B23
  8
0
  0
BLOCK
  8
0
  2
*D1
 70
     1
 10
0.0
 20
0.0
 30
0.0
  3
*D1
  1

  0
LINE
  5
7DD7
  8
3
  6
CONTINUOUS
 62
     0
 10
763.97969699999976
 20
1141.2202489757269
 30
0.0
 11
763.97969699999976
 21
1039.132277975727
 31
0.0
  0
LINE
  5
7DD8
  8
3
  6
CONTINUOUS
 62
     0
 10
998.97969700000021
 20
1113.4930179757271
 30
0.0
 11
998.97969700000021
 21
1039.132277975727
 31
0.0
  0
LINE
  5
7DD9
  8
3
  6
CONTINUOUS
 62
     0
 10
793.97969699999965
 20
1054.132277975727
 30
0.0
 11
968.9796970000001
 21
1054.132277975727
 31
0.0
  0
INSERT
  5
7DDA
  8
3
  6
CONTINUOUS
 62
     0
  2
_OPEN
 10
763.97969699999976
 20
1054.132277975727
 30
0.0
 41
30.0
 42
30.0
 43
30.0
 50
180.0
  0
INSERT
  5
7DDB
  8
3
  6
CONTINUOUS
 62
     0
  2
_OPEN
 10
998.97969700000021
 20
1054.132277975727
 30
0.0
 41
30.0
 42
30.0
 43
30.0
  0
TEXT
  8
3
  40
45
  5
7E76
  62
0
  72
0
  71
0
 10
806.123
 20
1011.98
 30
0.000000
  1
235
  0
POINT
  5
7DDD
  8
DEFPOINTS
  6
CONTINUOUS
 62
     0
 10
763.97969699999976
 20
1148.7202489757269
 30
0.0
  0
POINT
  5
7DDE
  8
DEFPOINTS
  6
CONTINUOUS
 62
     0
 10
998.97969700000021
 20
1120.9930179757271
 30
0.0
  0
POINT
  5
7DDF
  8
DEFPOINTS
  6
CONTINUOUS
 62
     0
 10
998.97969700000021
 20
1054.132277975727
 30
0.0
  0
ENDBLK
  5
7B30
  8
0
  0
BLOCK
  8
0
  2
*D2
 70
     1
 10
0.0
 20
0.0
 30
0.0
  3
*D2
  1

  0
LINE
  5
7DE0
  8
3
  6
CONTINUOUS
 62
     0
 10
1613.9796969999991
 20
1141.2202489757269
 30
0.0
 11
1613.9796969999991
 21
1039.132277975727
 31
0.0
  0
LINE
  5
7DE1
  8
3
  6
CONTINUOUS
 62
     0
 10
1028.979697
 20
1054.132277975727
 30
0.0
 11
1583.979697
 21
1054.132277975727
 31
0.0
  0
INSERT
  5
7DE2
  8
3
  6
CONTINUOUS
 62
     0
  2
_OPEN
 10
998.97969700000021
 20
1054.132277975727
 30
0.0
 41
30.0
 42
30.0
 43
30.0
 50
180.0
  0
INSERT
  5
7DE3
  8
3
  6
CONTINUOUS
 62
     0
  2
_OPEN
 10
1613.9796969999991
 20
1054.132277975727
 30
0.0
 41
30.0
 42
30.0
 43
30.0
  0
TEXT
  8
3
  40
45
  5
7E77
  62
0
  72
0
  71
0
 10
1216.48
 20
1011.98
 30
0.000000
  1
615
  0
POINT
  5
7DE5
  8
DEFPOINTS
  6
CONTINUOUS
 62
     0
 10
998.97969700000021
 20
1120.9930179757271
 30
0.0
  0
POINT
  5
7DE6
  8
DEFPOINTS
  6
CONTINUOUS
 62
     0
 10
1613.9796969999991
 20
1148.7202489757269
 30
0.0
  0
POINT
  5
7DE7
  8
DEFPOINTS
  6
CONTINUOUS
 62
     0
 10
1613.9796969999991
 20
1054.132277975727
 30
0.0
  0
ENDBLK
  5
7B3C
  8
0
  0
BLOCK
  8
0
  2
*D3
 70
     1
 10
0.0
 20
0.0
 30
0.0
  3
*D3
  1

  0
LINE
  5
7DE8
  8
3
  6
CONTINUOUS
 62
     0
 10
741.47969699999965
 20
1893.7202489757269
 30
0.0
 11
656.26996400000041
 21
1893.7202489757269
 31
0.0
  0
LINE
  5
7DE9
  8
3
  6
CONTINUOUS
 62
     0
 10
741.47969699999965
 20
1578.7202489757269
 30
0.0
 11
656.2699640000003
 21
1578.7202489757269
 31
0.0
  0
LINE
  5
7DEA
  8
3
  6
CONTINUOUS
 62
     0
 10
671.2699640000003
 20
1863.7202489757269
 30
0.0
 11
671.26996400000019
 21
1608.7202489757269
 31
0.0
  0
INSERT
  5
7DEB
  8
3
  6
CONTINUOUS
 62
     0
  2
_OPEN
 10
671.2699640000003
 20
1893.7202489757269
 30
0.0
 41
30.0
 42
30.0
 43
30.0
 50
90.0
  0
INSERT
  5
7DEC
  8
3
  6
CONTINUOUS
 62
     0
  2
_OPEN
 10
671.26996400000019
 20
1578.7202489757269
 30
0.0
 41
30.0
 42
30.0
 43
30.0
 50
270.0
  0
TEXT
  8
3
  40
45
  5
7E78
  62
0
  72
0
  71
0
 10
543.770
 20
1666.90
 30
0.000000
  1
315
  0
POINT
  5
7DEE
  8
DEFPOINTS
  6
CONTINUOUS
 62
     0
 10
748.97969699999965
 20
1893.7202489757269
 30
0.0
  0
POINT
  5
7DEF
  8
DEFPOINTS
  6
CONTINUOUS
 62
     0
 10
748.97969699999965
 20
1578.7202489757269
 30
0.0
  0
POINT
  5
7DF0
  8
DEFPOINTS
  6
CONTINUOUS
 62
     0
 10
671.26996400000019
 20
1578.7202489757269
 30
0.0
  0
ENDBLK
  5
7B49
  8
0
  0
BLOCK
  8
0
  2
*D4
 70
     1
 10
0.0
 20
0.0
 30
0.0
  3
*D4
  1

  0
LINE
  5
7DF1
  8
3
  6
CONTINUOUS
 62
     0
 10
761.47969699999965
 20
1903.7202489757269
 30
0.0
 11
571.37359800000036
 21
1903.7202489757269
 31
0.0
  0
LINE
  5
7DF2
  8
3
  6
CONTINUOUS
 62
     0
 10
741.47969699999965
 20
1578.7202489757269
 30
0.0
 11
571.37359800000036
 21
1578.7202489757269
 31
0.0
  0
LINE
  5
7DF3
  8
3
  6
CONTINUOUS
 62
     0
 10
586.37359800000036
 20
1873.7202489757269
 30
0.0
 11
586.37359800000036
 21
1608.7202489757269
 31
0.0
  0
INSERT
  5
7DF4
  8
3
  6
CONTINUOUS
 62
     0
  2
_OPEN
 10
586.37359800000036
 20
1903.7202489757269
 30
0.0
 41
30.0
 42
30.0
 43
30.0
 50
90.0
  0
INSERT
  5
7DF5
  8
3
  6
CONTINUOUS
 62
     0
  2
_OPEN
 10
586.37359800000036
 20
1578.7202489757269
 30
0.0
 41
30.0
 42
30.0
 43
30.0
 50
270.0
  0
TEXT
  8
3
  40
45
  5
7E79
  62
0
  72
0
  71
0
 10
458.874
 20
1650.86
 30
0.000000
  1
325
  0
POINT
  5
7DF7
  8
DEFPOINTS
  6
CONTINUOUS
 62
     0
 10
768.97969699999965
 20
1903.7202489757269
 30
0.0
  0
POINT
  5
7DF8
  8
DEFPOINTS
  6
CONTINUOUS
 62
     0
 10
748.97969699999965
 20
1578.7202489757269
 30
0.0
  0
POINT
  5
7DF9
  8
DEFPOINTS
  6
CONTINUOUS
 62
     0
 10
586.37359800000036
 20
1578.7202489757269
 30
0.0
  0
ENDBLK
  5
7B56
  8
0
  0
BLOCK
  8
0
  2
*D5
 70
     1
 10
0.0
 20
0.0
 30
0.0
  3
*D5
  1

  0
LINE
  5
7DFA
  8
3
  6
CONTINUOUS
 62
     0
 10
756.47969699999965
 20
1178.7202489757269
 30
0.0
 11
571.37359800000013
 21
1178.7202489757269
 31
0.0
  0
LINE
  5
7DFB
  8
3
  6
CONTINUOUS
 62
     0
 10
586.37359800000024
 20
1548.7202489757269
 30
0.0
 11
586.37359800000013
 21
1208.7202489757269
 31
0.0
  0
INSERT
  5
7DFC
  8
3
  6
CONTINUOUS
 62
     0
  2
_OPEN
 10
586.37359800000024
 20
1578.7202489757269
 30
0.0
 41
30.0
 42
30.0
 43
30.0
 50
90.0
  0
INSERT
  5
7DFD
  8
3
  6
CONTINUOUS
 62
     0
  2
_OPEN
 10
586.37359800000013
 20
1178.7202489757269
 30
0.0
 41
30.0
 42
30.0
 43
30.0
 50
270.0
  0
TEXT
  8
3
  40
45
  5
7E7A
  62
0
  72
0
  71
0
 10
458.874
 20
1299.07
 30
0.000000
  1
400
  0
POINT
  5
7DFF
  8
DEFPOINTS
  6
CONTINUOUS
 62
     0
 10
748.97969699999965
 20
1578.7202489757269
 30
0.0
  0
POINT
  5
7E00
  8
DEFPOINTS
  6
CONTINUOUS
 62
     0
 10
763.97969699999976
 20
1178.7202489757269
 30
0.0
  0
POINT
  5
7E01
  8
DEFPOINTS
  6
CONTINUOUS
 62
     0
 10
586.37359800000013
 20
1178.7202489757269
 30
0.0
  0
ENDBLK
  5
7B62
  8
0
  0
BLOCK
  8
0
  2
*D6
 70
     1
 10
0.0
 20
0.0
 30
0.0
  3
*D6
  1

  0
LINE
  5
7E02
  8
3
  6
CONTINUOUS
 62
     0
 10
756.47969699999965
 20
1178.7202489757269
 30
0.0
 11
571.37359800000024
 21
1178.7202489757269
 31
0.0
  0
LINE
  5
7E03
  8
3
  6
CONTINUOUS
 62
     0
 10
756.47969699999965
 20
1148.7202489757269
 30
0.0
 11
571.37359800000024
 21
1148.7202489757269
 31
0.0
  0
LINE
  5
7E04
  8
3
  6
CONTINUOUS
 62
     0
 10
586.37359800000024
 20
1208.7202489757269
 30
0.0
 11
586.37359800000024
 21
1238.7202489757269
 31
0.0
  0
LINE
  5
7E05
  8
3
  6
CONTINUOUS
 62
     0
 10
586.37359800000024
 20
1118.7202489757269
 30
0.0
 11
586.37359800000024
 21
985.8631061185846
 31
0.0
  0
LINE
  5
7E06
  8
3
  6
CONTINUOUS
 62
     0
 10
586.37359800000024
 20
1178.7202489757269
 30
0.0
 11
586.37359800000024
 21
1148.7202489757269
 31
0.0
  0
INSERT
  5
7E07
  8
3
  6
CONTINUOUS
 62
     0
  2
_OPEN
 10
586.37359800000024
 20
1178.7202489757269
 30
0.0
 41
30.0
 42
30.0
 43
30.0
 50
270.0
  0
INSERT
  5
7E08
  8
3
  6
CONTINUOUS
 62
     0
  2
_OPEN
 10
586.37359800000024
 20
1148.7202489757269
 30
0.0
 41
30.0
 42
30.0
 43
30.0
 50
90.0
  0
TEXT
  8
3
  40
45
  5
7E7B
  62
0
  72
0
  71
0
 10
458.874
 20
957.642
 30
0.000000
  1
30
  0
POINT
  5
7E0A
  8
DEFPOINTS
  6
CONTINUOUS
 62
     0
 10
763.97969699999976
 20
1178.7202489757269
 30
0.0
  0
POINT
  5
7E0B
  8
DEFPOINTS
  6
CONTINUOUS
 62
     0
 10
763.97969699999976
 20
1148.7202489757269
 30
0.0
  0
POINT
  5
7E0C
  8
DEFPOINTS
  6
CONTINUOUS
 62
     0
 10
586.37359800000024
 20
1148.7202489757269
 30
0.0
  0
ENDBLK
  5
7CA2
  8
0
  0
BLOCK
  8
0
  2
*D7
 70
     1
 10
0.0
 20
0.0
 30
0.0
  3
*D7
  1

  0
LINE
  5
7E0D
  8
3
  6
CONTINUOUS
 62
     0
 10
741.47969699999965
 20
1915.2202489757269
 30
0.0
 11
481.88822200000033
 21
1915.2202489757269
 31
0.0
  0
LINE
  5
7E0E
  8
3
  6
CONTINUOUS
 62
     0
 10
756.47969699999965
 20
1148.7202489757269
 30
0.0
 11
481.8882220000001
 21
1148.7202489757269
 31
0.0
  0
LINE
  5
7E0F
  8
3
  6
CONTINUOUS
 62
     0
 10
496.88822200000033
 20
1885.2202489757269
 30
0.0
 11
496.88822200000021
 21
1178.7202489757269
 31
0.0
  0
INSERT
  5
7E10
  8
3
  6
CONTINUOUS
 62
     0
  2
_OPEN
 10
496.88822200000033
 20
1915.2202489757269
 30
0.0
 41
30.0
 42
30.0
 43
30.0
 50
90.0
  0
INSERT
  5
7E11
  8
3
  6
CONTINUOUS
 62
     0
  2
_OPEN
 10
496.88822200000021
 20
1148.7202489757269
 30
0.0
 41
30.0
 42
30.0
 43
30.0
 50
270.0
  0
TEXT
  8
3
  40
45
  5
7E7C
  62
0
  72
0
  71
0
 10
369.388
 20
1465.20
 30
0.000000
  1
767
  0
POINT
  5
7E13
  8
DEFPOINTS
  6
CONTINUOUS
 62
     0
 10
748.97969699999965
 20
1915.2202489757269
 30
0.0
  0
POINT
  5
7E14
  8
DEFPOINTS
  6
CONTINUOUS
 62
     0
 10
763.97969699999976
 20
1148.7202489757269
 30
0.0
  0
POINT
  5
7E15
  8
DEFPOINTS
  6
CONTINUOUS
 62
     0
 10
496.88822200000021
 20
1148.7202489757269
 30
0.0
  0
ENDBLK
  5
7B99
  8
0
  0
BLOCK
  8
0
  2
*D8
 70
     1
 10
0.0
 20
0.0
 30
0.0
  3
*D8
  1

  0
LINE
  5
7E16
  8
3
  6
CONTINUOUS
 62
     0
 10
748.97969699999965
 20
1922.7202489757269
 30
0.0
 11
748.97969699999965
 21
2000.1480449757271
 31
0.0
  0
LINE
  5
7E17
  8
3
  6
CONTINUOUS
 62
     0
 10
998.97969700000021
 20
1910.132715975727
 30
0.0
 11
998.97969700000021
 21
2000.1480449757271
 31
0.0
  0
LINE
  5
7E18
  8
3
  6
CONTINUOUS
 62
     0
 10
778.97969699999965
 20
1985.1480449757271
 30
0.0
 11
968.9796970000001
 21
1985.1480449757271
 31
0.0
  0
INSERT
  5
7E19
  8
3
  6
CONTINUOUS
 62
     0
  2
_OPEN
 10
748.97969699999965
 20
1985.1480449757271
 30
0.0
 41
30.0
 42
30.0
 43
30.0
 50
180.0
  0
INSERT
  5
7E1A
  8
3
  6
CONTINUOUS
 62
     0
  2
_OPEN
 10
998.97969700000021
 20
1985.1480449757271
 30
0.0
 41
30.0
 42
30.0
 43
30.0
  0
TEXT
  8
3
  40
45
  5
7E7D
  62
0
  72
0
  71
0
 10
787.775
 20
1943.00
 30
0.000000
  1
250
  0
POINT
  5
7E1C
  8
DEFPOINTS
  6
CONTINUOUS
 62
     0
 10
748.97969699999965
 20
1915.2202489757269
 30
0.0
  0
POINT
  5
7E1D
  8
DEFPOINTS
  6
CONTINUOUS
 62
     0
 10
998.97969700000021
 20
1902.632715975727
 30
0.0
  0
POINT
  5
7E1E
  8
DEFPOINTS
  6
CONTINUOUS
 62
     0
 10
998.97969700000021
 20
1985.1480449757271
 30
0.0
  0
ENDBLK
  5
7BA6
  8
0
  0
BLOCK
  8
0
  2
*D9
 70
     1
 10
0.0
 20
0.0
 30
0.0
  3
*D9
  1

  0
LINE
  5
7E1F
  8
3
  6
CONTINUOUS
 62
     0
 10
1272.979697
 20
1611.7202489757269
 30
0.0
 11
1272.979697
 21
2000.1480449757271
 31
0.0
  0
LINE
  5
7E20
  8
3
  6
CONTINUOUS
 62
     0
 10
1028.979697
 20
1985.1480449757271
 30
0.0
 11
1242.979697
 21
1985.1480449757271
 31
0.0
  0
INSERT
  5
7E21
  8
3
  6
CONTINUOUS
 62
     0
  2
_OPEN
 10
998.97969700000021
 20
1985.1480449757271
 30
0.0
 41
30.0
 42
30.0
 43
30.0
 50
180.0
  0
INSERT
  5
7E22
  8
3
  6
CONTINUOUS
 62
     0
  2
_OPEN
 10
1272.979697
 20
1985.1480449757271
 30
0.0
 41
30.0
 42
30.0
 43
30.0
  0
TEXT
  8
3
  40
45
  5
7E7E
  62
0
  72
0
  71
0
 10
1045.98
 20
1943.00
 30
0.000000
  1
274
  0
POINT
  5
7E24
  8
DEFPOINTS
  6
CONTINUOUS
 62
     0
 10
998.97969700000021
 20
1902.632715975727
 30
0.0
  0
POINT
  5
7E25
  8
DEFPOINTS
  6
CONTINUOUS
 62
     0
 10
1272.979697
 20
1604.2202489757269
 30
0.0
  0
POINT
  5
7E26
  8
DEFPOINTS
  6
CONTINUOUS
 62
     0
 10
1272.979697
 20
1985.1480449757271
 30
0.0
  0
ENDBLK
  5
7CE8
  8
0
  0
BLOCK
  8
0
  2
*D10
 70
     1
 10
0.0
 20
0.0
 30
0.0
  3
*D10
  1

  0
LINE
  5
7E27
  8
3
  6
CONTINUOUS
 62
     0
 10
763.97969699999987
 20
2614.6011760000001
 30
0.0
 11
763.97969699999987
 21
2479.6884220000002
 31
0.0
  0
LINE
  5
7E28
  8
3
  6
CONTINUOUS
 62
     0
 10
1613.9796969999991
 20
2614.6011760000001
 30
0.0
 11
1613.9796969999991
 21
2479.6884220000002
 31
0.0
  0
LINE
  5
7E29
  8
3
  6
CONTINUOUS
 62
     0
 10
793.97969699999987
 20
2494.6884219999988
 30
0.0
 11
1583.979697
 21
2494.6884219999988
 31
0.0
  0
INSERT
  5
7E2A
  8
3
  6
CONTINUOUS
 62
     0
  2
_OPEN
 10
763.97969699999987
 20
2494.6884219999988
 30
0.0
 41
30.0
 42
30.0
 43
30.0
 50
180.0
  0
INSERT
  5
7E2B
  8
3
  6
CONTINUOUS
 62
     0
  2
_OPEN
 10
1613.9796969999991
 20
2494.6884219999988
 30
0.0
 41
30.0
 42
30.0
 43
30.0
  0
TEXT
  8
3
  40
45
  5
7E7F
  62
0
  72
0
  71
0
 10
1099.83
 20
2452.54
 30
0.000000
  1
850
  0
POINT
  5
7E2D
  8
DEFPOINTS
  6
CONTINUOUS
 62
     0
 10
763.97969699999987
 20
2622.1011760000001
 30
0.0
  0
POINT
  5
7E2E
  8
DEFPOINTS
  6
CONTINUOUS
 62
     0
 10
1613.9796969999991
 20
2622.1011760000001
 30
0.0
  0
POINT
  5
7E2F
  8
DEFPOINTS
  6
CONTINUOUS
 62
     0
 10
1613.9796969999991
 20
2494.6884219999988
 30
0.0
  0
ENDBLK
  5
7BBF
  8
0
  0
BLOCK
  8
0
  2
*D11
 70
     1
 10
0.0
 20
0.0
 30
0.0
  3
*D11
  1

  0
LINE
  5
7E30
  8
3
  6
CONTINUOUS
 62
     0
 10
1621.479697
 20
3222.1011760000001
 30
0.0
 11
1773.3998409999999
 21
3222.1011760000001
 31
0.0
  0
LINE
  5
7E31
  8
3
  6
CONTINUOUS
 62
     0
 10
1621.479697
 20
2622.1011760000001
 30
0.0
 11
1773.3998409999999
 21
2622.1011760000001
 31
0.0
  0
LINE
  5
7E32
  8
3
  6
CONTINUOUS
 62
     0
 10
1758.3998409999999
 20
3192.1011760000001
 30
0.0
 11
1758.3998409999999
 21
2652.1011760000001
 31
0.0
  0
INSERT
  5
7E33
  8
3
  6
CONTINUOUS
 62
     0
  2
_OPEN
 10
1758.3998409999999
 20
3222.1011760000001
 30
0.0
 41
30.0
 42
30.0
 43
30.0
 50
90.0
  0
INSERT
  5
7E34
  8
3
  6
CONTINUOUS
 62
     0
  2
_OPEN
 10
1758.3998409999999
 20
2622.1011760000001
 30
0.0
 41
30.0
 42
30.0
 43
30.0
 50
270.0
  0
TEXT
  8
3
  40
45
  5
7E80
  62
0
  72
0
  71
0
 10
1630.90
 20
2841.35
 30
0.000000
  1
600
  0
POINT
  5
7E36
  8
DEFPOINTS
  6
CONTINUOUS
 62
     0
 10
1613.9796969999991
 20
3222.1011760000001
 30
0.0
  0
POINT
  5
7E37
  8
DEFPOINTS
  6
CONTINUOUS
 62
     0
 10
1613.9796969999991
 20
2622.1011760000001
 30
0.0
  0
POINT
  5
7E38
  8
DEFPOINTS
  6
CONTINUOUS
 62
     0
 10
1758.3998409999999
 20
2622.1011760000001
 30
0.0
  0
ENDBLK
  5
7BCC
  8
0
  0
BLOCK
  8
0
  2
*D12
 70
     1
 10
0.0
 20
0.0
 30
0.0
  3
*D12
  1

  0
LINE
  5
7E39
  8
3
  6
CONTINUOUS
 62
     0
 10
2319.4480011096612
 20
1901.2202489757269
 30
0.0
 11
2319.4480011096612
 21
1972.8718489757271
 31
0.0
  0
LINE
  5
7E3A
  8
3
  6
CONTINUOUS
 62
     0
 10
2543.4480011096612
 20
1901.2202489757269
 30
0.0
 11
2543.4480011096612
 21
1972.8718489757271
 31
0.0
  0
LINE
  5
7E3B
  8
3
  6
CONTINUOUS
 62
     0
 10
2349.4480011096612
 20
1957.8718489757271
 30
0.0
 11
2513.4480011096612
 21
1957.8718489757271
 31
0.0
  0
INSERT
  5
7E3C
  8
3
  6
CONTINUOUS
 62
     0
  2
_OPEN
 10
2319.4480011096612
 20
1957.8718489757271
 30
0.0
 41
30.0
 42
30.0
 43
30.0
 50
180.0
  0
INSERT
  5
7E3D
  8
3
  6
CONTINUOUS
 62
     0
  2
_OPEN
 10
2543.4480011096612
 20
1957.8718489757271
 30
0.0
 41
30.0
 42
30.0
 43
30.0
  0
TEXT
  8
3
  40
45
  5
7E81
  62
0
  72
0
  71
0
 10
2333.38
 20
1915.72
 30
0.000000
  1
224
  0
POINT
  5
7E3F
  8
DEFPOINTS
  6
CONTINUOUS
 62
     0
 10
2319.4480011096612
 20
1893.7202489757269
 30
0.0
  0
POINT
  5
7E40
  8
DEFPOINTS
  6
CONTINUOUS
 62
     0
 10
2543.4480011096612
 20
1893.7202489757269
 30
0.0
  0
POINT
  5
7E41
  8
DEFPOINTS
  6
CONTINUOUS
 62
     0
 10
2543.4480011096612
 20
1957.8718489757271
 30
0.0
  0
ENDBLK
  5
7BDC
  8
0
  0
BLOCK
  8
0
  2
*D13
 70
     1
 10
0.0
 20
0.0
 30
0.0
  3
*D13
  1

  0
LINE
  5
7E42
  8
3
  6
CONTINUOUS
 62
     0
 10
2011.4480011096609
 20
1816.2202489757269
 30
0.0
 11
2011.4480011096609
 21
2078.4414922416172
 31
0.0
  0
LINE
  5
7E43
  8
3
  6
CONTINUOUS
 62
     0
 10
2431.4480011096612
 20
2030.151214975727
 30
0.0
 11
2431.4480011096612
 21
2078.4414922416172
 31
0.0
  0
LINE
  5
7E44
  8
3
  6
CONTINUOUS
 62
     0
 10
2041.4480011096609
 20
2063.4414922416172
 30
0.0
 11
2401.4480011096612
 21
2063.4414922416172
 31
0.0
  0
INSERT
  5
7E45
  8
3
  6
CONTINUOUS
 62
     0
  2
_OPEN
 10
2011.4480011096609
 20
2063.4414922416172
 30
0.0
 41
30.0
 42
30.0
 43
30.0
 50
180.0
  0
INSERT
  5
7E46
  8
3
  6
CONTINUOUS
 62
     0
  2
_OPEN
 10
2431.4480011096612
 20
2063.4414922416172
 30
0.0
 41
30.0
 42
30.0
 43
30.0
  0
TEXT
  8
3
  40
45
  5
7E82
  62
0
  72
0
  71
0
 10
2137.20
 20
2058.79
 30
0.000000
  1
MAX
  0
TEXT
  8
3
  40
45
  5
7E83
  62
0
  72
0
  71
0
 10
2137.20
 20
2000.29
 30
0.000000
  1
420
  0
POINT
  5
7E48
  8
DEFPOINTS
  6
CONTINUOUS
 62
     0
 10
2011.4480011096609
 20
1808.7202489757269
 30
0.0
  0
POINT
  5
7E49
  8
DEFPOINTS
  6
CONTINUOUS
 62
     0
 10
2431.4480011096612
 20
2022.651214975727
 30
0.0
  0
POINT
  5
7E4A
  8
DEFPOINTS
  6
CONTINUOUS
 62
     0
 10
2431.4480011096612
 20
2063.4414922416172
 30
0.0
  0
ENDBLK
  5
7CC3
  8
0
  0
BLOCK
  8
0
  2
*D14
 70
     1
 10
0.0
 20
0.0
 30
0.0
  3
*D14
  1

  0
LINE
  5
7E4B
  8
3
  6
CONTINUOUS
 62
     0
 10
2552.4480011096612
 20
1768.7202489757269
 30
0.0
 11
2552.4480011096612
 21
2078.4414922416172
 31
0.0
  0
LINE
  5
7E4C
  8
3
  6
CONTINUOUS
 62
     0
 10
2461.4480011096612
 20
2063.4414922416172
 30
0.0
 11
2522.4480011096612
 21
2063.4414922416172
 31
0.0
  0
TEXT
  8
3
  40
45
  5
7E84
  62
0
  72
0
  71
0
 10
2396.48
 20
2019.00
 30
0.000000
  1
121
  0
INSERT
  5
7E4E
  8
3
  6
CONTINUOUS
 62
     0
  2
_OPEN
 10
2431.4480011096612
 20
2063.4414922416172
 30
0.0
 41
30.0
 42
30.0
 43
30.0
 50
180.0
  0
INSERT
  5
7E4F
  8
3
  6
CONTINUOUS
 62
     0
  2
_OPEN
 10
2552.4480011096612
 20
2063.4414922416172
 30
0.0
 41
30.0
 42
30.0
 43
30.0
  0
POINT
  5
7E50
  8
DEFPOINTS
  6
CONTINUOUS
 62
     0
 10
2431.4480011096612
 20
2022.651214975727
 30
0.0
  0
POINT
  5
7E51
  8
DEFPOINTS
  6
CONTINUOUS
 62
     0
 10
2552.4480011096612
 20
1761.2202489757269
 30
0.0
  0
POINT
  5
7E52
  8
DEFPOINTS
  6
CONTINUOUS
 62
     0
 10
2552.4480011096612
 20
2063.4414922416172
 30
0.0
  0
ENDBLK
  5
7CCD
  8
0
  0
BLOCK
  8
0
  2
*D15
 70
     1
 10
0.0
 20
0.0
 30
0.0
  3
*D15
  1

  0
LINE
  5
7E53
  8
3
  6
CONTINUOUS
 62
     0
 10
2559.9480011096612
 20
1736.2202489757269
 30
0.0
 11
2673.0074231096619
 21
1736.2202489757269
 31
0.0
  0
LINE
  5
7E54
  8
3
  6
CONTINUOUS
 62
     0
 10
2559.9480011096612
 20
1421.2202489757269
 30
0.0
 11
2673.0074231096619
 21
1421.2202489757269
 31
0.0
  0
LINE
  5
7E55
  8
3
  6
CONTINUOUS
 62
     0
 10
2658.0074231096619
 20
1706.2202489757269
 30
0.0
 11
2658.0074231096619
 21
1451.2202489757269
 31
0.0
  0
INSERT
  5
7E56
  8
3
  6
CONTINUOUS
 62
     0
  2
_OPEN
 10
2658.0074231096619
 20
1736.2202489757269
 30
0.0
 41
30.0
 42
30.0
 43
30.0
 50
90.0
  0
INSERT
  5
7E57
  8
3
  6
CONTINUOUS
 62
     0
  2
_OPEN
 10
2658.0074231096619
 20
1421.2202489757269
 30
0.0
 41
30.0
 42
30.0
 43
30.0
 50
270.0
  0
TEXT
  8
3
  40
45
  5
7E85
  62
0
  72
0
  71
0
 10
2530.51
 20
1491.68
 30
0.000000
  1
φ315
  0
POINT
  5
7E59
  8
DEFPOINTS
  6
CONTINUOUS
 62
     0
 10
2552.4480011096612
 20
1736.2202489757269
 30
0.0
  0
POINT
  5
7E5A
  8
DEFPOINTS
  6
CONTINUOUS
 62
     0
 10
2552.4480011096612
 20
1421.2202489757269
 30
0.0
  0
POINT
  5
7E5B
  8
DEFPOINTS
  6
CONTINUOUS
 62
     0
 10
2658.0074231096619
 20
1421.2202489757269
 30
0.0
  0
ENDBLK
  5
7CAD
  8
0
  0
BLOCK
  8
0
  2
*D16
 70
     1
 10
0.0
 20
0.0
 30
0.0
  3
*D16
  1

  0
LINE
  5
7E5C
  8
3
  6
CONTINUOUS
 62
     0
 10
2011.4480011096609
 20
1141.2202489757269
 30
0.0
 11
2011.4480011096609
 21
1032.784739975727
 31
0.0
  0
LINE
  5
7E5D
  8
3
  6
CONTINUOUS
 62
     0
 10
2431.4480011096612
 20
1106.452726975727
 30
0.0
 11
2431.4480011096612
 21
1032.784739975727
 31
0.0
  0
LINE
  5
7E5E
  8
3
  6
CONTINUOUS
 62
     0
 10
2041.4480011096609
 20
1047.784739975727
 30
0.0
 11
2401.4480011096612
 21
1047.784739975727
 31
0.0
  0
INSERT
  5
7E5F
  8
3
  6
CONTINUOUS
 62
     0
  2
_OPEN
 10
2011.4480011096609
 20
1047.784739975727
 30
0.0
 41
30.0
 42
30.0
 43
30.0
 50
180.0
  0
INSERT
  5
7E60
  8
3
  6
CONTINUOUS
 62
     0
  2
_OPEN
 10
2431.4480011096612
 20
1047.784739975727
 30
0.0
 41
30.0
 42
30.0
 43
30.0
  0
TEXT
  8
3
  40
45
  5
7E86
  62
0
  72
0
  71
0
 10
2127.12
 20
1005.63
 30
0.000000
  1
420
  0
POINT
  5
7E62
  8
DEFPOINTS
  6
CONTINUOUS
 62
     0
 10
2011.4480011096609
 20
1148.7202489757269
 30
0.0
  0
POINT
  5
7E63
  8
DEFPOINTS
  6
CONTINUOUS
 62
     0
 10
2431.4480011096612
 20
1113.952726975727
 30
0.0
  0
POINT
  5
7E64
  8
DEFPOINTS
  6
CONTINUOUS
 62
     0
 10
2431.4480011096612
 20
1047.784739975727
 30
0.0
  0
ENDBLK
  5
7C2C
  8
0
  0
BLOCK
  8
0
  2
*D17
 70
     1
 10
0.0
 20
0.0
 30
0.0
  3
*D17
  1

  0
LINE
  5
7E65
  8
3
  6
CONTINUOUS
 62
     0
 10
2611.4480011096612
 20
1141.2202489757269
 30
0.0
 11
2611.4480011096612
 21
1032.784739975727
 31
0.0
  0
LINE
  5
7E66
  8
3
  6
CONTINUOUS
 62
     0
 10
2461.4480011096612
 20
1047.784739975727
 30
0.0
 11
2581.4480011096612
 21
1047.784739975727
 31
0.0
  0
TEXT
  8
3
  40
45
  5
7E87
  62
0
  72
0
  71
0
 10
2430.04
 20
1005.50
 30
0.000000
  1
180
  0
INSERT
  5
7E68
  8
3
  6
CONTINUOUS
 62
     0
  2
_OPEN
 10
2431.4480011096612
 20
1047.784739975727
 30
0.0
 41
30.0
 42
30.0
 43
30.0
 50
180.0
  0
INSERT
  5
7E69
  8
3
  6
CONTINUOUS
 62
     0
  2
_OPEN
 10
2611.4480011096612
 20
1047.784739975727
 30
0.0
 41
30.0
 42
30.0
 43
30.0
  0
POINT
  5
7E6A
  8
DEFPOINTS
  6
CONTINUOUS
 62
     0
 10
2431.4480011096612
 20
1113.952726975727
 30
0.0
  0
POINT
  5
7E6B
  8
DEFPOINTS
  6
CONTINUOUS
 62
     0
 10
2611.4480011096612
 20
1148.7202489757269
 30
0.0
  0
POINT
  5
7E6C
  8
DEFPOINTS
  6
CONTINUOUS
 62
     0
 10
2611.4480011096612
 20
1047.784739975727
 30
0.0
  0
ENDBLK
  5
7C51
  8
0
  0
BLOCK
  8
0
  2
*D18
 70
     1
 10
0.0
 20
0.0
 30
0.0
  3
*D18
  1

  0
LINE
  5
7E6D
  8
3
 62
     0
 10
748.97969699999965
 20
1922.7202489757269
 30
0.0
 11
748.97969699999965
 21
2095.5479484305861
 31
0.0
  0
LINE
  5
7E6E
  8
3
 62
     0
 10
1613.9796969999991
 20
1256.2202489757269
 30
0.0
 11
1613.9796969999991
 21
2095.5479484305861
 31
0.0
  0
LINE
  5
7E6F
  8
3
 62
     0
 10
778.97969699999965
 20
2080.547948430587
 30
0.0
 11
1583.979697
 21
2080.547948430587
 31
0.0
  0
INSERT
  5
7E70
  8
3
 62
     0
  2
_OPEN
 10
748.97969699999965
 20
2080.547948430587
 30
0.0
 41
30.0
 42
30.0
 43
30.0
 50
180.0
  0
INSERT
  5
7E71
  8
3
 62
     0
  2
_OPEN
 10
1613.9796969999991
 20
2080.547948430587
 30
0.0
 41
30.0
 42
30.0
 43
30.0
  0
TEXT
  8
3
  40
45
  5
7E88
  62
0
  72
0
  71
0
 10
1058.10
 20
2038.40
 30
0.000000
  1
865
  0
POINT
  5
7E73
  8
DEFPOINTS
 62
     0
 10
748.97969699999965
 20
1915.2202489757269
 30
0.0
  0
POINT
  5
7E74
  8
DEFPOINTS
 62
     0
 10
1613.9796969999991
 20
1248.7202489757269
 30
0.0
  0
POINT
  5
7E75
  8
DEFPOINTS
 62
     0
 10
1613.9796969999991
 20
2080.547948430587
 30
0.0
  0
ENDBLK
  5
7CD9
  8
0
  0
ENDSEC
  0
SECTION
  2
ENTITIES
  0
CIRCLE
  5
7A8F
  8
1
  6
CONTINUOUS
 10
998.97969700000021
 20
1578.7202489757269
 30
0.0
 40
157.5
  0
LINE
  5
7A90
  8
1
  6
CONTINUOUS
 10
1448.4796969999991
 20
1310.2202489757269
 30
0.0
 11
973.27969699999983
 21
1520.620248975727
 31
0.0
  0
LINE
  5
7A91
  8
1
  6
CONTINUOUS
 10
1493.3796970000001
 20
1406.3202489757271
 30
0.0
 11
1026.9796969999991
 21
1635.7202489757269
 31
0.0
  0
LINE
  5
7A92
  8
1
  6
CONTINUOUS
 10
768.97969699999965
 20
1608.7202489757269
 30
0.0
 11
768.97969699999965
 21
1863.7202489757269
 31
0.0
  0
LINE
  5
7A93
  8
1
  6
CONTINUOUS
 10
768.97969699999987
 20
3125.1011760000001
 30
0.0
 11
768.97969699999987
 21
2959.1011760000001
 31
0.0
  0
LINE
  5
7A94
  8
1
  6
CONTINUOUS
 10
768.97969699999965
 20
1893.7202489757269
 30
0.0
 11
768.97969699999965
 21
1903.7202489757269
 31
0.0
  0
ARC
  5
7A95
  8
1
  6
CONTINUOUS
 10
730.97969699999976
 20
1501.7202489757269
 30
0.0
 40
78.0
 50
18.800000000000001
 51
60.799999999999997
  0
ARC
  5
7A96
  8
1
  6
CONTINUOUS
 10
1016.979697
 20
1560.7202489757269
 30
0.0
 40
215.0
 50
188.59999999999991
 51
280.60000000000002
  0
ARC
  5
7A97
  8
1
  6
CONTINUOUS
 10
1019.979697
 20
1599.7202489757269
 30
0.0
 40
253.0
 50
278.19999999999999
 51
348.39999999999998
  0
ARC
  5
7A98
  8
1
  6
CONTINUOUS
 10
973.47969700000033
 20
1604.2202489757269
 30
0.0
 40
299.5
 50
349.39999999999992
 51
90.0
  0
LINE
  5
7A99
  8
1
  6
CONTINUOUS
 10
768.97969699999965
 20
1903.7202489757269
 30
0.0
 11
973.47969700000033
 21
1903.7202489757269
 31
0.0
  0
LINE
  5
7A9A
  8
1
  6
CONTINUOUS
 10
768.97969699999965
 20
1569.8202489757271
 30
0.0
 11
768.97969699999965
 21
1578.7202489757269
 31
0.0
  0
CIRCLE
  5
7A9B
  8
1
  6
CONTINUOUS
 10
998.97969700000021
 20
1578.7202489757269
 30
0.0
 40
182.5
  0
LINE
  5
7A9C
  8
1
  6
CONTINUOUS
 10
1613.9796969999991
 20
2727.1011760000001
 30
0.0
 11
1481.979697
 21
2727.1011760000001
 31
0.0
  0
LINE
  5
7A9D
  8
1
  6
CONTINUOUS
 10
763.97969699999987
 20
2622.1011760000001
 30
0.0
 11
763.97969699999987
 21
2930.1011760000001
 31
0.0
  0
LINE
  5
7A9E
  8
1
  6
CONTINUOUS
 10
1613.9796969999991
 20
3222.1011760000001
 30
0.0
 11
1613.9796969999991
 21
2622.1011760000001
 31
0.0
  0
LINE
  5
7A9F
  8
1
  6
CONTINUOUS
 10
1181.479697
 20
3163.1011760000001
 30
0.0
 11
816.47969699999987
 21
3163.1011760000001
 31
0.0
  0
LINE
  5
7AA0
  8
1
  6
CONTINUOUS
 10
1181.479697
 20
3163.1011760000001
 30
0.0
 11
1181.479697
 21
3154.9011759999999
 31
0.0
  0
LINE
  5
7AA1
  8
1
  6
CONTINUOUS
 10
1203.979697
 20
2920.3011759999999
 30
0.0
 11
793.97969699999987
 21
2920.3011759999999
 31
0.0
  0
LINE
  5
7AA2
  8
1
  6
CONTINUOUS
 10
1266.979697
 20
3154.1011760000001
 30
0.0
 11
748.97969699999999
 21
3154.1011760000001
 31
0.0
  0
LINE
  5
7AA3
  8
1
  6
CONTINUOUS
 10
748.97969699999999
 20
3175.1011760000001
 30
0.0
 11
748.97969699999999
 21
2909.1011760000001
 31
0.0
  0
LINE
  5
7AA4
  8
1
  6
CONTINUOUS
 10
748.97969699999999
 20
2930.1011760000001
 30
0.0
 11
1266.979697
 21
2930.1011760000001
 31
0.0
  0
LINE
  5
7AA5
  8
1
  6
CONTINUOUS
 10
1286.979697
 20
3134.1011760000001
 30
0.0
 11
1286.979697
 21
2950.1011760000001
 31
0.0
  0
LINE
  5
7AA6
  8
1
  6
CONTINUOUS
 10
1181.479697
 20
2920.3011759999999
 30
0.0
 11
1181.479697
 21
2930.1011760000001
 31
0.0
  0
LINE
  5
7AA7
  8
1
  6
CONTINUOUS
 10
816.47969699999987
 20
3163.1011760000001
 30
0.0
 11
816.47969699999987
 21
3154.9011759999999
 31
0.0
  0
ARC
  5
7AA8
  8
1
  6
CONTINUOUS
 10
1266.979697
 20
3134.1011760000001
 30
0.0
 40
20.0
 50
0.0
 51
90.0
  0
ARC
  5
7AA9
  8
1
  6
CONTINUOUS
 10
1266.979697
 20
2950.1011760000001
 30
0.0
 40
20.0
 50
270.0
 51
0.0
  0
LINE
  5
7AAA
  8
1
  6
CONTINUOUS
 10
935.47969699999999
 20
2648.6011760000001
 30
0.0
 11
935.47969699999999
 21
2683.6011760000001
 31
0.0
  0
LINE
  5
7AAB
  8
1
  6
CONTINUOUS
 10
935.47969699999999
 20
2683.6011760000001
 30
0.0
 11
1062.479697
 21
2683.6011760000001
 31
0.0
  0
LINE
  5
7AAC
  8
1
  6
CONTINUOUS
 10
1062.479697
 20
2683.6011760000001
 30
0.0
 11
1062.479697
 21
2648.6011760000001
 31
0.0
  0
LINE
  5
7AAD
  8
1
  6
CONTINUOUS
 10
1062.479697
 20
2648.6011760000001
 30
0.0
 11
935.47969699999999
 21
2648.6011760000001
 31
0.0
  0
LINE
  5
7AAE
  8
1
  6
CONTINUOUS
 10
1286.979697
 20
3042.1011760000001
 30
0.0
 11
1613.9796969999991
 21
3042.1011760000001
 31
0.0
  0
LINE
  5
7AAF
  8
1
  6
CONTINUOUS
 10
1203.979697
 20
2757.1011760000001
 30
0.0
 11
1203.979697
 21
2920.3011759999999
 31
0.0
  0
LINE
  5
7AB0
  8
1
  6
CONTINUOUS
 10
793.97969699999987
 20
2757.1011760000001
 30
0.0
 11
793.97969699999987
 21
2920.3011759999999
 31
0.0
  0
LINE
  5
7AB1
  8
1
  6
CONTINUOUS
 10
1203.979697
 20
2757.1011760000001
 30
0.0
 11
1010.979697
 21
2757.1011760000001
 31
0.0
  0
LINE
  5
7AB2
  8
1
  6
CONTINUOUS
 10
1457.979697
 20
2683.6011760000001
 30
0.0
 11
1457.979697
 21
2743.6011760000001
 31
0.0
  0
LINE
  5
7AB3
  8
1
  6
CONTINUOUS
 10
1481.979697
 20
2683.6011760000001
 30
0.0
 11
1481.979697
 21
2743.6011760000001
 31
0.0
  0
LINE
  5
7AB4
  8
1
  6
CONTINUOUS
 10
1368.979697
 20
2743.6011760000001
 30
0.0
 11
1559.979697
 21
2743.6011760000001
 31
0.0
  0
LINE
  5
7AB5
  8
1
  6
CONTINUOUS
 10
1368.979697
 20
3015.6011760000001
 30
0.0
 11
1559.979697
 21
3015.6011760000001
 31
0.0
  0
LINE
  5
7AB6
  8
1
  6
CONTINUOUS
 10
1457.979697
 20
2648.6011760000001
 30
0.0
 11
1481.979697
 21
2648.6011760000001
 31
0.0
  0
LINE
  5
7AB7
  8
1
  6
CONTINUOUS
 10
1559.979697
 20
3015.6011760000001
 30
0.0
 11
1559.979697
 21
2743.6011760000001
 31
0.0
  0
LINE
  5
7AB8
  8
1
  6
CONTINUOUS
 10
1368.979697
 20
2743.6011760000001
 30
0.0
 11
1368.979697
 21
3015.6011760000001
 31
0.0
  0
LINE
  5
7AB9
  8
1
  6
CONTINUOUS
 10
1533.4796969999991
 20
2648.6011760000001
 30
0.0
 11
1406.4796969999991
 21
2648.6011760000001
 31
0.0
  0
LINE
  5
7ABA
  8
1
  6
CONTINUOUS
 10
1533.4796969999991
 20
2683.6011760000001
 30
0.0
 11
1533.4796969999991
 21
2648.6011760000001
 31
0.0
  0
LINE
  5
7ABB
  8
1
  6
CONTINUOUS
 10
1406.4796969999991
 20
2683.6011760000001
 30
0.0
 11
1533.4796969999991
 21
2683.6011760000001
 31
0.0
  0
LINE
  5
7ABC
  8
1
  6
CONTINUOUS
 10
1406.4796969999991
 20
2648.6011760000001
 30
0.0
 11
1406.4796969999991
 21
2683.6011760000001
 31
0.0
  0
LINE
  5
7ABD
  8
1
  6
CONTINUOUS
 10
986.9796970000001
 20
2727.1011760000001
 30
0.0
 11
763.97969699999987
 21
2727.1011760000001
 31
0.0
  0
LINE
  5
7ABE
  8
1
  6
CONTINUOUS
 10
1457.979697
 20
2727.1011760000001
 30
0.0
 11
1010.979697
 21
2727.1011760000001
 31
0.0
  0
LINE
  5
7ABF
  8
1
  6
CONTINUOUS
 10
1584.479697
 20
2622.1011760000001
 30
0.0
 11
854.4796970000001
 21
2622.1011760000001
 31
0.0
  0
LINE
  5
7AC0
  8
1
  6
CONTINUOUS
 10
1584.479697
 20
2707.1011760000001
 30
0.0
 11
854.4796970000001
 21
2707.1011760000001
 31
0.0
  0
LINE
  5
7AC1
  8
1
  6
CONTINUOUS
 10
854.4796970000001
 20
2707.1011760000001
 30
0.0
 11
854.4796970000001
 21
2622.1011760000001
 31
0.0
  0
LINE
  5
7AC2
  8
1
  6
CONTINUOUS
 10
1584.479697
 20
2707.1011760000001
 30
0.0
 11
1584.479697
 21
2622.1011760000001
 31
0.0
  0
LINE
  5
7AC3
  8
1
  6
CONTINUOUS
 10
1010.979697
 20
2920.3011759999999
 30
0.0
 11
1010.979697
 21
2683.6011760000001
 31
0.0
  0
LINE
  5
7AC4
  8
1
  6
CONTINUOUS
 10
986.9796970000001
 20
2920.3011759999999
 30
0.0
 11
986.9796970000001
 21
2683.6011760000001
 31
0.0
  0
LINE
  5
7AC5
  8
1
  6
CONTINUOUS
 10
986.9796970000001
 20
2757.1011760000001
 30
0.0
 11
793.97969699999987
 21
2757.1011760000001
 31
0.0
  0
LINE
  5
7AC6
  8
1
  6
CONTINUOUS
 10
748.97969699999999
 20
2939.1011760000001
 30
0.0
 11
768.97969699999987
 21
2959.1011760000001
 31
0.0
  0
LINE
  5
7AC7
  8
1
  6
CONTINUOUS
 10
748.97969699999999
 20
3145.1011760000001
 30
0.0
 11
768.97969699999987
 21
3125.1011760000001
 31
0.0
  0
LINE
  5
7AC8
  8
1
  6
CONTINUOUS
 10
816.47969699999987
 20
2920.3011759999999
 30
0.0
 11
816.47969699999987
 21
2930.1011760000001
 31
0.0
  0
LINE
  5
7AC9
  8
2
  6
CENTER
 10
2587.6641921096611
 20
1578.7202489757269
 30
0.0
 11
1906.5456921096611
 21
1578.7202489757269
 31
0.0
  0
LINE
  5
7ACA
  8
2
  6
CENTER
 10
998.97969700000021
 20
1120.9930179757271
 30
0.0
 11
998.97969700000021
 21
1929.443742975727
 31
0.0
  0
LINE
  5
7ACB
  8
1
  6
CONTINUOUS
 10
748.97969699999965
 20
1557.2202489757269
 30
0.0
 11
748.97969699999965
 21
1915.2202489757269
 31
0.0
  0
LINE
  5
7ACC
  8
1
  6
CONTINUOUS
 10
748.97969699999965
 20
1893.7202489757269
 30
0.0
 11
768.97969699999965
 21
1893.7202489757269
 31
0.0
  0
LINE
  5
7ACD
  8
1
  6
CONTINUOUS
 10
1091.2796969999999
 20
1758.7202489757269
 30
0.0
 11
906.67969700000003
 21
1758.7202489757269
 31
0.0
  0
LINE
  5
7ACE
  8
1
  6
CONTINUOUS
 10
1203.9796969999991
 20
1248.7202489757269
 30
0.0
 11
1203.9796969999991
 21
1664.120248975727
 31
0.0
  0
LINE
  5
7ACF
  8
1
  6
CONTINUOUS
 10
1203.9796969999991
 20
1542.2202489757269
 30
0.0
 11
793.97969699999965
 21
1542.2202489757269
 31
0.0
  0
LINE
  5
7AD0
  8
1
  6
CONTINUOUS
 10
1091.2796969999999
 20
1758.7202489757269
 30
0.0
 11
1203.9796969999991
 21
1664.120248975727
 31
0.0
  0
LINE
  5
7AD1
  8
1
  6
CONTINUOUS
 10
906.67969700000003
 20
1758.7202489757269
 30
0.0
 11
793.97969699999965
 21
1664.120248975727
 31
0.0
  0
LINE
  5
7AD2
  8
1
  6
CONTINUOUS
 10
793.97969699999965
 20
1248.7202489757269
 30
0.0
 11
793.97969699999965
 21
1664.120248975727
 31
0.0
  0
LINE
  5
7AD3
  8
1
  6
CONTINUOUS
 10
1613.9796969999991
 20
1248.7202489757269
 30
0.0
 11
763.97969699999976
 21
1248.7202489757269
 31
0.0
  0
LINE
  5
7AD4
  8
1
  6
CONTINUOUS
 10
763.97969699999976
 20
1248.7202489757269
 30
0.0
 11
763.97969699999976
 21
1148.7202489757269
 31
0.0
  0
LINE
  5
7AD5
  8
1
  6
CONTINUOUS
 10
1613.9796969999991
 20
1248.7202489757269
 30
0.0
 11
1613.9796969999991
 21
1148.7202489757269
 31
0.0
  0
LINE
  5
7AD6
  8
1
  6
CONTINUOUS
 10
1613.9796969999991
 20
1178.7202489757269
 30
0.0
 11
763.97969699999976
 21
1178.7202489757269
 31
0.0
  0
LINE
  5
7AD7
  8
1
  6
CONTINUOUS
 10
1583.979697
 20
1268.7202489757269
 30
0.0
 11
1268.9796969999991
 21
1268.7202489757269
 31
0.0
  0
LINE
  5
7AD8
  8
1
  6
CONTINUOUS
 10
1583.979697
 20
1248.7202489757269
 30
0.0
 11
1583.979697
 21
1268.7202489757269
 31
0.0
  0
LINE
  5
7AD9
  8
1
  6
CONTINUOUS
 10
1268.9796969999991
 20
1248.7202489757269
 30
0.0
 11
1268.9796969999991
 21
1268.7202489757269
 31
0.0
  0
LINE
  5
7ADA
  8
2
  6
CENTER
 10
1469.9796969999991
 20
1305.7202489757269
 30
0.0
 11
1469.9796969999991
 21
1411.7202489757269
 31
0.0
  0
CIRCLE
  5
7ADB
  8
1
  6
CONTINUOUS
 10
998.97969700000021
 20
1578.7202489757269
 30
0.0
 40
63.5
  0
CIRCLE
  5
7ADC
  8
1
  6
CONTINUOUS
 10
1469.9796969999991
 20
1358.7202489757269
 30
0.0
 40
53.0
  0
ARC
  5
7ADD
  8
1
  6
CONTINUOUS
 10
1469.9796969999991
 20
1358.7202489757269
 30
0.0
 40
101.0
 50
322.89999999999992
 51
217.09999999999991
  0
LINE
  5
7ADE
  8
1
  6
CONTINUOUS
 10
1561.8796970000001
 20
1268.7202489757269
 30
0.0
 11
1550.479697
 21
1297.7202489757269
 31
0.0
  0
LINE
  5
7ADF
  8
1
  6
CONTINUOUS
 10
1378.0796969999999
 20
1268.7202489757269
 30
0.0
 11
1389.4796969999991
 21
1297.7202489757269
 31
0.0
  0
LINE
  5
7AE0
  8
2
  6
CENTER
 10
1522.9796969999991
 20
1358.7202489757269
 30
0.0
 11
1416.9796969999991
 21
1358.7202489757269
 31
0.0
  0
LINE
  5
7AE1
  8
1
  6
CONTINUOUS
 10
854.4796970000001
 20
1678.7202489757269
 30
0.0
 11
854.4796970000001
 21
1239.2202489757269
 31
0.0
  0
LINE
  5
7AE2
  8
1
  6
CONTINUOUS
 10
1584.479697
 20
1458.7202489757269
 30
0.0
 11
1584.479697
 21
1248.7202489757269
 31
0.0
  0
LINE
  5
7AE3
  8
1
  6
CONTINUOUS
 10
768.97969699999965
 20
1578.7202489757269
 30
0.0
 11
748.97969699999965
 21
1578.7202489757269
 31
0.0
  0
LINE
  5
7AE4
  8
1
  6
CONTINUOUS
 10
854.4796970000001
 20
1678.7202489757269
 30
0.0
 11
1054.4796969999991
 21
1808.7202489757269
 31
0.0
  0
LINE
  5
7AE5
  8
1
  6
CONTINUOUS
 10
1054.4796969999991
 20
1808.7202489757269
 30
0.0
 11
1584.479697
 21
1458.7202489757269
 31
0.0
  0
LINE
  5
7AE6
  8
1
  6
CONTINUOUS
 10
748.97969699999965
 20
1883.7202489757269
 30
0.0
 11
768.97969699999965
 21
1863.7202489757269
 31
0.0
  0
LINE
  5
7AE7
  8
1
  6
CONTINUOUS
 10
748.97969699999965
 20
1588.7202489757269
 30
0.0
 11
768.97969699999965
 21
1608.7202489757269
 31
0.0
  0
LINE
  5
7AE8
  8
1
  6
CONTINUOUS
 10
1613.9796969999991
 20
1148.7202489757269
 30
0.0
 11
1583.979697
 21
1148.7202489757269
 31
0.0
  0
LINE
  5
7AE9
  8
1
  6
CONTINUOUS
 10
1583.979697
 20
1178.7202489757269
 30
0.0
 11
1583.979697
 21
1148.7202489757269
 31
0.0
  0
LINE
  5
7AEA
  8
1
  6
CONTINUOUS
 10
793.97969699999965
 20
1178.7202489757269
 30
0.0
 11
793.97969699999965
 21
1148.7202489757269
 31
0.0
  0
LINE
  5
7AEB
  8
1
  6
CONTINUOUS
 10
1613.9796969999991
 20
2622.1011760000001
 30
0.0
 11
1583.979697
 21
2622.1011760000001
 31
0.0
  0
LINE
  5
7AEC
  8
1
  6
CONTINUOUS
 10
1613.9796969999991
 20
3222.1011760000001
 30
0.0
 11
1583.979697
 21
3222.1011760000001
 31
0.0
  0
LINE
  5
7AED
  8
1
  6
CONTINUOUS
 10
793.97969699999987
 20
3222.1011760000001
 30
0.0
 11
793.97969699999987
 21
3154.1011760000001
 31
0.0
  0
LINE
  5
7AEE
  8
1
  6
CONTINUOUS
 10
1583.979697
 20
3222.1011760000001
 30
0.0
 11
1583.979697
 21
3042.1011760000001
 31
0.0
  0
LINE
  5
7AEF
  8
1
  6
CONTINUOUS
 10
1583.979697
 20
2727.1011760000001
 30
0.0
 11
1583.979697
 21
2622.1011760000001
 31
0.0
  0
LINE
  5
7AF0
  8
1
  6
CONTINUOUS
 10
793.97969699999987
 20
3222.1011760000001
 30
0.0
 11
763.97969699999987
 21
3222.1011760000001
 31
0.0
  0
LINE
  5
7AF1
  8
1
  6
CONTINUOUS
 10
793.97969699999987
 20
2622.1011760000001
 30
0.0
 11
763.97969699999987
 21
2622.1011760000001
 31
0.0
  0
LINE
  5
7AF2
  8
1
  6
CONTINUOUS
 10
793.97969699999987
 20
2727.1011760000001
 30
0.0
 11
793.97969699999987
 21
2622.1011760000001
 31
0.0
  0
LINE
  5
7AF3
  8
1
  6
CONTINUOUS
 10
763.97969699999987
 20
3154.1011760000001
 30
0.0
 11
763.97969699999987
 21
3222.1011760000001
 31
0.0
  0
LINE
  5
7AF4
  8
1
  6
CONTINUOUS
 10
763.97969699999976
 20
1148.7202489757269
 30
0.0
 11
793.97969699999965
 21
1148.7202489757269
 31
0.0
  0
LINE
  5
7AF5
  8
1
  6
CONTINUOUS
 10
2011.4480011096609
 20
1148.7202489757269
 30
0.0
 11
2611.4480011096612
 21
1148.7202489757269
 31
0.0
  0
LINE
  5
7AF6
  8
1
  6
CONTINUOUS
 10
2611.4480011096612
 20
1178.7202489757269
 30
0.0
 11
2611.4480011096612
 21
1148.7202489757269
 31
0.0
  0
LINE
  5
7AF7
  8
1
  6
CONTINUOUS
 10
2011.4480011096609
 20
1178.7202489757269
 30
0.0
 11
2011.4480011096609
 21
1148.7202489757269
 31
0.0
  0
ARC
  5
7AF8
  8
1
  6
CONTINUOUS
 10
2339.4480011096612
 20
1376.7202489757269
 30
0.0
 40
20.0
 50
180.0
 51
270.0
  0
ARC
  5
7AF9
  8
1
  6
CONTINUOUS
 10
2523.4480011096612
 20
1376.7202489757269
 30
0.0
 40
20.0
 50
270.0
 51
0.0
  0
LINE
  5
7AFA
  8
1
  6
CONTINUOUS
 10
2552.4480011096612
 20
1761.2202489757269
 30
0.0
 11
2543.2480011096609
 21
1761.2202489757269
 31
0.0
  0
LINE
  5
7AFB
  8
1
  6
CONTINUOUS
 10
2309.648001109661
 20
1761.2202489757269
 30
0.0
 11
2319.648001109661
 21
1761.2202489757269
 31
0.0
  0
LINE
  5
7AFC
  8
1
  6
CONTINUOUS
 10
2071.4480011096612
 20
1346.8202489757271
 30
0.0
 11
2145.648001109661
 21
1346.8202489757271
 31
0.0
  0
LINE
  5
7AFD
  8
1
  6
CONTINUOUS
 10
2071.4480011096612
 20
1370.8202489757271
 30
0.0
 11
2145.648001109661
 21
1370.8202489757271
 31
0.0
  0
LINE
  5
7AFE
  8
1
  6
CONTINUOUS
 10
2309.648001109661
 20
1396.2202489757269
 30
0.0
 11
2319.4480011096612
 21
1396.2202489757269
 31
0.0
  0
LINE
  5
7AFF
  8
1
  6
CONTINUOUS
 10
2116.4480011096612
 20
1248.7202489757269
 30
0.0
 11
2116.4480011096612
 21
1178.7202489757269
 31
0.0
  0
LINE
  5
7B00
  8
1
  6
CONTINUOUS
 10
2431.4480011096612
 20
1248.7202489757269
 30
0.0
 11
2116.4480011096612
 21
1248.7202489757269
 31
0.0
  0
LINE
  5
7B01
  8
1
  6
CONTINUOUS
 10
2431.4480011096612
 20
1178.7202489757269
 30
0.0
 11
2431.4480011096612
 21
1248.7202489757269
 31
0.0
  0
LINE
  5
7B02
  8
1
  6
CONTINUOUS
 10
2011.4480011096609
 20
1178.7202489757269
 30
0.0
 11
2611.4480011096612
 21
1178.7202489757269
 31
0.0
  0
LINE
  5
7B03
  8
1
  6
CONTINUOUS
 10
2036.4480011096609
 20
1642.3202489757271
 30
0.0
 11
2036.4480011096609
 21
1515.3202489757271
 31
0.0
  0
LINE
  5
7B04
  8
1
  6
CONTINUOUS
 10
2071.4480011096612
 20
1642.3202489757271
 30
0.0
 11
2036.4480011096609
 21
1642.3202489757271
 31
0.0
  0
LINE
  5
7B05
  8
1
  6
CONTINUOUS
 10
2071.4480011096612
 20
1515.3202489757271
 30
0.0
 11
2071.4480011096612
 21
1642.3202489757271
 31
0.0
  0
LINE
  5
7B06
  8
1
  6
CONTINUOUS
 10
2036.4480011096609
 20
1515.3202489757271
 30
0.0
 11
2071.4480011096612
 21
1515.3202489757271
 31
0.0
  0
LINE
  5
7B07
  8
1
  6
CONTINUOUS
 10
2523.4480011096612
 20
1356.7202489757269
 30
0.0
 11
2339.4480011096612
 21
1356.7202489757269
 31
0.0
  0
LINE
  5
7B08
  8
1
  6
CONTINUOUS
 10
2319.4480011096612
 20
1893.7202489757269
 30
0.0
 11
2319.4480011096612
 21
1376.7202489757269
 31
0.0
  0
LINE
  5
7B09
  8
1
  6
CONTINUOUS
 10
2543.4480011096612
 20
1893.7202489757269
 30
0.0
 11
2319.4480011096612
 21
1893.7202489757269
 31
0.0
  0
LINE
  5
7B0A
  8
1
  6
CONTINUOUS
 10
2543.4480011096612
 20
1376.7202489757269
 30
0.0
 11
2543.4480011096612
 21
1893.7202489757269
 31
0.0
  0
LINE
  5
7B0B
  8
1
  6
CONTINUOUS
 10
2309.648001109661
 20
1761.3202489757271
 30
0.0
 11
2309.648001109661
 21
1248.7202489757269
 31
0.0
  0
LINE
  5
7B0C
  8
1
  6
CONTINUOUS
 10
2552.4480011096612
 20
1396.2202489757269
 30
0.0
 11
2543.4480011096612
 21
1396.2202489757269
 31
0.0
  0
LINE
  5
7B0D
  8
1
  6
CONTINUOUS
 10
2552.4480011096612
 20
1396.2202489757269
 30
0.0
 11
2552.4480011096612
 21
1761.2202489757269
 31
0.0
  0
LINE
  5
7B0E
  8
1
  6
CONTINUOUS
 10
2145.648001109661
 20
1539.7202489757269
 30
0.0
 11
2145.648001109661
 21
1248.7202489757269
 31
0.0
  0
LINE
  5
7B0F
  8
1
  6
CONTINUOUS
 10
2309.648001109661
 20
1665.920248975727
 30
0.0
 11
2145.648001109661
 21
1539.7202489757269
 31
0.0
  0
LINE
  5
7B10
  8
1
  6
CONTINUOUS
 10
2071.4480011096612
 20
1591.3202489757271
 30
0.0
 11
2212.648001109661
 21
1591.3202489757271
 31
0.0
  0
LINE
  5
7B11
  8
1
  6
CONTINUOUS
 10
2071.4480011096612
 20
1566.3202489757271
 30
0.0
 11
2180.2480011096609
 21
1566.3202489757271
 31
0.0
  0
LINE
  5
7B12
  8
1
  6
CONTINUOUS
 10
2011.4480011096609
 20
1808.7202489757269
 30
0.0
 11
2096.4480011096612
 21
1808.7202489757269
 31
0.0
  0
LINE
  5
7B13
  8
1
  6
CONTINUOUS
 10
2011.4480011096609
 20
1248.8202489757271
 30
0.0
 11
2096.4480011096612
 21
1248.8202489757271
 31
0.0
  0
LINE
  5
7B14
  8
1
  6
CONTINUOUS
 10
2036.4480011096609
 20
1295.3202489757271
 30
0.0
 11
2071.4480011096612
 21
1295.3202489757271
 31
0.0
  0
LINE
  5
7B15
  8
1
  6
CONTINUOUS
 10
2071.4480011096612
 20
1295.3202489757271
 30
0.0
 11
2071.4480011096612
 21
1422.3202489757271
 31
0.0
  0
LINE
  5
7B16
  8
1
  6
CONTINUOUS
 10
2071.4480011096612
 20
1422.3202489757271
 30
0.0
 11
2036.4480011096609
 21
1422.3202489757271
 31
0.0
  0
LINE
  5
7B17
  8
1
  6
CONTINUOUS
 10
2036.4480011096609
 20
1422.3202489757271
 30
0.0
 11
2036.4480011096609
 21
1295.3202489757271
 31
0.0
  0
LINE
  5
7B18
  8
1
  6
CONTINUOUS
 10
2011.4480011096609
 20
1248.8202489757271
 30
0.0
 11
2011.4480011096609
 21
1808.7202489757269
 31
0.0
  0
LINE
  5
7B19
  8
1
  6
CONTINUOUS
 10
2096.4480011096612
 20
1248.8202489757271
 30
0.0
 11
2096.4480011096612
 21
1808.7202489757269
 31
0.0
  0
LINE
  5
7B1A
  8
1
  6
CONTINUOUS
 10
2431.4480011096612
 20
1893.7202489757269
 30
0.0
 11
2543.4480011096612
 21
1893.7202489757269
 31
0.0
  0
LINE
  5
7B1B
  8
1
  6
CONTINUOUS
 10
2319.4480011096612
 20
1578.7202489757269
 30
0.0
 11
2543.4480011096612
 21
1578.7202489757269
 31
0.0
  0
LINE
  5
7B1C
  8
1
  6
CONTINUOUS
 10
2319.4480011096612
 20
1893.7202489757269
 30
0.0
 11
2543.4480011096612
 21
1578.7202489757269
 31
0.0
  0
LINE
  5
7B1D
  8
1
  6
CONTINUOUS
 10
2319.4480011096612
 20
1578.7202489757269
 30
0.0
 11
2543.4480011096612
 21
1893.7202489757269
 31
0.0
  0
DIMENSION
  5
7B31
  8
3
  6
CONTINUOUS
  2
*D1
 10
998.97969700000021
 20
1054.132277975727
 30
0.0
 11
896.12255400000004
 21
1054.132277975727
 31
0.0
 70
   128
 13
763.97969699999976
 23
1148.7202489757269
 33
0.0
 14
998.97969700000021
 24
1120.9930179757271
 34
0.0
1001
ACAD
1000
DSTYLE
1002
{
1070
   287
1070
     3
1070
   287
1070
     3
1070
    40
1040
15.0
1070
   143
1040
0.039
1070
   172
1070
     1
1070
   271
1070
     0
1070
   279
1070
     0
1070
   288
1070
     1
1002
}
  0
DIMENSION
  5
7B3D
  8
3
  6
CONTINUOUS
  2
*D2
 10
1613.9796969999991
 20
1054.132277975727
 30
0.0
 11
1306.479697
 21
1091.632277975727
 31
0.0
 70
     0
 13
998.97969700000021
 23
1120.9930179757271
 33
0.0
 14
1613.9796969999991
 24
1148.7202489757269
 34
0.0
1001
ACAD
1000
DSTYLE
1002
{
1070
   287
1070
     4
1070
   287
1070
     4
1070
    40
1040
15.0
1070
    75
1070
     1
1070
   143
1040
0.039
1070
   172
1070
     1
1070
   271
1070
     0
1070
   279
1070
     1
1070
   288
1070
     1
1002
}
  0
DIMENSION
  5
7B4A
  8
3
  6
CONTINUOUS
  2
*D3
 10
671.26996400000019
 20
1578.7202489757269
 30
0.0
 11
671.26996400000007
 21
1746.5500329757269
 31
0.0
 70
   128
 13
748.97969699999965
 23
1893.7202489757269
 33
0.0
 14
748.97969699999965
 24
1578.7202489757269
 34
0.0
 50
90.0
1001
ACAD
1000
DSTYLE
1002
{
1070
   287
1070
     3
1070
   287
1070
     3
1070
    40
1040
15.0
1070
   143
1040
0.039
1070
   172
1070
     1
1070
   271
1070
     0
1070
   279
1070
     0
1070
   288
1070
     1
1002
}
  0
DIMENSION
  5
7B57
  8
3
  6
CONTINUOUS
  2
*D4
 10
586.37359800000036
 20
1578.7202489757269
 30
0.0
 11
586.37359800000013
 21
1730.5059009757269
 31
0.0
 70
   128
 13
768.97969699999965
 23
1903.7202489757269
 33
0.0
 14
748.97969699999965
 24
1578.7202489757269
 34
0.0
 50
90.0
1001
ACAD
1000
DSTYLE
1002
{
1070
   287
1070
     3
1070
   287
1070
     3
1070
    40
1040
15.0
1070
   143
1040
0.039
1070
   172
1070
     1
1070
   271
1070
     0
1070
   279
1070
     0
1070
   288
1070
     1
1002
}
  0
DIMENSION
  5
7B63
  8
3
  6
CONTINUOUS
  2
*D5
 10
586.37359800000013
 20
1178.7202489757269
 30
0.0
 11
548.87359800000002
 21
1378.7202489757269
 31
0.0
 70
     0
 13
748.97969699999965
 23
1578.7202489757269
 33
0.0
 14
763.97969699999976
 24
1178.7202489757269
 34
0.0
 50
90.0
1001
ACAD
1000
DSTYLE
1002
{
1070
   287
1070
     4
1070
   287
1070
     4
1070
    40
1040
15.0
1070
    75
1070
     1
1070
   143
1040
0.039
1070
   172
1070
     1
1070
   271
1070
     0
1070
   279
1070
     1
1070
   288
1070
     1
1002
}
  0
DIMENSION
  5
7B73
  8
3
  6
CONTINUOUS
  2
*D6
 10
586.37359800000024
 20
1148.7202489757269
 30
0.0
 11
586.37359800000013
 21
1037.291677547156
 31
0.0
 70
   128
 13
763.97969699999976
 23
1178.7202489757269
 33
0.0
 14
763.97969699999976
 24
1148.7202489757269
 34
0.0
 50
90.0
1001
ACAD
1000
DSTYLE
1002
{
1070
   287
1070
     3
1070
   287
1070
     3
1070
    40
1040
15.0
1070
   143
1040
0.039
1070
   172
1070
     1
1070
   271
1070
     0
1070
   279
1070
     0
1070
   288
1070
     1
1002
}
  0
DIMENSION
  5
7B9A
  8
3
  6
CONTINUOUS
  2
*D7
 10
496.88822200000021
 20
1148.7202489757269
 30
0.0
 11
496.88822199999998
 21
1544.852359975727
 31
0.0
 70
   128
 13
748.97969699999965
 23
1915.2202489757269
 33
0.0
 14
763.97969699999976
 24
1148.7202489757269
 34
0.0
 50
90.0
1001
ACAD
1000
DSTYLE
1002
{
1070
   287
1070
     3
1070
   287
1070
     3
1070
    40
1040
15.0
1070
   143
1040
0.039
1070
   172
1070
     1
1070
   271
1070
     0
1070
   279
1070
     0
1070
   288
1070
     1
1002
}
  0
DIMENSION
  5
7BA7
  8
3
  6
CONTINUOUS
  2
*D8
 10
998.97969700000021
 20
1985.1480449757271
 30
0.0
 11
877.77467999999999
 21
1985.1480449757271
 31
0.0
 70
   128
 13
748.97969699999965
 23
1915.2202489757269
 33
0.0
 14
998.97969700000021
 24
1902.632715975727
 34
0.0
1001
ACAD
1000
DSTYLE
1002
{
1070
   287
1070
     3
1070
   287
1070
     3
1070
    40
1040
15.0
1070
   143
1040
0.039
1070
   172
1070
     1
1070
   271
1070
     0
1070
   279
1070
     0
1070
   288
1070
     1
1002
}
  0
DIMENSION
  5
7BB3
  8
3
  6
CONTINUOUS
  2
*D9
 10
1272.979697
 20
1985.1480449757271
 30
0.0
 11
1135.979697
 21
2022.6480449757271
 31
0.0
 70
     0
 13
998.97969700000021
 23
1902.632715975727
 33
0.0
 14
1272.979697
 24
1604.2202489757269
 34
0.0
1001
ACAD
1000
DSTYLE
1002
{
1070
   287
1070
     4
1070
   287
1070
     4
1070
    40
1040
15.0
1070
    75
1070
     1
1070
   143
1040
0.039
1070
   172
1070
     1
1070
   271
1070
     0
1070
   279
1070
     1
1070
   288
1070
     1
1002
}
  0
DIMENSION
  5
7BC0
  8
3
  6
CONTINUOUS
  2
*D10
 10
1613.9796969999991
 20
2494.6884219999988
 30
0.0
 11
1189.8262500000001
 21
2494.6884219999988
 31
0.0
 70
   128
 13
763.97969699999987
 23
2622.1011760000001
 33
0.0
 14
1613.9796969999991
 24
2622.1011760000001
 34
0.0
1001
ACAD
1000
DSTYLE
1002
{
1070
   287
1070
     3
1070
   287
1070
     3
1070
    40
1040
15.0
1070
   143
1040
0.039
1070
   172
1070
     1
1070
   271
1070
     0
1070
   279
1070
     0
1070
   288
1070
     1
1002
}
  0
DIMENSION
  5
7BCD
  8
3
  6
CONTINUOUS
  2
*D11
 10
1758.3998409999999
 20
2622.1011760000001
 30
0.0
 11
1758.3998409999999
 21
2921.003968
 31
0.0
 70
   128
 13
1613.9796969999991
 23
3222.1011760000001
 33
0.0
 14
1613.9796969999991
 24
2622.1011760000001
 34
0.0
 50
90.0
1001
ACAD
1000
DSTYLE
1002
{
1070
   287
1070
     3
1070
   287
1070
     3
1070
    40
1040
15.0
1070
   143
1040
0.039
1070
   172
1070
     1
1070
   271
1070
     0
1070
   279
1070
     0
1070
   288
1070
     1
1002
}
  0
LINE
  5
7BCE
  8
2
  6
CENTER
 10
1305.335662
 20
3042.1011760000001
 30
0.0
 11
731.61431100000004
 21
3042.1011760000001
 31
0.0
  0
LINE
  5
7BCF
  8
2
  6
CENTER
 10
998.97969699999999
 20
2596.6891369999998
 30
0.0
 11
998.97969699999999
 21
3220.7652950000002
 31
0.0
  0
LINE
  5
7BD0
  8
2
  6
CENTER
 10
2431.4480011096612
 20
1964.5034339757269
 30
0.0
 11
2431.4480011096612
 21
1113.952726975727
 31
0.0
  0
DIMENSION
  5
7BDD
  8
3
  6
CONTINUOUS
  2
*D12
 10
2543.4480011096612
 20
1957.8718489757271
 30
0.0
 11
2423.376573109661
 21
1957.8718489757271
 31
0.0
 70
   128
 13
2319.4480011096612
 23
1893.7202489757269
 33
0.0
 14
2543.4480011096612
 24
1893.7202489757269
 34
0.0
1001
ACAD
1000
DSTYLE
1002
{
1070
   287
1070
     3
1070
   287
1070
     3
1070
    40
1040
15.0
1070
   143
1040
0.039
1070
   172
1070
     1
1070
   271
1070
     0
1070
   279
1070
     0
1070
   288
1070
     1
1002
}
  0
DIMENSION
  5
7BEA
  8
3
  6
CONTINUOUS
  2
*D13
 10
2431.4480011096612
 20
2063.4414922416172
 30
0.0
 11
2227.1995961096609
 21
2063.4414922416172
 31
0.0
 70
   128
  1
MAX\P420
 13
2011.4480011096609
 23
1808.7202489757269
 33
0.0
 14
2431.4480011096612
 24
2022.651214975727
 34
0.0
1001
ACAD
1000
DSTYLE
1002
{
1070
   287
1070
     3
1070
   287
1070
     3
1070
    40
1040
15.0
1070
   143
1040
0.039
1070
   172
1070
     1
1070
   271
1070
     0
1070
   279
1070
     0
1070
   288
1070
     1
1002
}
  0
DIMENSION
  5
7BF8
  8
3
  6
CONTINUOUS
  2
*D14
 10
2552.4480011096612
 20
2063.4414922416172
 30
0.0
 11
2486.4777391096609
 21
2061.1494692416172
 31
0.0
 70
   128
 13
2431.4480011096612
 23
2022.651214975727
 33
0.0
 14
2552.4480011096612
 24
1761.2202489757269
 34
0.0
1001
ACAD
1000
DSTYLE
1002
{
1070
   287
1070
     4
1070
   287
1070
     4
1070
    40
1040
15.0
1070
    75
1070
     1
1070
   143
1040
0.039
1070
   172
1070
     1
1070
   271
1070
     0
1070
   279
1070
     1
1070
   288
1070
     1
1002
}
  0
LINE
  5
7C10
  8
3
  6
CONTINUOUS
 10
2552.4480011096612
 20
1736.2202489757269
 30
0.0
 11
2572.848308109661
 21
1736.2202489757269
 31
0.0
  0
LINE
  5
7C13
  8
3
  6
CONTINUOUS
 10
2552.4480011096612
 20
1421.2202489757269
 30
0.0
 11
2567.3893821096608
 21
1421.2202489757269
 31
0.0
  0
DIMENSION
  5
7C20
  8
3
  6
CONTINUOUS
  2
*D15
 10
2658.0074231096619
 20
1421.2202489757269
 30
0.0
 11
2658.007423109661
 21
1571.3324629757269
 31
0.0
 70
   128
 13
2552.4480011096612
 23
1736.2202489757269
 33
0.0
 14
2552.4480011096612
 24
1421.2202489757269
 34
0.0
 50
90.0
1001
ACAD
1000
DSTYLE
1002
{
1070
   287
1070
     3
1070
   287
1070
     3
1070
     3
1000
φ<>
1070
    40
1040
15.0
1070
   143
1040
0.039
1070
   172
1070
     1
1070
   271
1070
     0
1070
   279
1070
     0
1070
   288
1070
     1
1002
}
  0
DIMENSION
  5
7C2D
  8
3
  6
CONTINUOUS
  2
*D16
 10
2431.4480011096612
 20
1047.784739975727
 30
0.0
 11
2217.121055109661
 21
1047.784739975727
 31
0.0
 70
   128
 13
2011.4480011096609
 23
1148.7202489757269
 33
0.0
 14
2431.4480011096612
 24
1113.952726975727
 34
0.0
1001
ACAD
1000
DSTYLE
1002
{
1070
   287
1070
     3
1070
   287
1070
     3
1070
    40
1040
15.0
1070
   143
1040
0.039
1070
   172
1070
     1
1070
   271
1070
     0
1070
   279
1070
     0
1070
   288
1070
     1
1002
}
  0
DIMENSION
  5
7C3B
  8
3
  6
CONTINUOUS
  2
*D17
 10
2611.4480011096612
 20
1047.784739975727
 30
0.0
 11
2520.0359701096609
 21
1047.654975975727
 31
0.0
 70
   128
 13
2431.4480011096612
 23
1113.952726975727
 33
0.0
 14
2611.4480011096612
 24
1148.7202489757269
 34
0.0
1001
ACAD
1000
DSTYLE
1002
{
1070
   287
1070
     4
1070
   287
1070
     4
1070
    40
1040
15.0
1070
    75
1070
     1
1070
   143
1040
0.039
1070
   172
1070
     1
1070
   271
1070
     0
1070
   279
1070
     1
1070
   288
1070
     1
1002
}
  0
LINE
  5
7C52
  8
2
  6
CENTER
 10
1459.686899999999
 20
1578.7202489757269
 30
0.0
 11
687.67407700000012
 21
1578.7202489757269
 31
0.0
  0
LINE
  5
7C53
  8
4
  6
CONTINUOUS
 10
2775.0
 20
750.0
 30
0.0
 11
2775.0
 21
450.0
 31
0.0
  0
LINE
  5
7C54
  8
4
  6
CONTINUOUS
 10
1725.0
 20
750.0
 30
0.0
 11
1725.0
 21
450.0
 31
0.0
  0
LINE
  5
7C55
  8
4
  6
CONTINUOUS
 10
975.0
 20
750.0
 30
0.0
 11
975.0
 21
450.0
 31
0.0
  0
LINE
  5
7C58
  8
4
  6
CONTINUOUS
 10
975.0
 20
450.0
 30
0.0
 11
2775.0
 21
450.0
 31
0.0
  0
LINE
  5
7C59
  8
4
  6
CONTINUOUS
 10
975.0
 20
600.0
 30
0.0
 11
2775.0
 21
600.0
 31
0.0
  0
TEXT
  5
7C5A
  8
4
  6
CONTINUOUS
 10
1032.753121
 20
647.31453899999985
 30
0.0
 40
75.0
  1
機器名称
  0
TEXT
  5
7C5B
  8
4
  6
CONTINUOUS
 10
1029.387158999999
 20
482.46773499999989
 30
0.0
 40
75.0
  1
機器型番
  0
TEXT
  5
7C5C
  8
4
  6
CONTINUOUS
 10
1766.518118
 20
633.85765300000003
 30
0.0
 40
65.0
  1
ミツヤニューマルチファン
  0
TEXT
  5
7C5D
  8
4
  6
CONTINUOUS
 10
1779.9817430000001
 20
475.73937599999999
 30
0.0
 40
75.0
  1
NM#2-1
  0
TEXT
  5
7C5F
  8
4
  6
CONTINUOUS
 10
1272.1799570000001
 20
3575.1432619999991
 30
0.0
 40
81.0
  1
天井吊ベット
  0
TEXT
  5
7C60
  8
4
  6
CONTINUOUS
 10
474.25139000000001
 20
3800.8214640000001
 30
0.0
 40
108.0
  1
ベルト駆動式片吸込片持多翼ファン
  0
LINE
  5
7C61
  8
4
  6
CONTINUOUS
 10
375.0
 20
3704.1131310000001
 30
0.0
 11
2775.0
 21
3704.1131310000001
 31
0.0
  0
LINE
  5
7C62
  8
4
  6
CONTINUOUS
 10
375.0
 20
4004.1131310000001
 30
0.0
 11
2775.0
 21
4004.1131310000001
 31
0.0
  0
LINE
  5
7C63
  8
4
  6
CONTINUOUS
 10
975.0
 20
750.0
 30
0.0
 11
2775.0
 21
750.0
 31
0.0
  0
LINE
  5
7C64
  8
4
  6
CONTINUOUS
 10
375.0
 20
4004.1131310000001
 30
0.0
 11
375.0
 21
3704.1131310000001
 31
0.0
  0
TEXT
  5
7C65
  8
4
  6
CONTINUOUS
 10
618.39170899999999
 20
3573.4792159999988
 30
0.0
 40
81.0
  1
左回転左横向
  0
TEXT
  5
7C66
  8
4
  6
CONTINUOUS
 10
2203.454338999999
 20
4059.091621999999
 30
0.0
 40
84.0
  1
No.
  0
TEXT
  5
7C67
  8
4
  6
CONTINUOUS
 10
1966.944094
 20
3575.1432619999991
 30
0.0
 40
81.0
  1
縮尺：1/15
  0
LINE
  5
7C68
  8
4
  6
CONTINUOUS
 10
2775.0
 20
4004.1131310000001
 30
0.0
 11
2775.0
 21
3704.1131310000001
 31
0.0
  0
LINE
  5
7C6A
  8
4
  6
CONTINUOUS
 10
2160.9261339999989
 20
4021.8953750000001
 30
0.0
 11
2160.9261339999989
 21
4179.978392
 31
0.0
  0
LINE
  5
7C6B
  8
4
  6
CONTINUOUS
 10
2160.9261339999989
 20
4179.978392
 30
0.0
 11
2775.0
 21
4179.978392
 31
0.0
  0
LINE
  5
7C6C
  8
4
  6
CONTINUOUS
 10
2775.0
 20
4179.978392
 30
0.0
 11
2775.0
 21
4021.8953750000001
 31
0.0
  0
LINE
  5
7C6D
  8
4
  6
CONTINUOUS
 10
2775.0
 20
4021.8953750000001
 30
0.0
 11
2160.9261339999989
 21
4021.8953750000001
 31
0.0
  0
DIMENSION
  5
7CDA
  8
3
  2
*D18
 10
1613.9796969999991
 20
2080.547948430587
 30
0.0
 11
1148.0970505780169
 21
2080.547948430587
 31
0.0
 70
   128
 13
748.97969699999965
 23
1915.2202489757269
 33
0.0
 14
1613.9796969999991
 24
1248.7202489757269
 34
0.0
1001
ACAD
1000
DSTYLE
1002
{
1070
   287
1070
     3
1070
   287
1070
     3
1070
    40
1040
15.0
1070
   143
1040
0.039
1070
   172
1070
     1
1070
   271
1070
     0
1070
   279
1070
     0
1070
   288
1070
     1
1002
}
  0
ENDSEC
  0
EOF
