  0
SECTION
  2
HEADER
  9
$ACADVER
  1
AC1027
  9
$ACADMAINTVER
 70
    81
  9
$DWGCODEPAGE
  3
ANSI_932
  9
$LASTSAVEDBY
  1
reiko.miyawaki
  9
$REQUIREDVERSIONS
160
                 0
  9
$INSBASE
 10
0.0
 20
0.0
 30
0.0
  9
$EXTMIN
 10
181.4058927162095
 20
300.0
 30
0.0
  9
$EXTMAX
 10
1850.0
 20
2786.652262
 30
0.0
  9
$LIMMIN
 10
0.0
 20
0.0
  9
$LIMMAX
 10
297.0
 20
210.0
  9
$ORTHOMODE
 70
     0
  9
$REGENMODE
 70
     1
  9
$FILLMODE
 70
     0
  9
$QTEXTMODE
 70
     0
  9
$MIRRTEXT
 70
     1
  9
$LTSCALE
 40
100.0
  9
$ATTMODE
 70
     1
  9
$TEXTSIZE
 40
180.0
  9
$TRACEWID
 40
0.05
  9
$TEXTSTYLE
  7
STANDARD
  9
$CLAYER
  8
3
  9
$CELTYPE
  6
BYLAYER
  9
$CECOLOR
 62
   256
  9
$CELTSCALE
 40
1.0
  9
$DISPSILH
 70
     0
  9
$DIMSCALE
 40
10.0
  9
$DIMASZ
 40
2.0
  9
$DIMEXO
 40
0.5
  9
$DIMDLI
 40
10.0
  9
$DIMRND
 40
0.0
  9
$DIMDLE
 40
0.0
  9
$DIMEXE
 40
1.0
  9
$DIMTP
 40
1.0
  9
$DIMTM
 40
1.0
  9
$DIMTXT
 40
3.0
  9
$DIMCEN
 40
0.0
  9
$DIMTSZ
 40
0.0
  9
$DIMTOL
 70
     0
  9
$DIMLIM
 70
     0
  9
$DIMTIH
 70
     0
  9
$DIMTOH
 70
     0
  9
$DIMSE1
 70
     0
  9
$DIMSE2
 70
     0
  9
$DIMTAD
 70
     1
  9
$DIMZIN
 70
     8
  9
$DIMBLK
  1

  9
$DIMASO
 70
     1
  9
$DIMSHO
 70
     1
  9
$DIMPOST
  1
(<>)
  9
$DIMAPOST
  1

  9
$DIMALT
 70
     0
  9
$DIMALTD
 70
     2
  9
$DIMALTF
 40
0.039
  9
$DIMLFAC
 40
1.0
  9
$DIMTOFL
 70
     1
  9
$DIMTVP
 40
0.0
  9
$DIMTIX
 70
     0
  9
$DIMSOXD
 70
     0
  9
$DIMSAH
 70
     1
  9
$DIMBLK1
  1
DOT
  9
$DIMBLK2
  1
OPEN
  9
$DIMSTYLE
  2
IGA
  9
$DIMCLRD
 70
     0
  9
$DIMCLRE
 70
     0
  9
$DIMCLRT
 70
     0
  9
$DIMTFAC
 40
10.0
  9
$DIMGAP
 40
1.0
  9
$DIMJUST
 70
     0
  9
$DIMSD1
 70
     0
  9
$DIMSD2
 70
     0
  9
$DIMTOLJ
 70
     1
  9
$DIMTZIN
 70
     8
  9
$DIMALTZ
 70
     0
  9
$DIMALTTZ
 70
     0
  9
$DIMUPT
 70
     0
  9
$DIMDEC
 70
     0
  9
$DIMTDEC
 70
     0
  9
$DIMALTU
 70
     2
  9
$DIMALTTD
 70
     2
  9
$DIMTXSTY
  7
STANDARD
  9
$DIMAUNIT
 70
     0
  9
$DIMADEC
 70
     0
  9
$DIMALTRND
 40
0.0
  9
$DIMAZIN
 70
     0
  9
$DIMDSEP
 70
    46
  9
$DIMATFIT
 70
     3
  9
$DIMFRAC
 70
     0
  9
$DIMLDRBLK
  1
DOT
  9
$DIMLUNIT
 70
     2
  9
$DIMLWD
 70
    -2
  9
$DIMLWE
 70
    -2
  9
$DIMTMOVE
 70
     2
  9
$DIMFXL
 40
1.0
  9
$DIMFXLON
 70
     0
  9
$DIMJOGANG
 40
0.7853981633974483
  9
$DIMTFILL
 70
     0
  9
$DIMTFILLCLR
 70
     0
  9
$DIMARCSYM
 70
     0
  9
$DIMLTYPE
  6

  9
$DIMLTEX1
  6

  9
$DIMLTEX2
  6

  9
$DIMTXTDIRECTION
 70
     0
  9
$LUNITS
 70
     2
  9
$LUPREC
 70
     3
  9
$SKETCHINC
 40
0.1
  9
$FILLETRAD
 40
50.0
  9
$AUNITS
 70
     0
  9
$AUPREC
 70
     0
  9
$MENU
  1
acad
  9
$ELEVATION
 40
0.0
  9
$PELEVATION
 40
0.0
  9
$THICKNESS
 40
0.0
  9
$LIMCHECK
 70
     0
  9
$CHAMFERA
 40
0.5
  9
$CHAMFERB
 40
0.5
  9
$CHAMFERC
 40
20.0
  9
$CHAMFERD
 40
0.0
  9
$SKPOLY
 70
     0
  9
$TDCREATE
 40
2450740.571140509
  9
$TDUCREATE
 40
2450740.196140509
  9
$TDUPDATE
 40
2459024.549312385
  9
$TDUUPDATE
 40
2459024.174312384
  9
$TDINDWG
 40
0.0057171991
  9
$TDUSRTIMER
 40
0.0057171991
  9
$USRTIMER
 70
     1
  9
$ANGBASE
 50
0.0
  9
$ANGDIR
 70
     0
  9
$PDMODE
 70
     0
  9
$PDSIZE
 40
0.0
  9
$PLINEWID
 40
0.0
  9
$SPLFRAME
 70
     0
  9
$SPLINETYPE
 70
     6
  9
$SPLINESEGS
 70
     8
  9
$HANDSEED
  5
7F44
  9
$SURFTAB1
 70
     6
  9
$SURFTAB2
 70
     6
  9
$SURFTYPE
 70
     6
  9
$SURFU
 70
     6
  9
$SURFV
 70
     6
  9
$UCSBASE
  2

  9
$UCSNAME
  2

  9
$UCSORG
 10
0.0
 20
0.0
 30
0.0
  9
$UCSXDIR
 10
1.0
 20
0.0
 30
0.0
  9
$UCSYDIR
 10
0.0
 20
1.0
 30
0.0
  9
$UCSORTHOREF
  2

  9
$UCSORTHOVIEW
 70
     0
  9
$UCSORGTOP
 10
0.0
 20
0.0
 30
0.0
  9
$UCSORGBOTTOM
 10
0.0
 20
0.0
 30
0.0
  9
$UCSORGLEFT
 10
0.0
 20
0.0
 30
0.0
  9
$UCSORGRIGHT
 10
0.0
 20
0.0
 30
0.0
  9
$UCSORGFRONT
 10
0.0
 20
0.0
 30
0.0
  9
$UCSORGBACK
 10
0.0
 20
0.0
 30
0.0
  9
$PUCSBASE
  2

  9
$PUCSNAME
  2

  9
$PUCSORG
 10
0.0
 20
0.0
 30
0.0
  9
$PUCSXDIR
 10
1.0
 20
0.0
 30
0.0
  9
$PUCSYDIR
 10
0.0
 20
1.0
 30
0.0
  9
$PUCSORTHOREF
  2

  9
$PUCSORTHOVIEW
 70
     0
  9
$PUCSORGTOP
 10
0.0
 20
0.0
 30
0.0
  9
$PUCSORGBOTTOM
 10
0.0
 20
0.0
 30
0.0
  9
$PUCSORGLEFT
 10
0.0
 20
0.0
 30
0.0
  9
$PUCSORGRIGHT
 10
0.0
 20
0.0
 30
0.0
  9
$PUCSORGFRONT
 10
0.0
 20
0.0
 30
0.0
  9
$PUCSORGBACK
 10
0.0
 20
0.0
 30
0.0
  9
$USERI1
 70
     0
  9
$USERI2
 70
     0
  9
$USERI3
 70
     0
  9
$USERI4
 70
     0
  9
$USERI5
 70
     0
  9
$USERR1
 40
0.0
  9
$USERR2
 40
0.0
  9
$USERR3
 40
0.0
  9
$USERR4
 40
0.0
  9
$USERR5
 40
0.0
  9
$WORLDVIEW
 70
     1
  9
$SHADEDGE
 70
     3
  9
$SHADEDIF
 70
    70
  9
$TILEMODE
 70
     1
  9
$MAXACTVP
 70
    16
  9
$PINSBASE
 10
0.0
 20
0.0
 30
0.0
  9
$PLIMCHECK
 70
     0
  9
$PEXTMIN
 10
1.000000000000000E+20
 20
1.000000000000000E+20
 30
1.000000000000000E+20
  9
$PEXTMAX
 10
-1.000000000000000E+20
 20
-1.000000000000000E+20
 30
-1.000000000000000E+20
  9
$PLIMMIN
 10
0.0
 20
0.0
  9
$PLIMMAX
 10
12.0
 20
9.0
  9
$UNITMODE
 70
     0
  9
$VISRETAIN
 70
     0
  9
$PLINEGEN
 70
     0
  9
$PSLTSCALE
 70
     1
  9
$TREEDEPTH
 70
  3020
  9
$CMLSTYLE
  2
STANDARD
  9
$CMLJUST
 70
     0
  9
$CMLSCALE
 40
20.0
  9
$PROXYGRAPHICS
 70
     1
  9
$MEASUREMENT
 70
     0
  9
$CELWEIGHT
370
    -1
  9
$ENDCAPS
280
     0
  9
$JOINSTYLE
280
     0
  9
$LWDISPLAY
290
     0
  9
$INSUNITS
 70
     0
  9
$HYPERLINKBASE
  1

  9
$STYLESHEET
  1

  9
$XEDIT
290
     1
  9
$CEPSNTYPE
380
     0
  9
$PSTYLEMODE
290
     1
  9
$FINGERPRINTGUID
  2
{A77F5F7B-5A07-4275-9E11-C0505FA9EEAC}
  9
$VERSIONGUID
  2
{AB5D6201-F647-4AE5-A5C2-A549C94BA525}
  9
$EXTNAMES
290
     1
  9
$PSVPSCALE
 40
0.0
  9
$OLESTARTUP
290
     0
  9
$SORTENTS
280
   127
  9
$INDEXCTL
280
     0
  9
$HIDETEXT
280
     0
  9
$XCLIPFRAME
280
     2
  9
$HALOGAP
280
     0
  9
$OBSCOLOR
 70
   257
  9
$OBSLTYPE
280
     0
  9
$INTERSECTIONDISPLAY
280
     0
  9
$INTERSECTIONCOLOR
 70
   257
  9
$DIMASSOC
280
     1
  9
$PROJECTNAME
  1

  9
$CAMERADISPLAY
290
     0
  9
$LENSLENGTH
 40
50.0
  9
$CAMERAHEIGHT
 40
0.0
  9
$STEPSPERSEC
 40
2.0
  9
$STEPSIZE
 40
6.0
  9
$3DDWFPREC
 40
2.0
  9
$PSOLWIDTH
 40
0.25
  9
$PSOLHEIGHT
 40
4.0
  9
$LOFTANG1
 40
1.570796326794896
  9
$LOFTANG2
 40
1.570796326794896
  9
$LOFTMAG1
 40
0.0
  9
$LOFTMAG2
 40
0.0
  9
$LOFTPARAM
 70
     7
  9
$LOFTNORMALS
280
     1
  9
$LATITUDE
 40
37.795
  9
$LONGITUDE
 40
-122.394
  9
$NORTHDIRECTION
 40
0.0
  9
$TIMEZONE
 70
 -8000
  9
$LIGHTGLYPHDISPLAY
280
     1
  9
$TILEMODELIGHTSYNCH
280
     1
  9
$CMATERIAL
347
7E15
  9
$SOLIDHIST
280
     0
  9
$SHOWHIST
280
     1
  9
$DWFFRAME
280
     2
  9
$DGNFRAME
280
     0
  9
$REALWORLDSCALE
290
     1
  9
$INTERFERECOLOR
 62
     1
  9
$INTERFEREOBJVS
345
7E37
  9
$INTERFEREVPVS
346
7E34
  9
$CSHADOW
280
     0
  9
$SHADOWPLANELOCATION
 40
0.0
  0
ENDSEC
  0
SECTION
  2
CLASSES
  0
CLASS
  1
ACDBDICTIONARYWDFLT
  2
AcDbDictionaryWithDefault
  3
ObjectDBX Classes
 90
        0
 91
        1
280
     0
281
     0
  0
CLASS
  1
DICTIONARYVAR
  2
AcDbDictionaryVar
  3
ObjectDBX Classes
 90
        0
 91
       10
280
     0
281
     0
  0
CLASS
  1
MATERIAL
  2
AcDbMaterial
  3
ObjectDBX Classes
 90
     1153
 91
        3
280
     0
281
     0
  0
CLASS
  1
VISUALSTYLE
  2
AcDbVisualStyle
  3
ObjectDBX Classes
 90
     4095
 91
       24
280
     0
281
     0
  0
CLASS
  1
TABLESTYLE
  2
AcDbTableStyle
  3
ObjectDBX Classes
 90
     4095
 91
        1
280
     0
281
     0
  0
CLASS
  1
SCALE
  2
AcDbScale
  3
ObjectDBX Classes
 90
     1153
 91
       17
280
     0
281
     0
  0
CLASS
  1
MLEADERSTYLE
  2
AcDbMLeaderStyle
  3
ACDB_MLEADERSTYLE_CLASS
 90
     4095
 91
        1
280
     0
281
     0
  0
CLASS
  1
ACDBSECTIONVIEWSTYLE
  2
AcDbSectionViewStyle
  3
ObjectDBX Classes
 90
     1025
 91
        1
280
     0
281
     0
  0
CLASS
  1
ACDBDETAILVIEWSTYLE
  2
AcDbDetailViewStyle
  3
ObjectDBX Classes
 90
     1025
 91
        1
280
     0
281
     0
  0
CLASS
  1
CELLSTYLEMAP
  2
AcDbCellStyleMap
  3
ObjectDBX Classes
 90
     1152
 91
        1
280
     0
281
     0
  0
ENDSEC
  0
SECTION
  2
TABLES
  0
TABLE
  2
VPORT
  5
8
330
0
100
AcDbSymbolTable
 70
     1
  0
VPORT
  5
7E12
330
8
100
AcDbSymbolTableRecord
100
AcDbViewportTableRecord
  2
*Active
 70
     0
 10
0.0
 20
0.0
 11
1.0
 21
1.0
 12
1015.684895160008
 22
1602.850901348136
 13
0.0
 23
0.0
 14
10.0
 24
10.0
 15
10.0
 25
10.0
 16
0.0
 26
0.0
 36
1.0
 17
0.0
 27
0.0
 37
0.0
 40
2621.825673196056
 41
1.957107843137254
 42
50.0
 43
0.0
 44
0.0
 50
0.0
 51
0.0
 71
     0
 72
   100
 73
     1
 74
     0
 75
     0
 76
     0
 77
     0
 78
     0
281
     0
 65
     1
110
0.0
120
0.0
130
0.0
111
1.0
121
0.0
131
0.0
112
0.0
122
1.0
132
0.0
 79
     0
146
0.0
348
7E33
 60
     3
 61
     5
292
     1
282
     1
141
0.0
142
0.0
 63
   250
421
  3355443
1001
ACAD_NAV_VCDISPLAY
1070
     3
  0
ENDTAB
  0
TABLE
  2
LTYPE
  5
5
330
0
100
AcDbSymbolTable
 70
     2
  0
LTYPE
  5
13
330
5
100
AcDbSymbolTableRecord
100
AcDbLinetypeTableRecord
  2
BYBLOCK
 70
     0
  3

 72
    65
 73
     0
 40
0.0
  0
LTYPE
  5
14
330
5
100
AcDbSymbolTableRecord
100
AcDbLinetypeTableRecord
  2
BYLAYER
 70
     0
  3

 72
    65
 73
     0
 40
0.0
  0
LTYPE
  5
15
330
5
100
AcDbSymbolTableRecord
100
AcDbLinetypeTableRecord
  2
CONTINUOUS
 70
     0
  3
Solid line
 72
    65
 73
     0
 40
0.0
  0
LTYPE
  5
1F
330
5
100
AcDbSymbolTableRecord
100
AcDbLinetypeTableRecord
  2
CENTER
 70
     0
  3
____ _ ____ _ ____ _ ____ _ ____ _ ____ _ ____ 
 72
    65
 73
     4
 40
2.0
 49
1.25
 74
     0
 49
-0.25
 74
     0
 49
0.25
 74
     0
 49
-0.25
 74
     0
  0
ENDTAB
  0
TABLE
  2
LAYER
  5
2
102
{ACAD_XDICTIONARY
360
7E65
102
}
330
0
100
AcDbSymbolTable
 70
     6
  0
LAYER
  5
F
102
{ACAD_XDICTIONARY
360
7EB2
102
}
330
2
100
AcDbSymbolTableRecord
100
AcDbLayerTableRecord
  2
0
 70
     0
 62
     7
  6
CONTINUOUS
370
    -3
390
7D43
347
7E25
348
0
  0
LAYER
  5
31
102
{ACAD_XDICTIONARY
360
7EB4
102
}
330
2
100
AcDbSymbolTableRecord
100
AcDbLayerTableRecord
  2
3
 70
     0
 62
     2
  6
CONTINUOUS
370
    -3
390
7D43
347
7E25
348
0
  0
LAYER
  5
76D0
102
{ACAD_XDICTIONARY
360
7EB6
102
}
330
2
100
AcDbSymbolTableRecord
100
AcDbLayerTableRecord
  2
2
 70
     0
 62
     3
  6
CENTER
370
    -3
390
7D43
347
7E25
348
0
  0
LAYER
  5
76D1
102
{ACAD_XDICTIONARY
360
7EB8
102
}
330
2
100
AcDbSymbolTableRecord
100
AcDbLayerTableRecord
  2
1
 70
     0
 62
     4
  6
CONTINUOUS
370
    -3
390
7D43
347
7E25
348
0
  0
LAYER
  5
76D2
102
{ACAD_XDICTIONARY
360
7EBA
102
}
330
2
100
AcDbSymbolTableRecord
100
AcDbLayerTableRecord
  2
4
 70
     0
 62
     7
  6
CONTINUOUS
370
    -3
390
7D43
347
7E25
348
0
  0
LAYER
  5
7B47
330
2
100
AcDbSymbolTableRecord
100
AcDbLayerTableRecord
  2
DEFPOINTS
 70
     0
 62
     7
  6
CONTINUOUS
290
     0
370
    -3
390
7D43
347
7E25
348
0
  0
ENDTAB
  0
TABLE
  2
STYLE
  5
3
330
0
100
AcDbSymbolTable
 70
     1
  0
STYLE
  5
10
330
3
100
AcDbSymbolTableRecord
100
AcDbTextStyleTableRecord
  2
STANDARD
 70
     0
 40
0.0
 41
1.0
 50
0.0
 71
     0
 42
180.0
  3
simplex.shx
  4
extfont.shx
  0
ENDTAB
  0
TABLE
  2
VIEW
  5
6
330
0
100
AcDbSymbolTable
 70
     0
  0
ENDTAB
  0
TABLE
  2
UCS
  5
7
330
0
100
AcDbSymbolTable
 70
     0
  0
ENDTAB
  0
TABLE
  2
APPID
  5
9
330
0
100
AcDbSymbolTable
 70
     4
  0
APPID
  5
11
330
9
100
AcDbSymbolTableRecord
100
AcDbRegAppTableRecord
  2
ACAD
 70
     0
  0
APPID
  5
7E64
330
9
100
AcDbSymbolTableRecord
100
AcDbRegAppTableRecord
  2
ACAD_NAV_VCDISPLAY
 70
     0
  0
APPID
  5
7ED5
330
9
100
AcDbSymbolTableRecord
100
AcDbRegAppTableRecord
  2
AcadAnnoMonitorAlertIconDisabled
 70
     0
  0
APPID
  5
7ED6
330
9
100
AcDbSymbolTableRecord
100
AcDbRegAppTableRecord
  2
ACAD_EXEMPT_FROM_CAD_STANDARDS
 70
     0
  0
ENDTAB
  0
TABLE
  2
DIMSTYLE
  5
A
330
0
100
AcDbSymbolTable
 70
     1
100
AcDbDimStyleTable
 71
     1
340
1D
  0
DIMSTYLE
105
1D
102
{ACAD_REACTORS
330
7B4C
330
7B58
330
7B65
330
7B72
330
7B7E
330
7B8B
330
7B97
330
7BDC
330
7BF9
330
7C06
330
7C4A
330
7C58
330
7C83
330
7CA2
330
7CEC
330
7D2E
330
7D3B
330
7EF8
102
}
330
A
100
AcDbSymbolTableRecord
100
AcDbDimStyleTableRecord
  2
IGA
 70
     0
 40
2.0
 41
2.0
 42
0.5
 43
10.0
 44
1.0
 47
1.0
 48
1.0
 73
     0
 74
     0
 77
     1
 78
     8
140
3.0
141
0.0
143
0.03937
146
10.0
147
1.0
173
     1
271
     1
272
     0
279
     2
284
     8
340
10
341
7B39
343
7B39
344
7B39
  0
ENDTAB
  0
TABLE
  2
BLOCK_RECORD
  5
1
330
0
100
AcDbSymbolTable
 70
    20
  0
BLOCK_RECORD
  5
19
102
{ACAD_XDICTIONARY
360
7D71
102
}
330
1
100
AcDbSymbolTableRecord
100
AcDbBlockTableRecord
  2
*MODEL_SPACE
340
7D46
 70
     0
280
     1
281
     0
  0
BLOCK_RECORD
  5
16
102
{ACAD_XDICTIONARY
360
7D6F
102
}
330
1
100
AcDbSymbolTableRecord
100
AcDbBlockTableRecord
  2
*PAPER_SPACE
340
7D47
 70
     0
280
     1
281
     0
  0
BLOCK_RECORD
  5
7B39
330
1
100
AcDbSymbolTableRecord
100
AcDbBlockTableRecord
  2
_OPEN
340
0
102
{BLKREFS
331
7DAD
331
7DAE
331
7DB6
331
7DB7
331
7DC8
331
7DC9
331
7DDA
331
7DDB
331
7DE2
331
7DE3
331
7DF6
331
7DF7
331
7E73
331
7E74
331
7E7B
331
7E7C
331
7E84
331
7E85
331
7E8F
331
7E90
331
7E9B
331
7EAE
331
7D8B
331
7D8C
331
7D94
331
7D95
331
7D9C
331
7D9D
331
7DA5
331
7DA6
331
7EE4
331
7EE5
331
7F2B
331
7F2C
102
}
 70
     0
280
     1
281
     0
  0
BLOCK_RECORD
  5
7B3F
330
1
100
AcDbSymbolTableRecord
100
AcDbBlockTableRecord
  2
*D1
340
0
 70
     0
280
     1
281
     0
  0
BLOCK_RECORD
  5
7B4D
330
1
100
AcDbSymbolTableRecord
100
AcDbBlockTableRecord
  2
*D2
340
0
 70
     0
280
     1
281
     0
  0
BLOCK_RECORD
  5
7B59
330
1
100
AcDbSymbolTableRecord
100
AcDbBlockTableRecord
  2
*D3
340
0
 70
     0
280
     1
281
     0
  0
BLOCK_RECORD
  5
7B66
330
1
100
AcDbSymbolTableRecord
100
AcDbBlockTableRecord
  2
*D4
340
0
 70
     0
280
     1
281
     0
  0
BLOCK_RECORD
  5
7B73
330
1
100
AcDbSymbolTableRecord
100
AcDbBlockTableRecord
  2
*D5
340
0
 70
     0
280
     1
281
     0
  0
BLOCK_RECORD
  5
7B7F
330
1
100
AcDbSymbolTableRecord
100
AcDbBlockTableRecord
  2
*D6
340
0
 70
     0
280
     1
281
     0
  0
BLOCK_RECORD
  5
7B8C
330
1
100
AcDbSymbolTableRecord
100
AcDbBlockTableRecord
  2
*D7
340
0
 70
     0
280
     1
281
     0
  0
BLOCK_RECORD
  5
7BD0
330
1
100
AcDbSymbolTableRecord
100
AcDbBlockTableRecord
  2
*D8
340
0
 70
     0
280
     1
281
     0
  0
BLOCK_RECORD
  5
7BED
330
1
100
AcDbSymbolTableRecord
100
AcDbBlockTableRecord
  2
*D9
340
0
 70
     0
280
     1
281
     0
  0
BLOCK_RECORD
  5
7BFA
330
1
100
AcDbSymbolTableRecord
100
AcDbBlockTableRecord
  2
*D10
340
0
 70
     0
280
     1
281
     0
  0
BLOCK_RECORD
  5
7C3E
330
1
100
AcDbSymbolTableRecord
100
AcDbBlockTableRecord
  2
*D11
340
0
 70
     0
280
     1
281
     0
  0
BLOCK_RECORD
  5
7C4B
330
1
100
AcDbSymbolTableRecord
100
AcDbBlockTableRecord
  2
*D12
340
0
 70
     0
280
     1
281
     0
  0
BLOCK_RECORD
  5
7C77
330
1
100
AcDbSymbolTableRecord
100
AcDbBlockTableRecord
  2
*D13
340
0
 70
     0
280
     1
281
     0
  0
BLOCK_RECORD
  5
7C93
330
1
100
AcDbSymbolTableRecord
100
AcDbBlockTableRecord
  2
*D14
340
0
 70
     0
280
     1
281
     0
  0
BLOCK_RECORD
  5
7CE0
330
1
100
AcDbSymbolTableRecord
100
AcDbBlockTableRecord
  2
*D15
340
0
 70
     0
280
     1
281
     0
  0
BLOCK_RECORD
  5
7D18
330
1
100
AcDbSymbolTableRecord
100
AcDbBlockTableRecord
  2
_DOT
340
0
102
{BLKREFS
331
7E9A
331
7EAD
102
}
 70
     0
280
     1
281
     0
  0
BLOCK_RECORD
  5
7D20
330
1
100
AcDbSymbolTableRecord
100
AcDbBlockTableRecord
  2
*D17
340
0
 70
     0
280
     1
281
     0
  0
BLOCK_RECORD
  5
7D2F
330
1
100
AcDbSymbolTableRecord
100
AcDbBlockTableRecord
  2
*D18
340
0
 70
     0
280
     1
281
     0
  0
BLOCK_RECORD
  5
7EF9
330
1
100
AcDbSymbolTableRecord
100
AcDbBlockTableRecord
  2
*D19
340
0
 70
     0
280
     1
281
     0
  0
ENDTAB
  0
ENDSEC
  0
SECTION
  2
BLOCKS
  0
BLOCK
  5
1A
330
19
100
AcDbEntity
  8
0
100
AcDbBlockBegin
  2
*MODEL_SPACE
 70
     0
 10
0.0
 20
0.0
 30
0.0
  3
*MODEL_SPACE
  1

  0
ENDBLK
  5
1B
330
19
100
AcDbEntity
  8
0
100
AcDbBlockEnd
  0
BLOCK
  5
17
330
16
100
AcDbEntity
 67
     1
  8
0
100
AcDbBlockBegin
  2
*PAPER_SPACE
 70
     0
 10
0.0
 20
0.0
 30
0.0
  3
*PAPER_SPACE
  1

  0
ENDBLK
  5
18
330
16
100
AcDbEntity
 67
     1
  8
0
100
AcDbBlockEnd
  0
BLOCK
  5
7B3A
330
7B39
100
AcDbEntity
  8
0
100
AcDbBlockBegin
  2
_OPEN
 70
     0
 10
0.0
 20
0.0
 30
0.0
  3
_OPEN
  1

  0
LINE
  5
7B3B
330
7B39
100
AcDbEntity
  8
0
  6
ByBlock
 62
     0
100
AcDbLine
 10
-1.0
 20
0.166667
 30
0.0
 11
0.0
 21
0.0
 31
0.0
  0
LINE
  5
7B3C
330
7B39
100
AcDbEntity
  8
0
  6
ByBlock
 62
     0
100
AcDbLine
 10
0.0
 20
0.0
 30
0.0
 11
-1.0
 21
-0.166667
 31
0.0
  0
LINE
  5
7B3D
330
7B39
100
AcDbEntity
  8
0
  6
ByBlock
 62
     0
100
AcDbLine
 10
0.0
 20
0.0
 30
0.0
 11
-1.0
 21
0.0
 31
0.0
  0
ENDBLK
  5
7B3E
330
7B39
100
AcDbEntity
  8
0
100
AcDbBlockEnd
  0
BLOCK
  5
7B40
330
7B3F
100
AcDbEntity
  8
0
100
AcDbBlockBegin
  2
*D1
 70
     1
 10
0.0
 20
0.0
 30
0.0
  3
*D1
  1

  0
LINE
  5
7E70
330
7B3F
100
AcDbEntity
  8
3
  6
Continuous
 62
     0
440
 16777216
370
    -2
100
AcDbLine
 10
272.3825032219565
 20
743.8442688366539
 30
0.0
 11
272.3825032219565
 21
641.546829836654
 31
0.0
  0
LINE
  5
7E71
330
7B3F
100
AcDbEntity
  8
3
  6
Continuous
 62
     0
440
 16777216
370
    -2
100
AcDbLine
 10
822.3825032219565
 20
743.8442688366539
 30
0.0
 11
822.3825032219565
 21
641.546829836654
 31
0.0
  0
LINE
  5
7E72
330
7B3F
100
AcDbEntity
  8
3
  6
Continuous
 62
     0
440
 16777216
370
    -2
100
AcDbLine
 10
292.3825032219566
 20
651.5468298366539
 30
0.0
 11
802.3825032219566
 21
651.5468298366539
 31
0.0
  0
INSERT
  5
7E73
330
7B3F
100
AcDbEntity
  8
3
  6
Continuous
 62
     0
440
 16777216
370
    -2
100
AcDbBlockReference
  2
_OPEN
 10
272.3825032219565
 20
651.5468298366539
 30
0.0
 41
20.0
 42
20.0
 43
20.0
 50
180.0
  0
INSERT
  5
7E74
330
7B3F
100
AcDbEntity
  8
3
  6
Continuous
 62
     0
440
 16777216
370
    -2
100
AcDbBlockReference
  2
_OPEN
 10
822.3825032219565
 20
651.5468298366539
 30
0.0
 41
20.0
 42
20.0
 43
20.0
  0
MTEXT
  5
7E75
330
7B3F
100
AcDbEntity
  8
3
  6
Continuous
 62
     0
440
 16777216
100
AcDbMText
 10
551.1836752219564
 20
676.5468298366539
 30
0.0
 40
30.0
 41
0.0
 46
0.0
 71
     5
 72
     1
  1
\A1;550
 73
     1
 44
1.0
  0
POINT
  5
7E76
330
7B3F
100
AcDbEntity
  8
DEFPOINTS
  6
Continuous
 62
     0
440
 16777216
100
AcDbPoint
 10
272.3825032219565
 20
748.8442688366539
 30
0.0
  0
POINT
  5
7E77
330
7B3F
100
AcDbEntity
  8
DEFPOINTS
  6
Continuous
 62
     0
440
 16777216
100
AcDbPoint
 10
822.3825032219565
 20
748.8442688366539
 30
0.0
  0
POINT
  5
7E78
330
7B3F
100
AcDbEntity
  8
DEFPOINTS
  6
Continuous
 62
     0
440
 16777216
100
AcDbPoint
 10
822.3825032219565
 20
651.5468298366539
 30
0.0
  0
ENDBLK
  5
7B4B
330
7B3F
100
AcDbEntity
  8
0
100
AcDbBlockEnd
  0
BLOCK
  5
7B4E
330
7B4D
100
AcDbEntity
  8
0
100
AcDbBlockBegin
  2
*D2
 70
     1
 10
0.0
 20
0.0
 30
0.0
  3
*D2
  1

  0
LINE
  5
7E79
330
7B4D
100
AcDbEntity
  8
3
  6
Continuous
 62
     0
440
 16777216
370
    -2
100
AcDbLine
 10
1042.382503221956
 20
743.8442688366539
 30
0.0
 11
1042.382503221956
 21
641.546829836654
 31
0.0
  0
LINE
  5
7E7A
330
7B4D
100
AcDbEntity
  8
3
  6
Continuous
 62
     0
440
 16777216
370
    -2
100
AcDbLine
 10
842.3825032219564
 20
651.5468298366539
 30
0.0
 11
1022.382503221956
 21
651.5468298366539
 31
0.0
  0
INSERT
  5
7E7B
330
7B4D
100
AcDbEntity
  8
3
  6
Continuous
 62
     0
440
 16777216
370
    -2
100
AcDbBlockReference
  2
_OPEN
 10
822.3825032219565
 20
651.5468298366539
 30
0.0
 41
20.0
 42
20.0
 43
20.0
 50
180.0
  0
INSERT
  5
7E7C
330
7B4D
100
AcDbEntity
  8
3
  6
Continuous
 62
     0
440
 16777216
370
    -2
100
AcDbBlockReference
  2
_OPEN
 10
1042.382503221956
 20
651.5468298366539
 30
0.0
 41
20.0
 42
20.0
 43
20.0
  0
MTEXT
  5
7E7D
330
7B4D
100
AcDbEntity
  8
3
  6
Continuous
 62
     0
440
 16777216
100
AcDbMText
 10
932.3825032219565
 20
676.5468298366539
 30
0.0
 40
30.0
 41
0.0
 46
0.0
 71
     5
 72
     1
  1
\A1;220
 73
     1
 44
1.0
  0
POINT
  5
7E7E
330
7B4D
100
AcDbEntity
  8
DEFPOINTS
  6
Continuous
 62
     0
440
 16777216
100
AcDbPoint
 10
822.3825032219565
 20
748.8442688366539
 30
0.0
  0
POINT
  5
7E7F
330
7B4D
100
AcDbEntity
  8
DEFPOINTS
  6
Continuous
 62
     0
440
 16777216
100
AcDbPoint
 10
1042.382503221956
 20
748.8442688366539
 30
0.0
  0
POINT
  5
7E80
330
7B4D
100
AcDbEntity
  8
DEFPOINTS
  6
Continuous
 62
     0
440
 16777216
100
AcDbPoint
 10
1042.382503221956
 20
651.5468298366539
 30
0.0
  0
ENDBLK
  5
7B57
330
7B4D
100
AcDbEntity
  8
0
100
AcDbBlockEnd
  0
BLOCK
  5
7B5A
330
7B59
100
AcDbEntity
  8
0
100
AcDbBlockBegin
  2
*D3
 70
     1
 10
0.0
 20
0.0
 30
0.0
  3
*D3
  1

  0
LINE
  5
7D88
330
7B59
100
AcDbEntity
  8
3
  6
Continuous
 62
     0
440
 16777216
100
AcDbLine
 10
572.3825032219565
 20
1368.844268836654
 30
0.0
 11
572.3825032219565
 21
1428.929767836654
 31
0.0
  0
LINE
  5
7D89
330
7B59
100
AcDbEntity
  8
3
  6
Continuous
 62
     0
440
 16777216
100
AcDbLine
 10
822.3825032219565
 20
1368.844268836654
 30
0.0
 11
822.3825032219565
 21
1428.929767836654
 31
0.0
  0
LINE
  5
7D8A
330
7B59
100
AcDbEntity
  8
3
  6
Continuous
 62
     0
440
 16777216
100
AcDbLine
 10
592.3825032219565
 20
1418.929767836654
 30
0.0
 11
802.3825032219566
 21
1418.929767836654
 31
0.0
  0
INSERT
  5
7D8B
330
7B59
100
AcDbEntity
  8
3
  6
Continuous
 62
     0
440
 16777216
100
AcDbBlockReference
  2
_OPEN
 10
572.3825032219565
 20
1418.929767836654
 30
0.0
 41
20.0
 42
20.0
 43
20.0
 50
180.0
  0
INSERT
  5
7D8C
330
7B59
100
AcDbEntity
  8
3
  6
Continuous
 62
     0
440
 16777216
100
AcDbBlockReference
  2
_OPEN
 10
822.3825032219565
 20
1418.929767836654
 30
0.0
 41
20.0
 42
20.0
 43
20.0
  0
MTEXT
  5
7D8D
330
7B59
100
AcDbEntity
  8
3
  6
Continuous
 62
     0
440
 16777216
100
AcDbMText
 10
683.4699652219565
 20
1443.929767836654
 30
0.0
 40
30.0
 41
0.0
 46
0.0
 71
     5
 72
     5
  1
\A1;250
 73
     1
 44
1.0
  0
POINT
  5
7D8E
330
7B59
100
AcDbEntity
  8
DEFPOINTS
  6
Continuous
 62
     0
440
 16777216
100
AcDbPoint
 10
572.3825032219565
 20
1363.844268836654
 30
0.0
  0
POINT
  5
7D8F
330
7B59
100
AcDbEntity
  8
DEFPOINTS
  6
Continuous
 62
     0
440
 16777216
100
AcDbPoint
 10
822.3825032219565
 20
1363.844268836654
 30
0.0
  0
POINT
  5
7D90
330
7B59
100
AcDbEntity
  8
DEFPOINTS
  6
Continuous
 62
     0
440
 16777216
100
AcDbPoint
 10
822.3825032219565
 20
1418.929767836654
 30
0.0
  0
ENDBLK
  5
7B64
330
7B59
100
AcDbEntity
  8
0
100
AcDbBlockEnd
  0
BLOCK
  5
7B67
330
7B66
100
AcDbEntity
  8
0
100
AcDbBlockBegin
  2
*D4
 70
     1
 10
0.0
 20
0.0
 30
0.0
  3
*D4
  1

  0
LINE
  5
7D91
330
7B66
100
AcDbEntity
  8
3
  6
Continuous
 62
     0
440
 16777216
100
AcDbLine
 10
562.3825032219565
 20
1348.844268836654
 30
0.0
 11
562.3825032219565
 21
1487.398739836654
 31
0.0
  0
LINE
  5
7D92
330
7B66
100
AcDbEntity
  8
3
  6
Continuous
 62
     0
440
 16777216
100
AcDbLine
 10
822.3825032219565
 20
1368.844268836654
 30
0.0
 11
822.3825032219565
 21
1487.398739836654
 31
0.0
  0
LINE
  5
7D93
330
7B66
100
AcDbEntity
  8
3
  6
Continuous
 62
     0
440
 16777216
100
AcDbLine
 10
582.3825032219565
 20
1477.398739836654
 30
0.0
 11
802.3825032219566
 21
1477.398739836654
 31
0.0
  0
INSERT
  5
7D94
330
7B66
100
AcDbEntity
  8
3
  6
Continuous
 62
     0
440
 16777216
100
AcDbBlockReference
  2
_OPEN
 10
562.3825032219565
 20
1477.398739836654
 30
0.0
 41
20.0
 42
20.0
 43
20.0
 50
180.0
  0
INSERT
  5
7D95
330
7B66
100
AcDbEntity
  8
3
  6
Continuous
 62
     0
440
 16777216
100
AcDbBlockReference
  2
_OPEN
 10
822.3825032219565
 20
1477.398739836654
 30
0.0
 41
20.0
 42
20.0
 43
20.0
  0
MTEXT
  5
7D96
330
7B66
100
AcDbEntity
  8
3
  6
Continuous
 62
     0
440
 16777216
100
AcDbMText
 10
701.1057462219565
 20
1502.398739836654
 30
0.0
 40
30.0
 41
0.0
 46
0.0
 71
     5
 72
     5
  1
\A1;260
 73
     1
 44
1.0
  0
POINT
  5
7D97
330
7B66
100
AcDbEntity
  8
DEFPOINTS
  6
Continuous
 62
     0
440
 16777216
100
AcDbPoint
 10
562.3825032219565
 20
1343.844268836654
 30
0.0
  0
POINT
  5
7D98
330
7B66
100
AcDbEntity
  8
DEFPOINTS
  6
Continuous
 62
     0
440
 16777216
100
AcDbPoint
 10
822.3825032219565
 20
1363.844268836654
 30
0.0
  0
POINT
  5
7D99
330
7B66
100
AcDbEntity
  8
DEFPOINTS
  6
Continuous
 62
     0
440
 16777216
100
AcDbPoint
 10
822.3825032219565
 20
1477.398739836654
 30
0.0
  0
ENDBLK
  5
7B71
330
7B66
100
AcDbEntity
  8
0
100
AcDbBlockEnd
  0
BLOCK
  5
7B74
330
7B73
100
AcDbEntity
  8
0
100
AcDbBlockBegin
  2
*D5
 70
     1
 10
0.0
 20
0.0
 30
0.0
  3
*D5
  1

  0
LINE
  5
7D9A
330
7B73
100
AcDbEntity
  8
3
  6
Continuous
 62
     0
440
 16777216
100
AcDbLine
 10
1008.371887221956
 20
1168.844268836654
 30
0.0
 11
1008.371887221956
 21
1487.398739836654
 31
0.0
  0
LINE
  5
7D9B
330
7B73
100
AcDbEntity
  8
3
  6
Continuous
 62
     0
440
 16777216
100
AcDbLine
 10
842.3825032219564
 20
1477.398739836654
 30
0.0
 11
988.3718872219565
 21
1477.398739836654
 31
0.0
  0
INSERT
  5
7D9C
330
7B73
100
AcDbEntity
  8
3
  6
Continuous
 62
     0
440
 16777216
100
AcDbBlockReference
  2
_OPEN
 10
822.3825032219565
 20
1477.398739836654
 30
0.0
 41
20.0
 42
20.0
 43
20.0
 50
180.0
  0
INSERT
  5
7D9D
330
7B73
100
AcDbEntity
  8
3
  6
Continuous
 62
     0
440
 16777216
100
AcDbBlockReference
  2
_OPEN
 10
1008.371887221956
 20
1477.398739836654
 30
0.0
 41
20.0
 42
20.0
 43
20.0
  0
MTEXT
  5
7D9E
330
7B73
100
AcDbEntity
  8
3
  6
Continuous
 62
     0
440
 16777216
100
AcDbMText
 10
915.3771952219566
 20
1502.398739836654
 30
0.0
 40
30.0
 41
0.0
 46
0.0
 71
     5
 72
     5
  1
\A1;186
 73
     1
 44
1.0
  0
POINT
  5
7D9F
330
7B73
100
AcDbEntity
  8
DEFPOINTS
  6
Continuous
 62
     0
440
 16777216
100
AcDbPoint
 10
822.3825032219565
 20
1363.844268836654
 30
0.0
  0
POINT
  5
7DA0
330
7B73
100
AcDbEntity
  8
DEFPOINTS
  6
Continuous
 62
     0
440
 16777216
100
AcDbPoint
 10
1008.371887221956
 20
1163.844268836654
 30
0.0
  0
POINT
  5
7DA1
330
7B73
100
AcDbEntity
  8
DEFPOINTS
  6
Continuous
 62
     0
440
 16777216
100
AcDbPoint
 10
1008.371887221956
 20
1477.398739836654
 30
0.0
  0
ENDBLK
  5
7B7D
330
7B73
100
AcDbEntity
  8
0
100
AcDbBlockEnd
  0
BLOCK
  5
7CED
330
7B7F
100
AcDbEntity
  8
0
100
AcDbBlockBegin
  2
*D6
 70
     1
 10
0.0
 20
0.0
 30
0.0
  3
*D6
  1

  0
LINE
  5
7DA2
330
7B7F
100
AcDbEntity
  8
3
  6
Continuous
 62
     0
440
 16777216
100
AcDbLine
 10
848.3825032219565
 20
1363.844268836654
 30
0.0
 11
1128.981320105773
 21
1363.844268836654
 31
0.0
  0
LINE
  5
7DA3
330
7B7F
100
AcDbEntity
  8
3
  6
Continuous
 62
     0
440
 16777216
100
AcDbLine
 10
1013.371887221956
 20
1163.844268836654
 30
0.0
 11
1128.981320105773
 21
1163.844268836654
 31
0.0
  0
LINE
  5
7DA4
330
7B7F
100
AcDbEntity
  8
3
  6
Continuous
 62
     0
440
 16777216
100
AcDbLine
 10
1118.981320105773
 20
1343.844268836654
 30
0.0
 11
1118.981320105773
 21
1183.844268836654
 31
0.0
  0
INSERT
  5
7DA5
330
7B7F
100
AcDbEntity
  8
3
  6
Continuous
 62
     0
440
 16777216
100
AcDbBlockReference
  2
_OPEN
 10
1118.981320105773
 20
1363.844268836654
 30
0.0
 41
20.0
 42
20.0
 43
20.0
 50
90.0
  0
INSERT
  5
7DA6
330
7B7F
100
AcDbEntity
  8
3
  6
Continuous
 62
     0
440
 16777216
100
AcDbBlockReference
  2
_OPEN
 10
1118.981320105773
 20
1163.844268836654
 30
0.0
 41
20.0
 42
20.0
 43
20.0
 50
270.0
  0
MTEXT
  5
7DA7
330
7B7F
100
AcDbEntity
  8
3
  6
Continuous
 62
     0
440
 16777216
100
AcDbMText
 10
1093.981320105773
 20
1268.078373836654
 30
0.0
 40
30.0
 41
0.0
 46
0.0
 71
     5
 72
     5
  1
\A1;200
 11
0.0000000000000001
 21
1.0
 31
0.0
 73
     1
 44
1.0
  0
POINT
  5
7DA8
330
7B7F
100
AcDbEntity
  8
DEFPOINTS
  6
Continuous
 62
     0
440
 16777216
100
AcDbPoint
 10
843.3825032219566
 20
1363.844268836654
 30
0.0
  0
POINT
  5
7DA9
330
7B7F
100
AcDbEntity
  8
DEFPOINTS
  6
Continuous
 62
     0
440
 16777216
100
AcDbPoint
 10
1008.371887221956
 20
1163.844268836654
 30
0.0
  0
POINT
  5
7DAA
330
7B7F
100
AcDbEntity
  8
DEFPOINTS
  6
Continuous
 62
     0
440
 16777216
100
AcDbPoint
 10
1118.981320105773
 20
1163.844268836654
 30
0.0
  0
ENDBLK
  5
7CF7
330
7B7F
100
AcDbEntity
  8
0
100
AcDbBlockEnd
  0
BLOCK
  5
7CF8
330
7B8C
100
AcDbEntity
  8
0
100
AcDbBlockBegin
  2
*D7
 70
     1
 10
0.0
 20
0.0
 30
0.0
  3
*D7
  1

  0
LINE
  5
7DAB
330
7B8C
100
AcDbEntity
  8
3
  6
Continuous
 62
     0
440
 16777216
100
AcDbLine
 10
1017.382503221957
 20
848.8442688366539
 30
0.0
 11
1128.981320105773
 21
848.8442688366539
 31
0.0
  0
LINE
  5
7DAC
330
7B8C
100
AcDbEntity
  8
3
  6
Continuous
 62
     0
440
 16777216
100
AcDbLine
 10
1118.981320105773
 20
1143.844268836654
 30
0.0
 11
1118.981320105773
 21
868.844268836654
 31
0.0
  0
INSERT
  5
7DAD
330
7B8C
100
AcDbEntity
  8
3
  6
Continuous
 62
     0
440
 16777216
100
AcDbBlockReference
  2
_OPEN
 10
1118.981320105773
 20
1163.844268836654
 30
0.0
 41
20.0
 42
20.0
 43
20.0
 50
90.0
  0
INSERT
  5
7DAE
330
7B8C
100
AcDbEntity
  8
3
  6
Continuous
 62
     0
440
 16777216
100
AcDbBlockReference
  2
_OPEN
 10
1118.981320105773
 20
848.8442688366539
 30
0.0
 41
20.0
 42
20.0
 43
20.0
 50
270.0
  0
MTEXT
  5
7DAF
330
7B8C
100
AcDbEntity
  8
3
  6
Continuous
 62
     0
440
 16777216
100
AcDbMText
 10
1093.981320105773
 20
1006.344268836654
 30
0.0
 40
30.0
 41
0.0
 46
0.0
 71
     5
 72
     5
  1
\A1;315
 11
0.0000000000000001
 21
1.0
 31
0.0
 73
     1
 44
1.0
  0
POINT
  5
7DB0
330
7B8C
100
AcDbEntity
  8
DEFPOINTS
  6
Continuous
 62
     0
440
 16777216
100
AcDbPoint
 10
1008.371887221956
 20
1163.844268836654
 30
0.0
  0
POINT
  5
7DB1
330
7B8C
100
AcDbEntity
  8
DEFPOINTS
  6
Continuous
 62
     0
440
 16777216
100
AcDbPoint
 10
1012.382503221956
 20
848.8442688366539
 30
0.0
  0
POINT
  5
7DB2
330
7B8C
100
AcDbEntity
  8
DEFPOINTS
  6
Continuous
 62
     0
440
 16777216
100
AcDbPoint
 10
1118.981320105773
 20
848.8442688366539
 30
0.0
  0
ENDBLK
  5
7D01
330
7B8C
100
AcDbEntity
  8
0
100
AcDbBlockEnd
  0
BLOCK
  5
7BD1
330
7BD0
100
AcDbEntity
  8
0
100
AcDbBlockBegin
  2
*D8
 70
     1
 10
0.0
 20
0.0
 30
0.0
  3
*D8
  1

  0
LINE
  5
7DB3
330
7BD0
100
AcDbEntity
  8
3
  6
Continuous
 62
     0
440
 16777216
100
AcDbLine
 10
272.3825032219565
 20
1834.916202729488
 30
0.0
 11
272.3825032219565
 21
1664.685025729488
 31
0.0
  0
LINE
  5
7DB4
330
7BD0
100
AcDbEntity
  8
3
  6
Continuous
 62
     0
440
 16777216
100
AcDbLine
 10
1042.382503221956
 20
1834.916202729488
 30
0.0
 11
1042.382503221956
 21
1664.685025729488
 31
0.0
  0
LINE
  5
7DB5
330
7BD0
100
AcDbEntity
  8
3
  6
Continuous
 62
     0
440
 16777216
100
AcDbLine
 10
292.3825032219566
 20
1674.685025729489
 30
0.0
 11
1022.382503221956
 21
1674.685025729489
 31
0.0
  0
INSERT
  5
7DB6
330
7BD0
100
AcDbEntity
  8
3
  6
Continuous
 62
     0
440
 16777216
100
AcDbBlockReference
  2
_OPEN
 10
272.3825032219565
 20
1674.685025729489
 30
0.0
 41
20.0
 42
20.0
 43
20.0
 50
180.0
  0
INSERT
  5
7DB7
330
7BD0
100
AcDbEntity
  8
3
  6
Continuous
 62
     0
440
 16777216
100
AcDbBlockReference
  2
_OPEN
 10
1042.382503221956
 20
1674.685025729489
 30
0.0
 41
20.0
 42
20.0
 43
20.0
  0
MTEXT
  5
7DB8
330
7BD0
100
AcDbEntity
  8
3
  6
Continuous
 62
     0
440
 16777216
100
AcDbMText
 10
675.3821662219565
 20
1699.685025729489
 30
0.0
 40
30.0
 41
0.0
 46
0.0
 71
     5
 72
     5
  1
\A1;770
 73
     1
 44
1.0
  0
POINT
  5
7DB9
330
7BD0
100
AcDbEntity
  8
DEFPOINTS
  6
Continuous
 62
     0
440
 16777216
100
AcDbPoint
 10
272.3825032219565
 20
1839.916202729488
 30
0.0
  0
POINT
  5
7DBA
330
7BD0
100
AcDbEntity
  8
DEFPOINTS
  6
Continuous
 62
     0
440
 16777216
100
AcDbPoint
 10
1042.382503221956
 20
1839.916202729488
 30
0.0
  0
POINT
  5
7DBB
330
7BD0
100
AcDbEntity
  8
DEFPOINTS
  6
Continuous
 62
     0
440
 16777216
100
AcDbPoint
 10
1042.382503221956
 20
1674.685025729489
 30
0.0
  0
ENDBLK
  5
7BDB
330
7BD0
100
AcDbEntity
  8
0
100
AcDbBlockEnd
  0
BLOCK
  5
7BEE
330
7BED
100
AcDbEntity
  8
0
100
AcDbBlockBegin
  2
*D9
 70
     1
 10
0.0
 20
0.0
 30
0.0
  3
*D9
  1

  0
LINE
  5
7E81
330
7BED
100
AcDbEntity
  8
3
  6
Continuous
 62
     0
440
 16777216
370
    -2
100
AcDbLine
 10
1380.753230000049
 20
743.8442688366539
 30
0.0
 11
1380.753230000049
 21
652.2441748366539
 31
0.0
  0
LINE
  5
7E82
330
7BED
100
AcDbEntity
  8
3
  6
Continuous
 62
     0
440
 16777216
370
    -2
100
AcDbLine
 10
1630.75323000005
 20
743.8442688366539
 30
0.0
 11
1630.75323000005
 21
652.2441748366539
 31
0.0
  0
LINE
  5
7E83
330
7BED
100
AcDbEntity
  8
3
  6
Continuous
 62
     0
440
 16777216
370
    -2
100
AcDbLine
 10
1400.75323000005
 20
662.2441748366538
 30
0.0
 11
1610.75323000005
 21
662.2441748366538
 31
0.0
  0
INSERT
  5
7E84
330
7BED
100
AcDbEntity
  8
3
  6
Continuous
 62
     0
440
 16777216
370
    -2
100
AcDbBlockReference
  2
_OPEN
 10
1380.753230000049
 20
662.2441748366538
 30
0.0
 41
20.0
 42
20.0
 43
20.0
 50
180.0
  0
INSERT
  5
7E85
330
7BED
100
AcDbEntity
  8
3
  6
Continuous
 62
     0
440
 16777216
370
    -2
100
AcDbBlockReference
  2
_OPEN
 10
1630.75323000005
 20
662.2441748366538
 30
0.0
 41
20.0
 42
20.0
 43
20.0
  0
MTEXT
  5
7E86
330
7BED
100
AcDbEntity
  8
3
  6
Continuous
 62
     0
440
 16777216
100
AcDbMText
 10
1510.251005000049
 20
687.2441748366538
 30
0.0
 40
30.0
 41
0.0
 46
0.0
 71
     5
 72
     1
  1
\A1;250
 73
     1
 44
1.0
  0
POINT
  5
7E87
330
7BED
100
AcDbEntity
  8
DEFPOINTS
  6
Continuous
 62
     0
440
 16777216
100
AcDbPoint
 10
1380.753230000049
 20
748.8442688366539
 30
0.0
  0
POINT
  5
7E88
330
7BED
100
AcDbEntity
  8
DEFPOINTS
  6
Continuous
 62
     0
440
 16777216
100
AcDbPoint
 10
1630.75323000005
 20
748.8442688366539
 30
0.0
  0
POINT
  5
7E89
330
7BED
100
AcDbEntity
  8
DEFPOINTS
  6
Continuous
 62
     0
440
 16777216
100
AcDbPoint
 10
1630.75323000005
 20
662.2441748366538
 30
0.0
  0
ENDBLK
  5
7BF8
330
7BED
100
AcDbEntity
  8
0
100
AcDbBlockEnd
  0
BLOCK
  5
7BFB
330
7BFA
100
AcDbEntity
  8
0
100
AcDbBlockBegin
  2
*D10
 70
     1
 10
0.0
 20
0.0
 30
0.0
  3
*D10
  1

  0
LINE
  5
7DC5
330
7BFA
100
AcDbEntity
  8
3
  6
Continuous
 62
     0
440
 16777216
100
AcDbLine
 10
1548.953230000049
 20
1368.844268836654
 30
0.0
 11
1548.953230000049
 21
1413.651914836654
 31
0.0
  0
LINE
  5
7DC6
330
7BFA
100
AcDbEntity
  8
3
  6
Continuous
 62
     0
440
 16777216
100
AcDbLine
 10
1728.55323000005
 20
1368.844268836654
 30
0.0
 11
1728.55323000005
 21
1413.651914836654
 31
0.0
  0
LINE
  5
7DC7
330
7BFA
100
AcDbEntity
  8
3
  6
Continuous
 62
     0
440
 16777216
100
AcDbLine
 10
1568.953230000049
 20
1403.651914836653
 30
0.0
 11
1708.55323000005
 21
1403.651914836653
 31
0.0
  0
INSERT
  5
7DC8
330
7BFA
100
AcDbEntity
  8
3
  6
Continuous
 62
     0
440
 16777216
100
AcDbBlockReference
  2
_OPEN
 10
1548.953230000049
 20
1403.651914836653
 30
0.0
 41
20.0
 42
20.0
 43
20.0
 50
180.0
  0
INSERT
  5
7DC9
330
7BFA
100
AcDbEntity
  8
3
  6
Continuous
 62
     0
440
 16777216
100
AcDbBlockReference
  2
_OPEN
 10
1728.55323000005
 20
1403.651914836653
 30
0.0
 41
20.0
 42
20.0
 43
20.0
  0
MTEXT
  5
7DCA
330
7BFA
100
AcDbEntity
  8
3
  6
Continuous
 62
     0
440
 16777216
100
AcDbMText
 10
1628.841059000049
 20
1428.651914836654
 30
0.0
 40
30.0
 41
0.0
 46
0.0
 71
     5
 72
     5
  1
\A1;180
 73
     1
 44
1.0
  0
POINT
  5
7DCB
330
7BFA
100
AcDbEntity
  8
DEFPOINTS
  6
Continuous
 62
     0
440
 16777216
100
AcDbPoint
 10
1548.953230000049
 20
1363.844268836654
 30
0.0
  0
POINT
  5
7DCC
330
7BFA
100
AcDbEntity
  8
DEFPOINTS
  6
Continuous
 62
     0
440
 16777216
100
AcDbPoint
 10
1728.55323000005
 20
1363.844268836654
 30
0.0
  0
POINT
  5
7DCD
330
7BFA
100
AcDbEntity
  8
DEFPOINTS
  6
Continuous
 62
     0
440
 16777216
100
AcDbPoint
 10
1728.55323000005
 20
1403.651914836653
 30
0.0
  0
ENDBLK
  5
7C05
330
7BFA
100
AcDbEntity
  8
0
100
AcDbBlockEnd
  0
BLOCK
  5
7CBB
330
7C3E
100
AcDbEntity
  8
0
100
AcDbBlockBegin
  2
*D11
 70
     1
 10
0.0
 20
0.0
 30
0.0
  3
*D11
  1

  0
LINE
  5
7EE1
330
7C3E
100
AcDbEntity
  8
3
  6
Continuous
 62
     0
440
 16777216
370
    -2
100
AcDbLine
 10
1298.753230000049
 20
1293.844268836654
 30
0.0
 11
1298.753230000049
 21
1492.010138836653
 31
0.0
  0
LINE
  5
7EE2
330
7C3E
100
AcDbEntity
  8
3
  6
Continuous
 62
     0
440
 16777216
370
    -2
100
AcDbLine
 10
1638.75323000005
 20
1457.097075836654
 30
0.0
 11
1638.75323000005
 21
1492.010138836653
 31
0.0
  0
LINE
  5
7EE3
330
7C3E
100
AcDbEntity
  8
3
  6
Continuous
 62
     0
440
 16777216
370
    -2
100
AcDbLine
 10
1318.753230000049
 20
1482.010138836654
 30
0.0
 11
1618.75323000005
 21
1482.010138836654
 31
0.0
  0
INSERT
  5
7EE4
330
7C3E
100
AcDbEntity
  8
3
  6
Continuous
 62
     0
440
 16777216
370
    -2
100
AcDbBlockReference
  2
_OPEN
 10
1298.753230000049
 20
1482.010138836654
 30
0.0
 41
20.0
 42
20.0
 43
20.0
 50
180.0
  0
INSERT
  5
7EE5
330
7C3E
100
AcDbEntity
  8
3
  6
Continuous
 62
     0
440
 16777216
370
    -2
100
AcDbBlockReference
  2
_OPEN
 10
1638.75323000005
 20
1482.010138836654
 30
0.0
 41
20.0
 42
20.0
 43
20.0
  0
MTEXT
  5
7EE6
330
7C3E
100
AcDbEntity
  8
3
  6
Continuous
 62
     0
440
 16777216
100
AcDbMText
 10
1473.37638000005
 20
1514.867281693797
 30
0.0
 40
30.0
 41
0.0
 46
0.0
 71
     5
 72
     1
  1
\A1;(340)
 73
     1
 44
1.0
  0
POINT
  5
7EE7
330
7C3E
100
AcDbEntity
  8
DEFPOINTS
  6
Continuous
 62
     0
440
 16777216
100
AcDbPoint
 10
1298.753230000049
 20
1288.844268836654
 30
0.0
  0
POINT
  5
7EE8
330
7C3E
100
AcDbEntity
  8
DEFPOINTS
  6
Continuous
 62
     0
440
 16777216
100
AcDbPoint
 10
1638.75323000005
 20
1452.097075836654
 30
0.0
  0
POINT
  5
7EE9
330
7C3E
100
AcDbEntity
  8
DEFPOINTS
  6
Continuous
 62
     0
440
 16777216
100
AcDbPoint
 10
1638.75323000005
 20
1482.010138836654
 30
0.0
  0
ENDBLK
  5
7CC5
330
7C3E
100
AcDbEntity
  8
0
100
AcDbBlockEnd
  0
BLOCK
  5
7C66
330
7C4B
100
AcDbEntity
  8
0
100
AcDbBlockBegin
  2
*D12
 70
     1
 10
0.0
 20
0.0
 30
0.0
  3
*D12
  1

  0
LINE
  5
7DD7
330
7C4B
100
AcDbEntity
  8
3
  6
Continuous
 62
     0
440
 16777216
100
AcDbLine
 10
1737.75323000005
 20
1315.844268836654
 30
0.0
 11
1737.75323000005
 21
1492.010138836653
 31
0.0
  0
LINE
  5
7DD8
330
7C4B
100
AcDbEntity
  8
3
  6
Continuous
 62
     0
440
 16777216
100
AcDbLine
 10
1658.75323000005
 20
1482.010138836654
 30
0.0
 11
1717.75323000005
 21
1482.010138836654
 31
0.0
  0
MTEXT
  5
7DD9
330
7C4B
100
AcDbEntity
  8
3
  6
Continuous
 62
     0
440
 16777216
100
AcDbMText
 10
1685.69915700005
 20
1507.010138836654
 30
0.0
 40
30.0
 41
0.0
 46
0.0
 71
     5
 72
     5
  1
\A1;99
 73
     1
 44
1.0
  0
INSERT
  5
7DDA
330
7C4B
100
AcDbEntity
  8
3
  6
Continuous
 62
     0
440
 16777216
100
AcDbBlockReference
  2
_OPEN
 10
1638.75323000005
 20
1482.010138836654
 30
0.0
 41
20.0
 42
20.0
 43
20.0
 50
180.0
  0
INSERT
  5
7DDB
330
7C4B
100
AcDbEntity
  8
3
  6
Continuous
 62
     0
440
 16777216
100
AcDbBlockReference
  2
_OPEN
 10
1737.75323000005
 20
1482.010138836654
 30
0.0
 41
20.0
 42
20.0
 43
20.0
  0
POINT
  5
7DDC
330
7C4B
100
AcDbEntity
  8
DEFPOINTS
  6
Continuous
 62
     0
440
 16777216
100
AcDbPoint
 10
1638.75323000005
 20
1452.097075836654
 30
0.0
  0
POINT
  5
7DDD
330
7C4B
100
AcDbEntity
  8
DEFPOINTS
  6
Continuous
 62
     0
440
 16777216
100
AcDbPoint
 10
1737.75323000005
 20
1310.844268836654
 30
0.0
  0
POINT
  5
7DDE
330
7C4B
100
AcDbEntity
  8
DEFPOINTS
  6
Continuous
 62
     0
440
 16777216
100
AcDbPoint
 10
1737.75323000005
 20
1482.010138836654
 30
0.0
  0
ENDBLK
  5
7C6F
330
7C4B
100
AcDbEntity
  8
0
100
AcDbBlockEnd
  0
BLOCK
  5
7CB0
330
7C77
100
AcDbEntity
  8
0
100
AcDbBlockBegin
  2
*D13
 70
     1
 10
0.0
 20
0.0
 30
0.0
  3
*D13
  1

  0
LINE
  5
7DDF
330
7C77
100
AcDbEntity
  8
3
  6
Continuous
 62
     0
440
 16777216
100
AcDbLine
 10
1742.75323000005
 20
1288.844268836654
 30
0.0
 11
1819.77898500005
 21
1288.844268836654
 31
0.0
  0
LINE
  5
7DE0
330
7C77
100
AcDbEntity
  8
3
  6
Continuous
 62
     0
440
 16777216
100
AcDbLine
 10
1742.75323000005
 20
1038.844268836654
 30
0.0
 11
1819.77898500005
 21
1038.844268836654
 31
0.0
  0
LINE
  5
7DE1
330
7C77
100
AcDbEntity
  8
3
  6
Continuous
 62
     0
440
 16777216
100
AcDbLine
 10
1809.77898500005
 20
1268.844268836654
 30
0.0
 11
1809.77898500005
 21
1058.844268836654
 31
0.0
  0
INSERT
  5
7DE2
330
7C77
100
AcDbEntity
  8
3
  6
Continuous
 62
     0
440
 16777216
100
AcDbBlockReference
  2
_OPEN
 10
1809.77898500005
 20
1288.844268836654
 30
0.0
 41
20.0
 42
20.0
 43
20.0
 50
90.0
  0
INSERT
  5
7DE3
330
7C77
100
AcDbEntity
  8
3
  6
Continuous
 62
     0
440
 16777216
100
AcDbBlockReference
  2
_OPEN
 10
1809.77898500005
 20
1038.844268836654
 30
0.0
 41
20.0
 42
20.0
 43
20.0
 50
270.0
  0
MTEXT
  5
7DE4
330
7C77
100
AcDbEntity
  8
3
  6
Continuous
 62
     0
440
 16777216
100
AcDbMText
 10
1784.778985000049
 20
1164.754293836654
 30
0.0
 40
30.0
 41
0.0
 46
0.0
 71
     5
 72
     5
  1
\A1;φ250
 11
0.0000000000000001
 21
1.0
 31
0.0
 73
     1
 44
1.0
  0
POINT
  5
7DE5
330
7C77
100
AcDbEntity
  8
DEFPOINTS
  6
Continuous
 62
     0
440
 16777216
100
AcDbPoint
 10
1737.75323000005
 20
1288.844268836654
 30
0.0
  0
POINT
  5
7DE6
330
7C77
100
AcDbEntity
  8
DEFPOINTS
  6
Continuous
 62
     0
440
 16777216
100
AcDbPoint
 10
1737.75323000005
 20
1038.844268836654
 30
0.0
  0
POINT
  5
7DE7
330
7C77
100
AcDbEntity
  8
DEFPOINTS
  6
Continuous
 62
     0
440
 16777216
100
AcDbPoint
 10
1809.77898500005
 20
1038.844268836654
 30
0.0
  0
ENDBLK
  5
7CBA
330
7C77
100
AcDbEntity
  8
0
100
AcDbBlockEnd
  0
BLOCK
  5
7CA3
330
7C93
100
AcDbEntity
  8
0
100
AcDbBlockBegin
  2
*D14
 70
     1
 10
0.0
 20
0.0
 30
0.0
  3
*D14
  1

  0
LINE
  5
7E8A
330
7C93
100
AcDbEntity
  8
3
 62
     0
440
 16777216
370
    -2
100
AcDbLine
 10
1630.75323000005
 20
743.8442688366539
 30
0.0
 11
1630.75323000005
 21
652.2441748366539
 31
0.0
  0
LINE
  5
7E8B
330
7C93
100
AcDbEntity
  8
3
 62
     0
440
 16777216
370
    -2
100
AcDbLine
 10
1638.75323000005
 20
744.9402058366539
 30
0.0
 11
1638.75323000005
 21
652.2441748366539
 31
0.0
  0
LINE
  5
7E8C
330
7C93
100
AcDbEntity
  8
3
 62
     0
440
 16777216
370
    -2
100
AcDbLine
 10
1610.75323000005
 20
662.2441748366538
 30
0.0
 11
1590.75323000005
 21
662.2441748366538
 31
0.0
  0
LINE
  5
7E8D
330
7C93
100
AcDbEntity
  8
3
 62
     0
440
 16777216
370
    -2
100
AcDbLine
 10
1658.75323000005
 20
662.2441748366538
 30
0.0
 11
1718.75323000005
 21
662.2441748366538
 31
0.0
  0
LINE
  5
7E8E
330
7C93
100
AcDbEntity
  8
3
 62
     0
440
 16777216
370
    -2
100
AcDbLine
 10
1630.75323000005
 20
662.2441748366538
 30
0.0
 11
1638.75323000005
 21
662.2441748366538
 31
0.0
  0
INSERT
  5
7E8F
330
7C93
100
AcDbEntity
  8
3
 62
     0
440
 16777216
370
    -2
100
AcDbBlockReference
  2
_OPEN
 10
1630.75323000005
 20
662.2441748366538
 30
0.0
 41
20.0
 42
20.0
 43
20.0
  0
INSERT
  5
7E90
330
7C93
100
AcDbEntity
  8
3
 62
     0
440
 16777216
370
    -2
100
AcDbBlockReference
  2
_OPEN
 10
1638.75323000005
 20
662.2441748366538
 30
0.0
 41
20.0
 42
20.0
 43
20.0
 50
180.0
  0
MTEXT
  5
7E91
330
7C93
100
AcDbEntity
  8
3
 62
     0
440
 16777216
100
AcDbMText
 10
1698.75323000005
 20
687.2441748366538
 30
0.0
 40
30.0
 41
0.0
 46
0.0
 71
     5
 72
     1
  1
\A1;8
 73
     1
 44
1.0
  0
POINT
  5
7E92
330
7C93
100
AcDbEntity
  8
DEFPOINTS
 62
     0
440
 16777216
100
AcDbPoint
 10
1630.75323000005
 20
748.8442688366539
 30
0.0
  0
POINT
  5
7E93
330
7C93
100
AcDbEntity
  8
DEFPOINTS
 62
     0
440
 16777216
100
AcDbPoint
 10
1638.75323000005
 20
749.9402058366539
 30
0.0
  0
POINT
  5
7E94
330
7C93
100
AcDbEntity
  8
DEFPOINTS
 62
     0
440
 16777216
100
AcDbPoint
 10
1638.75323000005
 20
662.2441748366538
 30
0.0
  0
ENDBLK
  5
7CAF
330
7C93
100
AcDbEntity
  8
0
100
AcDbBlockEnd
  0
BLOCK
  5
7CE1
330
7CE0
100
AcDbEntity
  8
0
100
AcDbBlockBegin
  2
*D15
 70
     1
 10
0.0
 20
0.0
 30
0.0
  3
*D15
  1

  0
LINE
  5
7DF3
330
7CE0
100
AcDbEntity
  8
3
 62
     0
440
 16777216
100
AcDbLine
 10
267.3825032219566
 20
2089.916202729488
 30
0.0
 11
211.4058927162099
 21
2089.916202729488
 31
0.0
  0
LINE
  5
7DF4
330
7CE0
100
AcDbEntity
  8
3
 62
     0
440
 16777216
100
AcDbLine
 10
267.3825032219566
 20
1839.916202729488
 30
0.0
 11
211.4058927162099
 21
1839.916202729488
 31
0.0
  0
LINE
  5
7DF5
330
7CE0
100
AcDbEntity
  8
3
 62
     0
440
 16777216
100
AcDbLine
 10
221.4058927162099
 20
2069.916202729488
 30
0.0
 11
221.4058927162099
 21
1859.916202729488
 31
0.0
  0
INSERT
  5
7DF6
330
7CE0
100
AcDbEntity
  8
3
 62
     0
440
 16777216
100
AcDbBlockReference
  2
_OPEN
 10
221.4058927162099
 20
2089.916202729488
 30
0.0
 41
20.0
 42
20.0
 43
20.0
 50
90.0
  0
INSERT
  5
7DF7
330
7CE0
100
AcDbEntity
  8
3
 62
     0
440
 16777216
100
AcDbBlockReference
  2
_OPEN
 10
221.4058927162099
 20
1839.916202729488
 30
0.0
 41
20.0
 42
20.0
 43
20.0
 50
270.0
  0
MTEXT
  5
7DF8
330
7CE0
100
AcDbEntity
  8
3
 62
     0
440
 16777216
100
AcDbMText
 10
196.4058927162095
 20
1967.800805077168
 30
0.0
 40
30.0
 41
0.0
 46
0.0
 71
     5
 72
     5
  1
\A1;250
 11
0.0000000000000001
 21
1.0
 31
0.0
 73
     1
 44
1.0
  0
POINT
  5
7DF9
330
7CE0
100
AcDbEntity
  8
DEFPOINTS
 62
     0
440
 16777216
100
AcDbPoint
 10
272.3825032219565
 20
2089.916202729488
 30
0.0
  0
POINT
  5
7DFA
330
7CE0
100
AcDbEntity
  8
DEFPOINTS
 62
     0
440
 16777216
100
AcDbPoint
 10
272.3825032219565
 20
1839.916202729488
 30
0.0
  0
POINT
  5
7DFB
330
7CE0
100
AcDbEntity
  8
DEFPOINTS
 62
     0
440
 16777216
100
AcDbPoint
 10
221.4058927162099
 20
1839.916202729488
 30
0.0
  0
ENDBLK
  5
7CEB
330
7CE0
100
AcDbEntity
  8
0
100
AcDbBlockEnd
  0
BLOCK
  5
7D19
330
7D18
100
AcDbEntity
  8
0
100
AcDbBlockBegin
  2
_DOT
 70
     0
 10
0.0
 20
0.0
 30
0.0
  3
_DOT
  1

  0
LWPOLYLINE
  5
7D1A
330
7D18
100
AcDbEntity
  8
0
  6
ByBlock
 62
     0
100
AcDbPolyline
 90
        2
 70
     1
 43
0.5
 10
-0.25
 20
0.0
 42
1.0
 10
0.25
 20
0.0
 42
1.0
  0
LINE
  5
7D1E
330
7D18
100
AcDbEntity
  8
0
  6
ByBlock
 62
     0
100
AcDbLine
 10
-0.5
 20
0.0
 30
0.0
 11
-1.0
 21
0.0
 31
0.0
  0
ENDBLK
  5
7D1F
330
7D18
100
AcDbEntity
  8
0
100
AcDbBlockEnd
  0
BLOCK
  5
7D21
330
7D20
100
AcDbEntity
  8
0
100
AcDbBlockBegin
  2
*D17
 70
     1
 10
0.0
 20
0.0
 30
0.0
  3
*D17
  1

  0
LINE
  5
7E95
330
7D20
100
AcDbEntity
  8
3
 62
     0
440
 16777216
370
    -2
100
AcDbLine
 10
1047.382503221956
 20
778.844268836654
 30
0.0
 11
1128.575026458235
 21
778.844268836654
 31
0.0
  0
LINE
  5
7E96
330
7D20
100
AcDbEntity
  8
3
 62
     0
440
 16777216
370
    -2
100
AcDbLine
 10
1047.382503221956
 20
748.8442688366539
 30
0.0
 11
1128.575026458235
 21
748.8442688366539
 31
0.0
  0
LINE
  5
7E97
330
7D20
100
AcDbEntity
  8
3
 62
     0
440
 16777216
370
    -2
100
AcDbLine
 10
1118.575026458235
 20
798.844268836654
 30
0.0
 11
1118.575026458235
 21
818.844268836654
 31
0.0
  0
LINE
  5
7E98
330
7D20
100
AcDbEntity
  8
3
 62
     0
440
 16777216
370
    -2
100
AcDbLine
 10
1118.575026458235
 20
728.844268836654
 30
0.0
 11
1118.575026458235
 21
640.2728402652254
 31
0.0
  0
LINE
  5
7E99
330
7D20
100
AcDbEntity
  8
3
 62
     0
440
 16777216
370
    -2
100
AcDbLine
 10
1118.575026458235
 20
778.844268836654
 30
0.0
 11
1118.575026458235
 21
748.8442688366539
 31
0.0
  0
INSERT
  5
7E9A
330
7D20
100
AcDbEntity
  8
3
 62
     0
440
 16777216
370
    -2
100
AcDbBlockReference
  2
_DOT
 10
1118.575026458235
 20
778.844268836654
 30
0.0
 41
20.0
 42
20.0
 43
20.0
 50
270.0
  0
INSERT
  5
7E9B
330
7D20
100
AcDbEntity
  8
3
 62
     0
440
 16777216
370
    -2
100
AcDbBlockReference
  2
_OPEN
 10
1118.575026458235
 20
748.8442688366539
 30
0.0
 41
20.0
 42
20.0
 43
20.0
 50
90.0
  0
MTEXT
  5
7E9C
330
7D20
100
AcDbEntity
  8
3
 62
     0
440
 16777216
100
AcDbMText
 10
1093.575026458234
 20
674.5585545509399
 30
0.0
 40
30.0
 41
0.0
 46
0.0
 71
     5
 72
     1
  1
\A1;30
 11
0.0000000000000001
 21
1.0
 31
0.0
 73
     1
 44
1.0
  0
POINT
  5
7E9D
330
7D20
100
AcDbEntity
  8
DEFPOINTS
 62
     0
440
 16777216
100
AcDbPoint
 10
1042.382503221956
 20
778.844268836654
 30
0.0
  0
POINT
  5
7E9E
330
7D20
100
AcDbEntity
  8
DEFPOINTS
 62
     0
440
 16777216
100
AcDbPoint
 10
1042.382503221956
 20
748.8442688366539
 30
0.0
  0
POINT
  5
7E9F
330
7D20
100
AcDbEntity
  8
DEFPOINTS
 62
     0
440
 16777216
100
AcDbPoint
 10
1118.575026458235
 20
748.8442688366539
 30
0.0
  0
ENDBLK
  5
7D2D
330
7D20
100
AcDbEntity
  8
0
100
AcDbBlockEnd
  0
BLOCK
  5
7D30
330
7D2F
100
AcDbEntity
  8
0
100
AcDbBlockBegin
  2
*D18
 70
     1
 10
0.0
 20
0.0
 30
0.0
  3
*D18
  1

  0
LINE
  5
7EA9
330
7D2F
100
AcDbEntity
  8
3
 62
     0
440
 16777216
370
    -2
100
AcDbLine
 10
1047.382503221956
 20
778.844268836654
 30
0.0
 11
1128.575026458235
 21
778.844268836654
 31
0.0
  0
LINE
  5
7EAA
330
7D2F
100
AcDbEntity
  8
3
 62
     0
440
 16777216
370
    -2
100
AcDbLine
 10
1017.382503221957
 20
848.8442688366539
 30
0.0
 11
1128.575026458235
 21
848.8442688366539
 31
0.0
  0
LINE
  5
7EAB
330
7D2F
100
AcDbEntity
  8
3
 62
     0
440
 16777216
370
    -2
100
AcDbLine
 10
1118.575026458235
 20
798.844268836654
 30
0.0
 11
1118.575026458235
 21
828.844268836654
 31
0.0
  0
MTEXT
  5
7EAC
330
7D2F
100
AcDbEntity
  8
3
 62
     0
440
 16777216
100
AcDbMText
 10
1164.925037186476
 20
813.7292811412999
 30
0.0
 40
30.0
 41
0.0
 46
0.0
 71
     5
 72
     1
  1
\A1;(70)
 11
0.0000000000000001
 21
1.0
 31
0.0
 73
     1
 44
1.0
  0
INSERT
  5
7EAD
330
7D2F
100
AcDbEntity
  8
3
 62
     0
440
 16777216
370
    -2
100
AcDbBlockReference
  2
_DOT
 10
1118.575026458235
 20
778.844268836654
 30
0.0
 41
20.0
 42
20.0
 43
20.0
 50
270.0
  0
INSERT
  5
7EAE
330
7D2F
100
AcDbEntity
  8
3
 62
     0
440
 16777216
370
    -2
100
AcDbBlockReference
  2
_OPEN
 10
1118.575026458235
 20
848.8442688366539
 30
0.0
 41
20.0
 42
20.0
 43
20.0
 50
90.0
  0
POINT
  5
7EAF
330
7D2F
100
AcDbEntity
  8
DEFPOINTS
 62
     0
440
 16777216
100
AcDbPoint
 10
1042.382503221956
 20
778.844268836654
 30
0.0
  0
POINT
  5
7EB0
330
7D2F
100
AcDbEntity
  8
DEFPOINTS
 62
     0
440
 16777216
100
AcDbPoint
 10
1012.382503221956
 20
848.8442688366539
 30
0.0
  0
POINT
  5
7EB1
330
7D2F
100
AcDbEntity
  8
DEFPOINTS
 62
     0
440
 16777216
100
AcDbPoint
 10
1118.575026458235
 20
848.8442688366539
 30
0.0
  0
ENDBLK
  5
7D3A
330
7D2F
100
AcDbEntity
  8
0
100
AcDbBlockEnd
  0
BLOCK
  5
7EFA
330
7EF9
100
AcDbEntity
  8
0
100
AcDbBlockBegin
  2
*D19
 70
     1
 10
0.0
 20
0.0
 30
0.0
  3
*D19
  1

  0
LINE
  5
7F28
330
7EF9
100
AcDbEntity
  8
3
 62
     0
440
 16777216
370
    -2
100
AcDbLine
 10
1047.382503221956
 20
748.8442688366539
 30
0.0
 11
1229.373787091459
 21
748.8442688366539
 31
0.0
  0
LINE
  5
7F29
330
7EF9
100
AcDbEntity
  8
3
 62
     0
440
 16777216
370
    -2
100
AcDbLine
 10
848.3825032219565
 20
1363.844268836654
 30
0.0
 11
1229.373787091459
 21
1363.844268836654
 31
0.0
  0
LINE
  5
7F2A
330
7EF9
100
AcDbEntity
  8
3
 62
     0
440
 16777216
370
    -2
100
AcDbLine
 10
1219.373787091459
 20
768.8442688366539
 30
0.0
 11
1219.373787091459
 21
1343.844268836654
 31
0.0
  0
INSERT
  5
7F2B
330
7EF9
100
AcDbEntity
  8
3
 62
     0
440
 16777216
370
    -2
100
AcDbBlockReference
  2
_OPEN
 10
1219.373787091459
 20
748.8442688366539
 30
0.0
 41
20.0
 42
20.0
 43
20.0
 50
270.0
  0
INSERT
  5
7F2C
330
7EF9
100
AcDbEntity
  8
3
 62
     0
440
 16777216
370
    -2
100
AcDbBlockReference
  2
_OPEN
 10
1219.373787091459
 20
1363.844268836654
 30
0.0
 41
20.0
 42
20.0
 43
20.0
 50
90.0
  0
MTEXT
  5
7F2D
330
7EF9
100
AcDbEntity
  8
3
 62
     0
440
 16777216
100
AcDbMText
 10
1186.516644234316
 20
1056.344268836654
 30
0.0
 40
30.0
 41
0.0
 46
0.0
 71
     5
 72
     1
  1
\A1;(615)
 11
0.0000000000000001
 21
1.0
 31
0.0
 73
     1
 44
1.0
  0
POINT
  5
7F2E
330
7EF9
100
AcDbEntity
  8
DEFPOINTS
 62
     0
440
 16777216
100
AcDbPoint
 10
1042.382503221956
 20
748.8442688366539
 30
0.0
  0
POINT
  5
7F2F
330
7EF9
100
AcDbEntity
  8
DEFPOINTS
 62
     0
440
 16777216
100
AcDbPoint
 10
843.3825032219566
 20
1363.844268836654
 30
0.0
  0
POINT
  5
7F30
330
7EF9
100
AcDbEntity
  8
DEFPOINTS
 62
     0
440
 16777216
100
AcDbPoint
 10
1219.373787091459
 20
1363.844268836654
 30
0.0
  0
ENDBLK
  5
7EFB
330
7EF9
100
AcDbEntity
  8
0
100
AcDbBlockEnd
  0
ENDSEC
  0
SECTION
  2
ENTITIES
  0
LINE
  5
7A8D
330
19
100
AcDbEntity
  8
1
  6
Continuous
100
AcDbLine
 10
1353.753230000049
 20
1008.344268836654
 30
0.0
 11
1410.753230000049
 21
1008.344268836654
 31
0.0
  0
LINE
  5
7A8E
330
19
100
AcDbEntity
  8
1
  6
Continuous
100
AcDbLine
 10
1353.753230000049
 20
984.344268836654
 30
0.0
 11
1410.753230000049
 21
984.344268836654
 31
0.0
  0
LINE
  5
7A8F
330
19
100
AcDbEntity
  8
1
  6
Continuous
100
AcDbLine
 10
1353.753230000049
 20
1151.844268836654
 30
0.0
 11
1443.153230000049
 21
1151.844268836654
 31
0.0
  0
LINE
  5
7A90
330
19
100
AcDbEntity
  8
1
  6
Continuous
100
AcDbLine
 10
1353.753230000049
 20
1175.844268836654
 30
0.0
 11
1472.85323000005
 21
1175.844268836654
 31
0.0
  0
LINE
  5
7A91
330
19
100
AcDbEntity
  8
1
  6
Continuous
100
AcDbLine
 10
1298.753230000049
 20
908.8442688366539
 30
0.0
 11
1630.75323000005
 21
908.8442688366539
 31
0.0
  0
LINE
  5
7A92
330
19
100
AcDbEntity
  8
1
  6
Continuous
100
AcDbLine
 10
272.3825032219565
 20
778.844268836654
 30
0.0
 11
1042.382503221956
 21
778.844268836654
 31
0.0
  0
LINE
  5
7A93
330
19
100
AcDbEntity
  8
1
  6
Continuous
100
AcDbLine
 10
272.3825032219565
 20
748.8442688366539
 30
0.0
 11
1042.382503221956
 21
748.8442688366539
 31
0.0
  0
LINE
  5
7A94
330
19
100
AcDbEntity
  8
1
  6
Continuous
100
AcDbLine
 10
302.3825032219566
 20
848.8442688366539
 30
0.0
 11
1012.382503221956
 21
848.8442688366539
 31
0.0
  0
LINE
  5
7A95
330
19
100
AcDbEntity
  8
2
  6
CENTER
100
AcDbLine
 10
406.7825032219565
 20
996.3442688366539
 30
0.0
 11
512.7825032219566
 21
996.3442688366539
 31
0.0
  0
LINE
  5
7A96
330
19
100
AcDbEntity
  8
1
  6
Continuous
100
AcDbLine
 10
436.2825032219565
 20
1043.844268836654
 30
0.0
 11
794.2825032219566
 21
1220.744268836654
 31
0.0
  0
LINE
  5
7A97
330
19
100
AcDbEntity
  8
1
  6
Continuous
100
AcDbLine
 10
480.6825032219566
 20
947.6442688366539
 30
0.0
 11
847.4825032219566
 21
1105.544268836654
 31
0.0
  0
CIRCLE
  5
7A98
330
19
100
AcDbEntity
  8
1
  6
Continuous
100
AcDbCircle
 10
459.7825032219565
 20
996.3442688366539
 30
0.0
 40
53.0
  0
LINE
  5
7A99
330
19
100
AcDbEntity
  8
1
  6
Continuous
100
AcDbLine
 10
822.5825032219566
 20
1288.844268836654
 30
0.0
 11
367.3825032219566
 21
1088.844268836654
 31
0.0
  0
LINE
  5
7A9A
330
19
100
AcDbEntity
  8
1
  6
Continuous
100
AcDbLine
 10
557.0825032219565
 20
928.844268836654
 30
0.0
 11
302.3825032219566
 21
928.844268836654
 31
0.0
  0
ARC
  5
7A9B
330
19
100
AcDbEntity
  8
1
  6
Continuous
100
AcDbCircle
 10
459.7825032219565
 20
996.3442688366539
 30
0.0
 40
75.8
100
AcDbArc
 50
322.9
 51
217.1
  0
LINE
  5
7A9C
330
19
100
AcDbEntity
  8
1
  6
Continuous
100
AcDbLine
 10
302.3825032219566
 20
908.8442688366539
 30
0.0
 11
1012.382503221956
 21
908.8442688366539
 31
0.0
  0
LINE
  5
7A9D
330
19
100
AcDbEntity
  8
1
  6
Continuous
100
AcDbLine
 10
367.3825032219566
 20
908.8442688366539
 30
0.0
 11
367.3825032219566
 21
1088.844268836654
 31
0.0
  0
LINE
  5
7A9E
330
19
100
AcDbEntity
  8
1
  6
Continuous
100
AcDbLine
 10
272.3825032219565
 20
778.844268836654
 30
0.0
 11
272.3825032219565
 21
748.8442688366539
 31
0.0
  0
LINE
  5
7A9F
330
19
100
AcDbEntity
  8
1
  6
Continuous
100
AcDbLine
 10
302.3825032219566
 20
908.8442688366539
 30
0.0
 11
302.3825032219566
 21
848.8442688366539
 31
0.0
  0
LINE
  5
7AA0
330
19
100
AcDbEntity
  8
1
  6
Continuous
100
AcDbLine
 10
302.3825032219566
 20
928.844268836654
 30
0.0
 11
302.3825032219566
 21
908.8442688366539
 31
0.0
  0
LINE
  5
7AA1
330
19
100
AcDbEntity
  8
2
  6
CENTER
100
AcDbLine
 10
459.7825032219565
 20
943.344268836654
 30
0.0
 11
459.7825032219565
 21
1049.344268836654
 31
0.0
  0
LINE
  5
7AA2
330
19
100
AcDbEntity
  8
1
  6
Continuous
100
AcDbLine
 10
393.7825032219566
 20
936.3442688366539
 30
0.0
 11
399.2825032219566
 21
950.644268836654
 31
0.0
  0
LINE
  5
7AA3
330
19
100
AcDbEntity
  8
1
  6
Continuous
100
AcDbLine
 10
393.7825032219566
 20
928.844268836654
 30
0.0
 11
393.7825032219566
 21
936.3442688366539
 31
0.0
  0
CIRCLE
  5
7AA4
330
19
100
AcDbEntity
  8
1
  6
Continuous
100
AcDbCircle
 10
822.3825032219565
 20
1163.844268836654
 30
0.0
 40
125.0
  0
CIRCLE
  5
7AA5
330
19
100
AcDbEntity
  8
1
  6
Continuous
100
AcDbCircle
 10
822.3825032219565
 20
1163.844268836654
 30
0.0
 40
145.0
  0
ARC
  5
7AA6
330
19
100
AcDbEntity
  8
1
  6
Continuous
100
AcDbCircle
 10
836.3825032219565
 20
1149.844268836654
 30
0.0
 40
172.6
100
AcDbArc
 50
5.5
 51
91.3
  0
ARC
  5
7AA7
330
19
100
AcDbEntity
  8
1
  6
Continuous
100
AcDbCircle
 10
805.3825032219565
 20
1146.844268836654
 30
0.0
 40
203.7
100
AcDbArc
 50
274.6
 51
5.5
  0
LINE
  5
7AA8
330
19
100
AcDbEntity
  8
1
  6
Continuous
100
AcDbLine
 10
982.3825032219565
 20
1130.544268836654
 30
0.0
 11
662.3825032219565
 21
1130.544268836654
 31
0.0
  0
LINE
  5
7AA9
330
19
100
AcDbEntity
  8
1
  6
Continuous
100
AcDbLine
 10
883.9825032219565
 20
1313.844268836654
 30
0.0
 11
982.3825032219565
 21
1229.944268836654
 31
0.0
  0
LINE
  5
7AAA
330
19
100
AcDbEntity
  8
1
  6
Continuous
100
AcDbLine
 10
662.3825032219565
 20
848.8442688366539
 30
0.0
 11
982.3825032219565
 21
848.8442688366539
 31
0.0
  0
LINE
  5
7AAB
330
19
100
AcDbEntity
  8
1
  6
Continuous
100
AcDbLine
 10
947.3825032219565
 20
1218.844268836654
 30
0.0
 11
822.5825032219566
 21
1288.844268836654
 31
0.0
  0
ARC
  5
7AAC
330
19
100
AcDbEntity
  8
1
  6
Continuous
100
AcDbCircle
 10
802.3825032219566
 20
1183.844268836654
 30
0.0
 40
240.9
100
AcDbArc
 50
184.9
 51
274.6
  0
LINE
  5
7AAD
330
19
100
AcDbEntity
  8
1
  6
Continuous
100
AcDbLine
 10
662.3825032219565
 20
1229.944268836654
 30
0.0
 11
662.3825032219565
 21
908.8442688366539
 31
0.0
  0
LINE
  5
7AAE
330
19
100
AcDbEntity
  8
1
  6
Continuous
100
AcDbLine
 10
557.0825032219565
 20
908.8442688366539
 30
0.0
 11
557.0825032219565
 21
928.844268836654
 31
0.0
  0
LINE
  5
7AAF
330
19
100
AcDbEntity
  8
1
  6
Continuous
100
AcDbLine
 10
525.7825032219566
 20
928.844268836654
 30
0.0
 11
525.7825032219566
 21
936.3442688366539
 31
0.0
  0
LINE
  5
7AB0
330
19
100
AcDbEntity
  8
1
  6
Continuous
100
AcDbLine
 10
525.7825032219566
 20
936.3442688366539
 30
0.0
 11
520.1825032219566
 21
950.644268836654
 31
0.0
  0
LINE
  5
7AB1
330
19
100
AcDbEntity
  8
1
  6
Continuous
100
AcDbLine
 10
592.3825032219565
 20
1343.844268836654
 30
0.0
 11
802.3825032219566
 21
1343.844268836654
 31
0.0
  0
LINE
  5
7AB2
330
19
100
AcDbEntity
  8
1
  6
Continuous
100
AcDbLine
 10
843.3825032219566
 20
1363.844268836654
 30
0.0
 11
551.3825032219565
 21
1363.844268836654
 31
0.0
  0
LINE
  5
7AB3
330
19
100
AcDbEntity
  8
1
  6
Continuous
100
AcDbLine
 10
760.7825032219566
 20
1313.844268836654
 30
0.0
 11
662.3825032219565
 21
1229.944268836654
 31
0.0
  0
LINE
  5
7AB4
330
19
100
AcDbEntity
  8
1
  6
Continuous
100
AcDbLine
 10
572.3825032219565
 20
1363.844268836654
 30
0.0
 11
592.3825032219565
 21
1343.844268836654
 31
0.0
  0
LINE
  5
7AB5
330
19
100
AcDbEntity
  8
1
  6
Continuous
100
AcDbLine
 10
562.3825032219565
 20
1343.844268836654
 30
0.0
 11
562.3825032219565
 21
1163.444268836654
 31
0.0
  0
LINE
  5
7AB6
330
19
100
AcDbEntity
  8
1
  6
Continuous
100
AcDbLine
 10
572.3825032219565
 20
1363.844268836654
 30
0.0
 11
572.3825032219565
 21
1343.844268836654
 31
0.0
  0
LINE
  5
7AB7
330
19
100
AcDbEntity
  8
1
  6
Continuous
100
AcDbLine
 10
562.3825032219565
 20
1343.844268836654
 30
0.0
 11
572.3825032219565
 21
1343.844268836654
 31
0.0
  0
LINE
  5
7AB8
330
19
100
AcDbEntity
  8
1
  6
Continuous
100
AcDbLine
 10
822.3825032219565
 20
1363.844268836654
 30
0.0
 11
802.3825032219566
 21
1343.844268836654
 31
0.0
  0
LINE
  5
7AB9
330
19
100
AcDbEntity
  8
2
  6
CENTER
100
AcDbLine
 10
445.2050942219566
 20
1163.844268836654
 30
0.0
 11
1038.128221221956
 21
1163.844268836654
 31
0.0
  0
LINE
  5
7ABA
330
19
100
AcDbEntity
  8
1
  6
Continuous
100
AcDbLine
 10
883.9825032219565
 20
1313.844268836654
 30
0.0
 11
760.7825032219566
 21
1313.844268836654
 31
0.0
  0
CIRCLE
  5
7ABB
330
19
100
AcDbEntity
  8
1
  6
Continuous
100
AcDbCircle
 10
822.3825032219565
 20
1163.844268836654
 30
0.0
 40
63.5
  0
LINE
  5
7ABC
330
19
100
AcDbEntity
  8
1
  6
Continuous
100
AcDbLine
 10
832.3825032219565
 20
1343.844268836654
 30
0.0
 11
832.3825032219565
 21
1322.444268836654
 31
0.0
  0
LINE
  5
7ABD
330
19
100
AcDbEntity
  8
2
  6
CENTER
100
AcDbLine
 10
801.5555739999999
 20
2230.814246729489
 30
0.0
 11
801.5555739999999
 21
1722.779197729488
 31
0.0
  0
LINE
  5
7ABE
330
19
100
AcDbEntity
  8
1
  6
Continuous
100
AcDbLine
 10
822.3825032219565
 20
1363.844268836654
 30
0.0
 11
822.3825032219565
 21
1343.844268836654
 31
0.0
  0
LINE
  5
7ABF
330
19
100
AcDbEntity
  8
1
  6
Continuous
100
AcDbLine
 10
822.3825032219565
 20
1343.844268836654
 30
0.0
 11
832.3825032219565
 21
1343.844268836654
 31
0.0
  0
LINE
  5
7AC0
330
19
100
AcDbEntity
  8
1
  6
Continuous
100
AcDbLine
 10
982.3825032219565
 20
908.8442688366539
 30
0.0
 11
982.3825032219565
 21
1229.944268836654
 31
0.0
  0
LINE
  5
7AC1
330
19
100
AcDbEntity
  8
1
  6
Continuous
100
AcDbLine
 10
1373.753230000049
 20
908.8442688366539
 30
0.0
 11
1373.753230000049
 21
1288.844268836654
 31
0.0
  0
LINE
  5
7AC2
330
19
100
AcDbEntity
  8
1
  6
Continuous
100
AcDbLine
 10
1298.753230000049
 20
908.8442688366539
 30
0.0
 11
1298.753230000049
 21
1288.844268836654
 31
0.0
  0
LINE
  5
7AC3
330
19
100
AcDbEntity
  8
1
  6
Continuous
100
AcDbLine
 10
947.3825032219565
 20
908.8442688366539
 30
0.0
 11
947.3825032219565
 21
1218.844268836654
 31
0.0
  0
LINE
  5
7AC4
330
19
100
AcDbEntity
  8
1
  6
Continuous
100
AcDbLine
 10
1012.382503221956
 20
908.8442688366539
 30
0.0
 11
1012.382503221956
 21
848.8442688366539
 31
0.0
  0
LINE
  5
7AC5
330
19
100
AcDbEntity
  8
1
  6
Continuous
100
AcDbLine
 10
1042.382503221956
 20
778.844268836654
 30
0.0
 11
1042.382503221956
 21
748.8442688366539
 31
0.0
  0
LINE
  5
7AC9
330
19
100
AcDbEntity
  8
1
  6
Continuous
100
AcDbLine
 10
1353.753230000049
 20
1049.344268836654
 30
0.0
 11
1353.753230000049
 21
943.344268836654
 31
0.0
  0
LINE
  5
7ACA
330
19
100
AcDbEntity
  8
1
  6
Continuous
100
AcDbLine
 10
1318.753230000049
 20
943.344268836654
 30
0.0
 11
1353.753230000049
 21
943.344268836654
 31
0.0
  0
LINE
  5
7ACB
330
19
100
AcDbEntity
  8
1
  6
Continuous
100
AcDbLine
 10
1318.753230000049
 20
1049.344268836654
 30
0.0
 11
1318.753230000049
 21
943.344268836654
 31
0.0
  0
LINE
  5
7ACC
330
19
100
AcDbEntity
  8
1
  6
Continuous
100
AcDbLine
 10
1318.753230000049
 20
1049.344268836654
 30
0.0
 11
1353.753230000049
 21
1049.344268836654
 31
0.0
  0
LINE
  5
7ACD
330
19
100
AcDbEntity
  8
1
  6
Continuous
100
AcDbLine
 10
1353.753230000049
 20
1227.344268836654
 30
0.0
 11
1353.753230000049
 21
1100.344268836654
 31
0.0
  0
LINE
  5
7ACE
330
19
100
AcDbEntity
  8
1
  6
Continuous
100
AcDbLine
 10
1318.753230000049
 20
1100.344268836654
 30
0.0
 11
1353.753230000049
 21
1100.344268836654
 31
0.0
  0
LINE
  5
7ACF
330
19
100
AcDbEntity
  8
1
  6
Continuous
100
AcDbLine
 10
1318.753230000049
 20
1227.344268836654
 30
0.0
 11
1353.753230000049
 21
1227.344268836654
 31
0.0
  0
LINE
  5
7AD0
330
19
100
AcDbEntity
  8
1
  6
Continuous
100
AcDbLine
 10
1318.753230000049
 20
1227.344268836654
 30
0.0
 11
1318.753230000049
 21
1100.344268836654
 31
0.0
  0
LINE
  5
7AD1
330
19
100
AcDbEntity
  8
1
  6
Continuous
100
AcDbLine
 10
1298.753230000049
 20
1288.844268836654
 30
0.0
 11
1373.753230000049
 21
1288.844268836654
 31
0.0
  0
LINE
  5
7AD2
330
19
100
AcDbEntity
  8
1
  6
Continuous
100
AcDbLine
 10
571.3825032219565
 20
2089.916202729488
 30
0.0
 11
272.3825032219565
 21
2089.916202729488
 31
0.0
  0
LINE
  5
7AD3
330
19
100
AcDbEntity
  8
1
  6
Continuous
100
AcDbLine
 10
512.7825032219566
 20
1777.916202729488
 30
0.0
 11
406.7825032219565
 21
1777.916202729488
 31
0.0
  0
LINE
  5
7AD4
330
19
100
AcDbEntity
  8
1
  6
Continuous
100
AcDbLine
 10
512.7825032219566
 20
1812.916202729488
 30
0.0
 11
406.7825032219565
 21
1812.916202729488
 31
0.0
  0
LINE
  5
7AD5
330
19
100
AcDbEntity
  8
1
  6
Continuous
100
AcDbLine
 10
947.3825032219565
 20
1832.916202729488
 30
0.0
 11
367.3825032219566
 21
1832.916202729488
 31
0.0
  0
LINE
  5
7AD6
330
19
100
AcDbEntity
  8
1
  6
Continuous
100
AcDbLine
 10
947.3825032219565
 20
1757.916202729488
 30
0.0
 11
367.3825032219566
 21
1757.916202729488
 31
0.0
  0
LINE
  5
7AD7
330
19
100
AcDbEntity
  8
1
  6
Continuous
100
AcDbLine
 10
536.3825032219565
 20
2068.216202729489
 30
0.0
 11
384.8825032219565
 21
2068.216202729489
 31
0.0
  0
LINE
  5
7AD8
330
19
100
AcDbEntity
  8
1
  6
Continuous
100
AcDbLine
 10
536.3825032219565
 20
1864.216202729488
 30
0.0
 11
384.8825032219565
 21
1864.216202729488
 31
0.0
  0
LINE
  5
7AD9
330
19
100
AcDbEntity
  8
1
  6
Continuous
100
AcDbLine
 10
810.3825032219566
 20
1839.916202729488
 30
0.0
 11
471.7825032219566
 21
1839.916202729488
 31
0.0
  0
LINE
  5
7ADA
330
19
100
AcDbEntity
  8
1
  6
Continuous
100
AcDbLine
 10
272.3825032219565
 20
2089.916202729488
 30
0.0
 11
272.3825032219565
 21
1839.916202729488
 31
0.0
  0
LINE
  5
7ADB
330
19
100
AcDbEntity
  8
1
  6
Continuous
100
AcDbLine
 10
367.3825032219566
 20
1757.916202729488
 30
0.0
 11
367.3825032219566
 21
1832.916202729488
 31
0.0
  0
LINE
  5
7ADC
330
19
100
AcDbEntity
  8
1
  6
Continuous
100
AcDbLine
 10
447.6825032219566
 20
1839.916202729488
 30
0.0
 11
272.3825032219565
 21
1839.916202729488
 31
0.0
  0
LINE
  5
7ADD
330
19
100
AcDbEntity
  8
1
  6
Continuous
100
AcDbLine
 10
406.7825032219565
 20
1777.916202729488
 30
0.0
 11
406.7825032219565
 21
1812.916202729488
 31
0.0
  0
LINE
  5
7ADE
330
19
100
AcDbEntity
  8
1
  6
Continuous
100
AcDbLine
 10
447.7825032219565
 20
1812.916202729488
 30
0.0
 11
447.6825032219566
 21
1864.216202729488
 31
0.0
  0
LINE
  5
7ADF
330
19
100
AcDbEntity
  8
1
  6
Continuous
100
AcDbLine
 10
471.6825032219566
 20
1812.916202729488
 30
0.0
 11
471.7825032219566
 21
1864.216202729488
 31
0.0
  0
LINE
  5
7AE0
330
19
100
AcDbEntity
  8
1
  6
Continuous
100
AcDbLine
 10
384.8825032219565
 20
1864.216202729488
 30
0.0
 11
384.8825032219565
 21
2068.216202729489
 31
0.0
  0
LINE
  5
7AE1
330
19
100
AcDbEntity
  8
1
  6
Continuous
100
AcDbLine
 10
1021.282503221956
 20
2007.916202729489
 30
0.0
 11
571.3825032219565
 21
2007.916202729489
 31
0.0
  0
LINE
  5
7AE2
330
19
100
AcDbEntity
  8
1
  6
Continuous
100
AcDbLine
 10
571.3825032219565
 20
2187.916202729488
 30
0.0
 11
1021.282503221956
 21
2187.916202729488
 31
0.0
  0
LINE
  5
7AE3
330
19
100
AcDbEntity
  8
1
  6
Continuous
100
AcDbLine
 10
675.3825032219565
 20
2196.916202729488
 30
0.0
 11
969.3825032219566
 21
2196.916202729488
 31
0.0
  0
LINE
  5
7AE4
330
19
100
AcDbEntity
  8
1
  6
Continuous
100
AcDbLine
 10
662.3825032219565
 20
1998.916202729488
 30
0.0
 11
982.3825032219565
 21
1998.916202729488
 31
0.0
  0
LINE
  5
7AE5
330
19
100
AcDbEntity
  8
1
  6
Continuous
100
AcDbLine
 10
1042.382503221956
 20
1839.916202729488
 30
0.0
 11
834.3825032219566
 21
1839.916202729488
 31
0.0
  0
LINE
  5
7AE6
330
19
100
AcDbEntity
  8
1
  6
Continuous
100
AcDbLine
 10
982.3825032219565
 20
1869.916202729488
 30
0.0
 11
834.3825032219566
 21
1869.916202729488
 31
0.0
  0
LINE
  5
7AE7
330
19
100
AcDbEntity
  8
1
  6
Continuous
100
AcDbLine
 10
571.3825032219565
 20
2187.916202729488
 30
0.0
 11
823.3825032219565
 21
2007.916202729489
 31
0.0
  0
LINE
  5
7AE8
330
19
100
AcDbEntity
  8
1
  6
Continuous
100
AcDbLine
 10
823.3825032219565
 20
2187.916202729488
 30
0.0
 11
571.3825032219565
 21
2007.916202729489
 31
0.0
  0
LINE
  5
7AE9
330
19
100
AcDbEntity
  8
1
  6
Continuous
100
AcDbLine
 10
823.3825032219565
 20
2187.916202729488
 30
0.0
 11
823.3825032219565
 21
2007.916202729489
 31
0.0
  0
LINE
  5
7AEA
330
19
100
AcDbEntity
  8
1
  6
Continuous
100
AcDbLine
 10
571.3825032219565
 20
2007.916202729489
 30
0.0
 11
571.3825032219565
 21
2187.916202729488
 31
0.0
  0
LINE
  5
7AEB
330
19
100
AcDbEntity
  8
1
  6
Continuous
100
AcDbLine
 10
810.3825032219566
 20
1869.916202729488
 30
0.0
 11
662.3825032219565
 21
1869.916202729488
 31
0.0
  0
LINE
  5
7AEC
330
19
100
AcDbEntity
  8
1
  6
Continuous
100
AcDbLine
 10
512.7825032219566
 20
1777.916202729488
 30
0.0
 11
512.7825032219566
 21
1812.916202729488
 31
0.0
  0
LINE
  5
7AED
330
19
100
AcDbEntity
  8
1
  6
Continuous
100
AcDbLine
 10
536.3825032219565
 20
1864.216202729488
 30
0.0
 11
536.3825032219565
 21
2068.216202729489
 31
0.0
  0
LINE
  5
7AEE
330
19
100
AcDbEntity
  8
1
  6
Continuous
100
AcDbLine
 10
675.3825032219565
 20
2007.916202729489
 30
0.0
 11
675.3825032219565
 21
1998.916202729488
 31
0.0
  0
LINE
  5
7AEF
330
19
100
AcDbEntity
  8
1
  6
Continuous
100
AcDbLine
 10
662.3825032219565
 20
1998.916202729488
 30
0.0
 11
662.3825032219565
 21
1869.916202729488
 31
0.0
  0
LINE
  5
7AF0
330
19
100
AcDbEntity
  8
1
  6
Continuous
100
AcDbLine
 10
885.8825032219565
 20
1777.916202729488
 30
0.0
 11
758.8825032219565
 21
1777.916202729488
 31
0.0
  0
LINE
  5
7AF1
330
19
100
AcDbEntity
  8
1
  6
Continuous
100
AcDbLine
 10
885.8825032219565
 20
1812.916202729488
 30
0.0
 11
758.8825032219565
 21
1812.916202729488
 31
0.0
  0
LINE
  5
7AF2
330
19
100
AcDbEntity
  8
1
  6
Continuous
100
AcDbLine
 10
810.3825032219566
 20
1812.916202729488
 30
0.0
 11
810.3825032219566
 21
1998.916202729488
 31
0.0
  0
LINE
  5
7AF3
330
19
100
AcDbEntity
  8
1
  6
Continuous
100
AcDbLine
 10
758.8825032219565
 20
1777.916202729488
 30
0.0
 11
758.8825032219565
 21
1812.916202729488
 31
0.0
  0
LINE
  5
7AF4
330
19
100
AcDbEntity
  8
1
  6
Continuous
100
AcDbLine
 10
834.3825032219566
 20
1812.916202729488
 30
0.0
 11
834.3825032219566
 21
1998.916202729488
 31
0.0
  0
LINE
  5
7AF5
330
19
100
AcDbEntity
  8
1
  6
Continuous
100
AcDbLine
 10
885.8825032219565
 20
1777.916202729488
 30
0.0
 11
885.8825032219565
 21
1812.916202729488
 31
0.0
  0
LINE
  5
7AF6
330
19
100
AcDbEntity
  8
1
  6
Continuous
100
AcDbLine
 10
675.3825032219565
 20
2187.916202729488
 30
0.0
 11
675.3825032219565
 21
2196.916202729488
 31
0.0
  0
LINE
  5
7AF7
330
19
100
AcDbEntity
  8
1
  6
Continuous
100
AcDbLine
 10
1033.282503221957
 20
2175.916202729489
 30
0.0
 11
1033.282503221957
 21
2019.916202729488
 31
0.0
  0
LINE
  5
7AF8
330
19
100
AcDbEntity
  8
1
  6
Continuous
100
AcDbLine
 10
1042.382503221956
 20
2089.916202729488
 30
0.0
 11
1042.382503221956
 21
1839.916202729488
 31
0.0
  0
LINE
  5
7AF9
330
19
100
AcDbEntity
  8
1
  6
Continuous
100
AcDbLine
 10
947.3825032219565
 20
1757.916202729488
 30
0.0
 11
947.3825032219565
 21
1832.916202729488
 31
0.0
  0
ARC
  5
7AFA
330
19
100
AcDbEntity
  8
1
  6
Continuous
100
AcDbCircle
 10
1021.282503221956
 20
2019.916202729488
 30
0.0
 40
12.0
100
AcDbArc
 50
270.0
 51
0.0
  0
LINE
  5
7AFB
330
19
100
AcDbEntity
  8
1
  6
Continuous
100
AcDbLine
 10
969.3825032219566
 20
2007.916202729489
 30
0.0
 11
969.3825032219566
 21
1998.916202729488
 31
0.0
  0
LINE
  5
7AFC
330
19
100
AcDbEntity
  8
1
  6
Continuous
100
AcDbLine
 10
982.3825032219565
 20
1869.916202729488
 30
0.0
 11
982.3825032219565
 21
1998.916202729488
 31
0.0
  0
ARC
  5
7AFD
330
19
100
AcDbEntity
  8
1
  6
Continuous
100
AcDbCircle
 10
1021.282503221956
 20
2175.916202729489
 30
0.0
 40
12.0
100
AcDbArc
 50
0.0
 51
90.0
  0
LINE
  5
7AFE
330
19
100
AcDbEntity
  8
1
  6
Continuous
100
AcDbLine
 10
969.3825032219566
 20
2187.916202729488
 30
0.0
 11
969.3825032219566
 21
2196.916202729488
 31
0.0
  0
LINE
  5
7AFF
330
19
100
AcDbEntity
  8
1
  6
Continuous
100
AcDbLine
 10
1042.382503221956
 20
2089.916202729488
 30
0.0
 11
1033.282503221957
 21
2089.916202729488
 31
0.0
  0
LINE
  5
7B00
330
19
100
AcDbEntity
  8
1
  6
Continuous
100
AcDbLine
 10
1737.75323000005
 20
1310.844268836654
 30
0.0
 11
1737.75323000005
 21
1016.844268836654
 31
0.0
  0
LINE
  5
7B01
330
19
100
AcDbEntity
  8
1
  6
Continuous
100
AcDbLine
 10
1728.55323000005
 20
964.9442688366539
 30
0.0
 11
1728.55323000005
 21
1163.844268836654
 31
0.0
  0
LINE
  5
7B02
330
19
100
AcDbEntity
  8
1
  6
Continuous
100
AcDbLine
 10
1548.953230000049
 20
1363.844268836654
 30
0.0
 11
1548.953230000049
 21
964.9442688366539
 31
0.0
  0
LINE
  5
7B03
330
19
100
AcDbEntity
  8
1
  6
Continuous
100
AcDbLine
 10
1410.753230000049
 20
908.8442688366539
 30
0.0
 11
1410.753230000049
 21
1125.644268836654
 31
0.0
  0
LINE
  5
7B04
330
19
100
AcDbEntity
  8
1
  6
Continuous
100
AcDbLine
 10
1539.753230000049
 20
1310.844268836654
 30
0.0
 11
1539.753230000049
 21
908.8442688366539
 31
0.0
  0
LINE
  5
7B05
330
19
100
AcDbEntity
  8
1
  6
Continuous
100
AcDbLine
 10
1560.953230000049
 20
952.944268836654
 30
0.0
 11
1716.55323000005
 21
952.944268836654
 31
0.0
  0
LINE
  5
7B06
330
19
100
AcDbEntity
  8
1
  6
Continuous
100
AcDbLine
 10
1380.753230000049
 20
748.8442688366539
 30
0.0
 11
1630.75323000005
 21
748.8442688366539
 31
0.0
  0
LINE
  5
7B07
330
19
100
AcDbEntity
  8
1
  6
Continuous
100
AcDbLine
 10
1380.753230000049
 20
778.844268836654
 30
0.0
 11
1630.75323000005
 21
778.844268836654
 31
0.0
  0
LINE
  5
7B08
330
19
100
AcDbEntity
  8
1
  6
Continuous
100
AcDbLine
 10
1380.753230000049
 20
848.8442688366539
 30
0.0
 11
1630.75323000005
 21
848.8442688366539
 31
0.0
  0
LINE
  5
7B09
330
19
100
AcDbEntity
  8
1
  6
Continuous
100
AcDbLine
 10
1380.753230000049
 20
778.844268836654
 30
0.0
 11
1380.753230000049
 21
748.8442688366539
 31
0.0
  0
LINE
  5
7B0A
330
19
100
AcDbEntity
  8
1
  6
Continuous
100
AcDbLine
 10
1380.753230000049
 20
908.8442688366539
 30
0.0
 11
1380.753230000049
 21
848.8442688366539
 31
0.0
  0
LINE
  5
7B0B
330
19
100
AcDbEntity
  8
1
  6
Continuous
100
AcDbLine
 10
1548.953230000049
 20
1016.844268836654
 30
0.0
 11
1539.753230000049
 21
1016.844268836654
 31
0.0
  0
ARC
  5
7B0C
330
19
100
AcDbEntity
  8
1
  6
Continuous
100
AcDbCircle
 10
1560.953230000049
 20
964.9442688366539
 30
0.0
 40
12.0
100
AcDbArc
 50
180.0
 51
270.0
  0
LINE
  5
7B0D
330
19
100
AcDbEntity
  8
1
  6
Continuous
100
AcDbLine
 10
1630.75323000005
 20
778.844268836654
 30
0.0
 11
1630.75323000005
 21
748.8442688366539
 31
0.0
  0
LINE
  5
7B0E
330
19
100
AcDbEntity
  8
1
  6
Continuous
100
AcDbLine
 10
1630.75323000005
 20
908.8442688366539
 30
0.0
 11
1630.75323000005
 21
848.8442688366539
 31
0.0
  0
LINE
  5
7B0F
330
19
100
AcDbEntity
  8
1
  6
Continuous
100
AcDbLine
 10
1728.55323000005
 20
1016.844268836654
 30
0.0
 11
1737.75323000005
 21
1016.844268836654
 31
0.0
  0
ARC
  5
7B10
330
19
100
AcDbEntity
  8
1
  6
Continuous
100
AcDbCircle
 10
1716.55323000005
 20
964.9442688366539
 30
0.0
 40
12.0
100
AcDbArc
 50
270.0
 51
0.0
  0
LINE
  5
7B11
330
19
100
AcDbEntity
  8
1
  6
Continuous
100
AcDbLine
 10
1527.753230000049
 20
1363.844268836654
 30
0.0
 11
1749.75323000005
 21
1363.844268836654
 31
0.0
  0
LINE
  5
7B12
330
19
100
AcDbEntity
  8
1
  6
Continuous
100
AcDbLine
 10
1577.95323000005
 20
1343.844268836654
 30
0.0
 11
1699.55323000005
 21
1343.844268836654
 31
0.0
  0
LINE
  5
7B13
330
19
100
AcDbEntity
  8
1
  6
Continuous
100
AcDbLine
 10
1410.753230000049
 20
1125.644268836654
 30
0.0
 11
1539.753230000049
 21
1229.944268836654
 31
0.0
  0
LINE
  5
7B14
330
19
100
AcDbEntity
  8
1
  6
Continuous
100
AcDbLine
 10
1548.953230000049
 20
1310.844268836654
 30
0.0
 11
1539.753230000049
 21
1310.844268836654
 31
0.0
  0
LINE
  5
7B15
330
19
100
AcDbEntity
  8
1
  6
Continuous
100
AcDbLine
 10
1557.953230000049
 20
1363.844268836654
 30
0.0
 11
1577.95323000005
 21
1343.844268836654
 31
0.0
  0
LINE
  5
7B16
330
19
100
AcDbEntity
  8
1
  6
Continuous
100
AcDbLine
 10
1539.753230000049
 20
1310.844268836654
 30
0.0
 11
1539.753230000049
 21
1163.844268836654
 31
0.0
  0
LINE
  5
7B17
330
19
100
AcDbEntity
  8
1
  6
Continuous
100
AcDbLine
 10
1719.55323000005
 20
1363.844268836654
 30
0.0
 11
1699.55323000005
 21
1343.844268836654
 31
0.0
  0
LINE
  5
7B18
330
19
100
AcDbEntity
  8
1
  6
Continuous
100
AcDbLine
 10
1728.55323000005
 20
1310.844268836654
 30
0.0
 11
1737.75323000005
 21
1310.844268836654
 31
0.0
  0
LINE
  5
7B19
330
19
100
AcDbEntity
  8
1
  6
Continuous
100
AcDbLine
 10
1728.55323000005
 20
1363.844268836654
 30
0.0
 11
1728.55323000005
 21
1163.844268836654
 31
0.0
  0
LINE
  5
7B1A
330
19
100
AcDbEntity
  8
4
  6
Continuous
100
AcDbLine
 10
1850.0
 20
500.0
 30
0.0
 11
1850.0
 21
300.0
 31
0.0
  0
LINE
  5
7B1B
330
19
100
AcDbEntity
  8
4
  6
Continuous
100
AcDbLine
 10
1150.0
 20
500.0
 30
0.0
 11
1150.0
 21
300.0
 31
0.0
  0
LINE
  5
7B1C
330
19
100
AcDbEntity
  8
4
  6
Continuous
100
AcDbLine
 10
650.0
 20
500.0
 30
0.0
 11
650.0
 21
300.0
 31
0.0
  0
LINE
  5
7B1F
330
19
100
AcDbEntity
  8
4
  6
Continuous
100
AcDbLine
 10
650.0
 20
300.0
 30
0.0
 11
1850.0
 21
300.0
 31
0.0
  0
LINE
  5
7B20
330
19
100
AcDbEntity
  8
4
  6
Continuous
100
AcDbLine
 10
650.0
 20
400.0
 30
0.0
 11
1850.0
 21
400.0
 31
0.0
  0
TEXT
  5
7B21
330
19
100
AcDbEntity
  8
4
  6
Continuous
100
AcDbText
 10
688.502081
 20
431.543026
 30
0.0
 40
50.0
  1
機器名称
100
AcDbText
  0
TEXT
  5
7B22
330
19
100
AcDbEntity
  8
4
  6
Continuous
100
AcDbText
 10
686.258106
 20
321.645157
 30
0.0
 40
50.0
  1
機器型番
100
AcDbText
  0
TEXT
  5
7B23
330
19
100
AcDbEntity
  8
4
  6
Continuous
100
AcDbText
 10
1177.678745
 20
422.571769
 30
0.0
 40
45.0
  1
ミツヤニューマルチファン
100
AcDbText
  0
TEXT
  5
7B24
330
19
100
AcDbEntity
  8
4
  6
Continuous
100
AcDbText
 10
1186.654496
 20
317.159584
 30
0.0
 40
50.0
  1
NM#1 1/2-1
100
AcDbText
  0
TEXT
  5
7B26
330
19
100
AcDbEntity
  8
4
  6
Continuous
100
AcDbText
 10
759.3203589999999
 20
2383.428841
 30
0.0
 40
54.0
  1
床置防振ベット
100
AcDbText
  0
TEXT
  5
7B27
330
19
100
AcDbEntity
  8
4
  6
Continuous
100
AcDbText
 10
316.167593
 20
2533.880976000001
 30
0.0
 40
72.0
  1
ベルト駆動式片吸込片持多翼ファン
100
AcDbText
  0
LINE
  5
7B28
330
19
100
AcDbEntity
  8
4
  6
Continuous
100
AcDbLine
 10
250.0
 20
2469.408754
 30
0.0
 11
1850.0
 21
2469.408754
 31
0.0
  0
LINE
  5
7B29
330
19
100
AcDbEntity
  8
4
  6
Continuous
100
AcDbLine
 10
250.0
 20
2669.408754
 30
0.0
 11
1850.0
 21
2669.408754
 31
0.0
  0
LINE
  5
7B2A
330
19
100
AcDbEntity
  8
4
  6
Continuous
100
AcDbLine
 10
650.0
 20
500.0
 30
0.0
 11
1850.0
 21
500.0
 31
0.0
  0
LINE
  5
7B2B
330
19
100
AcDbEntity
  8
4
  6
Continuous
100
AcDbLine
 10
250.0
 20
2669.408754
 30
0.0
 11
250.0
 21
2469.408754
 31
0.0
  0
TEXT
  5
7B2C
330
19
100
AcDbEntity
  8
4
  6
Continuous
100
AcDbText
 10
323.461526
 20
2382.319478000001
 30
0.0
 40
54.0
  1
右回転上向
100
AcDbText
  0
TEXT
  5
7B2D
330
19
100
AcDbEntity
  8
4
  6
Continuous
100
AcDbText
 10
1468.969559
 20
2706.061081
 30
0.0
 40
56.0
  1
No.
100
AcDbText
  0
TEXT
  5
7B2E
330
19
100
AcDbEntity
  8
4
  6
Continuous
100
AcDbText
 10
1311.296063
 20
2383.428841
 30
0.0
 40
54.0
  1
縮尺：1/10
100
AcDbText
  0
LINE
  5
7B2F
330
19
100
AcDbEntity
  8
4
  6
Continuous
100
AcDbLine
 10
1850.0
 20
2669.408754
 30
0.0
 11
1850.0
 21
2469.408754
 31
0.0
  0
LINE
  5
7B31
330
19
100
AcDbEntity
  8
4
  6
Continuous
100
AcDbLine
 10
1440.617422
 20
2681.263583
 30
0.0
 11
1440.617422
 21
2786.652262
 31
0.0
  0
LINE
  5
7B32
330
19
100
AcDbEntity
  8
4
  6
Continuous
100
AcDbLine
 10
1440.617422
 20
2786.652262
 30
0.0
 11
1850.0
 21
2786.652262
 31
0.0
  0
LINE
  5
7B33
330
19
100
AcDbEntity
  8
4
  6
Continuous
100
AcDbLine
 10
1850.0
 20
2786.652262
 30
0.0
 11
1850.0
 21
2681.263583
 31
0.0
  0
LINE
  5
7B34
330
19
100
AcDbEntity
  8
4
  6
Continuous
100
AcDbLine
 10
1850.0
 20
2681.263583
 30
0.0
 11
1440.617422
 21
2681.263583
 31
0.0
  0
DIMENSION
  5
7B4C
330
19
100
AcDbEntity
  8
3
  6
Continuous
100
AcDbDimension
280
     0
  2
*D1
 10
822.3825032219565
 20
651.5468298366539
 30
0.0
 11
551.1836752219564
 21
651.5468298366539
 31
0.0
 70
   160
 71
     5
 42
550.0
 73
     0
 74
     0
 75
     0
  3
IGA
100
AcDbAlignedDimension
 13
272.3825032219565
 23
748.8442688366539
 33
0.0
 14
822.3825032219565
 24
748.8442688366539
 34
0.0
100
AcDbRotatedDimension
1001
ACAD
1000
DSTYLE
1002
{
1070
   287
1070
     3
1070
    40
1040
10.0
1070
   143
1040
0.039
1070
   172
1070
     1
1070
   271
1070
     0
1070
   279
1070
     0
1070
   288
1070
     1
1002
}
  0
DIMENSION
  5
7B58
330
19
100
AcDbEntity
  8
3
  6
Continuous
100
AcDbDimension
280
     0
  2
*D2
 10
1042.382503221956
 20
651.5468298366539
 30
0.0
 11
932.3825032219565
 21
676.5468298366539
 31
0.0
 70
    32
 71
     5
 42
220.0
 73
     0
 74
     0
 75
     0
  3
IGA
100
AcDbAlignedDimension
 13
822.3825032219565
 23
748.8442688366539
 33
0.0
 14
1042.382503221956
 24
748.8442688366539
 34
0.0
100
AcDbRotatedDimension
1001
ACAD
1000
DSTYLE
1002
{
1070
   287
1070
     4
1070
    40
1040
10.0
1070
    75
1070
     1
1070
   143
1040
0.039
1070
   172
1070
     1
1070
   271
1070
     0
1070
   279
1070
     1
1070
   288
1070
     1
1002
}
  0
DIMENSION
  5
7B65
330
19
100
AcDbEntity
  8
3
  6
Continuous
100
AcDbDimension
280
     0
  2
*D3
 10
822.3825032219565
 20
1418.929767836654
 30
0.0
 11
683.4699652219565
 21
1418.929767836654
 31
0.0
 70
   160
 71
     5
 42
-1.0
 73
     0
 74
     0
 75
     0
  3
IGA
100
AcDbAlignedDimension
 13
572.3825032219565
 23
1363.844268836654
 33
0.0
 14
822.3825032219565
 24
1363.844268836654
 34
0.0
100
AcDbRotatedDimension
1001
ACAD
1000
DSTYLE
1002
{
1070
   287
1070
     3
1070
    40
1040
10.0
1070
   143
1040
0.039
1070
   172
1070
     1
1070
   271
1070
     0
1070
   279
1070
     0
1070
   288
1070
     1
1002
}
  0
DIMENSION
  5
7B72
330
19
100
AcDbEntity
  8
3
  6
Continuous
100
AcDbDimension
280
     0
  2
*D4
 10
822.3825032219565
 20
1477.398739836654
 30
0.0
 11
701.1057462219565
 21
1477.398739836654
 31
0.0
 70
   160
 71
     5
 42
-1.0
 73
     0
 74
     0
 75
     0
  3
IGA
100
AcDbAlignedDimension
 13
562.3825032219565
 23
1343.844268836654
 33
0.0
 14
822.3825032219565
 24
1363.844268836654
 34
0.0
100
AcDbRotatedDimension
1001
ACAD
1000
DSTYLE
1002
{
1070
   287
1070
     3
1070
    40
1040
10.0
1070
   143
1040
0.039
1070
   172
1070
     1
1070
   271
1070
     0
1070
   279
1070
     0
1070
   288
1070
     1
1002
}
  0
DIMENSION
  5
7B7E
330
19
100
AcDbEntity
  8
3
  6
Continuous
100
AcDbDimension
280
     0
  2
*D5
 10
1008.371887221956
 20
1477.398739836654
 30
0.0
 11
915.3771952219566
 21
1502.398739836654
 31
0.0
 70
    32
 71
     5
 42
-1.0
 73
     0
 74
     0
 75
     0
  3
IGA
100
AcDbAlignedDimension
 13
822.3825032219565
 23
1363.844268836654
 33
0.0
 14
1008.371887221956
 24
1163.844268836654
 34
0.0
100
AcDbRotatedDimension
1001
ACAD
1000
DSTYLE
1002
{
1070
   287
1070
     4
1070
    40
1040
10.0
1070
    75
1070
     1
1070
   143
1040
0.039
1070
   172
1070
     1
1070
   271
1070
     0
1070
   279
1070
     1
1070
   288
1070
     1
1002
}
  0
DIMENSION
  5
7B8B
330
19
100
AcDbEntity
  8
3
  6
Continuous
100
AcDbDimension
280
     0
  2
*D6
 10
1118.981320105773
 20
1163.844268836654
 30
0.0
 11
1118.981320105773
 21
1268.078373836654
 31
0.0
 70
   160
 71
     5
 42
-1.0
 73
     0
 74
     0
 75
     0
  3
IGA
100
AcDbAlignedDimension
 13
843.3825032219566
 23
1363.844268836654
 33
0.0
 14
1008.371887221956
 24
1163.844268836654
 34
0.0
 50
90.0
100
AcDbRotatedDimension
1001
ACAD
1000
DSTYLE
1002
{
1070
   287
1070
     3
1070
    40
1040
10.0
1070
   143
1040
0.039
1070
   172
1070
     1
1070
   271
1070
     0
1070
   279
1070
     0
1070
   288
1070
     1
1002
}
  0
DIMENSION
  5
7B97
330
19
100
AcDbEntity
  8
3
  6
Continuous
100
AcDbDimension
280
     0
  2
*D7
 10
1118.981320105773
 20
848.8442688366539
 30
0.0
 11
1093.981320105773
 21
1006.344268836654
 31
0.0
 70
    32
 71
     5
 42
-1.0
 73
     0
 74
     0
 75
     0
  3
IGA
100
AcDbAlignedDimension
 13
1008.371887221956
 23
1163.844268836654
 33
0.0
 14
1012.382503221956
 24
848.8442688366539
 34
0.0
 50
90.0
100
AcDbRotatedDimension
1001
ACAD
1000
DSTYLE
1002
{
1070
   287
1070
     4
1070
    40
1040
10.0
1070
    75
1070
     1
1070
   143
1040
0.039
1070
   172
1070
     1
1070
   271
1070
     0
1070
   279
1070
     1
1070
   288
1070
     1
1002
}
  0
LINE
  5
7BCF
330
19
100
AcDbEntity
  8
2
  6
CENTER
100
AcDbLine
 10
1274.874523000049
 20
1163.844268836654
 30
0.0
 11
1749.140445000049
 21
1163.844268836654
 31
0.0
  0
DIMENSION
  5
7BDC
330
19
100
AcDbEntity
  8
3
  6
Continuous
100
AcDbDimension
280
     0
  2
*D8
 10
1042.382503221956
 20
1674.685025729489
 30
0.0
 11
675.3821662219565
 21
1674.685025729489
 31
0.0
 70
   160
 71
     5
 42
-1.0
 73
     0
 74
     0
 75
     0
  3
IGA
100
AcDbAlignedDimension
 13
272.3825032219565
 23
1839.916202729488
 33
0.0
 14
1042.382503221956
 24
1839.916202729488
 34
0.0
100
AcDbRotatedDimension
1001
ACAD
1000
DSTYLE
1002
{
1070
   287
1070
     3
1070
    40
1040
10.0
1070
   143
1040
0.039
1070
   172
1070
     1
1070
   271
1070
     0
1070
   279
1070
     0
1070
   288
1070
     1
1002
}
  0
LINE
  5
7BEA
330
19
100
AcDbEntity
  8
2
  6
CENTER
100
AcDbLine
 10
536.5030842219566
 20
2097.916202729488
 30
0.0
 11
1069.519717221957
 21
2097.916202729488
 31
0.0
  0
LINE
  5
7BEB
330
19
100
AcDbEntity
  8
2
  6
CENTER
100
AcDbLine
 10
822.3825032219565
 20
1398.059536836654
 30
0.0
 11
822.3825032219565
 21
748.8442688366541
 31
0.0
  0
DIMENSION
  5
7BF9
330
19
100
AcDbEntity
  8
3
  6
Continuous
100
AcDbDimension
280
     0
  2
*D9
 10
1630.75323000005
 20
662.2441748366538
 30
0.0
 11
1510.251005000049
 21
662.2441748366538
 31
0.0
 70
   160
 71
     5
 42
250.0000000000002
 73
     0
 74
     0
 75
     0
  3
IGA
100
AcDbAlignedDimension
 13
1380.753230000049
 23
748.8442688366539
 33
0.0
 14
1630.75323000005
 24
748.8442688366539
 34
0.0
100
AcDbRotatedDimension
1001
ACAD
1000
DSTYLE
1002
{
1070
   287
1070
     3
1070
    40
1040
10.0
1070
   143
1040
0.039
1070
   172
1070
     1
1070
   271
1070
     0
1070
   279
1070
     0
1070
   288
1070
     1
1002
}
  0
DIMENSION
  5
7C06
330
19
100
AcDbEntity
  8
3
  6
Continuous
100
AcDbDimension
280
     0
  2
*D10
 10
1728.55323000005
 20
1403.651914836653
 30
0.0
 11
1628.841059000049
 21
1403.651914836653
 31
0.0
 70
   160
 71
     5
 42
-1.0
 73
     0
 74
     0
 75
     0
  3
IGA
100
AcDbAlignedDimension
 13
1548.953230000049
 23
1363.844268836654
 33
0.0
 14
1728.55323000005
 24
1363.844268836654
 34
0.0
100
AcDbRotatedDimension
1001
ACAD
1000
DSTYLE
1002
{
1070
   287
1070
     3
1070
    40
1040
10.0
1070
   143
1040
0.039
1070
   172
1070
     1
1070
   271
1070
     0
1070
   279
1070
     0
1070
   288
1070
     1
1002
}
  0
LINE
  5
7C30
330
19
100
AcDbEntity
  8
2
  6
CENTER
100
AcDbLine
 10
1638.75323000005
 20
748.8442688366539
 30
0.0
 11
1638.75323000005
 21
1406.928533836654
 31
0.0
  0
DIMENSION
  5
7C4A
330
19
100
AcDbEntity
  8
3
  6
Continuous
100
AcDbDimension
280
     0
  2
*D11
 10
1638.75323000005
 20
1482.010138836654
 30
0.0
 11
1473.37638000005
 21
1482.010138836654
 31
0.0
 70
   160
  1
(340)
 71
     5
 42
340.0000000000002
 73
     0
 74
     0
 75
     0
  3
IGA
100
AcDbAlignedDimension
 13
1298.753230000049
 23
1288.844268836654
 33
0.0
 14
1638.75323000005
 24
1452.097075836654
 34
0.0
100
AcDbRotatedDimension
1001
ACAD
1000
DSTYLE
1002
{
1070
   287
1070
     3
1070
    40
1040
10.0
1070
   143
1040
0.039
1070
   172
1070
     1
1070
   271
1070
     0
1070
   279
1070
     0
1070
   288
1070
     1
1002
}
  0
DIMENSION
  5
7C58
330
19
100
AcDbEntity
  8
3
  6
Continuous
100
AcDbDimension
280
     0
  2
*D12
 10
1737.75323000005
 20
1482.010138836654
 30
0.0
 11
1685.69915700005
 21
1482.010138836654
 31
0.0
 70
   160
 71
     5
 42
-1.0
 73
     0
 74
     0
 75
     0
  3
IGA
100
AcDbAlignedDimension
 13
1638.75323000005
 23
1452.097075836654
 33
0.0
 14
1737.75323000005
 24
1310.844268836654
 34
0.0
100
AcDbRotatedDimension
1001
ACAD
1000
DSTYLE
1002
{
1070
   287
1070
     4
1070
    40
1040
10.0
1070
    75
1070
     1
1070
   143
1040
0.039
1070
   172
1070
     1
1070
   271
1070
     0
1070
   279
1070
     1
1070
   288
1070
     1
1002
}
  0
DIMENSION
  5
7C83
330
19
100
AcDbEntity
  8
3
  6
Continuous
100
AcDbDimension
280
     0
  2
*D13
 10
1809.77898500005
 20
1038.844268836654
 30
0.0
 11
1809.778985000049
 21
1164.754293836654
 31
0.0
 70
   160
 71
     5
 42
-1.0
 73
     0
 74
     0
 75
     0
  3
IGA
100
AcDbAlignedDimension
 13
1737.75323000005
 23
1288.844268836654
 33
0.0
 14
1737.75323000005
 24
1038.844268836654
 34
0.0
 50
90.0
100
AcDbRotatedDimension
1001
ACAD
1000
DSTYLE
1002
{
1070
   287
1070
     3
1070
     3
1000
φ<>
1070
    40
1040
10.0
1070
   143
1040
0.039
1070
   172
1070
     1
1070
   271
1070
     0
1070
   279
1070
     0
1070
   288
1070
     1
1002
}
  0
DIMENSION
  5
7CA2
330
19
100
AcDbEntity
  8
3
100
AcDbDimension
280
     0
  2
*D14
 10
1638.75323000005
 20
662.2441748366538
 30
0.0
 11
1698.75323000005
 21
687.2441748366538
 31
0.0
 70
    32
 71
     5
 42
8.0
 73
     0
 74
     0
 75
     0
  3
IGA
100
AcDbAlignedDimension
 13
1630.75323000005
 23
748.8442688366539
 33
0.0
 14
1638.75323000005
 24
749.9402058366539
 34
0.0
100
AcDbRotatedDimension
1001
ACAD
1000
DSTYLE
1002
{
1070
   287
1070
     3
1070
    40
1040
10.0
1070
   143
1040
0.039
1070
   172
1070
     1
1070
   271
1070
     0
1070
   279
1070
     0
1070
   288
1070
     1
1002
}
  0
DIMENSION
  5
7CEC
330
19
100
AcDbEntity
  8
3
100
AcDbDimension
280
     0
  2
*D15
 10
221.4058927162099
 20
1839.916202729488
 30
0.0
 11
221.4058927162096
 21
1967.800805077168
 31
0.0
 70
   160
 71
     5
 42
-1.0
 73
     0
 74
     0
 75
     0
  3
IGA
100
AcDbAlignedDimension
 13
272.3825032219565
 23
2089.916202729488
 33
0.0
 14
272.3825032219565
 24
1839.916202729488
 34
0.0
 50
90.0
100
AcDbRotatedDimension
1001
ACAD
1000
DSTYLE
1002
{
1070
   287
1070
     3
1070
    40
1040
10.0
1070
   143
1040
0.039
1070
   172
1070
     1
1070
   271
1070
     0
1070
   279
1070
     0
1070
   288
1070
     1
1002
}
  0
DIMENSION
  5
7D2E
330
19
100
AcDbEntity
  8
3
100
AcDbDimension
280
     0
  2
*D17
 10
1118.575026458235
 20
748.8442688366539
 30
0.0
 11
1093.575026458234
 21
674.5585545509399
 31
0.0
 70
    32
 71
     5
 42
30.0
 73
     0
 74
     0
 75
     0
  3
IGA
100
AcDbAlignedDimension
 13
1042.382503221956
 23
778.844268836654
 33
0.0
 14
1042.382503221956
 24
748.8442688366539
 34
0.0
 50
90.0
100
AcDbRotatedDimension
1001
ACAD
1000
DSTYLE
1002
{
1070
   287
1070
     3
1070
    40
1040
10.0
1070
   143
1040
0.039
1070
   172
1070
     1
1070
   271
1070
     0
1070
   279
1070
     0
1070
     6
1000
DOT
1002
}
  0
DIMENSION
  5
7D3B
330
19
100
AcDbEntity
  8
3
100
AcDbDimension
280
     0
  2
*D18
 10
1118.575026458235
 20
848.8442688366539
 30
0.0
 11
1164.925037186476
 21
813.7292811412999
 31
0.0
 70
   160
 71
     5
 42
70.0
 73
     0
 74
     0
 75
     0
  3
IGA
100
AcDbAlignedDimension
 13
1042.382503221956
 23
778.844268836654
 33
0.0
 14
1012.382503221956
 24
848.8442688366539
 34
0.0
 50
90.0
100
AcDbRotatedDimension
1001
ACAD
1000
DSTYLE
1002
{
1070
     3
1000
(<>)
1070
    40
1040
10.0
1070
   143
1040
0.039
1070
   172
1070
     1
1070
   271
1070
     0
1070
   343
1005
7D18
1002
}
  0
DIMENSION
  5
7EF8
330
19
100
AcDbEntity
  8
3
100
AcDbDimension
280
     0
  2
*D19
 10
1219.373787091459
 20
1363.844268836654
 30
0.0
 11
1186.516644234316
 21
1056.344268836654
 31
0.0
 70
    32
 71
     5
 42
615.0
 73
     0
 74
     0
 75
     0
  3
IGA
100
AcDbAlignedDimension
 13
1042.382503221956
 23
748.8442688366539
 33
0.0
 14
843.3825032219566
 24
1363.844268836654
 34
0.0
 50
90.0
100
AcDbRotatedDimension
1001
ACAD
1000
DSTYLE
1002
{
1070
     3
1000
(<>)
1070
    40
1040
10.0
1070
   143
1040
0.039
1070
   172
1070
     1
1070
   271
1070
     0
1070
   341
1005
7D18
1070
   343
1005
7B39
1002
}
  0
ENDSEC
  0
SECTION
  2
OBJECTS
  0
DICTIONARY
  5
C
330
0
100
AcDbDictionary
281
     1
  3
ACAD_CIP_PREVIOUS_PRODUCT_INFO
350
7E63
  3
ACAD_COLOR
350
7E46
  3
ACAD_DETAILVIEWSTYLE
350
7E5F
  3
ACAD_GROUP
350
D
  3
ACAD_LAYOUT
350
7D44
  3
ACAD_MATERIAL
350
7E14
  3
ACAD_MLEADERSTYLE
350
7E5B
  3
ACAD_MLINESTYLE
350
E
  3
ACAD_PLOTSETTINGS
350
7D45
  3
ACAD_PLOTSTYLENAME
350
7D42
  3
ACAD_SCALELIST
350
7E49
  3
ACAD_SECTIONVIEWSTYLE
350
7E5D
  3
ACAD_TABLESTYLE
350
7E47
  3
ACAD_VISUALSTYLE
350
7E2D
  3
ACDB_RECOMPOSE_DATA
350
7F43
  3
AcDbVariableDictionary
350
7E0C
  0
DICTIONARY
  5
7E65
330
2
100
AcDbDictionary
280
     1
281
     1
  3
ACAD_LAYERSTATES
360
7E66
  0
DICTIONARY
  5
7EB2
330
F
100
AcDbDictionary
280
     1
281
     1
  3
ADSK_XREC_LAYER_RECONCILED
360
7EB3
  0
DICTIONARY
  5
7EB4
330
31
100
AcDbDictionary
280
     1
281
     1
  3
ADSK_XREC_LAYER_RECONCILED
360
7EB5
  0
DICTIONARY
  5
7EB6
330
76D0
100
AcDbDictionary
280
     1
281
     1
  3
ADSK_XREC_LAYER_RECONCILED
360
7EB7
  0
DICTIONARY
  5
7EB8
330
76D1
100
AcDbDictionary
280
     1
281
     1
  3
ADSK_XREC_LAYER_RECONCILED
360
7EB9
  0
DICTIONARY
  5
7EBA
330
76D2
100
AcDbDictionary
280
     1
281
     1
  3
ADSK_XREC_LAYER_RECONCILED
360
7EBB
  0
DICTIONARY
  5
7D71
330
19
100
AcDbDictionary
280
     1
281
     1
  3
ACAD_LAYOUTSELFREF
360
7D72
  0
DICTIONARY
  5
7D6F
330
16
100
AcDbDictionary
280
     1
281
     1
  3
ACAD_LAYOUTSELFREF
360
7D70
  0
XRECORD
  5
7E63
102
{ACAD_REACTORS
330
C
102
}
330
C
100
AcDbXrecord
280
     1
300
ACDLT
300
2015
300
INVLTS_F_S
  0
DICTIONARY
  5
7E46
102
{ACAD_REACTORS
330
C
102
}
330
C
100
AcDbDictionary
281
     1
  0
DICTIONARY
  5
7E5F
102
{ACAD_REACTORS
330
C
102
}
330
C
100
AcDbDictionary
281
     1
  3
Imperial24
350
7E60
  0
DICTIONARY
  5
D
102
{ACAD_REACTORS
330
C
102
}
330
0
100
AcDbDictionary
281
     1
  0
DICTIONARY
  5
7D44
102
{ACAD_REACTORS
330
C
102
}
330
C
100
AcDbDictionary
281
     1
  3
Model
350
7D46
  3
ﾚｲｱｳﾄ1
350
7D47
  0
DICTIONARY
  5
7E14
102
{ACAD_REACTORS
330
C
102
}
330
C
100
AcDbDictionary
281
     1
  3
ByBlock
350
7E1D
  3
ByLayer
350
7E15
  3
Global
350
7E25
  0
DICTIONARY
  5
7E5B
102
{ACAD_REACTORS
330
C
102
}
330
C
100
AcDbDictionary
281
     1
  3
Standard
350
7E5C
  0
DICTIONARY
  5
E
102
{ACAD_REACTORS
330
C
102
}
330
0
100
AcDbDictionary
281
     1
  3
STANDARD
350
1C
  0
DICTIONARY
  5
7D45
102
{ACAD_REACTORS
330
C
102
}
330
C
100
AcDbDictionary
281
     1
  0
ACDBDICTIONARYWDFLT
  5
7D42
102
{ACAD_REACTORS
330
C
102
}
330
C
100
AcDbDictionary
281
     1
  3
Normal
350
7D43
100
AcDbDictionaryWithDefault
340
7D43
1001
ACAD
1000
TREAT_AS_HARD
1070
     0
  0
DICTIONARY
  5
7E49
102
{ACAD_REACTORS
330
C
102
}
330
C
100
AcDbDictionary
281
     1
  3
A0
350
7E4A
  3
A1
350
7E4B
  3
A2
350
7E4C
  3
A3
350
7E4D
  3
A4
350
7E4E
  3
A5
350
7E4F
  3
A6
350
7E50
  3
A7
350
7E51
  3
A8
350
7E52
  3
A9
350
7E53
  3
B0
350
7E54
  3
B1
350
7E55
  3
B2
350
7E56
  3
B3
350
7E57
  3
B4
350
7E58
  3
B5
350
7E59
  3
B6
350
7E5A
  0
DICTIONARY
  5
7E5D
102
{ACAD_REACTORS
330
C
102
}
330
C
100
AcDbDictionary
281
     1
  3
Imperial24
350
7E5E
  0
DICTIONARY
  5
7E47
102
{ACAD_REACTORS
330
C
102
}
330
C
100
AcDbDictionary
281
     1
  3
Standard
350
7E48
  0
DICTIONARY
  5
7E2D
102
{ACAD_REACTORS
330
C
102
}
330
C
100
AcDbDictionary
281
     1
  3
2dWireframe
350
7E33
  3
Basic
350
7E32
  3
Brighten
350
7E39
  3
ColorChange
350
7E3D
  3
Conceptual
350
7E36
  3
Dim
350
7E38
  3
EdgeColorOff
350
7E45
  3
Facepattern
350
7E3C
  3
Flat
350
7E2E
  3
FlatWithEdges
350
7E2F
  3
Gouraud
350
7E30
  3
GouraudWithEdges
350
7E31
  3
Hidden
350
7E35
  3
JitterOff
350
7E43
  3
Linepattern
350
7E3B
  3
OverhangOff
350
7E44
  3
Realistic
350
7E37
  3
Shaded
350
7E42
  3
Shaded with edges
350
7E41
  3
Shades of Gray
350
7E3E
  3
Sketchy
350
7E3F
  3
Thicken
350
7E3A
  3
Wireframe
350
7E34
  3
X-Ray
350
7E40
  0
XRECORD
  5
7F43
102
{ACAD_REACTORS
330
C
102
}
330
C
100
AcDbXrecord
280
     1
 90
        1
330
7E48
330
7E5E
330
7E60
  0
DICTIONARY
  5
7E0C
102
{ACAD_REACTORS
330
C
102
}
330
C
100
AcDbDictionary
281
     1
  3
CANNOSCALE
350
7ECD
  3
CMLEADERSTYLE
350
7EC9
  3
CTABLESTYLE
350
7EC8
  3
CVIEWDETAILSTYLE
350
7ECA
  3
CVIEWSECTIONSTYLE
350
7ECB
  3
DIMASSOC
350
7E0D
  3
LAYEREVAL
350
7ECF
  3
LAYERNOTIFY
350
7ED0
  3
LIGHTINGUNITS
350
7ECE
  3
MSLTSCALE
350
7ECC
  0
DICTIONARY
  5
7E66
102
{ACAD_REACTORS
330
7E65
102
}
330
7E65
100
AcDbDictionary
281
     1
  0
XRECORD
  5
7EB3
102
{ACAD_REACTORS
330
7EB2
102
}
330
7EB2
100
AcDbXrecord
280
     1
290
     1
  0
XRECORD
  5
7EB5
102
{ACAD_REACTORS
330
7EB4
102
}
330
7EB4
100
AcDbXrecord
280
     1
290
     1
  0
XRECORD
  5
7EB7
102
{ACAD_REACTORS
330
7EB6
102
}
330
7EB6
100
AcDbXrecord
280
     1
290
     1
  0
XRECORD
  5
7EB9
102
{ACAD_REACTORS
330
7EB8
102
}
330
7EB8
100
AcDbXrecord
280
     1
290
     1
  0
XRECORD
  5
7EBB
102
{ACAD_REACTORS
330
7EBA
102
}
330
7EBA
100
AcDbXrecord
280
     1
290
     1
  0
XRECORD
  5
7D72
102
{ACAD_REACTORS
330
7D71
102
}
330
7D71
100
AcDbXrecord
280
     1
340
19
  0
XRECORD
  5
7D70
102
{ACAD_REACTORS
330
7D6F
102
}
330
7D6F
100
AcDbXrecord
280
     1
340
16
  0
ACDBDETAILVIEWSTYLE
  5
7E60
102
{ACAD_XDICTIONARY
360
7EC5
102
}
102
{ACAD_REACTORS
330
7E5F
102
}
330
7E5F
100
AcDbModelDocViewStyle
 70
     0
  3
Imperial24
290
     0
100
AcDbDetailViewStyle
 70
     0
 71
     0
 90
        3
 71
     1
340
10
 62
   256
 40
0.24
340
0
 62
   256
 40
0.24
300

 40
0.36
280
     3
 71
     2
340
15
 90
       25
 62
   256
 71
     3
340
10
 62
   256
 40
0.24
 90
        1
 40
0.75
 90
        1
300
%<\AcVar ViewType \f "%tc1">% %<\AcVar ViewDetailId>%\PSCALE %<\AcVar ViewScale \f "%sn">%
 71
     4
340
15
 90
       25
 62
   256
340
15
 90
       25
 62
   256
280
     0
  0
LAYOUT
  5
7D46
102
{ACAD_REACTORS
330
7D44
102
}
330
7D44
100
AcDbPlotSettings
  1

  2
\\Txbo34x8944cqyd\EPSON LP-6100
  4

  6

 40
0.0
 41
0.0
 42
0.0
 43
0.0
 44
0.0
 45
0.0
 46
0.0
 47
0.0
 48
0.0
 49
0.0
140
0.0
141
0.0
142
1.0
143
1.0
 70
  1712
 72
     0
 73
     0
 74
     0
  7
GOD2000TABLE.ctb
 75
     0
147
1.0
 76
     0
 77
     2
 78
   300
148
0.0
149
0.0
100
AcDbLayout
  1
Model
 70
     1
 71
     0
 10
0.0
 20
0.0
 11
12.0
 21
9.0
 12
0.0
 22
0.0
 32
0.0
 14
0.0
 24
0.0
 34
0.0
 15
0.0
 25
0.0
 35
0.0
146
0.0
 13
0.0
 23
0.0
 33
0.0
 16
1.0
 26
0.0
 36
0.0
 17
0.0
 27
1.0
 37
0.0
 76
     0
330
19
331
7E12
  0
LAYOUT
  5
7D47
102
{ACAD_REACTORS
330
7D44
102
}
330
7D44
100
AcDbPlotSettings
  1

  2
\\Txbo34x8944cqyd\EPSON LP-6100
  4

  6

 40
0.0
 41
0.0
 42
0.0
 43
0.0
 44
0.0
 45
0.0
 46
0.0
 47
0.0
 48
0.0
 49
0.0
140
0.0
141
0.0
142
1.0
143
1.0
 70
   688
 72
     0
 73
     0
 74
     5
  7
GOD2000TABLE.ctb
 75
    16
147
1.0
 76
     0
 77
     2
 78
   300
148
0.0
149
0.0
100
AcDbLayout
  1
ﾚｲｱｳﾄ1
 70
     1
 71
     1
 10
0.0
 20
0.0
 11
12.0
 21
9.0
 12
0.0
 22
0.0
 32
0.0
 14
1.000000000000000E+20
 24
1.000000000000000E+20
 34
1.000000000000000E+20
 15
-1.000000000000000E+20
 25
-1.000000000000000E+20
 35
-1.000000000000000E+20
146
0.0
 13
0.0
 23
0.0
 33
0.0
 16
1.0
 26
0.0
 36
0.0
 17
0.0
 27
1.0
 37
0.0
 76
     0
330
16
  0
MATERIAL
  5
7E1D
102
{ACAD_XDICTIONARY
360
7E1E
102
}
102
{ACAD_REACTORS
330
7E14
102
}
330
7E14
100
AcDbMaterial
  1
ByBlock
 72
     0
 43
0.0208333333333333
 43
0.0
 43
0.0
 43
0.0
 43
0.0
 43
0.0208333333333333
 43
0.0
 43
0.0
 43
0.0
 43
0.0
 43
1.0
 43
0.0
 43
0.0
 43
0.0
 43
0.0
 43
1.0
 77
     0
 47
0.0208333333333333
 47
0.0
 47
0.0
 47
0.0
 47
0.0
 47
0.0208333333333333
 47
0.0
 47
0.0
 47
0.0
 47
0.0
 47
1.0
 47
0.0
 47
0.0
 47
0.0
 47
0.0
 47
1.0
171
     0
 49
0.0208333333333333
 49
0.0
 49
0.0
 49
0.0
 49
0.0
 49
0.0208333333333333
 49
0.0
 49
0.0
 49
0.0
 49
0.0
 49
1.0
 49
0.0
 49
0.0
 49
0.0
 49
0.0
 49
1.0
175
     0
142
0.0208333333333333
142
0.0
142
0.0
142
0.0
142
0.0
142
0.0208333333333333
142
0.0
142
0.0
142
0.0
142
0.0
142
1.0
142
0.0
142
0.0
142
0.0
142
0.0
142
1.0
179
     0
144
0.0208333333333333
144
0.0
144
0.0
144
0.0
144
0.0
144
0.0208333333333333
144
0.0
144
0.0
144
0.0
144
0.0
144
1.0
144
0.0
144
0.0
144
0.0
144
0.0
144
1.0
147
0.0208333333333333
147
0.0
147
0.0
147
0.0
147
0.0
147
0.0208333333333333
147
0.0
147
0.0
147
0.0
147
0.0
147
1.0
147
0.0
147
0.0
147
0.0
147
0.0
147
1.0
  0
MATERIAL
  5
7E15
102
{ACAD_XDICTIONARY
360
7E16
102
}
102
{ACAD_REACTORS
330
7E14
102
}
330
7E14
100
AcDbMaterial
  1
ByLayer
 72
     0
 43
0.0208333333333333
 43
0.0
 43
0.0
 43
0.0
 43
0.0
 43
0.0208333333333333
 43
0.0
 43
0.0
 43
0.0
 43
0.0
 43
1.0
 43
0.0
 43
0.0
 43
0.0
 43
0.0
 43
1.0
 77
     0
 47
0.0208333333333333
 47
0.0
 47
0.0
 47
0.0
 47
0.0
 47
0.0208333333333333
 47
0.0
 47
0.0
 47
0.0
 47
0.0
 47
1.0
 47
0.0
 47
0.0
 47
0.0
 47
0.0
 47
1.0
171
     0
 49
0.0208333333333333
 49
0.0
 49
0.0
 49
0.0
 49
0.0
 49
0.0208333333333333
 49
0.0
 49
0.0
 49
0.0
 49
0.0
 49
1.0
 49
0.0
 49
0.0
 49
0.0
 49
0.0
 49
1.0
175
     0
142
0.0208333333333333
142
0.0
142
0.0
142
0.0
142
0.0
142
0.0208333333333333
142
0.0
142
0.0
142
0.0
142
0.0
142
1.0
142
0.0
142
0.0
142
0.0
142
0.0
142
1.0
179
     0
144
0.0208333333333333
144
0.0
144
0.0
144
0.0
144
0.0
144
0.0208333333333333
144
0.0
144
0.0
144
0.0
144
0.0
144
1.0
144
0.0
144
0.0
144
0.0
144
0.0
144
1.0
147
0.0208333333333333
147
0.0
147
0.0
147
0.0
147
0.0
147
0.0208333333333333
147
0.0
147
0.0
147
0.0
147
0.0
147
1.0
147
0.0
147
0.0
147
0.0
147
0.0
147
1.0
  0
MATERIAL
  5
7E25
102
{ACAD_XDICTIONARY
360
7E26
102
}
102
{ACAD_REACTORS
330
7E14
102
}
330
7E14
100
AcDbMaterial
  1
Global
 72
     0
 43
0.0208333333333333
 43
0.0
 43
0.0
 43
0.0
 43
0.0
 43
0.0208333333333333
 43
0.0
 43
0.0
 43
0.0
 43
0.0
 43
1.0
 43
0.0
 43
0.0
 43
0.0
 43
0.0
 43
1.0
 77
     0
 47
0.0208333333333333
 47
0.0
 47
0.0
 47
0.0
 47
0.0
 47
0.0208333333333333
 47
0.0
 47
0.0
 47
0.0
 47
0.0
 47
1.0
 47
0.0
 47
0.0
 47
0.0
 47
0.0
 47
1.0
171
     0
 49
0.0208333333333333
 49
0.0
 49
0.0
 49
0.0
 49
0.0
 49
0.0208333333333333
 49
0.0
 49
0.0
 49
0.0
 49
0.0
 49
1.0
 49
0.0
 49
0.0
 49
0.0
 49
0.0
 49
1.0
175
     0
142
0.0208333333333333
142
0.0
142
0.0
142
0.0
142
0.0
142
0.0208333333333333
142
0.0
142
0.0
142
0.0
142
0.0
142
1.0
142
0.0
142
0.0
142
0.0
142
0.0
142
1.0
179
     0
144
0.0208333333333333
144
0.0
144
0.0
144
0.0
144
0.0
144
0.0208333333333333
144
0.0
144
0.0
144
0.0
144
0.0
144
1.0
144
0.0
144
0.0
144
0.0
144
0.0
144
1.0
147
0.0208333333333333
147
0.0
147
0.0
147
0.0
147
0.0
147
0.0208333333333333
147
0.0
147
0.0
147
0.0
147
0.0
147
1.0
147
0.0
147
0.0
147
0.0
147
0.0
147
1.0
  0
MLEADERSTYLE
  5
7E5C
102
{ACAD_REACTORS
330
7E5B
102
}
330
7E5B
100
AcDbMLeaderStyle
179
     2
170
     2
171
     1
172
     0
 90
        2
 40
0.0
 41
0.0
173
     1
 91
-1056964608
340
13
 92
       -2
290
     1
 42
0.09
291
     1
 43
0.36
  3
Standard
 44
0.18
300

342
10
174
     1
178
     6
175
     1
176
     0
 93
-1056964608
 45
0.18
292
     0
297
     0
 46
0.18
 94
-1056964608
 47
1.0
 49
1.0
140
1.0
293
     1
141
0.0
294
     1
177
     0
142
1.0
295
     1
296
     0
143
0.125
271
     0
272
     9
273
     9
298
     1
  0
MLINESTYLE
  5
1C
102
{ACAD_REACTORS
330
E
102
}
330
0
100
AcDbMlineStyle
  2
STANDARD
 70
     0
  3

 62
     0
 51
90.0
 52
90.0
 71
     2
 49
0.5
 62
   256
  6
BYLAYER
 49
-0.5
 62
   256
  6
BYLAYER
  0
ACDBPLACEHOLDER
  5
7D43
102
{ACAD_REACTORS
330
7D42
102
}
330
7D42
  0
SCALE
  5
7E4A
102
{ACAD_REACTORS
330
7E49
102
}
330
7E49
100
AcDbScale
 70
     0
300
1:1
140
1.0
141
1.0
290
     1
  0
SCALE
  5
7E4B
102
{ACAD_REACTORS
330
7E49
102
}
330
7E49
100
AcDbScale
 70
     0
300
1/128" = 1'-0"
140
0.0078125
141
12.0
290
     0
  0
SCALE
  5
7E4C
102
{ACAD_REACTORS
330
7E49
102
}
330
7E49
100
AcDbScale
 70
     0
300
1/64" = 1'-0"
140
0.015625
141
12.0
290
     0
  0
SCALE
  5
7E4D
102
{ACAD_REACTORS
330
7E49
102
}
330
7E49
100
AcDbScale
 70
     0
300
1/32" = 1'-0"
140
0.03125
141
12.0
290
     0
  0
SCALE
  5
7E4E
102
{ACAD_REACTORS
330
7E49
102
}
330
7E49
100
AcDbScale
 70
     0
300
1/16" = 1'-0"
140
0.0625
141
12.0
290
     0
  0
SCALE
  5
7E4F
102
{ACAD_REACTORS
330
7E49
102
}
330
7E49
100
AcDbScale
 70
     0
300
3/32" = 1'-0"
140
0.09375
141
12.0
290
     0
  0
SCALE
  5
7E50
102
{ACAD_REACTORS
330
7E49
102
}
330
7E49
100
AcDbScale
 70
     0
300
1/8" = 1'-0"
140
0.125
141
12.0
290
     0
  0
SCALE
  5
7E51
102
{ACAD_REACTORS
330
7E49
102
}
330
7E49
100
AcDbScale
 70
     0
300
3/16" = 1'-0"
140
0.1875
141
12.0
290
     0
  0
SCALE
  5
7E52
102
{ACAD_REACTORS
330
7E49
102
}
330
7E49
100
AcDbScale
 70
     0
300
1/4" = 1'-0"
140
0.25
141
12.0
290
     0
  0
SCALE
  5
7E53
102
{ACAD_REACTORS
330
7E49
102
}
330
7E49
100
AcDbScale
 70
     0
300
3/8" = 1'-0"
140
0.375
141
12.0
290
     0
  0
SCALE
  5
7E54
102
{ACAD_REACTORS
330
7E49
102
}
330
7E49
100
AcDbScale
 70
     0
300
1/2" = 1'-0"
140
0.5
141
12.0
290
     0
  0
SCALE
  5
7E55
102
{ACAD_REACTORS
330
7E49
102
}
330
7E49
100
AcDbScale
 70
     0
300
3/4" = 1'-0"
140
0.75
141
12.0
290
     0
  0
SCALE
  5
7E56
102
{ACAD_REACTORS
330
7E49
102
}
330
7E49
100
AcDbScale
 70
     0
300
1" = 1'-0"
140
1.0
141
12.0
290
     0
  0
SCALE
  5
7E57
102
{ACAD_REACTORS
330
7E49
102
}
330
7E49
100
AcDbScale
 70
     0
300
1-1/2" = 1'-0"
140
1.5
141
12.0
290
     0
  0
SCALE
  5
7E58
102
{ACAD_REACTORS
330
7E49
102
}
330
7E49
100
AcDbScale
 70
     0
300
3" = 1'-0"
140
3.0
141
12.0
290
     0
  0
SCALE
  5
7E59
102
{ACAD_REACTORS
330
7E49
102
}
330
7E49
100
AcDbScale
 70
     0
300
6" = 1'-0"
140
6.0
141
12.0
290
     0
  0
SCALE
  5
7E5A
102
{ACAD_REACTORS
330
7E49
102
}
330
7E49
100
AcDbScale
 70
     0
300
1'-0" = 1'-0"
140
12.0
141
12.0
290
     0
  0
ACDBSECTIONVIEWSTYLE
  5
7E5E
102
{ACAD_XDICTIONARY
360
7EC3
102
}
102
{ACAD_REACTORS
330
7E5D
102
}
330
7E5D
100
AcDbModelDocViewStyle
 70
     0
  3
Imperial24
290
     0
100
AcDbSectionViewStyle
 70
     0
 71
     0
 90
       78
 71
     1
340
10
 62
   256
 40
0.24
340
0
340
0
 62
   256
 40
0.24
300
I, O, Q, S, X, Z
 40
0.48
 90
        3
 40
0.18
 90
        1
 71
     2
340
15
 90
       25
 62
   256
340
15
 90
       50
 62
   256
 40
0.24
 40
0.0
 40
0.24
 71
     3
340
10
 62
   256
 40
0.24
 90
        1
 40
0.75
 90
        1
300
%<\AcVar ViewType \f "%tc1">% %<\AcVar ViewSectionStartId>%-%<\AcVar ViewSectionEndId>%\PSCALE %<\AcVar ViewScale \f "%sn">%
 71
     4
 62
   256
 62
   257
300
ANSI31
 40
1.0
 90
        0
290
     0
290
     0
 90
        6
 40
0.0
 40
1.570796326794896
 40
0.2617993877991494
 40
1.308996938995747
 40
-0.2617993877991494
 40
1.832595714594046
  0
TABLESTYLE
  5
7E48
102
{ACAD_XDICTIONARY
360
7F3F
102
}
102
{ACAD_REACTORS
330
7E47
102
}
330
7E47
100
AcDbTableStyle
280
     0
  3
Standard
 70
     0
 71
     0
 40
0.06
 41
0.06
280
     0
281
     0
  7
STANDARD
140
0.18
170
     2
 62
     0
 63
     7
283
     0
 90
      512
 91
        0
  1

274
    -2
284
     1
 64
     0
275
    -2
285
     1
 65
     0
276
    -2
286
     1
 66
     0
277
    -2
287
     1
 67
     0
278
    -2
288
     1
 68
     0
279
    -2
289
     1
 69
     0
  7
STANDARD
140
0.25
170
     5
 62
     0
 63
     7
283
     0
 90
      512
 91
        0
  1

274
    -2
284
     1
 64
     0
275
    -2
285
     1
 65
     0
276
    -2
286
     1
 66
     0
277
    -2
287
     1
 67
     0
278
    -2
288
     1
 68
     0
279
    -2
289
     1
 69
     0
  7
STANDARD
140
0.18
170
     5
 62
     0
 63
     7
283
     0
 90
      512
 91
        0
  1

274
    -2
284
     1
 64
     0
275
    -2
285
     1
 65
     0
276
    -2
286
     1
 66
     0
277
    -2
287
     1
 67
     0
278
    -2
288
     1
 68
     0
279
    -2
289
     1
 69
     0
  0
VISUALSTYLE
  5
7E33
102
{ACAD_REACTORS
330
7E2D
102
}
330
7E2D
100
AcDbVisualStyle
  2
2dWireframe
 70
     4
177
     3
291
     0
 70
    58
 90
        0
176
     1
 90
        2
176
     1
 90
        0
176
     1
 90
        0
176
     1
 40
0.6
176
     1
 40
30.0
176
     1
 62
     7
420
 16777215
176
     1
 90
        1
176
     1
 90
        4
176
     1
 62
     7
176
     1
 62
   257
176
     1
 90
        1
176
     1
 90
        1
176
     1
 40
1.0
176
     1
 90
        0
176
     1
 62
   257
176
     1
 40
1.0
176
     1
 90
        1
176
     1
 90
        6
176
     1
 90
        2
176
     1
 62
     7
176
     1
 90
        5
176
     1
 90
        0
176
     1
 90
        0
176
     1
290
     0
176
     1
 90
        1
176
     1
 40
0.0
176
     1
 90
        0
176
     1
290
     1
176
     1
290
     1
176
     1
290
     0
176
     1
290
     0
176
     1
290
     0
176
     1
290
     0
176
     1
290
     0
176
     1
290
     0
176
     1
290
     0
176
     1
 90
       50
176
     1
 40
0.0
176
     1
 40
1.0
176
     1
 90
        0
176
     1
 62
    18
420
        0
176
     1
 90
       50
176
     1
 90
        3
176
     1
 62
     5
420
      255
176
     1
290
     0
176
     1
 90
       50
176
     1
 90
       50
176
     1
 90
       50
176
     1
290
     0
176
     1
 90
       50
176
     1
 62
   256
176
     0
 40
1.0
176
     0
 90
        2
176
     1
  1
strokes_ogs.tif
176
     1
290
     0
176
     1
 40
1.0
176
     1
 40
1.0
176
     1
  0
VISUALSTYLE
  5
7E32
102
{ACAD_REACTORS
330
7E2D
102
}
330
7E2D
100
AcDbVisualStyle
  2
Basic
 70
     7
177
     3
291
     1
 70
    58
 90
        1
176
     1
 90
        0
176
     1
 90
        1
176
     1
 90
        0
176
     1
 40
0.6
176
     1
 40
30.0
176
     1
 62
     7
420
 16777215
176
     1
 90
        0
176
     1
 90
        4
176
     1
 62
     7
176
     1
 62
   257
176
     1
 90
        1
176
     1
 90
        1
176
     1
 40
1.0
176
     1
 90
        8
176
     1
 62
     7
176
     1
 40
1.0
176
     1
 90
        1
176
     1
 90
        6
176
     1
 90
        2
176
     1
 62
     7
176
     1
 90
        5
176
     1
 90
        0
176
     1
 90
        0
176
     1
290
     0
176
     1
 90
        1
176
     1
 40
0.0
176
     1
 90
        0
176
     1
290
     0
176
     1
290
     1
176
     1
290
     1
176
     1
290
     0
176
     1
290
     0
176
     1
290
     0
176
     1
290
     0
176
     1
290
     0
176
     1
290
     0
176
     1
 90
       50
176
     1
 40
0.0
176
     1
 40
1.0
176
     1
 90
        0
176
     1
 62
    18
420
        0
176
     1
 90
       50
176
     1
 90
        3
176
     1
 62
     5
420
      255
176
     1
290
     0
176
     1
 90
       50
176
     1
 90
       50
176
     1
 90
       50
176
     1
290
     0
176
     1
 90
       50
176
     1
 62
   256
176
     0
 40
1.0
176
     0
 90
        2
176
     1
  1
strokes_ogs.tif
176
     1
290
     0
176
     1
 40
1.0
176
     1
 40
1.0
176
     1
  0
VISUALSTYLE
  5
7E39
102
{ACAD_REACTORS
330
7E2D
102
}
330
7E2D
100
AcDbVisualStyle
  2
Brighten
 70
    12
177
     3
291
     1
 70
    58
 90
        2
176
     1
 90
        2
176
     1
 90
        0
176
     1
 90
        0
176
     1
 40
0.6
176
     1
 40
30.0
176
     1
 62
     7
420
 16777215
176
     1
 90
        1
176
     1
 90
        4
176
     1
 62
     7
176
     1
 62
   257
176
     1
 90
        1
176
     1
 90
        1
176
     1
 40
1.0
176
     1
 90
        8
176
     1
 62
     7
176
     1
 40
1.0
176
     1
 90
        1
176
     1
 90
        6
176
     1
 90
        2
176
     1
 62
     7
176
     1
 90
        5
176
     1
 90
        0
176
     1
 90
        0
176
     1
290
     0
176
     1
 90
        1
176
     1
 40
50.0
176
     1
 90
        0
176
     1
290
     0
176
     1
290
     1
176
     1
290
     1
176
     1
290
     0
176
     1
290
     0
176
     1
290
     0
176
     1
290
     0
176
     1
290
     0
176
     1
290
     0
176
     1
 90
       50
176
     1
 40
0.0
176
     1
 40
1.0
176
     1
 90
        0
176
     1
 62
    18
420
        0
176
     1
 90
       50
176
     1
 90
        3
176
     1
 62
     5
420
      255
176
     1
290
     0
176
     1
 90
       50
176
     1
 90
       50
176
     1
 90
       50
176
     1
290
     0
176
     1
 90
       50
176
     1
 62
   256
176
     0
 40
1.0
176
     0
 90
        2
176
     1
  1
strokes_ogs.tif
176
     1
290
     0
176
     1
 40
1.0
176
     1
 40
1.0
176
     1
  0
VISUALSTYLE
  5
7E3D
102
{ACAD_REACTORS
330
7E2D
102
}
330
7E2D
100
AcDbVisualStyle
  2
ColorChange
 70
    16
177
     3
291
     1
 70
    58
 90
        2
176
     1
 90
        2
176
     1
 90
        3
176
     1
 90
        0
176
     1
 40
0.6
176
     1
 40
30.0
176
     1
 62
     8
420
  8421504
176
     1
 90
        1
176
     1
 90
        4
176
     1
 62
     7
176
     1
 62
   257
176
     1
 90
        1
176
     1
 90
        1
176
     1
 40
1.0
176
     1
 90
        8
176
     1
 62
     8
420
  8421504
176
     1
 40
1.0
176
     1
 90
        1
176
     1
 90
        6
176
     1
 90
        2
176
     1
 62
     7
176
     1
 90
        5
176
     1
 90
        0
176
     1
 90
        0
176
     1
290
     0
176
     1
 90
        1
176
     1
 40
0.0
176
     1
 90
        0
176
     1
290
     0
176
     1
290
     1
176
     1
290
     1
176
     1
290
     0
176
     1
290
     0
176
     1
290
     0
176
     1
290
     0
176
     1
290
     0
176
     1
290
     0
176
     1
 90
       50
176
     1
 40
0.0
176
     1
 40
1.0
176
     1
 90
        0
176
     1
 62
    18
420
        0
176
     1
 90
       50
176
     1
 90
        3
176
     1
 62
     5
420
      255
176
     1
290
     0
176
     1
 90
       50
176
     1
 90
       50
176
     1
 90
       50
176
     1
290
     0
176
     1
 90
       50
176
     1
 62
   256
176
     0
 40
1.0
176
     0
 90
        2
176
     1
  1
strokes_ogs.tif
176
     1
290
     0
176
     1
 40
1.0
176
     1
 40
1.0
176
     1
  0
VISUALSTYLE
  5
7E36
102
{ACAD_REACTORS
330
7E2D
102
}
330
7E2D
100
AcDbVisualStyle
  2
Conceptual
 70
     9
177
     3
291
     0
 70
    58
 90
        3
176
     1
 90
        2
176
     1
 90
        0
176
     1
 90
        0
176
     1
 40
0.6
176
     1
 40
30.0
176
     1
 62
     7
420
 16777215
176
     1
 90
        2
176
     1
 90
        2
176
     1
 62
     7
176
     1
 62
   257
176
     1
 90
        1
176
     1
 90
        1
176
     1
 40
179.0
176
     1
 90
        8
176
     1
 62
     7
176
     1
 40
1.0
176
     1
 90
        1
176
     1
 90
        6
176
     1
 90
        2
176
     1
 62
     7
176
     1
 90
        3
176
     1
 90
        0
176
     1
 90
        0
176
     1
290
     0
176
     1
 90
        1
176
     1
 40
0.0
176
     1
 90
        0
176
     1
290
     0
176
     1
290
     1
176
     1
290
     1
176
     1
290
     0
176
     1
290
     0
176
     1
290
     0
176
     1
290
     0
176
     1
290
     0
176
     1
290
     0
176
     1
 90
       50
176
     1
 40
0.0
176
     1
 40
1.0
176
     1
 90
        0
176
     1
 62
    18
420
        0
176
     1
 90
       50
176
     1
 90
        3
176
     1
 62
     5
420
      255
176
     1
290
     0
176
     1
 90
       50
176
     1
 90
       50
176
     1
 90
       50
176
     1
290
     0
176
     1
 90
       50
176
     1
 62
   256
176
     0
 40
1.0
176
     0
 90
        2
176
     1
  1
strokes_ogs.tif
176
     1
290
     0
176
     1
 40
1.0
176
     1
 40
1.0
176
     1
  0
VISUALSTYLE
  5
7E38
102
{ACAD_REACTORS
330
7E2D
102
}
330
7E2D
100
AcDbVisualStyle
  2
Dim
 70
    11
177
     3
291
     1
 70
    58
 90
        2
176
     1
 90
        2
176
     1
 90
        0
176
     1
 90
        0
176
     1
 40
0.6
176
     1
 40
30.0
176
     1
 62
     7
420
 16777215
176
     1
 90
        1
176
     1
 90
        4
176
     1
 62
     7
176
     1
 62
   257
176
     1
 90
        1
176
     1
 90
        1
176
     1
 40
1.0
176
     1
 90
        8
176
     1
 62
     7
176
     1
 40
1.0
176
     1
 90
        1
176
     1
 90
        6
176
     1
 90
        2
176
     1
 62
     7
176
     1
 90
        5
176
     1
 90
        0
176
     1
 90
        0
176
     1
290
     0
176
     1
 90
        1
176
     1
 40
-50.0
176
     1
 90
        0
176
     1
290
     0
176
     1
290
     1
176
     1
290
     1
176
     1
290
     0
176
     1
290
     0
176
     1
290
     0
176
     1
290
     0
176
     1
290
     0
176
     1
290
     0
176
     1
 90
       50
176
     1
 40
0.0
176
     1
 40
1.0
176
     1
 90
        0
176
     1
 62
    18
420
        0
176
     1
 90
       50
176
     1
 90
        3
176
     1
 62
     5
420
      255
176
     1
290
     0
176
     1
 90
       50
176
     1
 90
       50
176
     1
 90
       50
176
     1
290
     0
176
     1
 90
       50
176
     1
 62
   256
176
     0
 40
1.0
176
     0
 90
        2
176
     1
  1
strokes_ogs.tif
176
     1
290
     0
176
     1
 40
1.0
176
     1
 40
1.0
176
     1
  0
VISUALSTYLE
  5
7E45
102
{ACAD_REACTORS
330
7E2D
102
}
330
7E2D
100
AcDbVisualStyle
  2
EdgeColorOff
 70
    22
177
     3
291
     1
 70
    58
 90
        2
176
     0
 90
        2
176
     0
 90
        0
176
     0
 90
        0
176
     0
 40
0.6
176
     0
 40
30.0
176
     0
 62
     7
420
 16777215
176
     0
 90
        1
176
     0
 90
        4
176
     0
 62
     7
176
     0
 62
   257
176
     0
 90
        1
176
     0
 90
        1
176
     0
 40
1.0
176
     0
 90
        8
176
     2
 62
     7
176
     0
 40
1.0
176
     0
 90
        1
176
     0
 90
        6
176
     0
 90
        2
176
     0
 62
     7
176
     0
 90
        5
176
     0
 90
        0
176
     0
 90
        0
176
     0
290
     0
176
     0
 90
        1
176
     0
 40
0.0
176
     0
 90
        0
176
     0
290
     0
176
     0
290
     1
176
     0
290
     1
176
     0
290
     0
176
     0
290
     0
176
     0
290
     0
176
     0
290
     0
176
     0
290
     0
176
     0
290
     0
176
     0
 90
       50
176
     0
 40
0.0
176
     0
 40
1.0
176
     0
 90
        0
176
     0
 62
    18
420
        0
176
     0
 90
       50
176
     0
 90
        3
176
     0
 62
     5
420
      255
176
     0
290
     0
176
     0
 90
       50
176
     0
 90
       50
176
     0
 90
       50
176
     0
290
     0
176
     0
 90
       50
176
     0
 62
   256
176
     0
 40
1.0
176
     0
 90
        2
176
     0
  1
strokes_ogs.tif
176
     0
290
     0
176
     0
 40
1.0
176
     0
 40
1.0
176
     0
  0
VISUALSTYLE
  5
7E3C
102
{ACAD_REACTORS
330
7E2D
102
}
330
7E2D
100
AcDbVisualStyle
  2
Facepattern
 70
    15
177
     3
291
     1
 70
    58
 90
        2
176
     1
 90
        2
176
     1
 90
        0
176
     1
 90
        0
176
     1
 40
0.6
176
     1
 40
30.0
176
     1
 62
     7
420
 16777215
176
     1
 90
        1
176
     1
 90
        4
176
     1
 62
     7
176
     1
 62
   257
176
     1
 90
        1
176
     1
 90
        1
176
     1
 40
1.0
176
     1
 90
        8
176
     1
 62
     7
176
     1
 40
1.0
176
     1
 90
        1
176
     1
 90
        6
176
     1
 90
        2
176
     1
 62
     7
176
     1
 90
        5
176
     1
 90
        0
176
     1
 90
        0
176
     1
290
     0
176
     1
 90
        1
176
     1
 40
0.0
176
     1
 90
        0
176
     1
290
     0
176
     1
290
     1
176
     1
290
     1
176
     1
290
     0
176
     1
290
     0
176
     1
290
     0
176
     1
290
     0
176
     1
290
     0
176
     1
290
     0
176
     1
 90
       50
176
     1
 40
0.0
176
     1
 40
1.0
176
     1
 90
        0
176
     1
 62
    18
420
        0
176
     1
 90
       50
176
     1
 90
        3
176
     1
 62
     5
420
      255
176
     1
290
     0
176
     1
 90
       50
176
     1
 90
       50
176
     1
 90
       50
176
     1
290
     0
176
     1
 90
       50
176
     1
 62
   256
176
     0
 40
1.0
176
     0
 90
        2
176
     1
  1
strokes_ogs.tif
176
     1
290
     0
176
     1
 40
1.0
176
     1
 40
1.0
176
     1
  0
VISUALSTYLE
  5
7E2E
102
{ACAD_REACTORS
330
7E2D
102
}
330
7E2D
100
AcDbVisualStyle
  2
Flat
 70
     0
177
     3
291
     1
 70
    58
 90
        2
176
     1
 90
        1
176
     1
 90
        1
176
     1
 90
        2
176
     1
 40
0.6
176
     1
 40
30.0
176
     1
 62
     7
420
 16777215
176
     1
 90
        0
176
     1
 90
        0
176
     1
 62
     7
176
     1
 62
   257
176
     1
 90
        1
176
     1
 90
        1
176
     1
 40
1.0
176
     1
 90
        8
176
     1
 62
     7
176
     1
 40
1.0
176
     1
 90
        1
176
     1
 90
        6
176
     1
 90
        2
176
     1
 62
     7
176
     1
 90
        5
176
     1
 90
        0
176
     1
 90
        0
176
     1
290
     0
176
     1
 90
       13
176
     1
 40
0.0
176
     1
 90
        0
176
     1
290
     0
176
     1
290
     1
176
     1
290
     1
176
     1
290
     0
176
     1
290
     0
176
     1
290
     0
176
     1
290
     0
176
     1
290
     0
176
     1
290
     0
176
     1
 90
       50
176
     1
 40
0.0
176
     1
 40
1.0
176
     1
 90
        0
176
     1
 62
    18
420
        0
176
     1
 90
       50
176
     1
 90
        3
176
     1
 62
     5
420
      255
176
     1
290
     0
176
     1
 90
       50
176
     1
 90
       50
176
     1
 90
       50
176
     1
290
     0
176
     1
 90
       50
176
     1
 62
   256
176
     0
 40
1.0
176
     0
 90
        2
176
     1
  1
strokes_ogs.tif
176
     1
290
     0
176
     1
 40
1.0
176
     1
 40
1.0
176
     1
  0
VISUALSTYLE
  5
7E2F
102
{ACAD_REACTORS
330
7E2D
102
}
330
7E2D
100
AcDbVisualStyle
  2
FlatWithEdges
 70
     1
177
     3
291
     1
 70
    58
 90
        2
176
     1
 90
        1
176
     1
 90
        1
176
     1
 90
        2
176
     1
 40
0.6
176
     1
 40
30.0
176
     1
 62
     7
420
 16777215
176
     1
 90
        1
176
     1
 90
        0
176
     1
 62
     7
176
     1
 62
   257
176
     1
 90
        1
176
     1
 90
        1
176
     1
 40
1.0
176
     1
 90
        0
176
     1
 62
   257
176
     1
 40
1.0
176
     1
 90
        1
176
     1
 90
        6
176
     1
 90
        2
176
     1
 62
     7
176
     1
 90
        5
176
     1
 90
        0
176
     1
 90
        0
176
     1
290
     0
176
     1
 90
       13
176
     1
 40
0.0
176
     1
 90
        0
176
     1
290
     0
176
     1
290
     1
176
     1
290
     1
176
     1
290
     0
176
     1
290
     0
176
     1
290
     0
176
     1
290
     0
176
     1
290
     0
176
     1
290
     0
176
     1
 90
       50
176
     1
 40
0.0
176
     1
 40
1.0
176
     1
 90
        0
176
     1
 62
    18
420
        0
176
     1
 90
       50
176
     1
 90
        3
176
     1
 62
     5
420
      255
176
     1
290
     0
176
     1
 90
       50
176
     1
 90
       50
176
     1
 90
       50
176
     1
290
     0
176
     1
 90
       50
176
     1
 62
   256
176
     0
 40
1.0
176
     0
 90
        2
176
     1
  1
strokes_ogs.tif
176
     1
290
     0
176
     1
 40
1.0
176
     1
 40
1.0
176
     1
  0
VISUALSTYLE
  5
7E30
102
{ACAD_REACTORS
330
7E2D
102
}
330
7E2D
100
AcDbVisualStyle
  2
Gouraud
 70
     2
177
     3
291
     1
 70
    58
 90
        2
176
     1
 90
        2
176
     1
 90
        1
176
     1
 90
        2
176
     1
 40
0.6
176
     1
 40
30.0
176
     1
 62
     7
420
 16777215
176
     1
 90
        0
176
     1
 90
        0
176
     1
 62
     7
176
     1
 62
   257
176
     1
 90
        1
176
     1
 90
        1
176
     1
 40
1.0
176
     1
 90
        0
176
     1
 62
     7
176
     1
 40
1.0
176
     1
 90
        1
176
     1
 90
        6
176
     1
 90
        2
176
     1
 62
     7
176
     1
 90
        5
176
     1
 90
        0
176
     1
 90
        0
176
     1
290
     0
176
     1
 90
       13
176
     1
 40
0.0
176
     1
 90
        0
176
     1
290
     0
176
     1
290
     1
176
     1
290
     1
176
     1
290
     0
176
     1
290
     0
176
     1
290
     0
176
     1
290
     0
176
     1
290
     0
176
     1
290
     0
176
     1
 90
       50
176
     1
 40
0.0
176
     1
 40
1.0
176
     1
 90
        0
176
     1
 62
    18
420
        0
176
     1
 90
       50
176
     1
 90
        3
176
     1
 62
     5
420
      255
176
     1
290
     0
176
     1
 90
       50
176
     1
 90
       50
176
     1
 90
       50
176
     1
290
     0
176
     1
 90
       50
176
     1
 62
   256
176
     0
 40
1.0
176
     0
 90
        2
176
     1
  1
strokes_ogs.tif
176
     1
290
     0
176
     1
 40
1.0
176
     1
 40
1.0
176
     1
  0
VISUALSTYLE
  5
7E31
102
{ACAD_REACTORS
330
7E2D
102
}
330
7E2D
100
AcDbVisualStyle
  2
GouraudWithEdges
 70
     3
177
     3
291
     1
 70
    58
 90
        2
176
     1
 90
        2
176
     1
 90
        1
176
     1
 90
        2
176
     1
 40
0.6
176
     1
 40
30.0
176
     1
 62
     7
420
 16777215
176
     1
 90
        1
176
     1
 90
        0
176
     1
 62
     7
176
     1
 62
   257
176
     1
 90
        1
176
     1
 90
        1
176
     1
 40
1.0
176
     1
 90
        0
176
     1
 62
   257
176
     1
 40
1.0
176
     1
 90
        1
176
     1
 90
        6
176
     1
 90
        2
176
     1
 62
     7
176
     1
 90
        5
176
     1
 90
        0
176
     1
 90
        0
176
     1
290
     0
176
     1
 90
       13
176
     1
 40
0.0
176
     1
 90
        0
176
     1
290
     0
176
     1
290
     1
176
     1
290
     1
176
     1
290
     0
176
     1
290
     0
176
     1
290
     0
176
     1
290
     0
176
     1
290
     0
176
     1
290
     0
176
     1
 90
       50
176
     1
 40
0.0
176
     1
 40
1.0
176
     1
 90
        0
176
     1
 62
    18
420
        0
176
     1
 90
       50
176
     1
 90
        3
176
     1
 62
     5
420
      255
176
     1
290
     0
176
     1
 90
       50
176
     1
 90
       50
176
     1
 90
       50
176
     1
290
     0
176
     1
 90
       50
176
     1
 62
   256
176
     0
 40
1.0
176
     0
 90
        2
176
     1
  1
strokes_ogs.tif
176
     1
290
     0
176
     1
 40
1.0
176
     1
 40
1.0
176
     1
  0
VISUALSTYLE
  5
7E35
102
{ACAD_REACTORS
330
7E2D
102
}
330
7E2D
100
AcDbVisualStyle
  2
Hidden
 70
     6
177
     3
291
     0
 70
    58
 90
        1
176
     1
 90
        2
176
     1
 90
        2
176
     1
 90
        0
176
     1
 40
0.6
176
     1
 40
30.0
176
     1
 62
     7
420
 16777215
176
     1
 90
        2
176
     1
 90
        2
176
     1
 62
     7
176
     1
 62
   257
176
     1
 90
        2
176
     1
 90
        1
176
     1
 40
40.0
176
     1
 90
        0
176
     1
 62
   257
176
     1
 40
1.0
176
     1
 90
        1
176
     1
 90
        6
176
     1
 90
        2
176
     1
 62
     7
176
     1
 90
        3
176
     1
 90
        0
176
     1
 90
        0
176
     1
290
     0
176
     1
 90
        1
176
     1
 40
0.0
176
     1
 90
        0
176
     1
290
     0
176
     1
290
     1
176
     1
290
     1
176
     1
290
     0
176
     1
290
     0
176
     1
290
     0
176
     1
290
     0
176
     1
290
     0
176
     1
290
     0
176
     1
 90
       50
176
     1
 40
0.0
176
     1
 40
1.0
176
     1
 90
        0
176
     1
 62
    18
420
        0
176
     1
 90
       50
176
     1
 90
        3
176
     1
 62
     5
420
      255
176
     1
290
     0
176
     1
 90
       50
176
     1
 90
       50
176
     1
 90
       50
176
     1
290
     0
176
     1
 90
       50
176
     1
 62
   256
176
     0
 40
1.0
176
     0
 90
        2
176
     1
  1
strokes_ogs.tif
176
     1
290
     0
176
     1
 40
1.0
176
     1
 40
1.0
176
     1
  0
VISUALSTYLE
  5
7E43
102
{ACAD_REACTORS
330
7E2D
102
}
330
7E2D
100
AcDbVisualStyle
  2
JitterOff
 70
    20
177
     3
291
     1
 70
    58
 90
        2
176
     0
 90
        2
176
     0
 90
        0
176
     0
 90
        0
176
     0
 40
0.6
176
     0
 40
30.0
176
     0
 62
     7
420
 16777215
176
     0
 90
        1
176
     0
 90
        4
176
     0
 62
     7
176
     0
 62
   257
176
     0
 90
        1
176
     0
 90
        1
176
     0
 40
1.0
176
     0
 90
       10
176
     2
 62
     7
176
     0
 40
1.0
176
     0
 90
        1
176
     0
 90
        6
176
     0
 90
        2
176
     0
 62
     7
176
     0
 90
        5
176
     0
 90
        0
176
     0
 90
        0
176
     0
290
     0
176
     0
 90
        1
176
     0
 40
0.0
176
     0
 90
        0
176
     0
290
     0
176
     0
290
     1
176
     0
290
     1
176
     0
290
     0
176
     0
290
     0
176
     0
290
     0
176
     0
290
     0
176
     0
290
     0
176
     0
290
     0
176
     0
 90
       50
176
     0
 40
0.0
176
     0
 40
1.0
176
     0
 90
        0
176
     0
 62
    18
420
        0
176
     0
 90
       50
176
     0
 90
        3
176
     0
 62
     5
420
      255
176
     0
290
     0
176
     0
 90
       50
176
     0
 90
       50
176
     0
 90
       50
176
     0
290
     0
176
     0
 90
       50
176
     0
 62
   256
176
     0
 40
1.0
176
     0
 90
        2
176
     0
  1
strokes_ogs.tif
176
     0
290
     0
176
     0
 40
1.0
176
     0
 40
1.0
176
     0
  0
VISUALSTYLE
  5
7E3B
102
{ACAD_REACTORS
330
7E2D
102
}
330
7E2D
100
AcDbVisualStyle
  2
Linepattern
 70
    14
177
     3
291
     1
 70
    58
 90
        2
176
     1
 90
        2
176
     1
 90
        0
176
     1
 90
        0
176
     1
 40
0.6
176
     1
 40
30.0
176
     1
 62
     7
420
 16777215
176
     1
 90
        1
176
     1
 90
        4
176
     1
 62
     7
176
     1
 62
   257
176
     1
 90
        7
176
     1
 90
        7
176
     1
 40
1.0
176
     1
 90
        8
176
     1
 62
     7
176
     1
 40
1.0
176
     1
 90
        1
176
     1
 90
        6
176
     1
 90
        2
176
     1
 62
     7
176
     1
 90
        5
176
     1
 90
        0
176
     1
 90
        0
176
     1
290
     0
176
     1
 90
        1
176
     1
 40
0.0
176
     1
 90
        0
176
     1
290
     0
176
     1
290
     1
176
     1
290
     1
176
     1
290
     0
176
     1
290
     0
176
     1
290
     0
176
     1
290
     0
176
     1
290
     0
176
     1
290
     0
176
     1
 90
       50
176
     1
 40
0.0
176
     1
 40
1.0
176
     1
 90
        0
176
     1
 62
    18
420
        0
176
     1
 90
       50
176
     1
 90
        3
176
     1
 62
     5
420
      255
176
     1
290
     0
176
     1
 90
       50
176
     1
 90
       50
176
     1
 90
       50
176
     1
290
     0
176
     1
 90
       50
176
     1
 62
   256
176
     0
 40
1.0
176
     0
 90
        2
176
     1
  1
strokes_ogs.tif
176
     1
290
     0
176
     1
 40
1.0
176
     1
 40
1.0
176
     1
  0
VISUALSTYLE
  5
7E44
102
{ACAD_REACTORS
330
7E2D
102
}
330
7E2D
100
AcDbVisualStyle
  2
OverhangOff
 70
    21
177
     3
291
     1
 70
    58
 90
        2
176
     0
 90
        2
176
     0
 90
        0
176
     0
 90
        0
176
     0
 40
0.6
176
     0
 40
30.0
176
     0
 62
     7
420
 16777215
176
     0
 90
        1
176
     0
 90
        4
176
     0
 62
     7
176
     0
 62
   257
176
     0
 90
        1
176
     0
 90
        1
176
     0
 40
1.0
176
     0
 90
        9
176
     2
 62
     7
176
     0
 40
1.0
176
     0
 90
        1
176
     0
 90
        6
176
     0
 90
        2
176
     0
 62
     7
176
     0
 90
        5
176
     0
 90
        0
176
     0
 90
        0
176
     0
290
     0
176
     0
 90
        1
176
     0
 40
0.0
176
     0
 90
        0
176
     0
290
     0
176
     0
290
     1
176
     0
290
     1
176
     0
290
     0
176
     0
290
     0
176
     0
290
     0
176
     0
290
     0
176
     0
290
     0
176
     0
290
     0
176
     0
 90
       50
176
     0
 40
0.0
176
     0
 40
1.0
176
     0
 90
        0
176
     0
 62
    18
420
        0
176
     0
 90
       50
176
     0
 90
        3
176
     0
 62
     5
420
      255
176
     0
290
     0
176
     0
 90
       50
176
     0
 90
       50
176
     0
 90
       50
176
     0
290
     0
176
     0
 90
       50
176
     0
 62
   256
176
     0
 40
1.0
176
     0
 90
        2
176
     0
  1
strokes_ogs.tif
176
     0
290
     0
176
     0
 40
1.0
176
     0
 40
1.0
176
     0
  0
VISUALSTYLE
  5
7E37
102
{ACAD_REACTORS
330
7E2D
102
}
330
7E2D
100
AcDbVisualStyle
  2
Realistic
 70
     8
177
     3
291
     0
 70
    58
 90
        2
176
     1
 90
        3
176
     1
 90
        0
176
     1
 90
        2
176
     1
 40
0.6
176
     1
 40
30.0
176
     1
 62
     7
420
 16777215
176
     1
 90
        0
176
     1
 90
        0
176
     1
 62
     7
176
     1
 62
   257
176
     1
 90
        1
176
     1
 90
        1
176
     1
 40
1.0
176
     1
 90
        8
176
     1
 62
   257
176
     1
 40
1.0
176
     1
 90
        1
176
     1
 90
        6
176
     1
 90
        2
176
     1
 62
     7
176
     1
 90
        3
176
     1
 90
        0
176
     1
 90
        0
176
     1
290
     0
176
     1
 90
       13
176
     1
 40
0.0
176
     1
 90
        0
176
     1
290
     0
176
     1
290
     1
176
     1
290
     1
176
     1
290
     0
176
     1
290
     0
176
     1
290
     0
176
     1
290
     0
176
     1
290
     0
176
     1
290
     0
176
     1
 90
       50
176
     1
 40
0.0
176
     1
 40
1.0
176
     1
 90
        0
176
     1
 62
    18
420
        0
176
     1
 90
       50
176
     1
 90
        3
176
     1
 62
     5
420
      255
176
     1
290
     0
176
     1
 90
       50
176
     1
 90
       50
176
     1
 90
       50
176
     1
290
     0
176
     1
 90
       50
176
     1
 62
   256
176
     0
 40
1.0
176
     0
 90
        2
176
     1
  1
strokes_ogs.tif
176
     1
290
     0
176
     1
 40
1.0
176
     1
 40
1.0
176
     1
  0
VISUALSTYLE
  5
7E42
102
{ACAD_REACTORS
330
7E2D
102
}
330
7E2D
100
AcDbVisualStyle
  2
Shaded
 70
    27
177
     3
291
     0
 70
    58
 90
        2
176
     1
 90
        2
176
     1
 90
        1
176
     1
 90
        2
176
     1
 40
0.6
176
     1
 40
30.0
176
     1
 62
     7
420
 16777215
176
     1
 90
        0
176
     1
 90
        4
176
     1
 62
     7
176
     1
 62
   257
176
     1
 90
        1
176
     1
 90
        1
176
     1
 40
1.0
176
     1
 90
        8
176
     1
 62
   257
176
     1
 40
1.0
176
     1
 90
        1
176
     1
 90
        6
176
     1
 90
        2
176
     1
 62
     8
420
  7895160
176
     1
 90
        3
176
     1
 90
        0
176
     1
 90
        0
176
     1
290
     0
176
     1
 90
        5
176
     1
 40
0.0
176
     1
 90
        0
176
     1
290
     0
176
     1
290
     1
176
     1
290
     1
176
     1
290
     0
176
     1
290
     0
176
     1
290
     0
176
     1
290
     0
176
     1
290
     0
176
     1
290
     0
176
     1
 90
       50
176
     1
 40
0.0
176
     1
 40
1.0
176
     1
 90
        0
176
     1
 62
    18
420
        0
176
     1
 90
       50
176
     1
 90
        3
176
     1
 62
     5
420
      255
176
     1
290
     0
176
     1
 90
       50
176
     1
 90
       50
176
     1
 90
       50
176
     1
290
     0
176
     1
 90
       50
176
     1
 62
   256
176
     0
 40
1.0
176
     0
 90
        2
176
     1
  1
strokes_ogs.tif
176
     1
290
     0
176
     1
 40
1.0
176
     1
 40
1.0
176
     1
  0
VISUALSTYLE
  5
7E41
102
{ACAD_REACTORS
330
7E2D
102
}
330
7E2D
100
AcDbVisualStyle
  2
Shaded with edges
 70
    26
177
     3
291
     0
 70
    58
 90
        2
176
     1
 90
        2
176
     1
 90
        1
176
     1
 90
        2
176
     1
 40
0.6
176
     1
 40
30.0
176
     1
 62
     7
420
 16777215
176
     1
 90
        1
176
     1
 90
       10
176
     1
 62
     7
176
     1
 62
   257
176
     1
 90
        2
176
     1
 90
        1
176
     1
 40
1.0
176
     1
 90
        8
176
     1
 62
   257
176
     1
 40
1.0
176
     1
 90
        1
176
     1
 90
        6
176
     1
 90
        2
176
     1
 62
     7
176
     1
 90
        3
176
     1
 90
        0
176
     1
 90
        0
176
     1
290
     0
176
     1
 90
        5
176
     1
 40
0.0
176
     1
 90
        0
176
     1
290
     0
176
     1
290
     1
176
     1
290
     1
176
     1
290
     0
176
     1
290
     0
176
     1
290
     0
176
     1
290
     0
176
     1
290
     0
176
     1
290
     0
176
     1
 90
       50
176
     1
 40
0.0
176
     1
 40
1.0
176
     1
 90
        0
176
     1
 62
    18
420
        0
176
     1
 90
       50
176
     1
 90
        3
176
     1
 62
     5
420
      255
176
     1
290
     0
176
     1
 90
       50
176
     1
 90
       50
176
     1
 90
       50
176
     1
290
     0
176
     1
 90
       50
176
     1
 62
   256
176
     0
 40
1.0
176
     0
 90
        2
176
     1
  1
strokes_ogs.tif
176
     1
290
     0
176
     1
 40
1.0
176
     1
 40
1.0
176
     1
  0
VISUALSTYLE
  5
7E3E
102
{ACAD_REACTORS
330
7E2D
102
}
330
7E2D
100
AcDbVisualStyle
  2
Shades of Gray
 70
    23
177
     3
291
     0
 70
    58
 90
        2
176
     1
 90
        2
176
     1
 90
        3
176
     1
 90
        0
176
     1
 40
0.6
176
     1
 40
30.0
176
     1
 62
     7
420
 16777215
176
     1
 90
        2
176
     1
 90
        2
176
     1
 62
     7
176
     1
 62
     7
176
     1
 90
        1
176
     1
 90
        1
176
     1
 40
40.0
176
     1
 90
        8
176
     1
 62
     7
176
     1
 40
1.0
176
     1
 90
        1
176
     1
 90
        6
176
     1
 90
        2
176
     1
 62
     7
176
     1
 90
        3
176
     1
 90
        0
176
     1
 90
        0
176
     1
290
     0
176
     1
 90
        1
176
     1
 40
0.0
176
     1
 90
        0
176
     1
290
     0
176
     1
290
     1
176
     1
290
     1
176
     1
290
     0
176
     1
290
     0
176
     1
290
     0
176
     1
290
     0
176
     1
290
     0
176
     1
290
     0
176
     1
 90
       50
176
     1
 40
0.0
176
     1
 40
1.0
176
     1
 90
        0
176
     1
 62
    18
420
        0
176
     1
 90
       50
176
     1
 90
        3
176
     1
 62
     5
420
      255
176
     1
290
     0
176
     1
 90
       50
176
     1
 90
       50
176
     1
 90
       50
176
     1
290
     0
176
     1
 90
       50
176
     1
 62
   256
176
     0
 40
1.0
176
     0
 90
        2
176
     1
  1
strokes_ogs.tif
176
     1
290
     0
176
     1
 40
1.0
176
     1
 40
1.0
176
     1
  0
VISUALSTYLE
  5
7E3F
102
{ACAD_REACTORS
330
7E2D
102
}
330
7E2D
100
AcDbVisualStyle
  2
Sketchy
 70
    24
177
     3
291
     0
 70
    58
 90
        1
176
     1
 90
        2
176
     1
 90
        2
176
     1
 90
        0
176
     1
 40
0.6
176
     1
 40
30.0
176
     1
 62
     7
420
 16777215
176
     1
 90
        2
176
     1
 90
        2
176
     1
 62
     7
176
     1
 62
     7
176
     1
 90
        1
176
     1
 90
        1
176
     1
 40
40.0
176
     1
 90
       11
176
     1
 62
     7
176
     1
 40
1.0
176
     1
 90
        1
176
     1
 90
        6
176
     1
 90
        2
176
     1
 62
     7
176
     1
 90
        6
176
     1
 90
        0
176
     1
 90
        0
176
     1
290
     0
176
     1
 90
        1
176
     1
 40
0.0
176
     1
 90
        0
176
     1
290
     0
176
     1
290
     1
176
     1
290
     1
176
     1
290
     0
176
     1
290
     0
176
     1
290
     0
176
     1
290
     0
176
     1
290
     0
176
     1
290
     0
176
     1
 90
       50
176
     1
 40
0.0
176
     1
 40
1.0
176
     1
 90
        0
176
     1
 62
    18
420
        0
176
     1
 90
       50
176
     1
 90
        3
176
     1
 62
     5
420
      255
176
     1
290
     0
176
     1
 90
       50
176
     1
 90
       50
176
     1
 90
       50
176
     1
290
     0
176
     1
 90
       50
176
     1
 62
   256
176
     0
 40
1.0
176
     0
 90
        2
176
     1
  1
strokes_ogs.tif
176
     1
290
     0
176
     1
 40
1.0
176
     1
 40
1.0
176
     1
  0
VISUALSTYLE
  5
7E3A
102
{ACAD_REACTORS
330
7E2D
102
}
330
7E2D
100
AcDbVisualStyle
  2
Thicken
 70
    13
177
     3
291
     1
 70
    58
 90
        2
176
     1
 90
        2
176
     1
 90
        0
176
     1
 90
        0
176
     1
 40
0.6
176
     1
 40
30.0
176
     1
 62
     7
420
 16777215
176
     1
 90
        1
176
     1
 90
        4
176
     1
 62
     7
176
     1
 62
   257
176
     1
 90
        1
176
     1
 90
        1
176
     1
 40
1.0
176
     1
 90
       12
176
     1
 62
     7
176
     1
 40
1.0
176
     1
 90
        1
176
     1
 90
        6
176
     1
 90
        2
176
     1
 62
     7
176
     1
 90
        5
176
     1
 90
        0
176
     1
 90
        0
176
     1
290
     0
176
     1
 90
        1
176
     1
 40
0.0
176
     1
 90
        0
176
     1
290
     0
176
     1
290
     1
176
     1
290
     1
176
     1
290
     0
176
     1
290
     0
176
     1
290
     0
176
     1
290
     0
176
     1
290
     0
176
     1
290
     0
176
     1
 90
       50
176
     1
 40
0.0
176
     1
 40
1.0
176
     1
 90
        0
176
     1
 62
    18
420
        0
176
     1
 90
       50
176
     1
 90
        3
176
     1
 62
     5
420
      255
176
     1
290
     0
176
     1
 90
       50
176
     1
 90
       50
176
     1
 90
       50
176
     1
290
     0
176
     1
 90
       50
176
     1
 62
   256
176
     0
 40
1.0
176
     0
 90
        2
176
     1
  1
strokes_ogs.tif
176
     1
290
     0
176
     1
 40
1.0
176
     1
 40
1.0
176
     1
  0
VISUALSTYLE
  5
7E34
102
{ACAD_REACTORS
330
7E2D
102
}
330
7E2D
100
AcDbVisualStyle
  2
Wireframe
 70
     5
177
     3
291
     0
 70
    58
 90
        0
176
     1
 90
        2
176
     1
 90
        0
176
     1
 90
        0
176
     1
 40
0.6
176
     1
 40
30.0
176
     1
 62
     7
420
 16777215
176
     1
 90
        1
176
     1
 90
        4
176
     1
 62
     7
176
     1
 62
   257
176
     1
 90
        1
176
     1
 90
        1
176
     1
 40
1.0
176
     1
 90
        0
176
     1
 62
   257
176
     1
 40
1.0
176
     1
 90
        1
176
     1
 90
        6
176
     1
 90
        2
176
     1
 62
     7
176
     1
 90
        3
176
     1
 90
        0
176
     1
 90
        0
176
     1
290
     0
176
     1
 90
        1
176
     1
 40
0.0
176
     1
 90
        0
176
     1
290
     0
176
     1
290
     1
176
     1
290
     1
176
     1
290
     0
176
     1
290
     0
176
     1
290
     0
176
     1
290
     0
176
     1
290
     0
176
     1
290
     0
176
     1
 90
       50
176
     1
 40
0.0
176
     1
 40
1.0
176
     1
 90
        0
176
     1
 62
    18
420
        0
176
     1
 90
       50
176
     1
 90
        3
176
     1
 62
     5
420
      255
176
     1
290
     0
176
     1
 90
       50
176
     1
 90
       50
176
     1
 90
       50
176
     1
290
     0
176
     1
 90
       50
176
     1
 62
   256
176
     0
 40
1.0
176
     0
 90
        2
176
     1
  1
strokes_ogs.tif
176
     1
290
     0
176
     1
 40
1.0
176
     1
 40
1.0
176
     1
  0
VISUALSTYLE
  5
7E40
102
{ACAD_REACTORS
330
7E2D
102
}
330
7E2D
100
AcDbVisualStyle
  2
X-Ray
 70
    25
177
     3
291
     0
 70
    58
 90
        2
176
     1
 90
        2
176
     1
 90
        1
176
     1
 90
        1
176
     1
 40
0.5
176
     1
 40
30.0
176
     1
 62
     7
420
 16777215
176
     1
 90
        1
176
     1
 90
        0
176
     1
 62
     7
176
     1
 62
   257
176
     1
 90
        1
176
     1
 90
        1
176
     1
 40
1.0
176
     1
 90
        8
176
     1
 62
     7
176
     1
 40
1.0
176
     1
 90
        1
176
     1
 90
        6
176
     1
 90
        2
176
     1
 62
     7
176
     1
 90
        3
176
     1
 90
        0
176
     1
 90
        0
176
     1
290
     0
176
     1
 90
       13
176
     1
 40
0.0
176
     1
 90
        0
176
     1
290
     0
176
     1
290
     1
176
     1
290
     1
176
     1
290
     0
176
     1
290
     0
176
     1
290
     0
176
     1
290
     0
176
     1
290
     0
176
     1
290
     0
176
     1
 90
       50
176
     1
 40
0.0
176
     1
 40
1.0
176
     1
 90
        0
176
     1
 62
    18
420
        0
176
     1
 90
       50
176
     1
 90
        3
176
     1
 62
     5
420
      255
176
     1
290
     0
176
     1
 90
       50
176
     1
 90
       50
176
     1
 90
       50
176
     1
290
     0
176
     1
 90
       50
176
     1
 62
   256
176
     0
 40
1.0
176
     0
 90
        2
176
     1
  1
strokes_ogs.tif
176
     1
290
     0
176
     1
 40
1.0
176
     1
 40
1.0
176
     1
  0
DICTIONARYVAR
  5
7ECD
102
{ACAD_REACTORS
330
7E0C
102
}
330
7E0C
100
DictionaryVariables
280
     0
  1
1:1
  0
DICTIONARYVAR
  5
7EC9
102
{ACAD_REACTORS
330
7E0C
102
}
330
7E0C
100
DictionaryVariables
280
     0
  1
STANDARD
  0
DICTIONARYVAR
  5
7EC8
102
{ACAD_REACTORS
330
7E0C
102
}
330
7E0C
100
DictionaryVariables
280
     0
  1
STANDARD
  0
DICTIONARYVAR
  5
7ECA
102
{ACAD_REACTORS
330
7E0C
102
}
330
7E0C
100
DictionaryVariables
280
     0
  1
Imperial24
  0
DICTIONARYVAR
  5
7ECB
102
{ACAD_REACTORS
330
7E0C
102
}
330
7E0C
100
DictionaryVariables
280
     0
  1
Imperial24
  0
DICTIONARYVAR
  5
7E0D
102
{ACAD_REACTORS
330
7E0C
102
}
330
7E0C
100
DictionaryVariables
280
     0
  1
1
  0
DICTIONARYVAR
  5
7ECF
102
{ACAD_REACTORS
330
7E0C
102
}
330
7E0C
100
DictionaryVariables
280
     0
  1
1
  0
DICTIONARYVAR
  5
7ED0
102
{ACAD_REACTORS
330
7E0C
102
}
330
7E0C
100
DictionaryVariables
280
     0
  1
15
  0
DICTIONARYVAR
  5
7ECE
102
{ACAD_REACTORS
330
7E0C
102
}
330
7E0C
100
DictionaryVariables
280
     0
  1
0
  0
DICTIONARYVAR
  5
7ECC
102
{ACAD_REACTORS
330
7E0C
102
}
330
7E0C
100
DictionaryVariables
280
     0
  1
0
  0
DICTIONARY
  5
7EC5
330
7E60
100
AcDbDictionary
280
     1
281
     1
  3
ACAD_XREC_ROUNDTRIP
360
7F42
  0
DICTIONARY
  5
7E1E
330
7E1D
100
AcDbDictionary
280
     1
281
     1
  3
BUMPTILE
360
7E20
  3
DIFFUSETILE
360
7E1F
  3
OPACITYTILE
360
7E23
  3
REFLECTIONTILE
360
7E22
  3
REFRACTIONTILE
360
7E24
  3
SPECULARTILE
360
7E21
  0
DICTIONARY
  5
7E16
330
7E15
100
AcDbDictionary
280
     1
281
     1
  3
BUMPTILE
360
7E18
  3
DIFFUSETILE
360
7E17
  3
OPACITYTILE
360
7E1B
  3
REFLECTIONTILE
360
7E1A
  3
REFRACTIONTILE
360
7E1C
  3
SPECULARTILE
360
7E19
  0
DICTIONARY
  5
7E26
330
7E25
100
AcDbDictionary
280
     1
281
     1
  3
BUMPTILE
360
7E28
  3
DIFFUSETILE
360
7E27
  3
OPACITYTILE
360
7E2B
  3
REFLECTIONTILE
360
7E2A
  3
REFRACTIONTILE
360
7E2C
  3
SPECULARTILE
360
7E29
  0
DICTIONARY
  5
7EC3
330
7E5E
100
AcDbDictionary
280
     1
281
     1
  3
ACAD_XREC_ROUNDTRIP
360
7F41
  0
DICTIONARY
  5
7F3F
330
7E48
100
AcDbDictionary
280
     1
281
     1
  3
ACAD_ROUNDTRIP_2008_TABLESTYLE_CELLSTYLEMAP
360
7F40
  0
XRECORD
  5
7F42
102
{ACAD_REACTORS
330
7EC5
102
}
330
7EC5
100
AcDbXrecord
280
     1
102
DISPLAYNAME
  1
Imperial24
102
FLAGS
 90
        0
  0
XRECORD
  5
7E20
102
{ACAD_REACTORS
330
7E1E
102
}
330
7E1E
100
AcDbXrecord
280
     1
270
     1
271
     1
  0
XRECORD
  5
7E1F
102
{ACAD_REACTORS
330
7E1E
102
}
330
7E1E
100
AcDbXrecord
280
     1
270
     1
271
     1
  0
XRECORD
  5
7E23
102
{ACAD_REACTORS
330
7E1E
102
}
330
7E1E
100
AcDbXrecord
280
     1
270
     1
271
     1
  0
XRECORD
  5
7E22
102
{ACAD_REACTORS
330
7E1E
102
}
330
7E1E
100
AcDbXrecord
280
     1
270
     1
271
     1
  0
XRECORD
  5
7E24
102
{ACAD_REACTORS
330
7E1E
102
}
330
7E1E
100
AcDbXrecord
280
     1
270
     1
271
     1
  0
XRECORD
  5
7E21
102
{ACAD_REACTORS
330
7E1E
102
}
330
7E1E
100
AcDbXrecord
280
     1
270
     1
271
     1
  0
XRECORD
  5
7E18
102
{ACAD_REACTORS
330
7E16
102
}
330
7E16
100
AcDbXrecord
280
     1
270
     1
271
     1
  0
XRECORD
  5
7E17
102
{ACAD_REACTORS
330
7E16
102
}
330
7E16
100
AcDbXrecord
280
     1
270
     1
271
     1
  0
XRECORD
  5
7E1B
102
{ACAD_REACTORS
330
7E16
102
}
330
7E16
100
AcDbXrecord
280
     1
270
     1
271
     1
  0
XRECORD
  5
7E1A
102
{ACAD_REACTORS
330
7E16
102
}
330
7E16
100
AcDbXrecord
280
     1
270
     1
271
     1
  0
XRECORD
  5
7E1C
102
{ACAD_REACTORS
330
7E16
102
}
330
7E16
100
AcDbXrecord
280
     1
270
     1
271
     1
  0
XRECORD
  5
7E19
102
{ACAD_REACTORS
330
7E16
102
}
330
7E16
100
AcDbXrecord
280
     1
270
     1
271
     1
  0
XRECORD
  5
7E28
102
{ACAD_REACTORS
330
7E26
102
}
330
7E26
100
AcDbXrecord
280
     1
270
     1
271
     1
  0
XRECORD
  5
7E27
102
{ACAD_REACTORS
330
7E26
102
}
330
7E26
100
AcDbXrecord
280
     1
270
     1
271
     1
  0
XRECORD
  5
7E2B
102
{ACAD_REACTORS
330
7E26
102
}
330
7E26
100
AcDbXrecord
280
     1
270
     1
271
     1
  0
XRECORD
  5
7E2A
102
{ACAD_REACTORS
330
7E26
102
}
330
7E26
100
AcDbXrecord
280
     1
270
     1
271
     1
  0
XRECORD
  5
7E2C
102
{ACAD_REACTORS
330
7E26
102
}
330
7E26
100
AcDbXrecord
280
     1
270
     1
271
     1
  0
XRECORD
  5
7E29
102
{ACAD_REACTORS
330
7E26
102
}
330
7E26
100
AcDbXrecord
280
     1
270
     1
271
     1
  0
XRECORD
  5
7F41
102
{ACAD_REACTORS
330
7EC3
102
}
330
7EC3
100
AcDbXrecord
280
     1
102
DISPLAYNAME
  1
Imperial24
102
FLAGS
 90
        0
  0
CELLSTYLEMAP
  5
7F40
102
{ACAD_REACTORS
330
7F3F
102
}
330
7F3F
100
AcDbCellStyleMap
 90
        3
300
CELLSTYLE
  1
TABLEFORMAT_BEGIN
 90
        5
170
     1
 91
        0
 92
    32768
 62
   257
 93
        1
300
CONTENTFORMAT
  1
CONTENTFORMAT_BEGIN
 90
        0
 91
        0
 92
      512
 93
        0
300

 40
0.0
140
1.0
 94
        5
 62
     0
340
10
144
0.25
309
CONTENTFORMAT_END
171
     0
 94
        0
309
TABLEFORMAT_END
  1
CELLSTYLE_BEGIN
 90
        1
 91
        1
300
_TITLE
309
CELLSTYLE_END
300
CELLSTYLE
  1
TABLEFORMAT_BEGIN
 90
        5
170
     1
 91
        0
 92
        0
 62
   257
 93
        1
300
CONTENTFORMAT
  1
CONTENTFORMAT_BEGIN
 90
        0
 91
        0
 92
      512
 93
        0
300

 40
0.0
140
1.0
 94
        5
 62
     0
340
10
144
0.18
309
CONTENTFORMAT_END
171
     0
 94
        0
309
TABLEFORMAT_END
  1
CELLSTYLE_BEGIN
 90
        2
 91
        1
300
_HEADER
309
CELLSTYLE_END
300
CELLSTYLE
  1
TABLEFORMAT_BEGIN
 90
        5
170
     1
 91
        0
 92
        0
 62
   257
 93
        1
300
CONTENTFORMAT
  1
CONTENTFORMAT_BEGIN
 90
        0
 91
        0
 92
      512
 93
        0
300

 40
0.0
140
1.0
 94
        2
 62
     0
340
10
144
0.18
309
CONTENTFORMAT_END
171
     0
 94
        0
309
TABLEFORMAT_END
  1
CELLSTYLE_BEGIN
 90
        3
 91
        2
300
_DATA
309
CELLSTYLE_END
  0
ENDSEC
  0
SECTION
  2
ACDSDATA
 70
     2
 71
     8
  0
ACDSSCHEMA
 90
        0
  1
AcDb_Thumbnail_Schema
  2
AcDbDs::ID
280
    10
 91
        8
  2
Thumbnail_Data
280
    15
 91
        0
101
ACDSRECORD
 95
        0
 90
        1
  2
AcDbDs::TreatedAsObjectData
280
     1
291
     1
101
ACDSRECORD
 95
        0
 90
        2
  2
AcDbDs::Legacy
280
     1
291
     1
101
ACDSRECORD
  1
AcDbDs::ID
 90
        3
  2
AcDs:Indexable
280
     1
291
     1
101
ACDSRECORD
  1
AcDbDs::ID
 90
        4
  2
AcDbDs::HandleAttribute
280
     7
282
     1
  0
ACDSSCHEMA
 90
        1
  1
AcDbDs::TreatedAsObjectDataSchema
  2
AcDbDs::TreatedAsObjectData
280
     1
 91
        0
  0
ACDSSCHEMA
 90
        2
  1
AcDbDs::LegacySchema
  2
AcDbDs::Legacy
280
     1
 91
        0
  0
ACDSSCHEMA
 90
        3
  1
AcDbDs::IndexedPropertySchema
  2
AcDs:Indexable
280
     1
 91
        0
  0
ACDSSCHEMA
 90
        4
  1
AcDbDs::HandleAttributeSchema
  2
AcDbDs::HandleAttribute
280
     7
 91
        1
284
     1
  0
ACDSRECORD
 90
        0
  2
AcDbDs::ID
280
    10
320
7D46
  2
Thumbnail_Data
280
    15
 94
     1834
310
89504E470D0A1A0A0000000D49484452000001000000007C0803000000B13B9E5A00000300504C5445000000000000C8C8C80000000000000000000000000000000000000000000000000000330000660000990000CC0000FF0033000033330033660033990033CC0033FF0066000066330066660066990066CC0066FF0099
310
000099330099660099990099CC0099FF00CC0000CC3300CC6600CC9900CCCC00CCFF00FF0000FF3300FF6600FF9900FFCC00FFFF3300003300333300663300993300CC3300FF3333003333333333663333993333CC3333FF3366003366333366663366993366CC3366FF3399003399333399663399993399CC3399FF33CC00
310
33CC3333CC6633CC9933CCCC33CCFF33FF0033FF3333FF6633FF9933FFCC33FFFF6600006600336600666600996600CC6600FF6633006633336633666633996633CC6633FF6666006666336666666666996666CC6666FF6699006699336699666699996699CC6699FF66CC0066CC3366CC6666CC9966CCCC66CCFF66FF0066
310
FF3366FF6666FF9966FFCC66FFFF9900009900339900669900999900CC9900FF9933009933339933669933999933CC9933FF9966009966339966669966999966CC9966FF9999009999339999669999999999CC9999FF99CC0099CC3399CC6699CC9999CCCC99CCFF99FF0099FF3399FF6699FF9999FFCC99FFFFCC0000CC00
310
33CC0066CC0099CC00CCCC00FFCC3300CC3333CC3366CC3399CC33CCCC33FFCC6600CC6633CC6666CC6699CC66CCCC66FFCC9900CC9933CC9966CC9999CC99CCCC99FFCCCC00CCCC33CCCC66CCCC99CCCCCCCCCCFFCCFF00CCFF33CCFF66CCFF99CCFFCCCCFFFFFF0000FF0033FF0066FF0099FF00CCFF00FFFF3300FF3333
310
FF3366FF3399FF33CCFF33FFFF6600FF6633FF6666FF6699FF66CCFF66FFFF9900FF9933FF9966FF9999FF99CCFF99FFFFCC00FFCC33FFCC66FFCC99FFCCCCFFCCFFFFFF00FFFF33FFFF66FFFF99FFFFCCFFFFFF0000000D0D0D1A1A1A2828283535354343435050505D5D5D6B6B6B787878868686939393A1A1A1AEAEAEBB
310
BBBBC9C9C9D6D6D6E4E4E4F1F1F1FFFFFF00000000000000000000000000000000000000000000000000000000000008F1915C000003E54944415478DAED9D51AEDC200C45BD1C7EBCFFCDB00DFEDB1030369069FA54A9C3B52DF54DDE24A9EAC3C5768014A26FB4B2337264E5E577B800CAEAAF3300ABE8DD2960261031E0
310
5019FF3B4368C56FFAFB02C0FF0150F35BCD726564BB42FD0BA247B59F09A0D4784EC3B5A5639787338AD7C1005A3B9791D886DF65647BF5CB7DA6DE59CF1C0EA03B6E14D0547E7F523B34104AA367DC3E3706982ED01BB8984E21001A310150220B0480A8043D8E07C03CFF9439CC6DB5A17C5557F7140203A0AC0048D742
310
2B0029101100941D8051066D1570CB86DC9A63D7C3C2C2C2C2A02DF9759DAD3976DD1F03E5AB76DB110071962939054057CB5F7F3C0248CF86E970FE6D9B68777F6805A04A2037751B00BB2E000F4039BA0D827E003CA441468D001B008E2AA10D009DF49897E220000400F420180002C02E173800B0CB76FA375800CBB3C0
310
8365DC07C05CDB771580553F3E8045E85C0745FD0070AE808FE600C0DED2ABAB0001E45A223B0620049C0078671E638013058485858585FD3C7DE2FAF65813ED00E090C81A40EE00F2ECFBB8144D0BAFEA40E45A31EB1E901FEAC0BC7B74805180EA01EF006430003B557F00705D96C0BAC03A22F211C07D1D08003683E4E9
310
21D6E5E9865407CE31A60E2C802939CA0F8DAC01408901A619658D4C269BF8A71B12D088815E15734B9B47727405E09A2AA800AEAF66007A259100C0C80463669CAFA9A1FAC9330036A01A00C650014BF3AB20C7DE00B429314E6DD9E40260D70518A316E0E65EFD91DADA699EB2C000701F34001831800541758C07808D02
310
D828E07000F3EA70AE4BC4F93A60F56890499DBE9791F783E315D0DA7DCC8AA7D1251605F46F7114C06CBA004B212482B75D809720783400F3A240CB823D0B0C00AD1F3C0038380B28F7F906705782FD780018750023D501A3E73700775748B6B1A10170153C8B771203C4D74BFD1DC0AE0B1CFD2CD02BFF5EF8B47898DA1B
310
34AF001C3D1E72B5764DEE6CEADC24F2100079A4413000742B40E280006005C0D4015000FAC3AF5A2C4D2D08D21E00A101A016F2F423618B01230BEC00F482E968FD4FAB22B7314003D8A54114006654F843290CF44AD9F33F3FD94BCC7C21EFAEC30670573A8800FEDC05D4BC50DEDC05FB9F8D58C79E27819D00205000FC
310
260B307017E0570A1813649BDBCE1E0ACC7FA5000190615E29CBAF4EE579C02BE3286009F4E694AC89C82B00B39C2E001C0BE0E51B233300986582AF6340BC351216161616E6C1DC6FB030EDB5A34FBCB8171B80DE774836E221B32D0F10009A0914D95E47B6A61A408ADE81E074003FD17701EA0211049F6300E98DC6C8EE
310
BDE223080A00D978848A370045B69AEB09000F00E98D06D72E20BBF4817681EF0B82BF00DB8D42AE27F97F040000000049454E44AE426082
  0
ENDSEC
  0
EOF
