  0
SECTION
  2
HEADER
  9
$ACADVER
  1
AC1027
  9
$ACADMAINTVER
 70
    81
  9
$DWGCODEPAGE
  3
ANSI_932
  9
$LASTSAVEDBY
  1
reiko.miyawaki
  9
$REQUIREDVERSIONS
160
                 0
  9
$INSBASE
 10
0.0
 20
0.0
 30
0.0
  9
$EXTMIN
 10
-1527.982586707234
 20
-840.7360419999999
 30
0.0
  9
$EXTMAX
 10
104.86888
 20
1645.91622
 30
0.0
  9
$LIMMIN
 10
0.0
 20
0.0
  9
$LIMMAX
 10
297.0
 20
210.0
  9
$ORTHOMODE
 70
     0
  9
$REGENMODE
 70
     1
  9
$FILLMODE
 70
     0
  9
$QTEXTMODE
 70
     0
  9
$MIRRTEXT
 70
     1
  9
$LTSCALE
 40
100.0
  9
$ATTMODE
 70
     1
  9
$TEXTSIZE
 40
180.0
  9
$TRACEWID
 40
0.05
  9
$TEXTSTYLE
  7
STANDARD
  9
$CLAYER
  8
3
  9
$CELTYPE
  6
BYLAYER
  9
$CECOLOR
 62
   256
  9
$CELTSCALE
 40
1.0
  9
$DISPSILH
 70
     0
  9
$DIMSCALE
 40
10.0
  9
$DIMASZ
 40
2.0
  9
$DIMEXO
 40
0.5
  9
$DIMDLI
 40
10.0
  9
$DIMRND
 40
0.0
  9
$DIMDLE
 40
0.0
  9
$DIMEXE
 40
1.0
  9
$DIMTP
 40
1.0
  9
$DIMTM
 40
1.0
  9
$DIMTXT
 40
3.0
  9
$DIMCEN
 40
0.0
  9
$DIMTSZ
 40
0.0
  9
$DIMTOL
 70
     0
  9
$DIMLIM
 70
     0
  9
$DIMTIH
 70
     0
  9
$DIMTOH
 70
     0
  9
$DIMSE1
 70
     0
  9
$DIMSE2
 70
     0
  9
$DIMTAD
 70
     1
  9
$DIMZIN
 70
     8
  9
$DIMBLK
  1

  9
$DIMASO
 70
     1
  9
$DIMSHO
 70
     1
  9
$DIMPOST
  1
(<>)
  9
$DIMAPOST
  1

  9
$DIMALT
 70
     0
  9
$DIMALTD
 70
     2
  9
$DIMALTF
 40
0.039
  9
$DIMLFAC
 40
1.0
  9
$DIMTOFL
 70
     1
  9
$DIMTVP
 40
0.0
  9
$DIMTIX
 70
     0
  9
$DIMSOXD
 70
     0
  9
$DIMSAH
 70
     1
  9
$DIMBLK1
  1
DOT
  9
$DIMBLK2
  1
OPEN
  9
$DIMSTYLE
  2
IGA
  9
$DIMCLRD
 70
     0
  9
$DIMCLRE
 70
     0
  9
$DIMCLRT
 70
     0
  9
$DIMTFAC
 40
10.0
  9
$DIMGAP
 40
1.0
  9
$DIMJUST
 70
     0
  9
$DIMSD1
 70
     0
  9
$DIMSD2
 70
     0
  9
$DIMTOLJ
 70
     1
  9
$DIMTZIN
 70
     8
  9
$DIMALTZ
 70
     0
  9
$DIMALTTZ
 70
     0
  9
$DIMUPT
 70
     0
  9
$DIMDEC
 70
     0
  9
$DIMTDEC
 70
     0
  9
$DIMALTU
 70
     2
  9
$DIMALTTD
 70
     2
  9
$DIMTXSTY
  7
STANDARD
  9
$DIMAUNIT
 70
     0
  9
$DIMADEC
 70
     0
  9
$DIMALTRND
 40
0.0
  9
$DIMAZIN
 70
     0
  9
$DIMDSEP
 70
    46
  9
$DIMATFIT
 70
     3
  9
$DIMFRAC
 70
     0
  9
$DIMLDRBLK
  1
DOT
  9
$DIMLUNIT
 70
     2
  9
$DIMLWD
 70
    -2
  9
$DIMLWE
 70
    -2
  9
$DIMTMOVE
 70
     2
  9
$DIMFXL
 40
1.0
  9
$DIMFXLON
 70
     0
  9
$DIMJOGANG
 40
0.7853981633974483
  9
$DIMTFILL
 70
     0
  9
$DIMTFILLCLR
 70
     0
  9
$DIMARCSYM
 70
     0
  9
$DIMLTYPE
  6

  9
$DIMLTEX1
  6

  9
$DIMLTEX2
  6

  9
$DIMTXTDIRECTION
 70
     0
  9
$LUNITS
 70
     2
  9
$LUPREC
 70
     3
  9
$SKETCHINC
 40
0.1
  9
$FILLETRAD
 40
50.0
  9
$AUNITS
 70
     0
  9
$AUPREC
 70
     0
  9
$MENU
  1
acad
  9
$ELEVATION
 40
0.0
  9
$PELEVATION
 40
0.0
  9
$THICKNESS
 40
0.0
  9
$LIMCHECK
 70
     0
  9
$CHAMFERA
 40
0.5
  9
$CHAMFERB
 40
0.5
  9
$CHAMFERC
 40
20.0
  9
$CHAMFERD
 40
0.0
  9
$SKPOLY
 70
     0
  9
$TDCREATE
 40
2450740.534229861
  9
$TDUCREATE
 40
2450740.159229861
  9
$TDUPDATE
 40
2459024.549151575
  9
$TDUUPDATE
 40
2459024.174151574
  9
$TDINDWG
 40
0.0282272106
  9
$TDUSRTIMER
 40
0.0282272106
  9
$USRTIMER
 70
     1
  9
$ANGBASE
 50
0.0
  9
$ANGDIR
 70
     0
  9
$PDMODE
 70
     0
  9
$PDSIZE
 40
0.0
  9
$PLINEWID
 40
0.0
  9
$SPLFRAME
 70
     0
  9
$SPLINETYPE
 70
     6
  9
$SPLINESEGS
 70
     8
  9
$HANDSEED
  5
7F68
  9
$SURFTAB1
 70
     6
  9
$SURFTAB2
 70
     6
  9
$SURFTYPE
 70
     6
  9
$SURFU
 70
     6
  9
$SURFV
 70
     6
  9
$UCSBASE
  2

  9
$UCSNAME
  2

  9
$UCSORG
 10
0.0
 20
0.0
 30
0.0
  9
$UCSXDIR
 10
1.0
 20
0.0
 30
0.0
  9
$UCSYDIR
 10
0.0
 20
1.0
 30
0.0
  9
$UCSORTHOREF
  2

  9
$UCSORTHOVIEW
 70
     0
  9
$UCSORGTOP
 10
0.0
 20
0.0
 30
0.0
  9
$UCSORGBOTTOM
 10
0.0
 20
0.0
 30
0.0
  9
$UCSORGLEFT
 10
0.0
 20
0.0
 30
0.0
  9
$UCSORGRIGHT
 10
0.0
 20
0.0
 30
0.0
  9
$UCSORGFRONT
 10
0.0
 20
0.0
 30
0.0
  9
$UCSORGBACK
 10
0.0
 20
0.0
 30
0.0
  9
$PUCSBASE
  2

  9
$PUCSNAME
  2

  9
$PUCSORG
 10
0.0
 20
0.0
 30
0.0
  9
$PUCSXDIR
 10
1.0
 20
0.0
 30
0.0
  9
$PUCSYDIR
 10
0.0
 20
1.0
 30
0.0
  9
$PUCSORTHOREF
  2

  9
$PUCSORTHOVIEW
 70
     0
  9
$PUCSORGTOP
 10
0.0
 20
0.0
 30
0.0
  9
$PUCSORGBOTTOM
 10
0.0
 20
0.0
 30
0.0
  9
$PUCSORGLEFT
 10
0.0
 20
0.0
 30
0.0
  9
$PUCSORGRIGHT
 10
0.0
 20
0.0
 30
0.0
  9
$PUCSORGFRONT
 10
0.0
 20
0.0
 30
0.0
  9
$PUCSORGBACK
 10
0.0
 20
0.0
 30
0.0
  9
$USERI1
 70
     0
  9
$USERI2
 70
     0
  9
$USERI3
 70
     0
  9
$USERI4
 70
     0
  9
$USERI5
 70
     0
  9
$USERR1
 40
0.0
  9
$USERR2
 40
0.0
  9
$USERR3
 40
0.0
  9
$USERR4
 40
0.0
  9
$USERR5
 40
0.0
  9
$WORLDVIEW
 70
     1
  9
$SHADEDGE
 70
     3
  9
$SHADEDIF
 70
    70
  9
$TILEMODE
 70
     1
  9
$MAXACTVP
 70
    16
  9
$PINSBASE
 10
0.0
 20
0.0
 30
0.0
  9
$PLIMCHECK
 70
     0
  9
$PEXTMIN
 10
1.000000000000000E+20
 20
1.000000000000000E+20
 30
1.000000000000000E+20
  9
$PEXTMAX
 10
-1.000000000000000E+20
 20
-1.000000000000000E+20
 30
-1.000000000000000E+20
  9
$PLIMMIN
 10
0.0
 20
0.0
  9
$PLIMMAX
 10
12.0
 20
9.0
  9
$UNITMODE
 70
     0
  9
$VISRETAIN
 70
     0
  9
$PLINEGEN
 70
     0
  9
$PSLTSCALE
 70
     1
  9
$TREEDEPTH
 70
  3020
  9
$CMLSTYLE
  2
STANDARD
  9
$CMLJUST
 70
     0
  9
$CMLSCALE
 40
20.0
  9
$PROXYGRAPHICS
 70
     1
  9
$MEASUREMENT
 70
     0
  9
$CELWEIGHT
370
    -1
  9
$ENDCAPS
280
     0
  9
$JOINSTYLE
280
     0
  9
$LWDISPLAY
290
     0
  9
$INSUNITS
 70
     0
  9
$HYPERLINKBASE
  1

  9
$STYLESHEET
  1

  9
$XEDIT
290
     1
  9
$CEPSNTYPE
380
     0
  9
$PSTYLEMODE
290
     1
  9
$FINGERPRINTGUID
  2
{42B82147-5AC0-46C4-B94E-E25630C3A9A4}
  9
$VERSIONGUID
  2
{BEE6A4BD-546D-4341-8BE3-475300F4D63F}
  9
$EXTNAMES
290
     1
  9
$PSVPSCALE
 40
0.0
  9
$OLESTARTUP
290
     0
  9
$SORTENTS
280
   127
  9
$INDEXCTL
280
     0
  9
$HIDETEXT
280
     0
  9
$XCLIPFRAME
280
     2
  9
$HALOGAP
280
     0
  9
$OBSCOLOR
 70
   257
  9
$OBSLTYPE
280
     0
  9
$INTERSECTIONDISPLAY
280
     0
  9
$INTERSECTIONCOLOR
 70
   257
  9
$DIMASSOC
280
     1
  9
$PROJECTNAME
  1

  9
$CAMERADISPLAY
290
     0
  9
$LENSLENGTH
 40
50.0
  9
$CAMERAHEIGHT
 40
0.0
  9
$STEPSPERSEC
 40
2.0
  9
$STEPSIZE
 40
6.0
  9
$3DDWFPREC
 40
2.0
  9
$PSOLWIDTH
 40
0.25
  9
$PSOLHEIGHT
 40
4.0
  9
$LOFTANG1
 40
1.570796326794896
  9
$LOFTANG2
 40
1.570796326794896
  9
$LOFTMAG1
 40
0.0
  9
$LOFTMAG2
 40
0.0
  9
$LOFTPARAM
 70
     7
  9
$LOFTNORMALS
280
     1
  9
$LATITUDE
 40
37.795
  9
$LONGITUDE
 40
-122.394
  9
$NORTHDIRECTION
 40
0.0
  9
$TIMEZONE
 70
 -8000
  9
$LIGHTGLYPHDISPLAY
280
     1
  9
$TILEMODELIGHTSYNCH
280
     1
  9
$CMATERIAL
347
7E27
  9
$SOLIDHIST
280
     0
  9
$SHOWHIST
280
     1
  9
$DWFFRAME
280
     2
  9
$DGNFRAME
280
     0
  9
$REALWORLDSCALE
290
     1
  9
$INTERFERECOLOR
 62
     1
  9
$INTERFEREOBJVS
345
7E49
  9
$INTERFEREVPVS
346
7E46
  9
$CSHADOW
280
     0
  9
$SHADOWPLANELOCATION
 40
0.0
  0
ENDSEC
  0
SECTION
  2
CLASSES
  0
CLASS
  1
ACDBDICTIONARYWDFLT
  2
AcDbDictionaryWithDefault
  3
ObjectDBX Classes
 90
        0
 91
        1
280
     0
281
     0
  0
CLASS
  1
DICTIONARYVAR
  2
AcDbDictionaryVar
  3
ObjectDBX Classes
 90
        0
 91
       10
280
     0
281
     0
  0
CLASS
  1
MATERIAL
  2
AcDbMaterial
  3
ObjectDBX Classes
 90
     1153
 91
        3
280
     0
281
     0
  0
CLASS
  1
VISUALSTYLE
  2
AcDbVisualStyle
  3
ObjectDBX Classes
 90
     4095
 91
       24
280
     0
281
     0
  0
CLASS
  1
TABLESTYLE
  2
AcDbTableStyle
  3
ObjectDBX Classes
 90
     4095
 91
        1
280
     0
281
     0
  0
CLASS
  1
SCALE
  2
AcDbScale
  3
ObjectDBX Classes
 90
     1153
 91
       17
280
     0
281
     0
  0
CLASS
  1
MLEADERSTYLE
  2
AcDbMLeaderStyle
  3
ACDB_MLEADERSTYLE_CLASS
 90
     4095
 91
        1
280
     0
281
     0
  0
CLASS
  1
ACDBSECTIONVIEWSTYLE
  2
AcDbSectionViewStyle
  3
ObjectDBX Classes
 90
     1025
 91
        1
280
     0
281
     0
  0
CLASS
  1
ACDBDETAILVIEWSTYLE
  2
AcDbDetailViewStyle
  3
ObjectDBX Classes
 90
     1025
 91
        1
280
     0
281
     0
  0
CLASS
  1
CELLSTYLEMAP
  2
AcDbCellStyleMap
  3
ObjectDBX Classes
 90
     1152
 91
        1
280
     0
281
     0
  0
ENDSEC
  0
SECTION
  2
TABLES
  0
TABLE
  2
VPORT
  5
8
330
0
100
AcDbSymbolTable
 70
     1
  0
VPORT
  5
7E24
330
8
100
AcDbSymbolTableRecord
100
AcDbViewportTableRecord
  2
*Active
 70
     0
 10
0.0
 20
0.0
 11
1.0
 21
1.0
 12
-711.5635231662309
 22
462.1214539312979
 13
0.0
 23
0.0
 14
10.0
 24
10.0
 15
10.0
 25
10.0
 16
0.0
 26
0.0
 36
1.0
 17
0.0
 27
0.0
 37
0.0
 40
2621.790792138699
 41
1.957107843137255
 42
50.0
 43
0.0
 44
0.0
 50
0.0
 51
0.0
 71
     0
 72
   100
 73
     1
 74
     0
 75
     0
 76
     0
 77
     0
 78
     0
281
     0
 65
     1
110
0.0
120
0.0
130
0.0
111
1.0
121
0.0
131
0.0
112
0.0
122
1.0
132
0.0
 79
     0
146
0.0
348
7E45
 60
     3
 61
     5
292
     1
282
     1
141
0.0
142
0.0
 63
   250
421
  3355443
1001
ACAD_NAV_VCDISPLAY
1070
     3
  0
ENDTAB
  0
TABLE
  2
LTYPE
  5
5
330
0
100
AcDbSymbolTable
 70
     2
  0
LTYPE
  5
13
330
5
100
AcDbSymbolTableRecord
100
AcDbLinetypeTableRecord
  2
BYBLOCK
 70
     0
  3

 72
    65
 73
     0
 40
0.0
  0
LTYPE
  5
14
330
5
100
AcDbSymbolTableRecord
100
AcDbLinetypeTableRecord
  2
BYLAYER
 70
     0
  3

 72
    65
 73
     0
 40
0.0
  0
LTYPE
  5
15
330
5
100
AcDbSymbolTableRecord
100
AcDbLinetypeTableRecord
  2
CONTINUOUS
 70
     0
  3
Solid line
 72
    65
 73
     0
 40
0.0
  0
LTYPE
  5
1F
330
5
100
AcDbSymbolTableRecord
100
AcDbLinetypeTableRecord
  2
CENTER
 70
     0
  3
____ _ ____ _ ____ _ ____ _ ____ _ ____ _ ____ 
 72
    65
 73
     4
 40
2.0
 49
1.25
 74
     0
 49
-0.25
 74
     0
 49
0.25
 74
     0
 49
-0.25
 74
     0
  0
ENDTAB
  0
TABLE
  2
LAYER
  5
2
102
{ACAD_XDICTIONARY
360
7E77
102
}
330
0
100
AcDbSymbolTable
 70
     6
  0
LAYER
  5
F
102
{ACAD_XDICTIONARY
360
7EC4
102
}
330
2
100
AcDbSymbolTableRecord
100
AcDbLayerTableRecord
  2
0
 70
     0
 62
     7
  6
CONTINUOUS
370
    -3
390
7D55
347
7E37
348
0
  0
LAYER
  5
31
102
{ACAD_XDICTIONARY
360
7EC6
102
}
330
2
100
AcDbSymbolTableRecord
100
AcDbLayerTableRecord
  2
3
 70
     0
 62
     2
  6
CONTINUOUS
370
    -3
390
7D55
347
7E37
348
0
  0
LAYER
  5
76D0
102
{ACAD_XDICTIONARY
360
7EC8
102
}
330
2
100
AcDbSymbolTableRecord
100
AcDbLayerTableRecord
  2
2
 70
     0
 62
     3
  6
CENTER
370
    -3
390
7D55
347
7E37
348
0
  0
LAYER
  5
76D1
102
{ACAD_XDICTIONARY
360
7ECA
102
}
330
2
100
AcDbSymbolTableRecord
100
AcDbLayerTableRecord
  2
1
 70
     0
 62
     4
  6
CONTINUOUS
370
    -3
390
7D55
347
7E37
348
0
  0
LAYER
  5
76D2
102
{ACAD_XDICTIONARY
360
7ECC
102
}
330
2
100
AcDbSymbolTableRecord
100
AcDbLayerTableRecord
  2
4
 70
     0
 62
     7
  6
CONTINUOUS
370
    -3
390
7D55
347
7E37
348
0
  0
LAYER
  5
7B47
330
2
100
AcDbSymbolTableRecord
100
AcDbLayerTableRecord
  2
DEFPOINTS
 70
     0
 62
     7
  6
CONTINUOUS
290
     0
370
    -3
390
7D55
347
7E37
348
0
  0
ENDTAB
  0
TABLE
  2
STYLE
  5
3
330
0
100
AcDbSymbolTable
 70
     1
  0
STYLE
  5
10
330
3
100
AcDbSymbolTableRecord
100
AcDbTextStyleTableRecord
  2
STANDARD
 70
     0
 40
0.0
 41
1.0
 50
0.0
 71
     0
 42
180.0
  3
simplex.shx
  4
extfont.shx
  0
ENDTAB
  0
TABLE
  2
VIEW
  5
6
330
0
100
AcDbSymbolTable
 70
     0
  0
ENDTAB
  0
TABLE
  2
UCS
  5
7
330
0
100
AcDbSymbolTable
 70
     0
  0
ENDTAB
  0
TABLE
  2
APPID
  5
9
330
0
100
AcDbSymbolTable
 70
     4
  0
APPID
  5
11
330
9
100
AcDbSymbolTableRecord
100
AcDbRegAppTableRecord
  2
ACAD
 70
     0
  0
APPID
  5
7E76
330
9
100
AcDbSymbolTableRecord
100
AcDbRegAppTableRecord
  2
ACAD_NAV_VCDISPLAY
 70
     0
  0
APPID
  5
7EE7
330
9
100
AcDbSymbolTableRecord
100
AcDbRegAppTableRecord
  2
AcadAnnoMonitorAlertIconDisabled
 70
     0
  0
APPID
  5
7EE8
330
9
100
AcDbSymbolTableRecord
100
AcDbRegAppTableRecord
  2
ACAD_EXEMPT_FROM_CAD_STANDARDS
 70
     0
  0
ENDTAB
  0
TABLE
  2
DIMSTYLE
  5
A
330
0
100
AcDbSymbolTable
 70
     1
100
AcDbDimStyleTable
 71
     1
340
1D
  0
DIMSTYLE
105
1D
102
{ACAD_REACTORS
330
7B4C
330
7B58
330
7B65
330
7B72
330
7B7E
330
7BC2
330
7BCE
330
7BDB
330
7BE8
330
7C08
330
7C15
330
7C23
330
7C4A
330
7D10
330
7D29
330
7D40
330
7D4D
330
7F1C
102
}
330
A
100
AcDbSymbolTableRecord
100
AcDbDimStyleTableRecord
  2
IGA
 70
     0
 40
2.0
 41
2.0
 42
0.5
 43
10.0
 44
1.0
 47
1.0
 48
1.0
 73
     0
 74
     0
 77
     1
 78
     8
140
3.0
141
0.0
143
0.03937
146
10.0
147
1.0
173
     1
271
     1
272
     0
279
     2
284
     8
340
10
341
7B39
343
7B39
344
7B39
  0
ENDTAB
  0
TABLE
  2
BLOCK_RECORD
  5
1
330
0
100
AcDbSymbolTable
 70
    20
  0
BLOCK_RECORD
  5
19
102
{ACAD_XDICTIONARY
360
7D83
102
}
330
1
100
AcDbSymbolTableRecord
100
AcDbBlockTableRecord
  2
*MODEL_SPACE
340
7D58
 70
     0
280
     1
281
     0
  0
BLOCK_RECORD
  5
16
102
{ACAD_XDICTIONARY
360
7D81
102
}
330
1
100
AcDbSymbolTableRecord
100
AcDbBlockTableRecord
  2
*PAPER_SPACE
340
7D59
 70
     0
280
     1
281
     0
  0
BLOCK_RECORD
  5
7B39
330
1
100
AcDbSymbolTableRecord
100
AcDbBlockTableRecord
  2
_OPEN
340
0
102
{BLKREFS
331
7D9D
331
7D9E
331
7DA6
331
7DA7
331
7DAE
331
7DAF
331
7DB7
331
7DB8
331
7DBF
331
7DC0
331
7DD1
331
7DD2
331
7DDA
331
7DDB
331
7DEC
331
7DED
331
7DF4
331
7DF5
331
7DFD
331
7DFE
331
7E87
331
7E88
331
7E93
331
7EA4
331
7EA5
331
7EAC
331
7EAD
331
7EB5
331
7EB6
331
7EC0
331
7F08
331
7F09
331
7F4F
331
7F50
102
}
 70
     0
280
     1
281
     0
  0
BLOCK_RECORD
  5
7B3F
330
1
100
AcDbSymbolTableRecord
100
AcDbBlockTableRecord
  2
*D1
340
0
 70
     0
280
     1
281
     0
  0
BLOCK_RECORD
  5
7B4D
330
1
100
AcDbSymbolTableRecord
100
AcDbBlockTableRecord
  2
*D2
340
0
 70
     0
280
     1
281
     0
  0
BLOCK_RECORD
  5
7B59
330
1
100
AcDbSymbolTableRecord
100
AcDbBlockTableRecord
  2
*D3
340
0
 70
     0
280
     1
281
     0
  0
BLOCK_RECORD
  5
7B66
330
1
100
AcDbSymbolTableRecord
100
AcDbBlockTableRecord
  2
*D4
340
0
 70
     0
280
     1
281
     0
  0
BLOCK_RECORD
  5
7B73
330
1
100
AcDbSymbolTableRecord
100
AcDbBlockTableRecord
  2
*D5
340
0
 70
     0
280
     1
281
     0
  0
BLOCK_RECORD
  5
7BB6
330
1
100
AcDbSymbolTableRecord
100
AcDbBlockTableRecord
  2
*D6
340
0
 70
     0
280
     1
281
     0
  0
BLOCK_RECORD
  5
7BC3
330
1
100
AcDbSymbolTableRecord
100
AcDbBlockTableRecord
  2
*D7
340
0
 70
     0
280
     1
281
     0
  0
BLOCK_RECORD
  5
7BCF
330
1
100
AcDbSymbolTableRecord
100
AcDbBlockTableRecord
  2
*D8
340
0
 70
     0
280
     1
281
     0
  0
BLOCK_RECORD
  5
7BDC
330
1
100
AcDbSymbolTableRecord
100
AcDbBlockTableRecord
  2
*D9
340
0
 70
     0
280
     1
281
     0
  0
BLOCK_RECORD
  5
7BFC
330
1
100
AcDbSymbolTableRecord
100
AcDbBlockTableRecord
  2
*D10
340
0
 70
     0
280
     1
281
     0
  0
BLOCK_RECORD
  5
7C09
330
1
100
AcDbSymbolTableRecord
100
AcDbBlockTableRecord
  2
*D11
340
0
 70
     0
280
     1
281
     0
  0
BLOCK_RECORD
  5
7C16
330
1
100
AcDbSymbolTableRecord
100
AcDbBlockTableRecord
  2
*D12
340
0
 70
     0
280
     1
281
     0
  0
BLOCK_RECORD
  5
7C3E
330
1
100
AcDbSymbolTableRecord
100
AcDbBlockTableRecord
  2
*D13
340
0
 70
     0
280
     1
281
     0
  0
BLOCK_RECORD
  5
7D04
330
1
100
AcDbSymbolTableRecord
100
AcDbBlockTableRecord
  2
*D14
340
0
 70
     0
280
     1
281
     0
  0
BLOCK_RECORD
  5
7D1B
330
1
100
AcDbSymbolTableRecord
100
AcDbBlockTableRecord
  2
*D15
340
0
 70
     0
280
     1
281
     0
  0
BLOCK_RECORD
  5
7D2A
330
1
100
AcDbSymbolTableRecord
100
AcDbBlockTableRecord
  2
_DOT
340
0
102
{BLKREFS
331
7E92
331
7EBF
102
}
 70
     0
280
     1
281
     0
  0
BLOCK_RECORD
  5
7D32
330
1
100
AcDbSymbolTableRecord
100
AcDbBlockTableRecord
  2
*D17
340
0
 70
     0
280
     1
281
     0
  0
BLOCK_RECORD
  5
7D41
330
1
100
AcDbSymbolTableRecord
100
AcDbBlockTableRecord
  2
*D18
340
0
 70
     0
280
     1
281
     0
  0
BLOCK_RECORD
  5
7F1D
330
1
100
AcDbSymbolTableRecord
100
AcDbBlockTableRecord
  2
*D19
340
0
 70
     0
280
     1
281
     0
  0
ENDTAB
  0
ENDSEC
  0
SECTION
  2
BLOCKS
  0
BLOCK
  5
1A
330
19
100
AcDbEntity
  8
0
100
AcDbBlockBegin
  2
*MODEL_SPACE
 70
     0
 10
0.0
 20
0.0
 30
0.0
  3
*MODEL_SPACE
  1

  0
ENDBLK
  5
1B
330
19
100
AcDbEntity
  8
0
100
AcDbBlockEnd
  0
BLOCK
  5
17
330
16
100
AcDbEntity
 67
     1
  8
0
100
AcDbBlockBegin
  2
*PAPER_SPACE
 70
     0
 10
0.0
 20
0.0
 30
0.0
  3
*PAPER_SPACE
  1

  0
ENDBLK
  5
18
330
16
100
AcDbEntity
 67
     1
  8
0
100
AcDbBlockEnd
  0
BLOCK
  5
7B3A
330
7B39
100
AcDbEntity
  8
0
100
AcDbBlockBegin
  2
_OPEN
 70
     0
 10
0.0
 20
0.0
 30
0.0
  3
_OPEN
  1

  0
LINE
  5
7B3B
330
7B39
100
AcDbEntity
  8
0
  6
ByBlock
 62
     0
100
AcDbLine
 10
-1.0
 20
0.166667
 30
0.0
 11
0.0
 21
0.0
 31
0.0
  0
LINE
  5
7B3C
330
7B39
100
AcDbEntity
  8
0
  6
ByBlock
 62
     0
100
AcDbLine
 10
0.0
 20
0.0
 30
0.0
 11
-1.0
 21
-0.166667
 31
0.0
  0
LINE
  5
7B3D
330
7B39
100
AcDbEntity
  8
0
  6
ByBlock
 62
     0
100
AcDbLine
 10
0.0
 20
0.0
 30
0.0
 11
-1.0
 21
0.0
 31
0.0
  0
ENDBLK
  5
7B3E
330
7B39
100
AcDbEntity
  8
0
100
AcDbBlockEnd
  0
BLOCK
  5
7B40
330
7B3F
100
AcDbEntity
  8
0
100
AcDbBlockBegin
  2
*D1
 70
     1
 10
0.0
 20
0.0
 30
0.0
  3
*D1
  1

  0
LINE
  5
7EA1
330
7B3F
100
AcDbEntity
  8
3
  6
Continuous
 62
     0
440
 16777216
370
    -2
100
AcDbLine
 10
-1436.081063
 20
-362.4832715350769
 30
0.0
 11
-1436.081063
 21
-462.9426315350769
 31
0.0
  0
LINE
  5
7EA2
330
7B3F
100
AcDbEntity
  8
3
  6
Continuous
 62
     0
440
 16777216
370
    -2
100
AcDbLine
 10
-886.0810630000001
 20
-362.4832715350769
 30
0.0
 11
-886.0810630000001
 21
-462.9426315350769
 31
0.0
  0
LINE
  5
7EA3
330
7B3F
100
AcDbEntity
  8
3
  6
Continuous
 62
     0
440
 16777216
370
    -2
100
AcDbLine
 10
-1416.081063
 20
-452.9426315350768
 30
0.0
 11
-906.081063
 21
-452.9426315350768
 31
0.0
  0
INSERT
  5
7EA4
330
7B3F
100
AcDbEntity
  8
3
  6
Continuous
 62
     0
440
 16777216
370
    -2
100
AcDbBlockReference
  2
_OPEN
 10
-1436.081063
 20
-452.9426315350768
 30
0.0
 41
20.0
 42
20.0
 43
20.0
 50
180.0
  0
INSERT
  5
7EA5
330
7B3F
100
AcDbEntity
  8
3
  6
Continuous
 62
     0
440
 16777216
370
    -2
100
AcDbBlockReference
  2
_OPEN
 10
-886.0810630000001
 20
-452.9426315350768
 30
0.0
 41
20.0
 42
20.0
 43
20.0
  0
MTEXT
  5
7EA6
330
7B3F
100
AcDbEntity
  8
3
  6
Continuous
 62
     0
440
 16777216
100
AcDbMText
 10
-1154.916737
 20
-427.9426315350768
 30
0.0
 40
30.0
 41
0.0
 46
0.0
 71
     5
 72
     1
  1
\A1;550
 73
     1
 44
1.0
  0
POINT
  5
7EA7
330
7B3F
100
AcDbEntity
  8
DEFPOINTS
  6
Continuous
 62
     0
440
 16777216
100
AcDbPoint
 10
-1436.081063
 20
-357.4832715350769
 30
0.0
  0
POINT
  5
7EA8
330
7B3F
100
AcDbEntity
  8
DEFPOINTS
  6
Continuous
 62
     0
440
 16777216
100
AcDbPoint
 10
-886.0810630000001
 20
-357.4832715350769
 30
0.0
  0
POINT
  5
7EA9
330
7B3F
100
AcDbEntity
  8
DEFPOINTS
  6
Continuous
 62
     0
440
 16777216
100
AcDbPoint
 10
-886.0810630000001
 20
-452.9426315350768
 30
0.0
  0
ENDBLK
  5
7B4B
330
7B3F
100
AcDbEntity
  8
0
100
AcDbBlockEnd
  0
BLOCK
  5
7B4E
330
7B4D
100
AcDbEntity
  8
0
100
AcDbBlockBegin
  2
*D2
 70
     1
 10
0.0
 20
0.0
 30
0.0
  3
*D2
  1

  0
LINE
  5
7EAA
330
7B4D
100
AcDbEntity
  8
3
  6
Continuous
 62
     0
440
 16777216
370
    -2
100
AcDbLine
 10
-666.081063
 20
-362.4832715350769
 30
0.0
 11
-666.081063
 21
-462.9426315350769
 31
0.0
  0
LINE
  5
7EAB
330
7B4D
100
AcDbEntity
  8
3
  6
Continuous
 62
     0
440
 16777216
370
    -2
100
AcDbLine
 10
-866.081063
 20
-452.9426315350768
 30
0.0
 11
-686.0810629999999
 21
-452.9426315350768
 31
0.0
  0
INSERT
  5
7EAC
330
7B4D
100
AcDbEntity
  8
3
  6
Continuous
 62
     0
440
 16777216
370
    -2
100
AcDbBlockReference
  2
_OPEN
 10
-886.0810630000001
 20
-452.9426315350768
 30
0.0
 41
20.0
 42
20.0
 43
20.0
 50
180.0
  0
INSERT
  5
7EAD
330
7B4D
100
AcDbEntity
  8
3
  6
Continuous
 62
     0
440
 16777216
370
    -2
100
AcDbBlockReference
  2
_OPEN
 10
-666.081063
 20
-452.9426315350768
 30
0.0
 41
20.0
 42
20.0
 43
20.0
  0
MTEXT
  5
7EAE
330
7B4D
100
AcDbEntity
  8
3
  6
Continuous
 62
     0
440
 16777216
100
AcDbMText
 10
-776.081063
 20
-427.9426315350768
 30
0.0
 40
30.0
 41
0.0
 46
0.0
 71
     5
 72
     1
  1
\A1;220
 73
     1
 44
1.0
  0
POINT
  5
7EAF
330
7B4D
100
AcDbEntity
  8
DEFPOINTS
  6
Continuous
 62
     0
440
 16777216
100
AcDbPoint
 10
-886.0810630000001
 20
-357.4832715350769
 30
0.0
  0
POINT
  5
7EB0
330
7B4D
100
AcDbEntity
  8
DEFPOINTS
  6
Continuous
 62
     0
440
 16777216
100
AcDbPoint
 10
-666.081063
 20
-357.4832715350769
 30
0.0
  0
POINT
  5
7EB1
330
7B4D
100
AcDbEntity
  8
DEFPOINTS
  6
Continuous
 62
     0
440
 16777216
100
AcDbPoint
 10
-666.081063
 20
-452.9426315350768
 30
0.0
  0
ENDBLK
  5
7B57
330
7B4D
100
AcDbEntity
  8
0
100
AcDbBlockEnd
  0
BLOCK
  5
7B5A
330
7B59
100
AcDbEntity
  8
0
100
AcDbBlockBegin
  2
*D3
 70
     1
 10
0.0
 20
0.0
 30
0.0
  3
*D3
  1

  0
LINE
  5
7D9A
330
7B59
100
AcDbEntity
  8
3
  6
Continuous
 62
     0
440
 16777216
100
AcDbLine
 10
-681.0810629999999
 20
307.5167284649232
 30
0.0
 11
-594.1391209999999
 21
307.5167284649231
 31
0.0
  0
LINE
  5
7D9B
330
7B59
100
AcDbEntity
  8
3
  6
Continuous
 62
     0
440
 16777216
100
AcDbLine
 10
-681.0810629999999
 20
57.51672846492318
 30
0.0
 11
-594.139121
 21
57.51672846492315
 31
0.0
  0
LINE
  5
7D9C
330
7B59
100
AcDbEntity
  8
3
  6
Continuous
 62
     0
440
 16777216
100
AcDbLine
 10
-604.1391209999999
 20
287.5167284649231
 30
0.0
 11
-604.139121
 21
77.51672846492315
 31
0.0
  0
INSERT
  5
7D9D
330
7B59
100
AcDbEntity
  8
3
  6
Continuous
 62
     0
440
 16777216
100
AcDbBlockReference
  2
_OPEN
 10
-604.1391209999999
 20
307.5167284649231
 30
0.0
 41
20.0
 42
20.0
 43
20.0
 50
90.0
  0
INSERT
  5
7D9E
330
7B59
100
AcDbEntity
  8
3
  6
Continuous
 62
     0
440
 16777216
100
AcDbBlockReference
  2
_OPEN
 10
-604.139121
 20
57.51672846492315
 30
0.0
 41
20.0
 42
20.0
 43
20.0
 50
270.0
  0
MTEXT
  5
7D9F
330
7B59
100
AcDbEntity
  8
3
  6
Continuous
 62
     0
440
 16777216
100
AcDbMText
 10
-629.139121
 20
188.6443524649232
 30
0.0
 40
30.0
 41
0.0
 46
0.0
 71
     5
 72
     5
  1
\A1;250
 11
0.0000000000000001
 21
1.0
 31
0.0
 73
     1
 44
1.0
  0
POINT
  5
7DA0
330
7B59
100
AcDbEntity
  8
DEFPOINTS
  6
Continuous
 62
     0
440
 16777216
100
AcDbPoint
 10
-686.0810629999999
 20
307.5167284649232
 30
0.0
  0
POINT
  5
7DA1
330
7B59
100
AcDbEntity
  8
DEFPOINTS
  6
Continuous
 62
     0
440
 16777216
100
AcDbPoint
 10
-686.0810629999999
 20
57.51672846492318
 30
0.0
  0
POINT
  5
7DA2
330
7B59
100
AcDbEntity
  8
DEFPOINTS
  6
Continuous
 62
     0
440
 16777216
100
AcDbPoint
 10
-604.139121
 20
57.51672846492315
 30
0.0
  0
ENDBLK
  5
7B64
330
7B59
100
AcDbEntity
  8
0
100
AcDbBlockEnd
  0
BLOCK
  5
7C6F
330
7B66
100
AcDbEntity
  8
0
100
AcDbBlockBegin
  2
*D4
 70
     1
 10
0.0
 20
0.0
 30
0.0
  3
*D4
  1

  0
LINE
  5
7DA3
330
7B66
100
AcDbEntity
  8
3
  6
Continuous
 62
     0
440
 16777216
100
AcDbLine
 10
-701.0810629999999
 20
317.5167284649232
 30
0.0
 11
-534.8076508472436
 21
317.5167284649231
 31
0.0
  0
LINE
  5
7DA4
330
7B66
100
AcDbEntity
  8
3
  6
Continuous
 62
     0
440
 16777216
100
AcDbLine
 10
-681.0810629999999
 20
57.51672846492318
 30
0.0
 11
-534.8076508472437
 21
57.51672846492314
 31
0.0
  0
LINE
  5
7DA5
330
7B66
100
AcDbEntity
  8
3
  6
Continuous
 62
     0
440
 16777216
100
AcDbLine
 10
-544.8076508472436
 20
297.5167284649231
 30
0.0
 11
-544.8076508472437
 21
77.51672846492315
 31
0.0
  0
INSERT
  5
7DA6
330
7B66
100
AcDbEntity
  8
3
  6
Continuous
 62
     0
440
 16777216
100
AcDbBlockReference
  2
_OPEN
 10
-544.8076508472436
 20
317.5167284649231
 30
0.0
 41
20.0
 42
20.0
 43
20.0
 50
90.0
  0
INSERT
  5
7DA7
330
7B66
100
AcDbEntity
  8
3
  6
Continuous
 62
     0
440
 16777216
100
AcDbBlockReference
  2
_OPEN
 10
-544.8076508472437
 20
57.51672846492314
 30
0.0
 41
20.0
 42
20.0
 43
20.0
 50
270.0
  0
MTEXT
  5
7DA8
330
7B66
100
AcDbEntity
  8
3
  6
Continuous
 62
     0
440
 16777216
100
AcDbMText
 10
-569.8076508472437
 20
189.6535084649232
 30
0.0
 40
30.0
 41
0.0
 46
0.0
 71
     5
 72
     5
  1
\A1;260
 11
0.0000000000000001
 21
1.0
 31
0.0
 73
     1
 44
1.0
  0
POINT
  5
7DA9
330
7B66
100
AcDbEntity
  8
DEFPOINTS
  6
Continuous
 62
     0
440
 16777216
100
AcDbPoint
 10
-706.0810629999999
 20
317.5167284649232
 30
0.0
  0
POINT
  5
7DAA
330
7B66
100
AcDbEntity
  8
DEFPOINTS
  6
Continuous
 62
     0
440
 16777216
100
AcDbPoint
 10
-686.0810629999999
 20
57.51672846492318
 30
0.0
  0
POINT
  5
7DAB
330
7B66
100
AcDbEntity
  8
DEFPOINTS
  6
Continuous
 62
     0
440
 16777216
100
AcDbPoint
 10
-544.8076508472437
 20
57.51672846492314
 30
0.0
  0
ENDBLK
  5
7C79
330
7B66
100
AcDbEntity
  8
0
100
AcDbBlockEnd
  0
BLOCK
  5
7C7A
330
7B73
100
AcDbEntity
  8
0
100
AcDbBlockBegin
  2
*D5
 70
     1
 10
0.0
 20
0.0
 30
0.0
  3
*D5
  1

  0
LINE
  5
7DAC
330
7B73
100
AcDbEntity
  8
3
  6
Continuous
 62
     0
440
 16777216
100
AcDbLine
 10
-691.081063
 20
-257.4832715350768
 30
0.0
 11
-534.8076508472437
 21
-257.4832715350769
 31
0.0
  0
LINE
  5
7DAD
330
7B73
100
AcDbEntity
  8
3
  6
Continuous
 62
     0
440
 16777216
100
AcDbLine
 10
-544.8076508472436
 20
37.51672846492314
 30
0.0
 11
-544.8076508472436
 21
-237.4832715350769
 31
0.0
  0
INSERT
  5
7DAE
330
7B73
100
AcDbEntity
  8
3
  6
Continuous
 62
     0
440
 16777216
100
AcDbBlockReference
  2
_OPEN
 10
-544.8076508472436
 20
57.51672846492314
 30
0.0
 41
20.0
 42
20.0
 43
20.0
 50
90.0
  0
INSERT
  5
7DAF
330
7B73
100
AcDbEntity
  8
3
  6
Continuous
 62
     0
440
 16777216
100
AcDbBlockReference
  2
_OPEN
 10
-544.8076508472437
 20
-257.4832715350769
 30
0.0
 41
20.0
 42
20.0
 43
20.0
 50
270.0
  0
MTEXT
  5
7DB0
330
7B73
100
AcDbEntity
  8
3
  6
Continuous
 62
     0
440
 16777216
100
AcDbMText
 10
-569.8076508472436
 20
-99.98327153507696
 30
0.0
 40
30.0
 41
0.0
 46
0.0
 71
     5
 72
     5
  1
\A1;315
 11
0.0000000000000001
 21
1.0
 31
0.0
 73
     1
 44
1.0
  0
POINT
  5
7DB1
330
7B73
100
AcDbEntity
  8
DEFPOINTS
  6
Continuous
 62
     0
440
 16777216
100
AcDbPoint
 10
-686.0810629999999
 20
57.51672846492318
 30
0.0
  0
POINT
  5
7DB2
330
7B73
100
AcDbEntity
  8
DEFPOINTS
  6
Continuous
 62
     0
440
 16777216
100
AcDbPoint
 10
-696.081063
 20
-257.4832715350768
 30
0.0
  0
POINT
  5
7DB3
330
7B73
100
AcDbEntity
  8
DEFPOINTS
  6
Continuous
 62
     0
440
 16777216
100
AcDbPoint
 10
-544.8076508472437
 20
-257.4832715350769
 30
0.0
  0
ENDBLK
  5
7C83
330
7B73
100
AcDbEntity
  8
0
100
AcDbBlockEnd
  0
BLOCK
  5
7BB7
330
7BB6
100
AcDbEntity
  8
0
100
AcDbBlockBegin
  2
*D6
 70
     1
 10
0.0
 20
0.0
 30
0.0
  3
*D6
  1

  0
LINE
  5
7DB4
330
7BB6
100
AcDbEntity
  8
3
  6
Continuous
 62
     0
440
 16777216
100
AcDbLine
 10
-1106.070447
 20
62.51672846492318
 30
0.0
 11
-1106.070447
 21
379.2427074649231
 31
0.0
  0
LINE
  5
7DB5
330
7BB6
100
AcDbEntity
  8
3
  6
Continuous
 62
     0
440
 16777216
100
AcDbLine
 10
-886.0810630000001
 20
322.5167284649232
 30
0.0
 11
-886.0810630000001
 21
379.2427074649231
 31
0.0
  0
LINE
  5
7DB6
330
7BB6
100
AcDbEntity
  8
3
  6
Continuous
 62
     0
440
 16777216
100
AcDbLine
 10
-1086.070447
 20
369.2427074649231
 30
0.0
 11
-906.081063
 21
369.2427074649231
 31
0.0
  0
INSERT
  5
7DB7
330
7BB6
100
AcDbEntity
  8
3
  6
Continuous
 62
     0
440
 16777216
100
AcDbBlockReference
  2
_OPEN
 10
-1106.070447
 20
369.2427074649231
 30
0.0
 41
20.0
 42
20.0
 43
20.0
 50
180.0
  0
INSERT
  5
7DB8
330
7BB6
100
AcDbEntity
  8
3
  6
Continuous
 62
     0
440
 16777216
100
AcDbBlockReference
  2
_OPEN
 10
-886.0810630000001
 20
369.2427074649231
 30
0.0
 41
20.0
 42
20.0
 43
20.0
  0
MTEXT
  5
7DB9
330
7BB6
100
AcDbEntity
  8
3
  6
Continuous
 62
     0
440
 16777216
100
AcDbMText
 10
-1003.441106
 20
394.2427074649231
 30
0.0
 40
30.0
 41
0.0
 46
0.0
 71
     5
 72
     5
  1
\A1;220
 73
     1
 44
1.0
  0
POINT
  5
7DBA
330
7BB6
100
AcDbEntity
  8
DEFPOINTS
  6
Continuous
 62
     0
440
 16777216
100
AcDbPoint
 10
-1106.070447
 20
57.51672846492318
 30
0.0
  0
POINT
  5
7DBB
330
7BB6
100
AcDbEntity
  8
DEFPOINTS
  6
Continuous
 62
     0
440
 16777216
100
AcDbPoint
 10
-886.0810630000001
 20
317.5167284649232
 30
0.0
  0
POINT
  5
7DBC
330
7BB6
100
AcDbEntity
  8
DEFPOINTS
  6
Continuous
 62
     0
440
 16777216
100
AcDbPoint
 10
-886.0810630000001
 20
369.2427074649231
 30
0.0
  0
ENDBLK
  5
7BC1
330
7BB6
100
AcDbEntity
  8
0
100
AcDbBlockEnd
  0
BLOCK
  5
7BC4
330
7BC3
100
AcDbEntity
  8
0
100
AcDbBlockBegin
  2
*D7
 70
     1
 10
0.0
 20
0.0
 30
0.0
  3
*D7
  1

  0
LINE
  5
7DBD
330
7BC3
100
AcDbEntity
  8
3
  6
Continuous
 62
     0
440
 16777216
100
AcDbLine
 10
-686.0810629999999
 20
333.5167284649232
 30
0.0
 11
-686.0810629999999
 21
379.2427074649231
 31
0.0
  0
LINE
  5
7DBE
330
7BC3
100
AcDbEntity
  8
3
  6
Continuous
 62
     0
440
 16777216
100
AcDbLine
 10
-866.081063
 20
369.2427074649231
 30
0.0
 11
-706.0810629999999
 21
369.2427074649231
 31
0.0
  0
INSERT
  5
7DBF
330
7BC3
100
AcDbEntity
  8
3
  6
Continuous
 62
     0
440
 16777216
100
AcDbBlockReference
  2
_OPEN
 10
-886.0810630000001
 20
369.2427074649231
 30
0.0
 41
20.0
 42
20.0
 43
20.0
 50
180.0
  0
INSERT
  5
7DC0
330
7BC3
100
AcDbEntity
  8
3
  6
Continuous
 62
     0
440
 16777216
100
AcDbBlockReference
  2
_OPEN
 10
-686.0810629999999
 20
369.2427074649231
 30
0.0
 41
20.0
 42
20.0
 43
20.0
  0
MTEXT
  5
7DC1
330
7BC3
100
AcDbEntity
  8
3
  6
Continuous
 62
     0
440
 16777216
100
AcDbMText
 10
-786.0810630000001
 20
394.2427074649231
 30
0.0
 40
30.0
 41
0.0
 46
0.0
 71
     5
 72
     5
  1
\A1;200
 73
     1
 44
1.0
  0
POINT
  5
7DC2
330
7BC3
100
AcDbEntity
  8
DEFPOINTS
  6
Continuous
 62
     0
440
 16777216
100
AcDbPoint
 10
-886.0810630000001
 20
317.5167284649232
 30
0.0
  0
POINT
  5
7DC3
330
7BC3
100
AcDbEntity
  8
DEFPOINTS
  6
Continuous
 62
     0
440
 16777216
100
AcDbPoint
 10
-686.0810629999999
 20
328.5167284649232
 30
0.0
  0
POINT
  5
7DC4
330
7BC3
100
AcDbEntity
  8
DEFPOINTS
  6
Continuous
 62
     0
440
 16777216
100
AcDbPoint
 10
-686.0810629999999
 20
369.2427074649231
 30
0.0
  0
ENDBLK
  5
7BCD
330
7BC3
100
AcDbEntity
  8
0
100
AcDbBlockEnd
  0
BLOCK
  5
7BD0
330
7BCF
100
AcDbEntity
  8
0
100
AcDbBlockBegin
  2
*D8
 70
     1
 10
0.0
 20
0.0
 30
0.0
  3
*D8
  1

  0
LINE
  5
7EB2
330
7BCF
100
AcDbEntity
  8
3
  6
Continuous
 62
     0
440
 16777216
370
    -2
100
AcDbLine
 10
-334.6318293400412
 20
-362.4832715350769
 30
0.0
 11
-334.6318293400412
 21
-440.6486625350769
 31
0.0
  0
LINE
  5
7EB3
330
7BCF
100
AcDbEntity
  8
3
  6
Continuous
 62
     0
440
 16777216
370
    -2
100
AcDbLine
 10
-84.63182934004136
 20
-362.4832715350769
 30
0.0
 11
-84.63182934004136
 21
-440.6486625350769
 31
0.0
  0
LINE
  5
7EB4
330
7BCF
100
AcDbEntity
  8
3
  6
Continuous
 62
     0
440
 16777216
370
    -2
100
AcDbLine
 10
-314.6318293400412
 20
-430.6486625350769
 30
0.0
 11
-104.6318293400413
 21
-430.6486625350769
 31
0.0
  0
INSERT
  5
7EB5
330
7BCF
100
AcDbEntity
  8
3
  6
Continuous
 62
     0
440
 16777216
370
    -2
100
AcDbBlockReference
  2
_OPEN
 10
-334.6318293400412
 20
-430.6486625350769
 30
0.0
 41
20.0
 42
20.0
 43
20.0
 50
180.0
  0
INSERT
  5
7EB6
330
7BCF
100
AcDbEntity
  8
3
  6
Continuous
 62
     0
440
 16777216
370
    -2
100
AcDbBlockReference
  2
_OPEN
 10
-84.63182934004136
 20
-430.6486625350769
 30
0.0
 41
20.0
 42
20.0
 43
20.0
  0
MTEXT
  5
7EB7
330
7BCF
100
AcDbEntity
  8
3
  6
Continuous
 62
     0
440
 16777216
100
AcDbMText
 10
-205.7431143400413
 20
-405.6486625350769
 30
0.0
 40
30.0
 41
0.0
 46
0.0
 71
     5
 72
     1
  1
\A1;250
 73
     1
 44
1.0
  0
POINT
  5
7EB8
330
7BCF
100
AcDbEntity
  8
DEFPOINTS
  6
Continuous
 62
     0
440
 16777216
100
AcDbPoint
 10
-334.6318293400412
 20
-357.4832715350769
 30
0.0
  0
POINT
  5
7EB9
330
7BCF
100
AcDbEntity
  8
DEFPOINTS
  6
Continuous
 62
     0
440
 16777216
100
AcDbPoint
 10
-84.63182934004136
 20
-357.4832715350769
 30
0.0
  0
POINT
  5
7EBA
330
7BCF
100
AcDbEntity
  8
DEFPOINTS
  6
Continuous
 62
     0
440
 16777216
100
AcDbPoint
 10
-84.63182934004136
 20
-430.6486625350769
 30
0.0
  0
ENDBLK
  5
7BDA
330
7BCF
100
AcDbEntity
  8
0
100
AcDbBlockEnd
  0
BLOCK
  5
7BDD
330
7BDC
100
AcDbEntity
  8
0
100
AcDbBlockBegin
  2
*D9
 70
     1
 10
0.0
 20
0.0
 30
0.0
  3
*D9
  1

  0
LINE
  5
7DCE
330
7BDC
100
AcDbEntity
  8
3
  6
Continuous
 62
     0
440
 16777216
100
AcDbLine
 10
-1436.081063
 20
696.0765540374543
 30
0.0
 11
-1436.081063
 21
517.1057240374543
 31
0.0
  0
LINE
  5
7DCF
330
7BDC
100
AcDbEntity
  8
3
  6
Continuous
 62
     0
440
 16777216
100
AcDbLine
 10
-666.081063
 20
696.0765540374543
 30
0.0
 11
-666.081063
 21
517.1057240374543
 31
0.0
  0
LINE
  5
7DD0
330
7BDC
100
AcDbEntity
  8
3
  6
Continuous
 62
     0
440
 16777216
100
AcDbLine
 10
-1416.081063
 20
527.1057240374544
 30
0.0
 11
-686.0810629999999
 21
527.1057240374544
 31
0.0
  0
INSERT
  5
7DD1
330
7BDC
100
AcDbEntity
  8
3
  6
Continuous
 62
     0
440
 16777216
100
AcDbBlockReference
  2
_OPEN
 10
-1436.081063
 20
527.1057240374544
 30
0.0
 41
20.0
 42
20.0
 43
20.0
 50
180.0
  0
INSERT
  5
7DD2
330
7BDC
100
AcDbEntity
  8
3
  6
Continuous
 62
     0
440
 16777216
100
AcDbBlockReference
  2
_OPEN
 10
-666.081063
 20
527.1057240374544
 30
0.0
 41
20.0
 42
20.0
 43
20.0
  0
MTEXT
  5
7DD3
330
7BDC
100
AcDbEntity
  8
3
  6
Continuous
 62
     0
440
 16777216
100
AcDbMText
 10
-1055.38358
 20
552.1057240374544
 30
0.0
 40
30.0
 41
0.0
 46
0.0
 71
     5
 72
     5
  1
\A1;770
 73
     1
 44
1.0
  0
POINT
  5
7DD4
330
7BDC
100
AcDbEntity
  8
DEFPOINTS
  6
Continuous
 62
     0
440
 16777216
100
AcDbPoint
 10
-1436.081063
 20
701.0765540374543
 30
0.0
  0
POINT
  5
7DD5
330
7BDC
100
AcDbEntity
  8
DEFPOINTS
  6
Continuous
 62
     0
440
 16777216
100
AcDbPoint
 10
-666.081063
 20
701.0765540374543
 30
0.0
  0
POINT
  5
7DD6
330
7BDC
100
AcDbEntity
  8
DEFPOINTS
  6
Continuous
 62
     0
440
 16777216
100
AcDbPoint
 10
-666.081063
 20
527.1057240374544
 30
0.0
  0
ENDBLK
  5
7BE7
330
7BDC
100
AcDbEntity
  8
0
100
AcDbBlockEnd
  0
BLOCK
  5
7BFD
330
7BFC
100
AcDbEntity
  8
0
100
AcDbBlockBegin
  2
*D10
 70
     1
 10
0.0
 20
0.0
 30
0.0
  3
*D10
  1

  0
LINE
  5
7DD7
330
7BFC
100
AcDbEntity
  8
3
  6
Continuous
 62
     0
440
 16777216
100
AcDbLine
 10
-166.6318293400413
 20
313.5167284649232
 30
0.0
 11
-166.6318293400413
 21
374.7820334649232
 31
0.0
  0
LINE
  5
7DD8
330
7BFC
100
AcDbEntity
  8
3
  6
Continuous
 62
     0
440
 16777216
100
AcDbLine
 10
13.36817065995876
 20
313.5167284649232
 30
0.0
 11
13.36817065995877
 21
374.7820334649232
 31
0.0
  0
LINE
  5
7DD9
330
7BFC
100
AcDbEntity
  8
3
  6
Continuous
 62
     0
440
 16777216
100
AcDbLine
 10
-146.6318293400413
 20
364.7820334649232
 30
0.0
 11
-6.631829340041232
 21
364.7820334649232
 31
0.0
  0
INSERT
  5
7DDA
330
7BFC
100
AcDbEntity
  8
3
  6
Continuous
 62
     0
440
 16777216
100
AcDbBlockReference
  2
_OPEN
 10
-166.6318293400413
 20
364.7820334649232
 30
0.0
 41
20.0
 42
20.0
 43
20.0
 50
180.0
  0
INSERT
  5
7DDB
330
7BFC
100
AcDbEntity
  8
3
  6
Continuous
 62
     0
440
 16777216
100
AcDbBlockReference
  2
_OPEN
 10
13.36817065995877
 20
364.7820334649232
 30
0.0
 41
20.0
 42
20.0
 43
20.0
  0
MTEXT
  5
7DDC
330
7BFC
100
AcDbEntity
  8
3
  6
Continuous
 62
     0
440
 16777216
100
AcDbMText
 10
-75.13668134004126
 20
389.7820334649232
 30
0.0
 40
30.0
 41
0.0
 46
0.0
 71
     5
 72
     5
  1
\A1;180
 73
     1
 44
1.0
  0
POINT
  5
7DDD
330
7BFC
100
AcDbEntity
  8
DEFPOINTS
  6
Continuous
 62
     0
440
 16777216
100
AcDbPoint
 10
-166.6318293400413
 20
308.5167284649232
 30
0.0
  0
POINT
  5
7DDE
330
7BFC
100
AcDbEntity
  8
DEFPOINTS
  6
Continuous
 62
     0
440
 16777216
100
AcDbPoint
 10
13.36817065995876
 20
308.5167284649232
 30
0.0
  0
POINT
  5
7DDF
330
7BFC
100
AcDbEntity
  8
DEFPOINTS
  6
Continuous
 62
     0
440
 16777216
100
AcDbPoint
 10
13.36817065995877
 20
364.7820334649232
 30
0.0
  0
ENDBLK
  5
7C07
330
7BFC
100
AcDbEntity
  8
0
100
AcDbBlockEnd
  0
BLOCK
  5
7CAB
330
7C09
100
AcDbEntity
  8
0
100
AcDbBlockBegin
  2
*D11
 70
     1
 10
0.0
 20
0.0
 30
0.0
  3
*D11
  1

  0
LINE
  5
7F05
330
7C09
100
AcDbEntity
  8
3
  6
Continuous
 62
     0
440
 16777216
370
    -2
100
AcDbLine
 10
-416.6318293400412
 20
187.5167284649231
 30
0.0
 11
-416.6318293400412
 21
439.0566234649232
 31
0.0
  0
LINE
  5
7F06
330
7C09
100
AcDbEntity
  8
3
  6
Continuous
 62
     0
440
 16777216
370
    -2
100
AcDbLine
 10
-76.63182934004135
 20
418.3745984649232
 30
0.0
 11
-76.63182934004135
 21
439.0566234649232
 31
0.0
  0
LINE
  5
7F07
330
7C09
100
AcDbEntity
  8
3
  6
Continuous
 62
     0
440
 16777216
370
    -2
100
AcDbLine
 10
-396.6318293400413
 20
429.0566234649231
 30
0.0
 11
-96.63182934004135
 21
429.0566234649231
 31
0.0
  0
INSERT
  5
7F08
330
7C09
100
AcDbEntity
  8
3
  6
Continuous
 62
     0
440
 16777216
370
    -2
100
AcDbBlockReference
  2
_OPEN
 10
-416.6318293400412
 20
429.0566234649231
 30
0.0
 41
20.0
 42
20.0
 43
20.0
 50
180.0
  0
INSERT
  5
7F09
330
7C09
100
AcDbEntity
  8
3
  6
Continuous
 62
     0
440
 16777216
370
    -2
100
AcDbBlockReference
  2
_OPEN
 10
-76.63182934004135
 20
429.0566234649231
 30
0.0
 41
20.0
 42
20.0
 43
20.0
  0
MTEXT
  5
7F0A
330
7C09
100
AcDbEntity
  8
3
  6
Continuous
 62
     0
440
 16777216
100
AcDbMText
 10
-237.5935053400413
 20
461.913766322066
 30
0.0
 40
30.0
 41
0.0
 46
0.0
 71
     5
 72
     1
  1
\A1;(340)
 73
     1
 44
1.0
  0
POINT
  5
7F0B
330
7C09
100
AcDbEntity
  8
DEFPOINTS
  6
Continuous
 62
     0
440
 16777216
100
AcDbPoint
 10
-416.6318293400412
 20
182.5167284649231
 30
0.0
  0
POINT
  5
7F0C
330
7C09
100
AcDbEntity
  8
DEFPOINTS
  6
Continuous
 62
     0
440
 16777216
100
AcDbPoint
 10
-76.63182934004135
 20
413.3745984649232
 30
0.0
  0
POINT
  5
7F0D
330
7C09
100
AcDbEntity
  8
DEFPOINTS
  6
Continuous
 62
     0
440
 16777216
100
AcDbPoint
 10
-76.63182934004135
 20
429.0566234649231
 30
0.0
  0
ENDBLK
  5
7CB5
330
7C09
100
AcDbEntity
  8
0
100
AcDbBlockEnd
  0
BLOCK
  5
7C5B
330
7C16
100
AcDbEntity
  8
0
100
AcDbBlockBegin
  2
*D12
 70
     1
 10
0.0
 20
0.0
 30
0.0
  3
*D12
  1

  0
LINE
  5
7DE9
330
7C16
100
AcDbEntity
  8
3
  6
Continuous
 62
     0
440
 16777216
100
AcDbLine
 10
22.36817065995877
 20
209.5167284649232
 30
0.0
 11
22.36817065995878
 21
439.0566234649232
 31
0.0
  0
LINE
  5
7DEA
330
7C16
100
AcDbEntity
  8
3
  6
Continuous
 62
     0
440
 16777216
100
AcDbLine
 10
-56.63182934004135
 20
429.0566234649231
 30
0.0
 11
2.368170659958778
 21
429.0566234649231
 31
0.0
  0
MTEXT
  5
7DEB
330
7C16
100
AcDbEntity
  8
3
  6
Continuous
 62
     0
440
 16777216
100
AcDbMText
 10
-30.2473033400413
 20
454.2675334649231
 30
0.0
 40
30.0
 41
0.0
 46
0.0
 71
     5
 72
     5
  1
\A1;99
 73
     1
 44
1.0
  0
INSERT
  5
7DEC
330
7C16
100
AcDbEntity
  8
3
  6
Continuous
 62
     0
440
 16777216
100
AcDbBlockReference
  2
_OPEN
 10
-76.63182934004135
 20
429.0566234649231
 30
0.0
 41
20.0
 42
20.0
 43
20.0
 50
180.0
  0
INSERT
  5
7DED
330
7C16
100
AcDbEntity
  8
3
  6
Continuous
 62
     0
440
 16777216
100
AcDbBlockReference
  2
_OPEN
 10
22.36817065995878
 20
429.0566234649231
 30
0.0
 41
20.0
 42
20.0
 43
20.0
  0
POINT
  5
7DEE
330
7C16
100
AcDbEntity
  8
DEFPOINTS
  6
Continuous
 62
     0
440
 16777216
100
AcDbPoint
 10
-76.63182934004135
 20
413.3745984649232
 30
0.0
  0
POINT
  5
7DEF
330
7C16
100
AcDbEntity
  8
DEFPOINTS
  6
Continuous
 62
     0
440
 16777216
100
AcDbPoint
 10
22.36817065995877
 20
204.5167284649232
 30
0.0
  0
POINT
  5
7DF0
330
7C16
100
AcDbEntity
  8
DEFPOINTS
  6
Continuous
 62
     0
440
 16777216
100
AcDbPoint
 10
22.36817065995878
 20
429.0566234649231
 30
0.0
  0
ENDBLK
  5
7C64
330
7C16
100
AcDbEntity
  8
0
100
AcDbBlockEnd
  0
BLOCK
  5
7CB6
330
7C3E
100
AcDbEntity
  8
0
100
AcDbBlockBegin
  2
*D13
 70
     1
 10
0.0
 20
0.0
 30
0.0
  3
*D13
  1

  0
LINE
  5
7DF1
330
7C3E
100
AcDbEntity
  8
3
  6
Continuous
 62
     0
440
 16777216
100
AcDbLine
 10
27.36817065995877
 20
182.5167284649231
 30
0.0
 11
104.5331816599587
 21
182.5167284649231
 31
0.0
  0
LINE
  5
7DF2
330
7C3E
100
AcDbEntity
  8
3
  6
Continuous
 62
     0
440
 16777216
100
AcDbLine
 10
27.36817065995877
 20
-67.48327153507682
 30
0.0
 11
104.5331816599587
 21
-67.48327153507685
 31
0.0
  0
LINE
  5
7DF3
330
7C3E
100
AcDbEntity
  8
3
  6
Continuous
 62
     0
440
 16777216
100
AcDbLine
 10
94.53318165995874
 20
162.5167284649231
 30
0.0
 11
94.53318165995868
 21
-47.48327153507684
 31
0.0
  0
INSERT
  5
7DF4
330
7C3E
100
AcDbEntity
  8
3
  6
Continuous
 62
     0
440
 16777216
100
AcDbBlockReference
  2
_OPEN
 10
94.53318165995874
 20
182.5167284649231
 30
0.0
 41
20.0
 42
20.0
 43
20.0
 50
90.0
  0
INSERT
  5
7DF5
330
7C3E
100
AcDbEntity
  8
3
  6
Continuous
 62
     0
440
 16777216
100
AcDbBlockReference
  2
_OPEN
 10
94.53318165995868
 20
-67.48327153507684
 30
0.0
 41
20.0
 42
20.0
 43
20.0
 50
270.0
  0
MTEXT
  5
7DF6
330
7C3E
100
AcDbEntity
  8
3
  6
Continuous
 62
     0
440
 16777216
100
AcDbMText
 10
69.5331816599587
 20
47.7888474649232
 30
0.0
 40
30.0
 41
0.0
 46
0.0
 71
     5
 72
     5
  1
\A1;φ250
 11
0.0000000000000001
 21
1.0
 31
0.0
 73
     1
 44
1.0
  0
POINT
  5
7DF7
330
7C3E
100
AcDbEntity
  8
DEFPOINTS
  6
Continuous
 62
     0
440
 16777216
100
AcDbPoint
 10
22.36817065995877
 20
182.5167284649231
 30
0.0
  0
POINT
  5
7DF8
330
7C3E
100
AcDbEntity
  8
DEFPOINTS
  6
Continuous
 62
     0
440
 16777216
100
AcDbPoint
 10
22.36817065995877
 20
-67.48327153507682
 30
0.0
  0
POINT
  5
7DF9
330
7C3E
100
AcDbEntity
  8
DEFPOINTS
  6
Continuous
 62
     0
440
 16777216
100
AcDbPoint
 10
94.53318165995868
 20
-67.48327153507684
 30
0.0
  0
ENDBLK
  5
7CC0
330
7C3E
100
AcDbEntity
  8
0
100
AcDbBlockEnd
  0
BLOCK
  5
7D05
330
7D04
100
AcDbEntity
  8
0
100
AcDbBlockBegin
  2
*D14
 70
     1
 10
0.0
 20
0.0
 30
0.0
  3
*D14
  1

  0
LINE
  5
7DFA
330
7D04
100
AcDbEntity
  8
3
 62
     0
440
 16777216
100
AcDbLine
 10
-1441.081063
 20
951.0765540374546
 30
0.0
 11
-1497.982586707234
 21
951.0765540374546
 31
0.0
  0
LINE
  5
7DFB
330
7D04
100
AcDbEntity
  8
3
 62
     0
440
 16777216
100
AcDbLine
 10
-1441.081063
 20
701.0765540374543
 30
0.0
 11
-1497.982586707234
 21
701.0765540374543
 31
0.0
  0
LINE
  5
7DFC
330
7D04
100
AcDbEntity
  8
3
 62
     0
440
 16777216
100
AcDbLine
 10
-1487.982586707234
 20
931.0765540374545
 30
0.0
 11
-1487.982586707234
 21
721.0765540374543
 31
0.0
  0
INSERT
  5
7DFD
330
7D04
100
AcDbEntity
  8
3
 62
     0
440
 16777216
100
AcDbBlockReference
  2
_OPEN
 10
-1487.982586707234
 20
951.0765540374546
 30
0.0
 41
20.0
 42
20.0
 43
20.0
 50
90.0
  0
INSERT
  5
7DFE
330
7D04
100
AcDbEntity
  8
3
 62
     0
440
 16777216
100
AcDbBlockReference
  2
_OPEN
 10
-1487.982586707234
 20
701.0765540374543
 30
0.0
 41
20.0
 42
20.0
 43
20.0
 50
270.0
  0
MTEXT
  5
7DFF
330
7D04
100
AcDbEntity
  8
3
 62
     0
440
 16777216
100
AcDbMText
 10
-1512.982586707234
 20
811.7591329949746
 30
0.0
 40
30.0
 41
0.0
 46
0.0
 71
     5
 72
     5
  1
\A1;250
 11
0.0000000000000001
 21
1.0
 31
0.0
 73
     1
 44
1.0
  0
POINT
  5
7E00
330
7D04
100
AcDbEntity
  8
DEFPOINTS
 62
     0
440
 16777216
100
AcDbPoint
 10
-1436.081063
 20
951.0765540374546
 30
0.0
  0
POINT
  5
7E01
330
7D04
100
AcDbEntity
  8
DEFPOINTS
 62
     0
440
 16777216
100
AcDbPoint
 10
-1436.081063
 20
701.0765540374543
 30
0.0
  0
POINT
  5
7E02
330
7D04
100
AcDbEntity
  8
DEFPOINTS
 62
     0
440
 16777216
100
AcDbPoint
 10
-1487.982586707234
 20
701.0765540374543
 30
0.0
  0
ENDBLK
  5
7D0F
330
7D04
100
AcDbEntity
  8
0
100
AcDbBlockEnd
  0
BLOCK
  5
7D1C
330
7D1B
100
AcDbEntity
  8
0
100
AcDbBlockBegin
  2
*D15
 70
     1
 10
0.0
 20
0.0
 30
0.0
  3
*D15
  1

  0
LINE
  5
7E82
330
7D1B
100
AcDbEntity
  8
3
 62
     0
440
 16777216
370
    -2
100
AcDbLine
 10
-84.63182934004136
 20
-362.4832715350769
 30
0.0
 11
-84.63182934004136
 21
-441.6490704894941
 31
0.0
  0
LINE
  5
7E83
330
7D1B
100
AcDbEntity
  8
3
 62
     0
440
 16777216
370
    -2
100
AcDbLine
 10
-76.63182934004135
 20
-362.4832715350769
 30
0.0
 11
-76.63182934004135
 21
-441.6490704894941
 31
0.0
  0
LINE
  5
7E84
330
7D1B
100
AcDbEntity
  8
3
 62
     0
440
 16777216
370
    -2
100
AcDbLine
 10
-104.6318293400413
 20
-431.6490704894942
 30
0.0
 11
-124.6318293400413
 21
-431.6490704894942
 31
0.0
  0
LINE
  5
7E85
330
7D1B
100
AcDbEntity
  8
3
 62
     0
440
 16777216
370
    -2
100
AcDbLine
 10
-56.63182934004135
 20
-431.6490704894942
 30
0.0
 11
3.368170659958643
 21
-431.6490704894942
 31
0.0
  0
LINE
  5
7E86
330
7D1B
100
AcDbEntity
  8
3
 62
     0
440
 16777216
370
    -2
100
AcDbLine
 10
-84.63182934004136
 20
-431.6490704894942
 30
0.0
 11
-76.63182934004135
 21
-431.6490704894942
 31
0.0
  0
INSERT
  5
7E87
330
7D1B
100
AcDbEntity
  8
3
 62
     0
440
 16777216
370
    -2
100
AcDbBlockReference
  2
_OPEN
 10
-84.63182934004136
 20
-431.6490704894942
 30
0.0
 41
20.0
 42
20.0
 43
20.0
  0
INSERT
  5
7E88
330
7D1B
100
AcDbEntity
  8
3
 62
     0
440
 16777216
370
    -2
100
AcDbBlockReference
  2
_OPEN
 10
-76.63182934004135
 20
-431.6490704894942
 30
0.0
 41
20.0
 42
20.0
 43
20.0
 50
180.0
  0
MTEXT
  5
7E89
330
7D1B
100
AcDbEntity
  8
3
 62
     0
440
 16777216
100
AcDbMText
 10
-16.63182934004135
 20
-406.6490704894942
 30
0.0
 40
30.0
 41
0.0
 46
0.0
 71
     5
 72
     1
  1
\A1;8
 73
     1
 44
1.0
  0
POINT
  5
7E8A
330
7D1B
100
AcDbEntity
  8
DEFPOINTS
 62
     0
440
 16777216
100
AcDbPoint
 10
-84.63182934004136
 20
-357.4832715350769
 30
0.0
  0
POINT
  5
7E8B
330
7D1B
100
AcDbEntity
  8
DEFPOINTS
 62
     0
440
 16777216
100
AcDbPoint
 10
-76.63182934004135
 20
-357.4832715350769
 30
0.0
  0
POINT
  5
7E8C
330
7D1B
100
AcDbEntity
  8
DEFPOINTS
 62
     0
440
 16777216
100
AcDbPoint
 10
-76.63182934004135
 20
-431.6490704894942
 30
0.0
  0
ENDBLK
  5
7D28
330
7D1B
100
AcDbEntity
  8
0
100
AcDbBlockEnd
  0
BLOCK
  5
7D2B
330
7D2A
100
AcDbEntity
  8
0
100
AcDbBlockBegin
  2
_DOT
 70
     0
 10
0.0
 20
0.0
 30
0.0
  3
_DOT
  1

  0
LWPOLYLINE
  5
7D2C
330
7D2A
100
AcDbEntity
  8
0
  6
ByBlock
 62
     0
100
AcDbPolyline
 90
        2
 70
     1
 43
0.5
 10
-0.25
 20
0.0
 42
1.0
 10
0.25
 20
0.0
 42
1.0
  0
LINE
  5
7D30
330
7D2A
100
AcDbEntity
  8
0
  6
ByBlock
 62
     0
100
AcDbLine
 10
-0.5
 20
0.0
 30
0.0
 11
-1.0
 21
0.0
 31
0.0
  0
ENDBLK
  5
7D31
330
7D2A
100
AcDbEntity
  8
0
100
AcDbBlockEnd
  0
BLOCK
  5
7D33
330
7D32
100
AcDbEntity
  8
0
100
AcDbBlockBegin
  2
*D17
 70
     1
 10
0.0
 20
0.0
 30
0.0
  3
*D17
  1

  0
LINE
  5
7E8D
330
7D32
100
AcDbEntity
  8
3
 62
     0
440
 16777216
370
    -2
100
AcDbLine
 10
-661.0810629999999
 20
-327.4832715350769
 30
0.0
 11
-534.8410527570522
 21
-327.483271535077
 31
0.0
  0
LINE
  5
7E8E
330
7D32
100
AcDbEntity
  8
3
 62
     0
440
 16777216
370
    -2
100
AcDbLine
 10
-661.0810629999999
 20
-357.4832715350769
 30
0.0
 11
-534.8410527570522
 21
-357.483271535077
 31
0.0
  0
LINE
  5
7E8F
330
7D32
100
AcDbEntity
  8
3
 62
     0
440
 16777216
370
    -2
100
AcDbLine
 10
-544.8410527570522
 20
-307.483271535077
 30
0.0
 11
-544.8410527570522
 21
-287.483271535077
 31
0.0
  0
LINE
  5
7E90
330
7D32
100
AcDbEntity
  8
3
 62
     0
440
 16777216
370
    -2
100
AcDbLine
 10
-544.8410527570522
 20
-377.483271535077
 30
0.0
 11
-544.8410527570522
 21
-466.0547001065055
 31
0.0
  0
LINE
  5
7E91
330
7D32
100
AcDbEntity
  8
3
 62
     0
440
 16777216
370
    -2
100
AcDbLine
 10
-544.8410527570522
 20
-327.483271535077
 30
0.0
 11
-544.8410527570522
 21
-357.483271535077
 31
0.0
  0
INSERT
  5
7E92
330
7D32
100
AcDbEntity
  8
3
 62
     0
440
 16777216
370
    -2
100
AcDbBlockReference
  2
_DOT
 10
-544.8410527570522
 20
-327.483271535077
 30
0.0
 41
20.0
 42
20.0
 43
20.0
 50
270.0
  0
INSERT
  5
7E93
330
7D32
100
AcDbEntity
  8
3
 62
     0
440
 16777216
370
    -2
100
AcDbBlockReference
  2
_OPEN
 10
-544.8410527570522
 20
-357.483271535077
 30
0.0
 41
20.0
 42
20.0
 43
20.0
 50
90.0
  0
MTEXT
  5
7E94
330
7D32
100
AcDbEntity
  8
3
 62
     0
440
 16777216
100
AcDbMText
 10
-569.8410527570521
 20
-431.7689858207913
 30
0.0
 40
30.0
 41
0.0
 46
0.0
 71
     5
 72
     1
  1
\A1;30
 11
0.0000000000000001
 21
1.0
 31
0.0
 73
     1
 44
1.0
  0
POINT
  5
7E95
330
7D32
100
AcDbEntity
  8
DEFPOINTS
 62
     0
440
 16777216
100
AcDbPoint
 10
-666.081063
 20
-327.4832715350769
 30
0.0
  0
POINT
  5
7E96
330
7D32
100
AcDbEntity
  8
DEFPOINTS
 62
     0
440
 16777216
100
AcDbPoint
 10
-666.081063
 20
-357.4832715350769
 30
0.0
  0
POINT
  5
7E97
330
7D32
100
AcDbEntity
  8
DEFPOINTS
 62
     0
440
 16777216
100
AcDbPoint
 10
-544.8410527570522
 20
-357.483271535077
 30
0.0
  0
ENDBLK
  5
7D3F
330
7D32
100
AcDbEntity
  8
0
100
AcDbBlockEnd
  0
BLOCK
  5
7D42
330
7D41
100
AcDbEntity
  8
0
100
AcDbBlockBegin
  2
*D18
 70
     1
 10
0.0
 20
0.0
 30
0.0
  3
*D18
  1

  0
LINE
  5
7EBB
330
7D41
100
AcDbEntity
  8
3
 62
     0
440
 16777216
370
    -2
100
AcDbLine
 10
-661.0810629999999
 20
-327.4832715350769
 30
0.0
 11
-534.8410527570523
 21
-327.483271535077
 31
0.0
  0
LINE
  5
7EBC
330
7D41
100
AcDbEntity
  8
3
 62
     0
440
 16777216
370
    -2
100
AcDbLine
 10
-691.081063
 20
-257.4832715350768
 30
0.0
 11
-534.8410527570523
 21
-257.4832715350769
 31
0.0
  0
LINE
  5
7EBD
330
7D41
100
AcDbEntity
  8
3
 62
     0
440
 16777216
370
    -2
100
AcDbLine
 10
-544.8410527570523
 20
-307.483271535077
 30
0.0
 11
-544.8410527570523
 21
-277.4832715350769
 31
0.0
  0
MTEXT
  5
7EBE
330
7D41
100
AcDbEntity
  8
3
 62
     0
440
 16777216
100
AcDbMText
 10
-498.7778477132232
 20
-295.31937008151
 30
0.0
 40
30.0
 41
0.0
 46
0.0
 71
     5
 72
     1
  1
\A1;(70)
 11
0.0000000000000001
 21
1.0
 31
0.0
 73
     1
 44
1.0
  0
INSERT
  5
7EBF
330
7D41
100
AcDbEntity
  8
3
 62
     0
440
 16777216
370
    -2
100
AcDbBlockReference
  2
_DOT
 10
-544.8410527570523
 20
-327.483271535077
 30
0.0
 41
20.0
 42
20.0
 43
20.0
 50
270.0
  0
INSERT
  5
7EC0
330
7D41
100
AcDbEntity
  8
3
 62
     0
440
 16777216
370
    -2
100
AcDbBlockReference
  2
_OPEN
 10
-544.8410527570523
 20
-257.4832715350769
 30
0.0
 41
20.0
 42
20.0
 43
20.0
 50
90.0
  0
POINT
  5
7EC1
330
7D41
100
AcDbEntity
  8
DEFPOINTS
 62
     0
440
 16777216
100
AcDbPoint
 10
-666.081063
 20
-327.4832715350769
 30
0.0
  0
POINT
  5
7EC2
330
7D41
100
AcDbEntity
  8
DEFPOINTS
 62
     0
440
 16777216
100
AcDbPoint
 10
-696.081063
 20
-257.4832715350768
 30
0.0
  0
POINT
  5
7EC3
330
7D41
100
AcDbEntity
  8
DEFPOINTS
 62
     0
440
 16777216
100
AcDbPoint
 10
-544.8410527570523
 20
-257.4832715350769
 30
0.0
  0
ENDBLK
  5
7D4C
330
7D41
100
AcDbEntity
  8
0
100
AcDbBlockEnd
  0
BLOCK
  5
7F1E
330
7F1D
100
AcDbEntity
  8
0
100
AcDbBlockBegin
  2
*D19
 70
     1
 10
0.0
 20
0.0
 30
0.0
  3
*D19
  1

  0
LINE
  5
7F4C
330
7F1D
100
AcDbEntity
  8
3
 62
     0
440
 16777216
370
    -2
100
AcDbLine
 10
-661.0810629999999
 20
-357.4832715350769
 30
0.0
 11
-449.355362891527
 21
-357.483271535077
 31
0.0
  0
LINE
  5
7F4D
330
7F1D
100
AcDbEntity
  8
3
 62
     0
440
 16777216
370
    -2
100
AcDbLine
 10
-681.0810629999999
 20
328.5167284649232
 30
0.0
 11
-449.3553628915269
 21
328.5167284649231
 31
0.0
  0
LINE
  5
7F4E
330
7F1D
100
AcDbEntity
  8
3
 62
     0
440
 16777216
370
    -2
100
AcDbLine
 10
-459.355362891527
 20
-337.483271535077
 30
0.0
 11
-459.3553628915269
 21
308.5167284649231
 31
0.0
  0
INSERT
  5
7F4F
330
7F1D
100
AcDbEntity
  8
3
 62
     0
440
 16777216
370
    -2
100
AcDbBlockReference
  2
_OPEN
 10
-459.355362891527
 20
-357.483271535077
 30
0.0
 41
20.0
 42
20.0
 43
20.0
 50
270.0
  0
INSERT
  5
7F50
330
7F1D
100
AcDbEntity
  8
3
 62
     0
440
 16777216
370
    -2
100
AcDbBlockReference
  2
_OPEN
 10
-459.3553628915269
 20
328.5167284649231
 30
0.0
 41
20.0
 42
20.0
 43
20.0
 50
90.0
  0
MTEXT
  5
7F51
330
7F1D
100
AcDbEntity
  8
3
 62
     0
440
 16777216
100
AcDbMText
 10
-492.2125057486698
 20
-14.48327153507702
 30
0.0
 40
30.0
 41
0.0
 46
0.0
 71
     5
 72
     1
  1
\A1;(686)
 11
0.0000000000000001
 21
1.0
 31
0.0
 73
     1
 44
1.0
  0
POINT
  5
7F52
330
7F1D
100
AcDbEntity
  8
DEFPOINTS
 62
     0
440
 16777216
100
AcDbPoint
 10
-666.081063
 20
-357.4832715350769
 30
0.0
  0
POINT
  5
7F53
330
7F1D
100
AcDbEntity
  8
DEFPOINTS
 62
     0
440
 16777216
100
AcDbPoint
 10
-686.0810629999999
 20
328.5167284649232
 30
0.0
  0
POINT
  5
7F54
330
7F1D
100
AcDbEntity
  8
DEFPOINTS
 62
     0
440
 16777216
100
AcDbPoint
 10
-459.3553628915269
 20
328.5167284649231
 30
0.0
  0
ENDBLK
  5
7F1F
330
7F1D
100
AcDbEntity
  8
0
100
AcDbBlockEnd
  0
ENDSEC
  0
SECTION
  2
ENTITIES
  0
LINE
  5
7A8D
330
19
100
AcDbEntity
  8
1
  6
Continuous
100
AcDbLine
 10
-1436.081063
 20
-357.4832715350769
 30
0.0
 11
-666.081063
 21
-357.4832715350769
 31
0.0
  0
LINE
  5
7A8E
330
19
100
AcDbEntity
  8
1
  6
Continuous
100
AcDbLine
 10
-1436.081063
 20
-327.4832715350769
 30
0.0
 11
-666.081063
 21
-327.4832715350769
 31
0.0
  0
LINE
  5
7A8F
330
19
100
AcDbEntity
  8
1
  6
Continuous
100
AcDbLine
 10
-666.081063
 20
701.0765540374543
 30
0.0
 11
-874.081063
 21
701.0765540374543
 31
0.0
  0
LINE
  5
7A90
330
19
100
AcDbEntity
  8
1
  6
Continuous
100
AcDbLine
 10
-666.081063
 20
951.0765540374546
 30
0.0
 11
-686.0810629999999
 21
951.0765540374546
 31
0.0
  0
ARC
  5
7A91
330
19
100
AcDbEntity
  8
1
  6
Continuous
100
AcDbCircle
 10
-903.0810630000001
 20
74.51672846492318
 30
0.0
 40
203.7
100
AcDbArc
 50
184.6
 51
275.5
  0
ARC
  5
7A92
330
19
100
AcDbEntity
  8
1
  6
Continuous
100
AcDbCircle
 10
-866.081063
 20
77.51672846492318
 30
0.0
 40
240.9
100
AcDbArc
 50
94.9
 51
184.6
  0
LINE
  5
7A93
330
19
100
AcDbEntity
  8
1
  6
Continuous
100
AcDbLine
 10
-1406.081063
 20
-257.4832715350768
 30
0.0
 11
-696.081063
 21
-257.4832715350768
 31
0.0
  0
LINE
  5
7A94
330
19
100
AcDbEntity
  8
1
  6
Continuous
100
AcDbLine
 10
-1406.081063
 20
-197.4832715350768
 30
0.0
 11
-696.081063
 21
-197.4832715350768
 31
0.0
  0
LINE
  5
7A95
330
19
100
AcDbEntity
  8
1
  6
Continuous
100
AcDbLine
 10
-885.881063
 20
182.5167284649231
 30
0.0
 11
-1341.081063
 21
-17.48327153507682
 31
0.0
  0
LINE
  5
7A96
330
19
100
AcDbEntity
  8
1
  6
Continuous
100
AcDbLine
 10
-1227.781063
 20
-158.6832715350768
 30
0.0
 11
-860.981063
 21
-0.7832715350767785
 31
0.0
  0
LINE
  5
7A97
330
19
100
AcDbEntity
  8
1
  6
Continuous
100
AcDbLine
 10
-1272.181063
 20
-62.48327153507682
 30
0.0
 11
-914.1810630000001
 21
114.4167284649231
 31
0.0
  0
LINE
  5
7A98
330
19
100
AcDbEntity
  8
1
  6
Continuous
100
AcDbLine
 10
-1341.081063
 20
-197.4832715350768
 30
0.0
 11
-1341.081063
 21
-17.48327153507682
 31
0.0
  0
LINE
  5
7A99
330
19
100
AcDbEntity
  8
1
  6
Continuous
100
AcDbLine
 10
-1151.381063
 20
-177.4832715350768
 30
0.0
 11
-1406.081063
 21
-177.4832715350768
 31
0.0
  0
LINE
  5
7A9A
330
19
100
AcDbEntity
  8
1
  6
Continuous
100
AcDbLine
 10
-1436.081063
 20
-327.4832715350769
 30
0.0
 11
-1436.081063
 21
-357.4832715350769
 31
0.0
  0
LINE
  5
7A9B
330
19
100
AcDbEntity
  8
1
  6
Continuous
100
AcDbLine
 10
-1406.081063
 20
-197.4832715350768
 30
0.0
 11
-1406.081063
 21
-257.4832715350768
 31
0.0
  0
LINE
  5
7A9C
330
19
100
AcDbEntity
  8
1
  6
Continuous
100
AcDbLine
 10
-1406.081063
 20
-177.4832715350768
 30
0.0
 11
-1406.081063
 21
-197.4832715350768
 31
0.0
  0
ARC
  5
7A9D
330
19
100
AcDbEntity
  8
1
  6
Continuous
100
AcDbCircle
 10
-1248.681063
 20
-109.9832715350768
 30
0.0
 40
75.8
100
AcDbArc
 50
322.9
 51
217.1
  0
CIRCLE
  5
7A9E
330
19
100
AcDbEntity
  8
1
  6
Continuous
100
AcDbCircle
 10
-1248.681063
 20
-109.9832715350768
 30
0.0
 40
53.0
  0
LINE
  5
7A9F
330
19
100
AcDbEntity
  8
2
  6
CENTER
100
AcDbLine
 10
-1301.681063
 20
-109.9832715350768
 30
0.0
 11
-1195.681063
 21
-109.9832715350768
 31
0.0
  0
LINE
  5
7AA0
330
19
100
AcDbEntity
  8
1
  6
Continuous
100
AcDbLine
 10
-1314.681063
 20
-177.4832715350768
 30
0.0
 11
-1314.681063
 21
-169.9832715350768
 31
0.0
  0
LINE
  5
7AA1
330
19
100
AcDbEntity
  8
1
  6
Continuous
100
AcDbLine
 10
-1314.681063
 20
-169.9832715350768
 30
0.0
 11
-1309.181063
 21
-155.6832715350768
 31
0.0
  0
LINE
  5
7AA2
330
19
100
AcDbEntity
  8
2
  6
CENTER
100
AcDbLine
 10
-1248.681063
 20
-162.9832715350768
 30
0.0
 11
-1248.681063
 21
-56.98327153507682
 31
0.0
  0
POINT
  5
7AA3
330
19
100
AcDbEntity
  8
1
  6
Continuous
100
AcDbPoint
 10
-1178.281063
 20
-109.9832715350768
 30
0.0
  0
LINE
  5
7AA4
330
19
100
AcDbEntity
  8
1
  6
Continuous
100
AcDbLine
 10
-1182.681063
 20
-169.9832715350768
 30
0.0
 11
-1188.281063
 21
-155.6832715350768
 31
0.0
  0
LINE
  5
7AA5
330
19
100
AcDbEntity
  8
1
  6
Continuous
100
AcDbLine
 10
-1182.681063
 20
-177.4832715350768
 30
0.0
 11
-1182.681063
 21
-169.9832715350768
 31
0.0
  0
LINE
  5
7AA6
330
19
100
AcDbEntity
  8
1
  6
Continuous
100
AcDbLine
 10
-1151.381063
 20
-197.4832715350768
 30
0.0
 11
-1151.381063
 21
-177.4832715350768
 31
0.0
  0
CIRCLE
  5
7AA7
330
19
100
AcDbEntity
  8
1
  6
Continuous
100
AcDbCircle
 10
-886.0810630000001
 20
57.51672846492318
 30
0.0
 40
145.0
  0
CIRCLE
  5
7AA8
330
19
100
AcDbEntity
  8
1
  6
Continuous
100
AcDbCircle
 10
-886.0810630000001
 20
57.51672846492318
 30
0.0
 40
125.0
  0
ARC
  5
7AA9
330
19
100
AcDbEntity
  8
1
  6
Continuous
100
AcDbCircle
 10
-900.0810630000001
 20
43.51672846492317
 30
0.0
 40
172.6
100
AcDbArc
 50
275.5
 51
1.3
  0
LINE
  5
7AAA
330
19
100
AcDbEntity
  8
1
  6
Continuous
100
AcDbLine
 10
-1046.081063
 20
123.6167284649232
 30
0.0
 11
-1046.081063
 21
-197.4832715350768
 31
0.0
  0
LINE
  5
7AAB
330
19
100
AcDbEntity
  8
1
  6
Continuous
100
AcDbLine
 10
-726.0810629999999
 20
-197.4832715350768
 30
0.0
 11
-726.0810629999999
 21
123.6167284649232
 31
0.0
  0
LINE
  5
7AAC
330
19
100
AcDbEntity
  8
1
  6
Continuous
100
AcDbLine
 10
-761.0810629999999
 20
-197.4832715350768
 30
0.0
 11
-761.0810629999999
 21
112.5167284649231
 31
0.0
  0
LINE
  5
7AAD
330
19
100
AcDbEntity
  8
1
  6
Continuous
100
AcDbLine
 10
-696.081063
 20
-197.4832715350768
 30
0.0
 11
-696.081063
 21
-257.4832715350768
 31
0.0
  0
LINE
  5
7AAE
330
19
100
AcDbEntity
  8
2
  6
CENTER
100
AcDbLine
 10
34.33125065995876
 20
57.51672846492318
 30
0.0
 11
-442.8021203400413
 21
57.51672846492318
 31
0.0
  0
LINE
  5
7AAF
330
19
100
AcDbEntity
  8
1
  6
Continuous
100
AcDbLine
 10
-726.0810629999999
 20
24.21672846492322
 30
0.0
 11
-1046.081063
 21
24.21672846492322
 31
0.0
  0
LINE
  5
7AB0
330
19
100
AcDbEntity
  8
1
  6
Continuous
100
AcDbLine
 10
-824.4810629999999
 20
207.5167284649232
 30
0.0
 11
-947.6810630000001
 21
207.5167284649232
 31
0.0
  0
CIRCLE
  5
7AB1
330
19
100
AcDbEntity
  8
1
  6
Continuous
100
AcDbCircle
 10
-886.0810630000001
 20
57.51672846492318
 30
0.0
 40
63.5
  0
LINE
  5
7AB2
330
19
100
AcDbEntity
  8
1
  6
Continuous
100
AcDbLine
 10
-947.6810630000001
 20
207.5167284649232
 30
0.0
 11
-1046.081063
 21
123.6167284649232
 31
0.0
  0
LINE
  5
7AB3
330
19
100
AcDbEntity
  8
1
  6
Continuous
100
AcDbLine
 10
-686.0810629999999
 20
36.51672846492318
 30
0.0
 11
-686.0810629999999
 21
328.5167284649232
 31
0.0
  0
LINE
  5
7AB4
330
19
100
AcDbEntity
  8
1
  6
Continuous
100
AcDbLine
 10
-706.0810629999999
 20
287.5167284649232
 30
0.0
 11
-706.0810629999999
 21
77.51672846492318
 31
0.0
  0
LINE
  5
7AB5
330
19
100
AcDbEntity
  8
1
  6
Continuous
100
AcDbLine
 10
-824.4810629999999
 20
207.5167284649232
 30
0.0
 11
-726.0810629999999
 21
123.6167284649232
 31
0.0
  0
LINE
  5
7AB6
330
19
100
AcDbEntity
  8
1
  6
Continuous
100
AcDbLine
 10
-761.0810629999999
 20
112.5167284649231
 30
0.0
 11
-885.881063
 21
182.5167284649231
 31
0.0
  0
LINE
  5
7AB7
330
19
100
AcDbEntity
  8
2
  6
CENTER
100
AcDbLine
 10
-886.0810630000001
 20
1077.899302037454
 30
0.0
 11
-886.0810630000001
 21
589.9039660374543
 31
0.0
  0
LINE
  5
7AB8
330
19
100
AcDbEntity
  8
1
  6
Continuous
100
AcDbLine
 10
-706.0810629999999
 20
47.51672846492318
 30
0.0
 11
-727.4810629999999
 21
47.51672846492318
 31
0.0
  0
LINE
  5
7AB9
330
19
100
AcDbEntity
  8
1
  6
Continuous
100
AcDbLine
 10
-686.0810629999999
 20
57.51672846492318
 30
0.0
 11
-706.0810629999999
 21
77.51672846492318
 31
0.0
  0
LINE
  5
7ABA
330
19
100
AcDbEntity
  8
1
  6
Continuous
100
AcDbLine
 10
-686.0810629999999
 20
57.51672846492318
 30
0.0
 11
-706.0810629999999
 21
57.51672846492318
 31
0.0
  0
LINE
  5
7ABB
330
19
100
AcDbEntity
  8
1
  6
Continuous
100
AcDbLine
 10
-706.0810629999999
 20
57.51672846492318
 30
0.0
 11
-706.0810629999999
 21
47.51672846492318
 31
0.0
  0
LINE
  5
7ABC
330
19
100
AcDbEntity
  8
1
  6
Continuous
100
AcDbLine
 10
-706.0810629999999
 20
317.5167284649232
 30
0.0
 11
-886.481063
 21
317.5167284649232
 31
0.0
  0
LINE
  5
7ABD
330
19
100
AcDbEntity
  8
1
  6
Continuous
100
AcDbLine
 10
-686.0810629999999
 20
307.5167284649232
 30
0.0
 11
-706.0810629999999
 21
287.5167284649232
 31
0.0
  0
LINE
  5
7ABE
330
19
100
AcDbEntity
  8
1
  6
Continuous
100
AcDbLine
 10
-706.0810629999999
 20
317.5167284649232
 30
0.0
 11
-706.0810629999999
 21
307.5167284649232
 31
0.0
  0
LINE
  5
7ABF
330
19
100
AcDbEntity
  8
1
  6
Continuous
100
AcDbLine
 10
-686.0810629999999
 20
307.5167284649232
 30
0.0
 11
-706.0810629999999
 21
307.5167284649232
 31
0.0
  0
LINE
  5
7AC0
330
19
100
AcDbEntity
  8
1
  6
Continuous
100
AcDbLine
 10
-1096.981063
 20
951.0765540374546
 30
0.0
 11
-1436.081063
 21
951.0765540374546
 31
0.0
  0
LINE
  5
7AC1
330
19
100
AcDbEntity
  8
1
  6
Continuous
100
AcDbLine
 10
-761.0810629999999
 20
619.0765540374543
 30
0.0
 11
-1341.081063
 21
619.0765540374543
 31
0.0
  0
LINE
  5
7AC2
330
19
100
AcDbEntity
  8
1
  6
Continuous
100
AcDbLine
 10
-761.0810629999999
 20
694.0765540374543
 30
0.0
 11
-1341.081063
 21
694.0765540374543
 31
0.0
  0
LINE
  5
7AC3
330
19
100
AcDbEntity
  8
1
  6
Continuous
100
AcDbLine
 10
-898.081063
 20
701.0765540374543
 30
0.0
 11
-1236.681063
 21
701.0765540374543
 31
0.0
  0
LINE
  5
7AC4
330
19
100
AcDbEntity
  8
1
  6
Continuous
100
AcDbLine
 10
-1436.081063
 20
951.0765540374546
 30
0.0
 11
-1436.081063
 21
701.0765540374543
 31
0.0
  0
LINE
  5
7AC5
330
19
100
AcDbEntity
  8
1
  6
Continuous
100
AcDbLine
 10
-1260.781063
 20
701.0765540374543
 30
0.0
 11
-1436.081063
 21
701.0765540374543
 31
0.0
  0
LINE
  5
7AC6
330
19
100
AcDbEntity
  8
1
  6
Continuous
100
AcDbLine
 10
-1341.081063
 20
619.0765540374543
 30
0.0
 11
-1341.081063
 21
694.0765540374543
 31
0.0
  0
LINE
  5
7AC7
330
19
100
AcDbEntity
  8
1
  6
Continuous
100
AcDbLine
 10
-1172.081063
 20
725.3765540374544
 30
0.0
 11
-1323.581063
 21
725.3765540374544
 31
0.0
  0
LINE
  5
7AC8
330
19
100
AcDbEntity
  8
1
  6
Continuous
100
AcDbLine
 10
-1172.081063
 20
929.3765540374545
 30
0.0
 11
-1323.581063
 21
929.3765540374545
 31
0.0
  0
LINE
  5
7AC9
330
19
100
AcDbEntity
  8
1
  6
Continuous
100
AcDbLine
 10
-1195.681063
 20
674.0765540374543
 30
0.0
 11
-1301.681063
 21
674.0765540374543
 31
0.0
  0
LINE
  5
7ACA
330
19
100
AcDbEntity
  8
1
  6
Continuous
100
AcDbLine
 10
-1195.681063
 20
639.0765540374543
 30
0.0
 11
-1301.681063
 21
639.0765540374543
 31
0.0
  0
LINE
  5
7ACB
330
19
100
AcDbEntity
  8
1
  6
Continuous
100
AcDbLine
 10
-1236.781063
 20
674.0765540374543
 30
0.0
 11
-1236.681063
 21
725.3765540374544
 31
0.0
  0
LINE
  5
7ACC
330
19
100
AcDbEntity
  8
1
  6
Continuous
100
AcDbLine
 10
-1260.681063
 20
674.0765540374543
 30
0.0
 11
-1260.781063
 21
725.3765540374544
 31
0.0
  0
LINE
  5
7ACD
330
19
100
AcDbEntity
  8
1
  6
Continuous
100
AcDbLine
 10
-1323.581063
 20
725.3765540374544
 30
0.0
 11
-1323.581063
 21
929.3765540374545
 31
0.0
  0
LINE
  5
7ACE
330
19
100
AcDbEntity
  8
1
  6
Continuous
100
AcDbLine
 10
-1301.681063
 20
639.0765540374543
 30
0.0
 11
-1301.681063
 21
674.0765540374543
 31
0.0
  0
LINE
  5
7ACF
330
19
100
AcDbEntity
  8
1
  6
Continuous
100
AcDbLine
 10
-1172.081063
 20
725.3765540374544
 30
0.0
 11
-1172.081063
 21
929.3765540374545
 31
0.0
  0
LINE
  5
7AD0
330
19
100
AcDbEntity
  8
1
  6
Continuous
100
AcDbLine
 10
-1195.681063
 20
639.0765540374543
 30
0.0
 11
-1195.681063
 21
674.0765540374543
 31
0.0
  0
LINE
  5
7AD1
330
19
100
AcDbEntity
  8
1
  6
Continuous
100
AcDbLine
 10
-1096.981063
 20
1036.876554037454
 30
0.0
 11
-1096.981063
 21
881.2765540374545
 31
0.0
  0
LINE
  5
7AD2
330
19
100
AcDbEntity
  8
1
  6
Continuous
100
AcDbLine
 10
-706.0810629999999
 20
1019.876554037454
 30
0.0
 11
-706.0810629999999
 21
898.2765540374543
 31
0.0
  0
LINE
  5
7AD3
330
19
100
AcDbEntity
  8
1
  6
Continuous
100
AcDbLine
 10
-686.0810629999999
 20
1070.076554037454
 30
0.0
 11
-686.0810629999999
 21
848.0765540374544
 31
0.0
  0
LINE
  5
7AD4
330
19
100
AcDbEntity
  8
1
  6
Continuous
100
AcDbLine
 10
-686.0810629999999
 20
869.2765540374544
 30
0.0
 11
-1084.981063
 21
869.2765540374544
 31
0.0
  0
LINE
  5
7AD5
330
19
100
AcDbEntity
  8
1
  6
Continuous
100
AcDbLine
 10
-726.0810629999999
 20
860.0765540374544
 30
0.0
 11
-1046.081063
 21
860.0765540374544
 31
0.0
  0
LINE
  5
7AD6
330
19
100
AcDbEntity
  8
1
  6
Continuous
100
AcDbLine
 10
-822.5810629999999
 20
674.0765540374543
 30
0.0
 11
-949.5810630000001
 21
674.0765540374543
 31
0.0
  0
LINE
  5
7AD7
330
19
100
AcDbEntity
  8
1
  6
Continuous
100
AcDbLine
 10
-822.5810629999999
 20
639.0765540374543
 30
0.0
 11
-949.5810630000001
 21
639.0765540374543
 31
0.0
  0
LINE
  5
7AD8
330
19
100
AcDbEntity
  8
1
  6
Continuous
100
AcDbLine
 10
-898.081063
 20
731.0765540374545
 30
0.0
 11
-1046.081063
 21
731.0765540374545
 31
0.0
  0
LINE
  5
7AD9
330
19
100
AcDbEntity
  8
1
  6
Continuous
100
AcDbLine
 10
-1033.081063
 20
869.2765540374544
 30
0.0
 11
-1033.081063
 21
860.0765540374544
 31
0.0
  0
ARC
  5
7ADA
330
19
100
AcDbEntity
  8
1
  6
Continuous
100
AcDbCircle
 10
-1084.981063
 20
881.2765540374545
 30
0.0
 40
12.0
100
AcDbArc
 50
180.0
 51
270.0
  0
LINE
  5
7ADB
330
19
100
AcDbEntity
  8
1
  6
Continuous
100
AcDbLine
 10
-1046.081063
 20
860.0765540374544
 30
0.0
 11
-1046.081063
 21
731.0765540374545
 31
0.0
  0
LINE
  5
7ADC
330
19
100
AcDbEntity
  8
1
  6
Continuous
100
AcDbLine
 10
-949.5810630000001
 20
639.0765540374543
 30
0.0
 11
-949.5810630000001
 21
674.0765540374543
 31
0.0
  0
LINE
  5
7ADD
330
19
100
AcDbEntity
  8
1
  6
Continuous
100
AcDbLine
 10
-761.0810629999999
 20
619.0765540374543
 30
0.0
 11
-761.0810629999999
 21
694.0765540374543
 31
0.0
  0
LINE
  5
7ADE
330
19
100
AcDbEntity
  8
1
  6
Continuous
100
AcDbLine
 10
-726.0810629999999
 20
731.0765540374545
 30
0.0
 11
-874.081063
 21
731.0765540374545
 31
0.0
  0
LINE
  5
7ADF
330
19
100
AcDbEntity
  8
1
  6
Continuous
100
AcDbLine
 10
-822.5810629999999
 20
639.0765540374543
 30
0.0
 11
-822.5810629999999
 21
674.0765540374543
 31
0.0
  0
LINE
  5
7AE0
330
19
100
AcDbEntity
  8
1
  6
Continuous
100
AcDbLine
 10
-898.081063
 20
674.0765540374543
 30
0.0
 11
-898.081063
 21
860.0765540374544
 31
0.0
  0
LINE
  5
7AE1
330
19
100
AcDbEntity
  8
1
  6
Continuous
100
AcDbLine
 10
-874.081063
 20
674.0765540374543
 30
0.0
 11
-874.081063
 21
860.0765540374544
 31
0.0
  0
LINE
  5
7AE2
330
19
100
AcDbEntity
  8
1
  6
Continuous
100
AcDbLine
 10
-739.0810629999999
 20
869.2765540374544
 30
0.0
 11
-739.0810629999999
 21
860.0765540374544
 31
0.0
  0
LINE
  5
7AE3
330
19
100
AcDbEntity
  8
1
  6
Continuous
100
AcDbLine
 10
-686.0810629999999
 20
878.2765540374544
 30
0.0
 11
-706.0810629999999
 21
898.2765540374543
 31
0.0
  0
LINE
  5
7AE4
330
19
100
AcDbEntity
  8
1
  6
Continuous
100
AcDbLine
 10
-726.0810629999999
 20
731.0765540374545
 30
0.0
 11
-726.0810629999999
 21
860.0765540374544
 31
0.0
  0
LINE
  5
7AE5
330
19
100
AcDbEntity
  8
1
  6
Continuous
100
AcDbLine
 10
-686.0810629999999
 20
1048.876554037454
 30
0.0
 11
-1084.981063
 21
1048.876554037454
 31
0.0
  0
LINE
  5
7AE6
330
19
100
AcDbEntity
  8
1
  6
Continuous
100
AcDbLine
 10
-1033.081063
 20
1058.076554037454
 30
0.0
 11
-739.0810629999999
 21
1058.076554037454
 31
0.0
  0
ARC
  5
7AE7
330
19
100
AcDbEntity
  8
1
  6
Continuous
100
AcDbCircle
 10
-1084.981063
 20
1036.876554037454
 30
0.0
 40
12.0
100
AcDbArc
 50
90.0
 51
180.0
  0
LINE
  5
7AE8
330
19
100
AcDbEntity
  8
1
  6
Continuous
100
AcDbLine
 10
-1033.081063
 20
1049.876554037454
 30
0.0
 11
-1033.081063
 21
1058.076554037454
 31
0.0
  0
LINE
  5
7AE9
330
19
100
AcDbEntity
  8
1
  6
Continuous
100
AcDbLine
 10
-686.0810629999999
 20
1039.876554037454
 30
0.0
 11
-706.0810629999999
 21
1019.876554037454
 31
0.0
  0
LINE
  5
7AEA
330
19
100
AcDbEntity
  8
1
  6
Continuous
100
AcDbLine
 10
-739.0810629999999
 20
1049.876554037454
 30
0.0
 11
-739.0810629999999
 21
1058.076554037454
 31
0.0
  0
LINE
  5
7AEB
330
19
100
AcDbEntity
  8
1
  6
Continuous
100
AcDbLine
 10
-334.6318293400412
 20
-327.4832715350769
 30
0.0
 11
-84.63182934004136
 21
-327.4832715350769
 31
0.0
  0
LINE
  5
7AEC
330
19
100
AcDbEntity
  8
1
  6
Continuous
100
AcDbLine
 10
-334.6318293400412
 20
-357.4832715350769
 30
0.0
 11
-84.63182934004136
 21
-357.4832715350769
 31
0.0
  0
LINE
  5
7AED
330
19
100
AcDbEntity
  8
1
  6
Continuous
100
AcDbLine
 10
-416.6318293400412
 20
-197.4832715350768
 30
0.0
 11
-84.63182934004136
 21
-197.4832715350768
 31
0.0
  0
LINE
  5
7AEE
330
19
100
AcDbEntity
  8
1
  6
Continuous
100
AcDbLine
 10
-334.6318293400412
 20
-257.4832715350768
 30
0.0
 11
-84.63182934004136
 21
-257.4832715350768
 31
0.0
  0
LINE
  5
7AEF
330
19
100
AcDbEntity
  8
1
  6
Continuous
100
AcDbLine
 10
-304.6318293400412
 20
19.31672846492318
 30
0.0
 11
-175.6318293400413
 21
123.6167284649232
 31
0.0
  0
LINE
  5
7AF0
330
19
100
AcDbEntity
  8
1
  6
Continuous
100
AcDbLine
 10
-304.6318293400412
 20
-197.4832715350768
 30
0.0
 11
-304.6318293400412
 21
19.31672846492318
 31
0.0
  0
LINE
  5
7AF1
330
19
100
AcDbEntity
  8
1
  6
Continuous
100
AcDbLine
 10
-416.6318293400412
 20
-197.4832715350768
 30
0.0
 11
-416.6318293400412
 21
182.5167284649231
 31
0.0
  0
LINE
  5
7AF2
330
19
100
AcDbEntity
  8
1
  6
Continuous
100
AcDbLine
 10
-341.6318293400412
 20
-197.4832715350768
 30
0.0
 11
-341.6318293400412
 21
182.5167284649231
 31
0.0
  0
LINE
  5
7AF6
330
19
100
AcDbEntity
  8
1
  6
Continuous
100
AcDbLine
 10
-666.081063
 20
-327.4832715350769
 30
0.0
 11
-666.081063
 21
-357.4832715350769
 31
0.0
  0
LINE
  5
7AF8
330
19
100
AcDbEntity
  8
1
  6
Continuous
100
AcDbLine
 10
-361.6318293400412
 20
-121.9832715350768
 30
0.0
 11
-304.6318293400412
 21
-121.9832715350768
 31
0.0
  0
LINE
  5
7AF9
330
19
100
AcDbEntity
  8
1
  6
Continuous
100
AcDbLine
 10
-361.6318293400412
 20
-97.98327153507683
 30
0.0
 11
-304.6318293400412
 21
-97.98327153507683
 31
0.0
  0
LINE
  5
7AFA
330
19
100
AcDbEntity
  8
1
  6
Continuous
100
AcDbLine
 10
-396.6318293400413
 20
-56.98327153507682
 30
0.0
 11
-361.6318293400412
 21
-56.98327153507682
 31
0.0
  0
LINE
  5
7AFB
330
19
100
AcDbEntity
  8
1
  6
Continuous
100
AcDbLine
 10
-396.6318293400413
 20
-56.98327153507682
 30
0.0
 11
-396.6318293400413
 21
-162.9832715350768
 31
0.0
  0
LINE
  5
7AFC
330
19
100
AcDbEntity
  8
1
  6
Continuous
100
AcDbLine
 10
-396.6318293400413
 20
-162.9832715350768
 30
0.0
 11
-361.6318293400412
 21
-162.9832715350768
 31
0.0
  0
LINE
  5
7AFD
330
19
100
AcDbEntity
  8
1
  6
Continuous
100
AcDbLine
 10
-361.6318293400412
 20
-56.98327153507682
 30
0.0
 11
-361.6318293400412
 21
-162.9832715350768
 31
0.0
  0
LINE
  5
7AFE
330
19
100
AcDbEntity
  8
1
  6
Continuous
100
AcDbLine
 10
-334.6318293400412
 20
-327.4832715350769
 30
0.0
 11
-334.6318293400412
 21
-357.4832715350769
 31
0.0
  0
LINE
  5
7AFF
330
19
100
AcDbEntity
  8
1
  6
Continuous
100
AcDbLine
 10
-334.6318293400412
 20
-197.4832715350768
 30
0.0
 11
-334.6318293400412
 21
-257.4832715350768
 31
0.0
  0
LINE
  5
7B00
330
19
100
AcDbEntity
  8
1
  6
Continuous
100
AcDbLine
 10
-416.6318293400412
 20
182.5167284649231
 30
0.0
 11
-341.6318293400412
 21
182.5167284649231
 31
0.0
  0
LINE
  5
7B01
330
19
100
AcDbEntity
  8
1
  6
Continuous
100
AcDbLine
 10
-361.6318293400412
 20
69.51672846492318
 30
0.0
 11
-242.5318293400413
 21
69.51672846492318
 31
0.0
  0
LINE
  5
7B02
330
19
100
AcDbEntity
  8
1
  6
Continuous
100
AcDbLine
 10
-361.6318293400412
 20
45.51672846492317
 30
0.0
 11
-272.2318293400412
 21
45.51672846492317
 31
0.0
  0
LINE
  5
7B03
330
19
100
AcDbEntity
  8
1
  6
Continuous
100
AcDbLine
 10
-396.6318293400413
 20
121.0167284649231
 30
0.0
 11
-396.6318293400413
 21
-5.983271535076823
 31
0.0
  0
LINE
  5
7B04
330
19
100
AcDbEntity
  8
1
  6
Continuous
100
AcDbLine
 10
-396.6318293400413
 20
121.0167284649231
 30
0.0
 11
-361.6318293400412
 21
121.0167284649231
 31
0.0
  0
LINE
  5
7B05
330
19
100
AcDbEntity
  8
1
  6
Continuous
100
AcDbLine
 10
-396.6318293400413
 20
-5.983271535076823
 30
0.0
 11
-361.6318293400412
 21
-5.983271535076823
 31
0.0
  0
LINE
  5
7B06
330
19
100
AcDbEntity
  8
1
  6
Continuous
100
AcDbLine
 10
-361.6318293400412
 20
121.0167284649231
 30
0.0
 11
-361.6318293400412
 21
-5.983271535076823
 31
0.0
  0
LINE
  5
7B07
330
19
100
AcDbEntity
  8
1
  6
Continuous
100
AcDbLine
 10
22.36817065995877
 20
204.5167284649232
 30
0.0
 11
22.36817065995877
 21
-89.48327153507682
 31
0.0
  0
LINE
  5
7B08
330
19
100
AcDbEntity
  8
1
  6
Continuous
100
AcDbLine
 10
13.36817065995876
 20
-141.3832715350768
 30
0.0
 11
13.36817065995876
 21
308.5167284649232
 31
0.0
  0
LINE
  5
7B09
330
19
100
AcDbEntity
  8
1
  6
Continuous
100
AcDbLine
 10
-166.6318293400413
 20
308.5167284649232
 30
0.0
 11
-166.6318293400413
 21
-141.3832715350768
 31
0.0
  0
LINE
  5
7B0A
330
19
100
AcDbEntity
  8
1
  6
Continuous
100
AcDbLine
 10
-175.6318293400413
 20
204.5167284649232
 30
0.0
 11
-175.6318293400413
 21
-197.4832715350768
 31
0.0
  0
LINE
  5
7B0B
330
19
100
AcDbEntity
  8
1
  6
Continuous
100
AcDbLine
 10
-155.6318293400413
 20
-153.3832715350768
 30
0.0
 11
2.36817065995865
 21
-153.3832715350768
 31
0.0
  0
LINE
  5
7B0C
330
19
100
AcDbEntity
  8
1
  6
Continuous
100
AcDbLine
 10
-166.6318293400413
 20
-89.48327153507682
 30
0.0
 11
-175.6318293400413
 21
-89.48327153507682
 31
0.0
  0
ARC
  5
7B0D
330
19
100
AcDbEntity
  8
1
  6
Continuous
100
AcDbCircle
 10
-155.6318293400413
 20
-141.3832715350768
 30
0.0
 40
12.0
100
AcDbArc
 50
180.0
 51
270.0
  0
ARC
  5
7B0E
330
19
100
AcDbEntity
  8
1
  6
Continuous
100
AcDbCircle
 10
-154.6318293400413
 20
-141.3832715350768
 30
0.0
 40
12.0
100
AcDbArc
 50
180.0
 51
270.0
  0
LINE
  5
7B0F
330
19
100
AcDbEntity
  8
1
  6
Continuous
100
AcDbLine
 10
-84.63182934004136
 20
-327.4832715350769
 30
0.0
 11
-84.63182934004136
 21
-357.4832715350769
 31
0.0
  0
LINE
  5
7B10
330
19
100
AcDbEntity
  8
1
  6
Continuous
100
AcDbLine
 10
-84.63182934004136
 20
-197.4832715350768
 30
0.0
 11
-84.63182934004136
 21
-257.4832715350768
 31
0.0
  0
LINE
  5
7B11
330
19
100
AcDbEntity
  8
1
  6
Continuous
100
AcDbLine
 10
13.36817065995876
 20
-89.48327153507682
 30
0.0
 11
22.36817065995877
 21
-89.48327153507682
 31
0.0
  0
ARC
  5
7B12
330
19
100
AcDbEntity
  8
1
  6
Continuous
100
AcDbCircle
 10
1.36817065995865
 20
-141.3832715350768
 30
0.0
 40
12.0
100
AcDbArc
 50
270.0
 51
0.0
  0
LINE
  5
7B13
330
19
100
AcDbEntity
  8
1
  6
Continuous
100
AcDbLine
 10
-166.6318293400413
 20
56.51672846492317
 30
0.0
 11
13.36817065995876
 21
56.51672846492317
 31
0.0
  0
LINE
  5
7B14
330
19
100
AcDbEntity
  8
1
  6
Continuous
100
AcDbLine
 10
13.36817065995876
 20
308.5167284649232
 30
0.0
 11
-166.6318293400413
 21
308.5167284649232
 31
0.0
  0
LINE
  5
7B15
330
19
100
AcDbEntity
  8
1
  6
Continuous
100
AcDbLine
 10
-166.6318293400413
 20
308.5167284649232
 30
0.0
 11
13.36817065995876
 21
56.51672846492317
 31
0.0
  0
LINE
  5
7B16
330
19
100
AcDbEntity
  8
1
  6
Continuous
100
AcDbLine
 10
-166.6318293400413
 20
56.51672846492317
 30
0.0
 11
13.36817065995876
 21
308.5167284649232
 31
0.0
  0
LINE
  5
7B17
330
19
100
AcDbEntity
  8
1
  6
Continuous
100
AcDbLine
 10
-166.6318293400413
 20
204.5167284649232
 30
0.0
 11
-175.6318293400413
 21
204.5167284649232
 31
0.0
  0
LINE
  5
7B18
330
19
100
AcDbEntity
  8
1
  6
Continuous
100
AcDbLine
 10
13.36817065995876
 20
204.5167284649232
 30
0.0
 11
22.36817065995877
 21
204.5167284649232
 31
0.0
  0
LINE
  5
7B19
330
19
100
AcDbEntity
  8
1
  6
Continuous
100
AcDbLine
 10
-666.081063
 20
951.0765540374546
 30
0.0
 11
-666.081063
 21
701.0765540374543
 31
0.0
  0
LINE
  5
7B1A
330
19
100
AcDbEntity
  8
4
  6
Continuous
100
AcDbLine
 10
104.86888
 20
-640.7360419999999
 30
0.0
 11
104.86888
 21
-840.7360419999999
 31
0.0
  0
LINE
  5
7B1B
330
19
100
AcDbEntity
  8
4
  6
Continuous
100
AcDbLine
 10
-595.13112
 20
-640.7360419999999
 30
0.0
 11
-595.13112
 21
-840.7360419999999
 31
0.0
  0
LINE
  5
7B1C
330
19
100
AcDbEntity
  8
4
  6
Continuous
100
AcDbLine
 10
-1095.13112
 20
-640.7360419999999
 30
0.0
 11
-1095.13112
 21
-840.7360419999999
 31
0.0
  0
LINE
  5
7B1F
330
19
100
AcDbEntity
  8
4
  6
Continuous
100
AcDbLine
 10
-1095.13112
 20
-840.7360419999999
 30
0.0
 11
104.86888
 21
-840.7360419999999
 31
0.0
  0
LINE
  5
7B20
330
19
100
AcDbEntity
  8
4
  6
Continuous
100
AcDbLine
 10
-1095.13112
 20
-740.7360419999999
 30
0.0
 11
104.86888
 21
-740.7360419999999
 31
0.0
  0
TEXT
  5
7B21
330
19
100
AcDbEntity
  8
4
  6
Continuous
100
AcDbText
 10
-1056.62904
 20
-709.193016
 30
0.0
 40
50.0
  1
機器名称
100
AcDbText
  0
TEXT
  5
7B22
330
19
100
AcDbEntity
  8
4
  6
Continuous
100
AcDbText
 10
-1058.873014
 20
-819.0908849999999
 30
0.0
 40
50.0
  1
機器型番
100
AcDbText
  0
TEXT
  5
7B23
330
19
100
AcDbEntity
  8
4
  6
Continuous
100
AcDbText
 10
-567.4523749999999
 20
-718.164273
 30
0.0
 40
45.0
  1
ミツヤニューマルチファン
100
AcDbText
  0
TEXT
  5
7B24
330
19
100
AcDbEntity
  8
4
  6
Continuous
100
AcDbText
 10
-558.476625
 20
-823.5764579999999
 30
0.0
 40
50.0
  1
NM#1 1/2-1
100
AcDbText
  0
TEXT
  5
7B26
330
19
100
AcDbEntity
  8
4
  6
Continuous
100
AcDbText
 10
-999.9504289999999
 20
1242.692799
 30
0.0
 40
54.0
  1
床置防振ベット
100
AcDbText
  0
TEXT
  5
7B27
330
19
100
AcDbEntity
  8
4
  6
Continuous
100
AcDbText
 10
-1428.963527
 20
1393.144934
 30
0.0
 40
72.0
  1
ベルト駆動式片吸込片持多翼ファン
100
AcDbText
  0
LINE
  5
7B28
330
19
100
AcDbEntity
  8
4
  6
Continuous
100
AcDbLine
 10
-1495.13112
 20
1328.672712
 30
0.0
 11
104.86888
 21
1328.672712
 31
0.0
  0
LINE
  5
7B29
330
19
100
AcDbEntity
  8
4
  6
Continuous
100
AcDbLine
 10
-1495.13112
 20
1528.672712
 30
0.0
 11
104.86888
 21
1528.672712
 31
0.0
  0
LINE
  5
7B2A
330
19
100
AcDbEntity
  8
4
  6
Continuous
100
AcDbLine
 10
-1095.13112
 20
-640.7360419999999
 30
0.0
 11
104.86888
 21
-640.7360419999999
 31
0.0
  0
LINE
  5
7B2B
330
19
100
AcDbEntity
  8
4
  6
Continuous
100
AcDbLine
 10
-1495.13112
 20
1528.672712
 30
0.0
 11
-1495.13112
 21
1328.672712
 31
0.0
  0
TEXT
  5
7B2C
330
19
100
AcDbEntity
  8
4
  6
Continuous
100
AcDbText
 10
-1435.809261
 20
1241.583436
 30
0.0
 40
54.0
  1
右回転右横向
100
AcDbText
  0
TEXT
  5
7B2D
330
19
100
AcDbEntity
  8
4
  6
Continuous
100
AcDbText
 10
-276.161561
 20
1565.32504
 30
0.0
 40
56.0
  1
No.
100
AcDbText
  0
TEXT
  5
7B2E
330
19
100
AcDbEntity
  8
4
  6
Continuous
100
AcDbText
 10
-433.835058
 20
1242.692799
 30
0.0
 40
54.0
  1
縮尺：1/10
100
AcDbText
  0
LINE
  5
7B2F
330
19
100
AcDbEntity
  8
4
  6
Continuous
100
AcDbLine
 10
104.86888
 20
1528.672712
 30
0.0
 11
104.86888
 21
1328.672712
 31
0.0
  0
LINE
  5
7B31
330
19
100
AcDbEntity
  8
4
  6
Continuous
100
AcDbLine
 10
-304.513698
 20
1540.527541
 30
0.0
 11
-304.513698
 21
1645.91622
 31
0.0
  0
LINE
  5
7B32
330
19
100
AcDbEntity
  8
4
  6
Continuous
100
AcDbLine
 10
-304.513698
 20
1645.91622
 30
0.0
 11
104.86888
 21
1645.91622
 31
0.0
  0
LINE
  5
7B33
330
19
100
AcDbEntity
  8
4
  6
Continuous
100
AcDbLine
 10
104.86888
 20
1645.91622
 30
0.0
 11
104.86888
 21
1540.527541
 31
0.0
  0
LINE
  5
7B34
330
19
100
AcDbEntity
  8
4
  6
Continuous
100
AcDbLine
 10
104.86888
 20
1540.527541
 30
0.0
 11
-304.513698
 21
1540.527541
 31
0.0
  0
DIMENSION
  5
7B4C
330
19
100
AcDbEntity
  8
3
  6
Continuous
100
AcDbDimension
280
     0
  2
*D1
 10
-886.0810630000001
 20
-452.9426315350768
 30
0.0
 11
-1154.916737
 21
-452.9426315350768
 31
0.0
 70
   160
 71
     5
 42
550.0
 73
     0
 74
     0
 75
     0
  3
IGA
100
AcDbAlignedDimension
 13
-1436.081063
 23
-357.4832715350769
 33
0.0
 14
-886.0810630000001
 24
-357.4832715350769
 34
0.0
100
AcDbRotatedDimension
1001
ACAD
1000
DSTYLE
1002
{
1070
   287
1070
     3
1070
    40
1040
10.0
1070
   143
1040
0.039
1070
   172
1070
     1
1070
   271
1070
     0
1070
   279
1070
     0
1070
   288
1070
     1
1002
}
  0
DIMENSION
  5
7B58
330
19
100
AcDbEntity
  8
3
  6
Continuous
100
AcDbDimension
280
     0
  2
*D2
 10
-666.081063
 20
-452.9426315350768
 30
0.0
 11
-776.081063
 21
-427.9426315350768
 31
0.0
 70
    32
 71
     5
 42
220.0000000000001
 73
     0
 74
     0
 75
     0
  3
IGA
100
AcDbAlignedDimension
 13
-886.0810630000001
 23
-357.4832715350769
 33
0.0
 14
-666.081063
 24
-357.4832715350769
 34
0.0
100
AcDbRotatedDimension
1001
ACAD
1000
DSTYLE
1002
{
1070
   287
1070
     4
1070
    40
1040
10.0
1070
    75
1070
     1
1070
   143
1040
0.039
1070
   172
1070
     1
1070
   271
1070
     0
1070
   279
1070
     1
1070
   288
1070
     1
1002
}
  0
DIMENSION
  5
7B65
330
19
100
AcDbEntity
  8
3
  6
Continuous
100
AcDbDimension
280
     0
  2
*D3
 10
-604.139121
 20
57.51672846492315
 30
0.0
 11
-604.139121
 21
188.6443524649232
 31
0.0
 70
   160
 71
     5
 42
-1.0
 73
     0
 74
     0
 75
     0
  3
IGA
100
AcDbAlignedDimension
 13
-686.0810629999999
 23
307.5167284649232
 33
0.0
 14
-686.0810629999999
 24
57.51672846492318
 34
0.0
 50
90.0
100
AcDbRotatedDimension
1001
ACAD
1000
DSTYLE
1002
{
1070
   287
1070
     3
1070
    40
1040
10.0
1070
   143
1040
0.039
1070
   172
1070
     1
1070
   271
1070
     0
1070
   279
1070
     0
1070
   288
1070
     1
1002
}
  0
DIMENSION
  5
7B72
330
19
100
AcDbEntity
  8
3
  6
Continuous
100
AcDbDimension
280
     0
  2
*D4
 10
-544.8076508472437
 20
57.51672846492314
 30
0.0
 11
-544.8076508472437
 21
189.6535084649232
 31
0.0
 70
   160
 71
     5
 42
-1.0
 73
     0
 74
     0
 75
     0
  3
IGA
100
AcDbAlignedDimension
 13
-706.0810629999999
 23
317.5167284649232
 33
0.0
 14
-686.0810629999999
 24
57.51672846492318
 34
0.0
 50
90.0
100
AcDbRotatedDimension
1001
ACAD
1000
DSTYLE
1002
{
1070
   287
1070
     3
1070
    40
1040
10.0
1070
   143
1040
0.039
1070
   172
1070
     1
1070
   271
1070
     0
1070
   279
1070
     0
1070
   288
1070
     1
1002
}
  0
DIMENSION
  5
7B7E
330
19
100
AcDbEntity
  8
3
  6
Continuous
100
AcDbDimension
280
     0
  2
*D5
 10
-544.8076508472437
 20
-257.4832715350769
 30
0.0
 11
-569.8076508472436
 21
-99.98327153507696
 31
0.0
 70
    32
 71
     5
 42
-1.0
 73
     0
 74
     0
 75
     0
  3
IGA
100
AcDbAlignedDimension
 13
-686.0810629999999
 23
57.51672846492318
 33
0.0
 14
-696.081063
 24
-257.4832715350768
 34
0.0
 50
90.0
100
AcDbRotatedDimension
1001
ACAD
1000
DSTYLE
1002
{
1070
   287
1070
     4
1070
    40
1040
10.0
1070
    75
1070
     1
1070
   143
1040
0.039
1070
   172
1070
     1
1070
   271
1070
     0
1070
   279
1070
     1
1070
   288
1070
     1
1002
}
  0
DIMENSION
  5
7BC2
330
19
100
AcDbEntity
  8
3
  6
Continuous
100
AcDbDimension
280
     0
  2
*D6
 10
-886.0810630000001
 20
369.2427074649231
 30
0.0
 11
-1003.441106
 21
369.2427074649231
 31
0.0
 70
   160
 71
     5
 42
-1.0
 73
     0
 74
     0
 75
     0
  3
IGA
100
AcDbAlignedDimension
 13
-1106.070447
 23
57.51672846492318
 33
0.0
 14
-886.0810630000001
 24
317.5167284649232
 34
0.0
100
AcDbRotatedDimension
1001
ACAD
1000
DSTYLE
1002
{
1070
   287
1070
     3
1070
    40
1040
10.0
1070
   143
1040
0.039
1070
   172
1070
     1
1070
   271
1070
     0
1070
   279
1070
     0
1070
   288
1070
     1
1002
}
  0
DIMENSION
  5
7BCE
330
19
100
AcDbEntity
  8
3
  6
Continuous
100
AcDbDimension
280
     0
  2
*D7
 10
-686.0810629999999
 20
369.2427074649231
 30
0.0
 11
-786.0810630000001
 21
394.2427074649231
 31
0.0
 70
    32
 71
     5
 42
-1.0
 73
     0
 74
     0
 75
     0
  3
IGA
100
AcDbAlignedDimension
 13
-886.0810630000001
 23
317.5167284649232
 33
0.0
 14
-686.0810629999999
 24
328.5167284649232
 34
0.0
100
AcDbRotatedDimension
1001
ACAD
1000
DSTYLE
1002
{
1070
   287
1070
     4
1070
    40
1040
10.0
1070
    75
1070
     1
1070
   143
1040
0.039
1070
   172
1070
     1
1070
   271
1070
     0
1070
   279
1070
     1
1070
   288
1070
     1
1002
}
  0
DIMENSION
  5
7BDB
330
19
100
AcDbEntity
  8
3
  6
Continuous
100
AcDbDimension
280
     0
  2
*D8
 10
-84.63182934004136
 20
-430.6486625350769
 30
0.0
 11
-205.7431143400413
 21
-430.6486625350769
 31
0.0
 70
   160
 71
     5
 42
249.9999999999999
 73
     0
 74
     0
 75
     0
  3
IGA
100
AcDbAlignedDimension
 13
-334.6318293400412
 23
-357.4832715350769
 33
0.0
 14
-84.63182934004136
 24
-357.4832715350769
 34
0.0
100
AcDbRotatedDimension
1001
ACAD
1000
DSTYLE
1002
{
1070
   287
1070
     3
1070
    40
1040
10.0
1070
   143
1040
0.039
1070
   172
1070
     1
1070
   271
1070
     0
1070
   279
1070
     0
1070
   288
1070
     1
1002
}
  0
DIMENSION
  5
7BE8
330
19
100
AcDbEntity
  8
3
  6
Continuous
100
AcDbDimension
280
     0
  2
*D9
 10
-666.081063
 20
527.1057240374544
 30
0.0
 11
-1055.38358
 21
527.1057240374544
 31
0.0
 70
   160
 71
     5
 42
-1.0
 73
     0
 74
     0
 75
     0
  3
IGA
100
AcDbAlignedDimension
 13
-1436.081063
 23
701.0765540374543
 33
0.0
 14
-666.081063
 24
701.0765540374543
 34
0.0
100
AcDbRotatedDimension
1001
ACAD
1000
DSTYLE
1002
{
1070
   287
1070
     3
1070
    40
1040
10.0
1070
   143
1040
0.039
1070
   172
1070
     1
1070
   271
1070
     0
1070
   279
1070
     0
1070
   288
1070
     1
1002
}
  0
LINE
  5
7BF7
330
19
100
AcDbEntity
  8
2
  6
CENTER
100
AcDbLine
 10
-1152.558399
 20
959.0765540374546
 30
0.0
 11
-632.1408269999999
 21
959.0765540374546
 31
0.0
  0
LINE
  5
7BF8
330
19
100
AcDbEntity
  8
2
  6
CENTER
100
AcDbLine
 10
-886.0810630000001
 20
338.2865384649232
 30
0.0
 11
-886.0810629999999
 21
-357.4832715350769
 31
0.0
  0
LINE
  5
7BF9
330
19
100
AcDbEntity
  8
2
  6
CENTER
100
AcDbLine
 10
-76.63182934004135
 20
368.3786314649233
 30
0.0
 11
-76.63182934004135
 21
-357.4832715350769
 31
0.0
  0
LINE
  5
7BFB
330
19
100
AcDbEntity
  8
2
  6
CENTER
100
AcDbLine
 10
-667.199187
 20
57.51672846492318
 30
0.0
 11
-1278.035086
 21
57.51672846492318
 31
0.0
  0
DIMENSION
  5
7C08
330
19
100
AcDbEntity
  8
3
  6
Continuous
100
AcDbDimension
280
     0
  2
*D10
 10
13.36817065995877
 20
364.7820334649232
 30
0.0
 11
-75.13668134004126
 21
364.7820334649232
 31
0.0
 70
   160
 71
     5
 42
-1.0
 73
     0
 74
     0
 75
     0
  3
IGA
100
AcDbAlignedDimension
 13
-166.6318293400413
 23
308.5167284649232
 33
0.0
 14
13.36817065995876
 24
308.5167284649232
 34
0.0
100
AcDbRotatedDimension
1001
ACAD
1000
DSTYLE
1002
{
1070
   287
1070
     3
1070
    40
1040
10.0
1070
   143
1040
0.039
1070
   172
1070
     1
1070
   271
1070
     0
1070
   279
1070
     0
1070
   288
1070
     1
1002
}
  0
DIMENSION
  5
7C15
330
19
100
AcDbEntity
  8
3
  6
Continuous
100
AcDbDimension
280
     0
  2
*D11
 10
-76.63182934004135
 20
429.0566234649231
 30
0.0
 11
-237.5935053400413
 21
429.0566234649231
 31
0.0
 70
   160
  1
(340)
 71
     5
 42
339.9999999999999
 73
     0
 74
     0
 75
     0
  3
IGA
100
AcDbAlignedDimension
 13
-416.6318293400412
 23
182.5167284649231
 33
0.0
 14
-76.63182934004135
 24
413.3745984649232
 34
0.0
100
AcDbRotatedDimension
1001
ACAD
1000
DSTYLE
1002
{
1070
   287
1070
     3
1070
    40
1040
10.0
1070
   143
1040
0.039
1070
   172
1070
     1
1070
   271
1070
     0
1070
   279
1070
     0
1070
   288
1070
     1
1002
}
  0
DIMENSION
  5
7C23
330
19
100
AcDbEntity
  8
3
  6
Continuous
100
AcDbDimension
280
     0
  2
*D12
 10
22.36817065995878
 20
429.0566234649231
 30
0.0
 11
-30.2473033400413
 21
429.2675334649231
 31
0.0
 70
   160
 71
     5
 42
-1.0
 73
     0
 74
     0
 75
     0
  3
IGA
100
AcDbAlignedDimension
 13
-76.63182934004135
 23
413.3745984649232
 33
0.0
 14
22.36817065995877
 24
204.5167284649232
 34
0.0
100
AcDbRotatedDimension
1001
ACAD
1000
DSTYLE
1002
{
1070
   287
1070
     4
1070
    40
1040
10.0
1070
    75
1070
     1
1070
   143
1040
0.039
1070
   172
1070
     1
1070
   271
1070
     0
1070
   279
1070
     1
1070
   288
1070
     1
1002
}
  0
LINE
  5
7C3B
330
19
100
AcDbEntity
  8
3
  6
Continuous
100
AcDbLine
 10
22.36817065995877
 20
182.5167284649231
 30
0.0
 11
34.53324865995876
 21
182.5167284649231
 31
0.0
  0
LINE
  5
7C3D
330
19
100
AcDbEntity
  8
3
  6
Continuous
100
AcDbLine
 10
22.36817065995877
 20
-67.48327153507682
 30
0.0
 11
31.41636165995874
 21
-67.48327153507682
 31
0.0
  0
DIMENSION
  5
7C4A
330
19
100
AcDbEntity
  8
3
  6
Continuous
100
AcDbDimension
280
     0
  2
*D13
 10
94.53318165995868
 20
-67.48327153507684
 30
0.0
 11
94.5331816599587
 21
47.7888474649232
 31
0.0
 70
   160
 71
     5
 42
-1.0
 73
     0
 74
     0
 75
     0
  3
IGA
100
AcDbAlignedDimension
 13
22.36817065995877
 23
182.5167284649231
 33
0.0
 14
22.36817065995877
 24
-67.48327153507682
 34
0.0
 50
90.0
100
AcDbRotatedDimension
1001
ACAD
1000
DSTYLE
1002
{
1070
   287
1070
     3
1070
     3
1000
φ<>
1070
    40
1040
10.0
1070
   143
1040
0.039
1070
   172
1070
     1
1070
   271
1070
     0
1070
   279
1070
     0
1070
   288
1070
     1
1002
}
  0
DIMENSION
  5
7D10
330
19
100
AcDbEntity
  8
3
100
AcDbDimension
280
     0
  2
*D14
 10
-1487.982586707234
 20
701.0765540374543
 30
0.0
 11
-1487.982586707234
 21
811.7591329949746
 31
0.0
 70
   160
 71
     5
 42
-1.0
 73
     0
 74
     0
 75
     0
  3
IGA
100
AcDbAlignedDimension
 13
-1436.081063
 23
951.0765540374546
 33
0.0
 14
-1436.081063
 24
701.0765540374543
 34
0.0
 50
90.0
100
AcDbRotatedDimension
1001
ACAD
1000
DSTYLE
1002
{
1070
   287
1070
     3
1070
    40
1040
10.0
1070
   143
1040
0.039
1070
   172
1070
     1
1070
   271
1070
     0
1070
   279
1070
     0
1070
   288
1070
     1
1002
}
  0
DIMENSION
  5
7D29
330
19
100
AcDbEntity
  8
3
100
AcDbDimension
280
     0
  2
*D15
 10
-76.63182934004135
 20
-431.6490704894942
 30
0.0
 11
-16.63182934004135
 21
-431.6490704894942
 31
0.0
 70
   160
 71
     5
 42
8.0
 73
     0
 74
     0
 75
     0
  3
IGA
100
AcDbAlignedDimension
 13
-84.63182934004136
 23
-357.4832715350769
 33
0.0
 14
-76.63182934004135
 24
-357.4832715350769
 34
0.0
100
AcDbRotatedDimension
1001
ACAD
1000
DSTYLE
1002
{
1070
   287
1070
     3
1070
    40
1040
10.0
1070
   143
1040
0.039
1070
   172
1070
     1
1070
   271
1070
     0
1070
   279
1070
     0
1070
   288
1070
     1
1002
}
  0
DIMENSION
  5
7D40
330
19
100
AcDbEntity
  8
3
100
AcDbDimension
280
     0
  2
*D17
 10
-544.8410527570522
 20
-357.483271535077
 30
0.0
 11
-569.8410527570521
 21
-431.7689858207913
 31
0.0
 70
    32
 71
     5
 42
30.0
 73
     0
 74
     0
 75
     0
  3
IGA
100
AcDbAlignedDimension
 13
-666.081063
 23
-327.4832715350769
 33
0.0
 14
-666.081063
 24
-357.4832715350769
 34
0.0
 50
90.0
100
AcDbRotatedDimension
1001
ACAD
1000
DSTYLE
1002
{
1070
   287
1070
     3
1070
    40
1040
10.0
1070
   143
1040
0.039
1070
   172
1070
     1
1070
   271
1070
     0
1070
   279
1070
     0
1070
     6
1000
DOT
1002
}
  0
DIMENSION
  5
7D4D
330
19
100
AcDbEntity
  8
3
100
AcDbDimension
280
     0
  2
*D18
 10
-544.8410527570523
 20
-257.4832715350769
 30
0.0
 11
-498.7778477132232
 21
-295.31937008151
 31
0.0
 70
   160
 71
     5
 42
70.00000000000011
 73
     0
 74
     0
 75
     0
  3
IGA
100
AcDbAlignedDimension
 13
-666.081063
 23
-327.4832715350769
 33
0.0
 14
-696.081063
 24
-257.4832715350768
 34
0.0
 50
90.0
100
AcDbRotatedDimension
1001
ACAD
1000
DSTYLE
1002
{
1070
     3
1000
(<>)
1070
    40
1040
10.0
1070
   143
1040
0.039
1070
   172
1070
     1
1070
   271
1070
     0
1070
   343
1005
7D2A
1002
}
  0
DIMENSION
  5
7F1C
330
19
100
AcDbEntity
  8
3
100
AcDbDimension
280
     0
  2
*D19
 10
-459.3553628915269
 20
328.5167284649231
 30
0.0
 11
-492.2125057486698
 21
-14.48327153507702
 31
0.0
 70
    32
 71
     5
 42
686.0000000000001
 73
     0
 74
     0
 75
     0
  3
IGA
100
AcDbAlignedDimension
 13
-666.081063
 23
-357.4832715350769
 33
0.0
 14
-686.0810629999999
 24
328.5167284649232
 34
0.0
 50
90.0
100
AcDbRotatedDimension
1001
ACAD
1000
DSTYLE
1002
{
1070
     3
1000
(<>)
1070
    40
1040
10.0
1070
   143
1040
0.039
1070
   172
1070
     1
1070
   271
1070
     0
1070
   341
1005
7D2A
1070
   343
1005
7B39
1002
}
  0
ENDSEC
  0
SECTION
  2
OBJECTS
  0
DICTIONARY
  5
C
330
0
100
AcDbDictionary
281
     1
  3
ACAD_CIP_PREVIOUS_PRODUCT_INFO
350
7E75
  3
ACAD_COLOR
350
7E58
  3
ACAD_DETAILVIEWSTYLE
350
7E71
  3
ACAD_GROUP
350
D
  3
ACAD_LAYOUT
350
7D56
  3
ACAD_MATERIAL
350
7E26
  3
ACAD_MLEADERSTYLE
350
7E6D
  3
ACAD_MLINESTYLE
350
E
  3
ACAD_PLOTSETTINGS
350
7D57
  3
ACAD_PLOTSTYLENAME
350
7D54
  3
ACAD_SCALELIST
350
7E5B
  3
ACAD_SECTIONVIEWSTYLE
350
7E6F
  3
ACAD_TABLESTYLE
350
7E59
  3
ACAD_VISUALSTYLE
350
7E3F
  3
ACDB_RECOMPOSE_DATA
350
7F67
  3
AcDbVariableDictionary
350
7E1E
  0
DICTIONARY
  5
7E77
330
2
100
AcDbDictionary
280
     1
281
     1
  3
ACAD_LAYERSTATES
360
7E78
  0
DICTIONARY
  5
7EC4
330
F
100
AcDbDictionary
280
     1
281
     1
  3
ADSK_XREC_LAYER_RECONCILED
360
7EC5
  0
DICTIONARY
  5
7EC6
330
31
100
AcDbDictionary
280
     1
281
     1
  3
ADSK_XREC_LAYER_RECONCILED
360
7EC7
  0
DICTIONARY
  5
7EC8
330
76D0
100
AcDbDictionary
280
     1
281
     1
  3
ADSK_XREC_LAYER_RECONCILED
360
7EC9
  0
DICTIONARY
  5
7ECA
330
76D1
100
AcDbDictionary
280
     1
281
     1
  3
ADSK_XREC_LAYER_RECONCILED
360
7ECB
  0
DICTIONARY
  5
7ECC
330
76D2
100
AcDbDictionary
280
     1
281
     1
  3
ADSK_XREC_LAYER_RECONCILED
360
7ECD
  0
DICTIONARY
  5
7D83
330
19
100
AcDbDictionary
280
     1
281
     1
  3
ACAD_LAYOUTSELFREF
360
7D84
  0
DICTIONARY
  5
7D81
330
16
100
AcDbDictionary
280
     1
281
     1
  3
ACAD_LAYOUTSELFREF
360
7D82
  0
XRECORD
  5
7E75
102
{ACAD_REACTORS
330
C
102
}
330
C
100
AcDbXrecord
280
     1
300
ACDLT
300
2015
300
INVLTS_F_S
  0
DICTIONARY
  5
7E58
102
{ACAD_REACTORS
330
C
102
}
330
C
100
AcDbDictionary
281
     1
  0
DICTIONARY
  5
7E71
102
{ACAD_REACTORS
330
C
102
}
330
C
100
AcDbDictionary
281
     1
  3
Imperial24
350
7E72
  0
DICTIONARY
  5
D
102
{ACAD_REACTORS
330
C
102
}
330
0
100
AcDbDictionary
281
     1
  0
DICTIONARY
  5
7D56
102
{ACAD_REACTORS
330
C
102
}
330
C
100
AcDbDictionary
281
     1
  3
Model
350
7D58
  3
ﾚｲｱｳﾄ1
350
7D59
  0
DICTIONARY
  5
7E26
102
{ACAD_REACTORS
330
C
102
}
330
C
100
AcDbDictionary
281
     1
  3
ByBlock
350
7E2F
  3
ByLayer
350
7E27
  3
Global
350
7E37
  0
DICTIONARY
  5
7E6D
102
{ACAD_REACTORS
330
C
102
}
330
C
100
AcDbDictionary
281
     1
  3
Standard
350
7E6E
  0
DICTIONARY
  5
E
102
{ACAD_REACTORS
330
C
102
}
330
0
100
AcDbDictionary
281
     1
  3
STANDARD
350
1C
  0
DICTIONARY
  5
7D57
102
{ACAD_REACTORS
330
C
102
}
330
C
100
AcDbDictionary
281
     1
  0
ACDBDICTIONARYWDFLT
  5
7D54
102
{ACAD_REACTORS
330
C
102
}
330
C
100
AcDbDictionary
281
     1
  3
Normal
350
7D55
100
AcDbDictionaryWithDefault
340
7D55
1001
ACAD
1000
TREAT_AS_HARD
1070
     0
  0
DICTIONARY
  5
7E5B
102
{ACAD_REACTORS
330
C
102
}
330
C
100
AcDbDictionary
281
     1
  3
A0
350
7E5C
  3
A1
350
7E5D
  3
A2
350
7E5E
  3
A3
350
7E5F
  3
A4
350
7E60
  3
A5
350
7E61
  3
A6
350
7E62
  3
A7
350
7E63
  3
A8
350
7E64
  3
A9
350
7E65
  3
B0
350
7E66
  3
B1
350
7E67
  3
B2
350
7E68
  3
B3
350
7E69
  3
B4
350
7E6A
  3
B5
350
7E6B
  3
B6
350
7E6C
  0
DICTIONARY
  5
7E6F
102
{ACAD_REACTORS
330
C
102
}
330
C
100
AcDbDictionary
281
     1
  3
Imperial24
350
7E70
  0
DICTIONARY
  5
7E59
102
{ACAD_REACTORS
330
C
102
}
330
C
100
AcDbDictionary
281
     1
  3
Standard
350
7E5A
  0
DICTIONARY
  5
7E3F
102
{ACAD_REACTORS
330
C
102
}
330
C
100
AcDbDictionary
281
     1
  3
2dWireframe
350
7E45
  3
Basic
350
7E44
  3
Brighten
350
7E4B
  3
ColorChange
350
7E4F
  3
Conceptual
350
7E48
  3
Dim
350
7E4A
  3
EdgeColorOff
350
7E57
  3
Facepattern
350
7E4E
  3
Flat
350
7E40
  3
FlatWithEdges
350
7E41
  3
Gouraud
350
7E42
  3
GouraudWithEdges
350
7E43
  3
Hidden
350
7E47
  3
JitterOff
350
7E55
  3
Linepattern
350
7E4D
  3
OverhangOff
350
7E56
  3
Realistic
350
7E49
  3
Shaded
350
7E54
  3
Shaded with edges
350
7E53
  3
Shades of Gray
350
7E50
  3
Sketchy
350
7E51
  3
Thicken
350
7E4C
  3
Wireframe
350
7E46
  3
X-Ray
350
7E52
  0
XRECORD
  5
7F67
102
{ACAD_REACTORS
330
C
102
}
330
C
100
AcDbXrecord
280
     1
 90
        1
330
7E5A
330
7E70
330
7E72
  0
DICTIONARY
  5
7E1E
102
{ACAD_REACTORS
330
C
102
}
330
C
100
AcDbDictionary
281
     1
  3
CANNOSCALE
350
7EDF
  3
CMLEADERSTYLE
350
7EDB
  3
CTABLESTYLE
350
7EDA
  3
CVIEWDETAILSTYLE
350
7EDC
  3
CVIEWSECTIONSTYLE
350
7EDD
  3
DIMASSOC
350
7E1F
  3
LAYEREVAL
350
7EE1
  3
LAYERNOTIFY
350
7EE2
  3
LIGHTINGUNITS
350
7EE0
  3
MSLTSCALE
350
7EDE
  0
DICTIONARY
  5
7E78
102
{ACAD_REACTORS
330
7E77
102
}
330
7E77
100
AcDbDictionary
281
     1
  0
XRECORD
  5
7EC5
102
{ACAD_REACTORS
330
7EC4
102
}
330
7EC4
100
AcDbXrecord
280
     1
290
     1
  0
XRECORD
  5
7EC7
102
{ACAD_REACTORS
330
7EC6
102
}
330
7EC6
100
AcDbXrecord
280
     1
290
     1
  0
XRECORD
  5
7EC9
102
{ACAD_REACTORS
330
7EC8
102
}
330
7EC8
100
AcDbXrecord
280
     1
290
     1
  0
XRECORD
  5
7ECB
102
{ACAD_REACTORS
330
7ECA
102
}
330
7ECA
100
AcDbXrecord
280
     1
290
     1
  0
XRECORD
  5
7ECD
102
{ACAD_REACTORS
330
7ECC
102
}
330
7ECC
100
AcDbXrecord
280
     1
290
     1
  0
XRECORD
  5
7D84
102
{ACAD_REACTORS
330
7D83
102
}
330
7D83
100
AcDbXrecord
280
     1
340
19
  0
XRECORD
  5
7D82
102
{ACAD_REACTORS
330
7D81
102
}
330
7D81
100
AcDbXrecord
280
     1
340
16
  0
ACDBDETAILVIEWSTYLE
  5
7E72
102
{ACAD_XDICTIONARY
360
7ED7
102
}
102
{ACAD_REACTORS
330
7E71
102
}
330
7E71
100
AcDbModelDocViewStyle
 70
     0
  3
Imperial24
290
     0
100
AcDbDetailViewStyle
 70
     0
 71
     0
 90
        3
 71
     1
340
10
 62
   256
 40
0.24
340
0
 62
   256
 40
0.24
300

 40
0.36
280
     3
 71
     2
340
15
 90
       25
 62
   256
 71
     3
340
10
 62
   256
 40
0.24
 90
        1
 40
0.75
 90
        1
300
%<\AcVar ViewType \f "%tc1">% %<\AcVar ViewDetailId>%\PSCALE %<\AcVar ViewScale \f "%sn">%
 71
     4
340
15
 90
       25
 62
   256
340
15
 90
       25
 62
   256
280
     0
  0
LAYOUT
  5
7D58
102
{ACAD_REACTORS
330
7D56
102
}
330
7D56
100
AcDbPlotSettings
  1

  2
\\Txbo34x8944cqyd\EPSON LP-6100
  4

  6

 40
0.0
 41
0.0
 42
0.0
 43
0.0
 44
0.0
 45
0.0
 46
0.0
 47
0.0
 48
0.0
 49
0.0
140
0.0
141
0.0
142
1.0
143
1.0
 70
  1712
 72
     0
 73
     0
 74
     0
  7
GOD2000TABLE.ctb
 75
     0
147
1.0
 76
     0
 77
     2
 78
   300
148
0.0
149
0.0
100
AcDbLayout
  1
Model
 70
     1
 71
     0
 10
0.0
 20
0.0
 11
12.0
 21
9.0
 12
0.0
 22
0.0
 32
0.0
 14
0.0
 24
0.0
 34
0.0
 15
0.0
 25
0.0
 35
0.0
146
0.0
 13
0.0
 23
0.0
 33
0.0
 16
1.0
 26
0.0
 36
0.0
 17
0.0
 27
1.0
 37
0.0
 76
     0
330
19
331
7E24
  0
LAYOUT
  5
7D59
102
{ACAD_REACTORS
330
7D56
102
}
330
7D56
100
AcDbPlotSettings
  1

  2
\\Txbo34x8944cqyd\EPSON LP-6100
  4

  6

 40
0.0
 41
0.0
 42
0.0
 43
0.0
 44
0.0
 45
0.0
 46
0.0
 47
0.0
 48
0.0
 49
0.0
140
0.0
141
0.0
142
1.0
143
1.0
 70
   688
 72
     0
 73
     0
 74
     5
  7
GOD2000TABLE.ctb
 75
    16
147
1.0
 76
     0
 77
     2
 78
   300
148
0.0
149
0.0
100
AcDbLayout
  1
ﾚｲｱｳﾄ1
 70
     1
 71
     1
 10
0.0
 20
0.0
 11
12.0
 21
9.0
 12
0.0
 22
0.0
 32
0.0
 14
1.000000000000000E+20
 24
1.000000000000000E+20
 34
1.000000000000000E+20
 15
-1.000000000000000E+20
 25
-1.000000000000000E+20
 35
-1.000000000000000E+20
146
0.0
 13
0.0
 23
0.0
 33
0.0
 16
1.0
 26
0.0
 36
0.0
 17
0.0
 27
1.0
 37
0.0
 76
     0
330
16
  0
MATERIAL
  5
7E2F
102
{ACAD_XDICTIONARY
360
7E30
102
}
102
{ACAD_REACTORS
330
7E26
102
}
330
7E26
100
AcDbMaterial
  1
ByBlock
 72
     0
 43
0.0208333333333333
 43
0.0
 43
0.0
 43
0.0
 43
0.0
 43
0.0208333333333333
 43
0.0
 43
0.0
 43
0.0
 43
0.0
 43
1.0
 43
0.0
 43
0.0
 43
0.0
 43
0.0
 43
1.0
 77
     0
 47
0.0208333333333333
 47
0.0
 47
0.0
 47
0.0
 47
0.0
 47
0.0208333333333333
 47
0.0
 47
0.0
 47
0.0
 47
0.0
 47
1.0
 47
0.0
 47
0.0
 47
0.0
 47
0.0
 47
1.0
171
     0
 49
0.0208333333333333
 49
0.0
 49
0.0
 49
0.0
 49
0.0
 49
0.0208333333333333
 49
0.0
 49
0.0
 49
0.0
 49
0.0
 49
1.0
 49
0.0
 49
0.0
 49
0.0
 49
0.0
 49
1.0
175
     0
142
0.0208333333333333
142
0.0
142
0.0
142
0.0
142
0.0
142
0.0208333333333333
142
0.0
142
0.0
142
0.0
142
0.0
142
1.0
142
0.0
142
0.0
142
0.0
142
0.0
142
1.0
179
     0
144
0.0208333333333333
144
0.0
144
0.0
144
0.0
144
0.0
144
0.0208333333333333
144
0.0
144
0.0
144
0.0
144
0.0
144
1.0
144
0.0
144
0.0
144
0.0
144
0.0
144
1.0
147
0.0208333333333333
147
0.0
147
0.0
147
0.0
147
0.0
147
0.0208333333333333
147
0.0
147
0.0
147
0.0
147
0.0
147
1.0
147
0.0
147
0.0
147
0.0
147
0.0
147
1.0
  0
MATERIAL
  5
7E27
102
{ACAD_XDICTIONARY
360
7E28
102
}
102
{ACAD_REACTORS
330
7E26
102
}
330
7E26
100
AcDbMaterial
  1
ByLayer
 72
     0
 43
0.0208333333333333
 43
0.0
 43
0.0
 43
0.0
 43
0.0
 43
0.0208333333333333
 43
0.0
 43
0.0
 43
0.0
 43
0.0
 43
1.0
 43
0.0
 43
0.0
 43
0.0
 43
0.0
 43
1.0
 77
     0
 47
0.0208333333333333
 47
0.0
 47
0.0
 47
0.0
 47
0.0
 47
0.0208333333333333
 47
0.0
 47
0.0
 47
0.0
 47
0.0
 47
1.0
 47
0.0
 47
0.0
 47
0.0
 47
0.0
 47
1.0
171
     0
 49
0.0208333333333333
 49
0.0
 49
0.0
 49
0.0
 49
0.0
 49
0.0208333333333333
 49
0.0
 49
0.0
 49
0.0
 49
0.0
 49
1.0
 49
0.0
 49
0.0
 49
0.0
 49
0.0
 49
1.0
175
     0
142
0.0208333333333333
142
0.0
142
0.0
142
0.0
142
0.0
142
0.0208333333333333
142
0.0
142
0.0
142
0.0
142
0.0
142
1.0
142
0.0
142
0.0
142
0.0
142
0.0
142
1.0
179
     0
144
0.0208333333333333
144
0.0
144
0.0
144
0.0
144
0.0
144
0.0208333333333333
144
0.0
144
0.0
144
0.0
144
0.0
144
1.0
144
0.0
144
0.0
144
0.0
144
0.0
144
1.0
147
0.0208333333333333
147
0.0
147
0.0
147
0.0
147
0.0
147
0.0208333333333333
147
0.0
147
0.0
147
0.0
147
0.0
147
1.0
147
0.0
147
0.0
147
0.0
147
0.0
147
1.0
  0
MATERIAL
  5
7E37
102
{ACAD_XDICTIONARY
360
7E38
102
}
102
{ACAD_REACTORS
330
7E26
102
}
330
7E26
100
AcDbMaterial
  1
Global
 72
     0
 43
0.0208333333333333
 43
0.0
 43
0.0
 43
0.0
 43
0.0
 43
0.0208333333333333
 43
0.0
 43
0.0
 43
0.0
 43
0.0
 43
1.0
 43
0.0
 43
0.0
 43
0.0
 43
0.0
 43
1.0
 77
     0
 47
0.0208333333333333
 47
0.0
 47
0.0
 47
0.0
 47
0.0
 47
0.0208333333333333
 47
0.0
 47
0.0
 47
0.0
 47
0.0
 47
1.0
 47
0.0
 47
0.0
 47
0.0
 47
0.0
 47
1.0
171
     0
 49
0.0208333333333333
 49
0.0
 49
0.0
 49
0.0
 49
0.0
 49
0.0208333333333333
 49
0.0
 49
0.0
 49
0.0
 49
0.0
 49
1.0
 49
0.0
 49
0.0
 49
0.0
 49
0.0
 49
1.0
175
     0
142
0.0208333333333333
142
0.0
142
0.0
142
0.0
142
0.0
142
0.0208333333333333
142
0.0
142
0.0
142
0.0
142
0.0
142
1.0
142
0.0
142
0.0
142
0.0
142
0.0
142
1.0
179
     0
144
0.0208333333333333
144
0.0
144
0.0
144
0.0
144
0.0
144
0.0208333333333333
144
0.0
144
0.0
144
0.0
144
0.0
144
1.0
144
0.0
144
0.0
144
0.0
144
0.0
144
1.0
147
0.0208333333333333
147
0.0
147
0.0
147
0.0
147
0.0
147
0.0208333333333333
147
0.0
147
0.0
147
0.0
147
0.0
147
1.0
147
0.0
147
0.0
147
0.0
147
0.0
147
1.0
  0
MLEADERSTYLE
  5
7E6E
102
{ACAD_REACTORS
330
7E6D
102
}
330
7E6D
100
AcDbMLeaderStyle
179
     2
170
     2
171
     1
172
     0
 90
        2
 40
0.0
 41
0.0
173
     1
 91
-1056964608
340
13
 92
       -2
290
     1
 42
0.09
291
     1
 43
0.36
  3
Standard
 44
0.18
300

342
10
174
     1
178
     6
175
     1
176
     0
 93
-1056964608
 45
0.18
292
     0
297
     0
 46
0.18
 94
-1056964608
 47
1.0
 49
1.0
140
1.0
293
     1
141
0.0
294
     1
177
     0
142
1.0
295
     1
296
     0
143
0.125
271
     0
272
     9
273
     9
298
     1
  0
MLINESTYLE
  5
1C
102
{ACAD_REACTORS
330
E
102
}
330
0
100
AcDbMlineStyle
  2
STANDARD
 70
     0
  3

 62
     0
 51
90.0
 52
90.0
 71
     2
 49
0.5
 62
   256
  6
BYLAYER
 49
-0.5
 62
   256
  6
BYLAYER
  0
ACDBPLACEHOLDER
  5
7D55
102
{ACAD_REACTORS
330
7D54
102
}
330
7D54
  0
SCALE
  5
7E5C
102
{ACAD_REACTORS
330
7E5B
102
}
330
7E5B
100
AcDbScale
 70
     0
300
1:1
140
1.0
141
1.0
290
     1
  0
SCALE
  5
7E5D
102
{ACAD_REACTORS
330
7E5B
102
}
330
7E5B
100
AcDbScale
 70
     0
300
1/128" = 1'-0"
140
0.0078125
141
12.0
290
     0
  0
SCALE
  5
7E5E
102
{ACAD_REACTORS
330
7E5B
102
}
330
7E5B
100
AcDbScale
 70
     0
300
1/64" = 1'-0"
140
0.015625
141
12.0
290
     0
  0
SCALE
  5
7E5F
102
{ACAD_REACTORS
330
7E5B
102
}
330
7E5B
100
AcDbScale
 70
     0
300
1/32" = 1'-0"
140
0.03125
141
12.0
290
     0
  0
SCALE
  5
7E60
102
{ACAD_REACTORS
330
7E5B
102
}
330
7E5B
100
AcDbScale
 70
     0
300
1/16" = 1'-0"
140
0.0625
141
12.0
290
     0
  0
SCALE
  5
7E61
102
{ACAD_REACTORS
330
7E5B
102
}
330
7E5B
100
AcDbScale
 70
     0
300
3/32" = 1'-0"
140
0.09375
141
12.0
290
     0
  0
SCALE
  5
7E62
102
{ACAD_REACTORS
330
7E5B
102
}
330
7E5B
100
AcDbScale
 70
     0
300
1/8" = 1'-0"
140
0.125
141
12.0
290
     0
  0
SCALE
  5
7E63
102
{ACAD_REACTORS
330
7E5B
102
}
330
7E5B
100
AcDbScale
 70
     0
300
3/16" = 1'-0"
140
0.1875
141
12.0
290
     0
  0
SCALE
  5
7E64
102
{ACAD_REACTORS
330
7E5B
102
}
330
7E5B
100
AcDbScale
 70
     0
300
1/4" = 1'-0"
140
0.25
141
12.0
290
     0
  0
SCALE
  5
7E65
102
{ACAD_REACTORS
330
7E5B
102
}
330
7E5B
100
AcDbScale
 70
     0
300
3/8" = 1'-0"
140
0.375
141
12.0
290
     0
  0
SCALE
  5
7E66
102
{ACAD_REACTORS
330
7E5B
102
}
330
7E5B
100
AcDbScale
 70
     0
300
1/2" = 1'-0"
140
0.5
141
12.0
290
     0
  0
SCALE
  5
7E67
102
{ACAD_REACTORS
330
7E5B
102
}
330
7E5B
100
AcDbScale
 70
     0
300
3/4" = 1'-0"
140
0.75
141
12.0
290
     0
  0
SCALE
  5
7E68
102
{ACAD_REACTORS
330
7E5B
102
}
330
7E5B
100
AcDbScale
 70
     0
300
1" = 1'-0"
140
1.0
141
12.0
290
     0
  0
SCALE
  5
7E69
102
{ACAD_REACTORS
330
7E5B
102
}
330
7E5B
100
AcDbScale
 70
     0
300
1-1/2" = 1'-0"
140
1.5
141
12.0
290
     0
  0
SCALE
  5
7E6A
102
{ACAD_REACTORS
330
7E5B
102
}
330
7E5B
100
AcDbScale
 70
     0
300
3" = 1'-0"
140
3.0
141
12.0
290
     0
  0
SCALE
  5
7E6B
102
{ACAD_REACTORS
330
7E5B
102
}
330
7E5B
100
AcDbScale
 70
     0
300
6" = 1'-0"
140
6.0
141
12.0
290
     0
  0
SCALE
  5
7E6C
102
{ACAD_REACTORS
330
7E5B
102
}
330
7E5B
100
AcDbScale
 70
     0
300
1'-0" = 1'-0"
140
12.0
141
12.0
290
     0
  0
ACDBSECTIONVIEWSTYLE
  5
7E70
102
{ACAD_XDICTIONARY
360
7ED5
102
}
102
{ACAD_REACTORS
330
7E6F
102
}
330
7E6F
100
AcDbModelDocViewStyle
 70
     0
  3
Imperial24
290
     0
100
AcDbSectionViewStyle
 70
     0
 71
     0
 90
       78
 71
     1
340
10
 62
   256
 40
0.24
340
0
340
0
 62
   256
 40
0.24
300
I, O, Q, S, X, Z
 40
0.48
 90
        3
 40
0.18
 90
        1
 71
     2
340
15
 90
       25
 62
   256
340
15
 90
       50
 62
   256
 40
0.24
 40
0.0
 40
0.24
 71
     3
340
10
 62
   256
 40
0.24
 90
        1
 40
0.75
 90
        1
300
%<\AcVar ViewType \f "%tc1">% %<\AcVar ViewSectionStartId>%-%<\AcVar ViewSectionEndId>%\PSCALE %<\AcVar ViewScale \f "%sn">%
 71
     4
 62
   256
 62
   257
300
ANSI31
 40
1.0
 90
        0
290
     0
290
     0
 90
        6
 40
0.0
 40
1.570796326794896
 40
0.2617993877991494
 40
1.308996938995747
 40
-0.2617993877991494
 40
1.832595714594046
  0
TABLESTYLE
  5
7E5A
102
{ACAD_XDICTIONARY
360
7F63
102
}
102
{ACAD_REACTORS
330
7E59
102
}
330
7E59
100
AcDbTableStyle
280
     0
  3
Standard
 70
     0
 71
     0
 40
0.06
 41
0.06
280
     0
281
     0
  7
STANDARD
140
0.18
170
     2
 62
     0
 63
     7
283
     0
 90
      512
 91
        0
  1

274
    -2
284
     1
 64
     0
275
    -2
285
     1
 65
     0
276
    -2
286
     1
 66
     0
277
    -2
287
     1
 67
     0
278
    -2
288
     1
 68
     0
279
    -2
289
     1
 69
     0
  7
STANDARD
140
0.25
170
     5
 62
     0
 63
     7
283
     0
 90
      512
 91
        0
  1

274
    -2
284
     1
 64
     0
275
    -2
285
     1
 65
     0
276
    -2
286
     1
 66
     0
277
    -2
287
     1
 67
     0
278
    -2
288
     1
 68
     0
279
    -2
289
     1
 69
     0
  7
STANDARD
140
0.18
170
     5
 62
     0
 63
     7
283
     0
 90
      512
 91
        0
  1

274
    -2
284
     1
 64
     0
275
    -2
285
     1
 65
     0
276
    -2
286
     1
 66
     0
277
    -2
287
     1
 67
     0
278
    -2
288
     1
 68
     0
279
    -2
289
     1
 69
     0
  0
VISUALSTYLE
  5
7E45
102
{ACAD_REACTORS
330
7E3F
102
}
330
7E3F
100
AcDbVisualStyle
  2
2dWireframe
 70
     4
177
     3
291
     0
 70
    58
 90
        0
176
     1
 90
        2
176
     1
 90
        0
176
     1
 90
        0
176
     1
 40
0.6
176
     1
 40
30.0
176
     1
 62
     7
420
 16777215
176
     1
 90
        1
176
     1
 90
        4
176
     1
 62
     7
176
     1
 62
   257
176
     1
 90
        1
176
     1
 90
        1
176
     1
 40
1.0
176
     1
 90
        0
176
     1
 62
   257
176
     1
 40
1.0
176
     1
 90
        1
176
     1
 90
        6
176
     1
 90
        2
176
     1
 62
     7
176
     1
 90
        5
176
     1
 90
        0
176
     1
 90
        0
176
     1
290
     0
176
     1
 90
        1
176
     1
 40
0.0
176
     1
 90
        0
176
     1
290
     1
176
     1
290
     1
176
     1
290
     0
176
     1
290
     0
176
     1
290
     0
176
     1
290
     0
176
     1
290
     0
176
     1
290
     0
176
     1
290
     0
176
     1
 90
       50
176
     1
 40
0.0
176
     1
 40
1.0
176
     1
 90
        0
176
     1
 62
    18
420
        0
176
     1
 90
       50
176
     1
 90
        3
176
     1
 62
     5
420
      255
176
     1
290
     0
176
     1
 90
       50
176
     1
 90
       50
176
     1
 90
       50
176
     1
290
     0
176
     1
 90
       50
176
     1
 62
   256
176
     0
 40
1.0
176
     0
 90
        2
176
     1
  1
strokes_ogs.tif
176
     1
290
     0
176
     1
 40
1.0
176
     1
 40
1.0
176
     1
  0
VISUALSTYLE
  5
7E44
102
{ACAD_REACTORS
330
7E3F
102
}
330
7E3F
100
AcDbVisualStyle
  2
Basic
 70
     7
177
     3
291
     1
 70
    58
 90
        1
176
     1
 90
        0
176
     1
 90
        1
176
     1
 90
        0
176
     1
 40
0.6
176
     1
 40
30.0
176
     1
 62
     7
420
 16777215
176
     1
 90
        0
176
     1
 90
        4
176
     1
 62
     7
176
     1
 62
   257
176
     1
 90
        1
176
     1
 90
        1
176
     1
 40
1.0
176
     1
 90
        8
176
     1
 62
     7
176
     1
 40
1.0
176
     1
 90
        1
176
     1
 90
        6
176
     1
 90
        2
176
     1
 62
     7
176
     1
 90
        5
176
     1
 90
        0
176
     1
 90
        0
176
     1
290
     0
176
     1
 90
        1
176
     1
 40
0.0
176
     1
 90
        0
176
     1
290
     0
176
     1
290
     1
176
     1
290
     1
176
     1
290
     0
176
     1
290
     0
176
     1
290
     0
176
     1
290
     0
176
     1
290
     0
176
     1
290
     0
176
     1
 90
       50
176
     1
 40
0.0
176
     1
 40
1.0
176
     1
 90
        0
176
     1
 62
    18
420
        0
176
     1
 90
       50
176
     1
 90
        3
176
     1
 62
     5
420
      255
176
     1
290
     0
176
     1
 90
       50
176
     1
 90
       50
176
     1
 90
       50
176
     1
290
     0
176
     1
 90
       50
176
     1
 62
   256
176
     0
 40
1.0
176
     0
 90
        2
176
     1
  1
strokes_ogs.tif
176
     1
290
     0
176
     1
 40
1.0
176
     1
 40
1.0
176
     1
  0
VISUALSTYLE
  5
7E4B
102
{ACAD_REACTORS
330
7E3F
102
}
330
7E3F
100
AcDbVisualStyle
  2
Brighten
 70
    12
177
     3
291
     1
 70
    58
 90
        2
176
     1
 90
        2
176
     1
 90
        0
176
     1
 90
        0
176
     1
 40
0.6
176
     1
 40
30.0
176
     1
 62
     7
420
 16777215
176
     1
 90
        1
176
     1
 90
        4
176
     1
 62
     7
176
     1
 62
   257
176
     1
 90
        1
176
     1
 90
        1
176
     1
 40
1.0
176
     1
 90
        8
176
     1
 62
     7
176
     1
 40
1.0
176
     1
 90
        1
176
     1
 90
        6
176
     1
 90
        2
176
     1
 62
     7
176
     1
 90
        5
176
     1
 90
        0
176
     1
 90
        0
176
     1
290
     0
176
     1
 90
        1
176
     1
 40
50.0
176
     1
 90
        0
176
     1
290
     0
176
     1
290
     1
176
     1
290
     1
176
     1
290
     0
176
     1
290
     0
176
     1
290
     0
176
     1
290
     0
176
     1
290
     0
176
     1
290
     0
176
     1
 90
       50
176
     1
 40
0.0
176
     1
 40
1.0
176
     1
 90
        0
176
     1
 62
    18
420
        0
176
     1
 90
       50
176
     1
 90
        3
176
     1
 62
     5
420
      255
176
     1
290
     0
176
     1
 90
       50
176
     1
 90
       50
176
     1
 90
       50
176
     1
290
     0
176
     1
 90
       50
176
     1
 62
   256
176
     0
 40
1.0
176
     0
 90
        2
176
     1
  1
strokes_ogs.tif
176
     1
290
     0
176
     1
 40
1.0
176
     1
 40
1.0
176
     1
  0
VISUALSTYLE
  5
7E4F
102
{ACAD_REACTORS
330
7E3F
102
}
330
7E3F
100
AcDbVisualStyle
  2
ColorChange
 70
    16
177
     3
291
     1
 70
    58
 90
        2
176
     1
 90
        2
176
     1
 90
        3
176
     1
 90
        0
176
     1
 40
0.6
176
     1
 40
30.0
176
     1
 62
     8
420
  8421504
176
     1
 90
        1
176
     1
 90
        4
176
     1
 62
     7
176
     1
 62
   257
176
     1
 90
        1
176
     1
 90
        1
176
     1
 40
1.0
176
     1
 90
        8
176
     1
 62
     8
420
  8421504
176
     1
 40
1.0
176
     1
 90
        1
176
     1
 90
        6
176
     1
 90
        2
176
     1
 62
     7
176
     1
 90
        5
176
     1
 90
        0
176
     1
 90
        0
176
     1
290
     0
176
     1
 90
        1
176
     1
 40
0.0
176
     1
 90
        0
176
     1
290
     0
176
     1
290
     1
176
     1
290
     1
176
     1
290
     0
176
     1
290
     0
176
     1
290
     0
176
     1
290
     0
176
     1
290
     0
176
     1
290
     0
176
     1
 90
       50
176
     1
 40
0.0
176
     1
 40
1.0
176
     1
 90
        0
176
     1
 62
    18
420
        0
176
     1
 90
       50
176
     1
 90
        3
176
     1
 62
     5
420
      255
176
     1
290
     0
176
     1
 90
       50
176
     1
 90
       50
176
     1
 90
       50
176
     1
290
     0
176
     1
 90
       50
176
     1
 62
   256
176
     0
 40
1.0
176
     0
 90
        2
176
     1
  1
strokes_ogs.tif
176
     1
290
     0
176
     1
 40
1.0
176
     1
 40
1.0
176
     1
  0
VISUALSTYLE
  5
7E48
102
{ACAD_REACTORS
330
7E3F
102
}
330
7E3F
100
AcDbVisualStyle
  2
Conceptual
 70
     9
177
     3
291
     0
 70
    58
 90
        3
176
     1
 90
        2
176
     1
 90
        0
176
     1
 90
        0
176
     1
 40
0.6
176
     1
 40
30.0
176
     1
 62
     7
420
 16777215
176
     1
 90
        2
176
     1
 90
        2
176
     1
 62
     7
176
     1
 62
   257
176
     1
 90
        1
176
     1
 90
        1
176
     1
 40
179.0
176
     1
 90
        8
176
     1
 62
     7
176
     1
 40
1.0
176
     1
 90
        1
176
     1
 90
        6
176
     1
 90
        2
176
     1
 62
     7
176
     1
 90
        3
176
     1
 90
        0
176
     1
 90
        0
176
     1
290
     0
176
     1
 90
        1
176
     1
 40
0.0
176
     1
 90
        0
176
     1
290
     0
176
     1
290
     1
176
     1
290
     1
176
     1
290
     0
176
     1
290
     0
176
     1
290
     0
176
     1
290
     0
176
     1
290
     0
176
     1
290
     0
176
     1
 90
       50
176
     1
 40
0.0
176
     1
 40
1.0
176
     1
 90
        0
176
     1
 62
    18
420
        0
176
     1
 90
       50
176
     1
 90
        3
176
     1
 62
     5
420
      255
176
     1
290
     0
176
     1
 90
       50
176
     1
 90
       50
176
     1
 90
       50
176
     1
290
     0
176
     1
 90
       50
176
     1
 62
   256
176
     0
 40
1.0
176
     0
 90
        2
176
     1
  1
strokes_ogs.tif
176
     1
290
     0
176
     1
 40
1.0
176
     1
 40
1.0
176
     1
  0
VISUALSTYLE
  5
7E4A
102
{ACAD_REACTORS
330
7E3F
102
}
330
7E3F
100
AcDbVisualStyle
  2
Dim
 70
    11
177
     3
291
     1
 70
    58
 90
        2
176
     1
 90
        2
176
     1
 90
        0
176
     1
 90
        0
176
     1
 40
0.6
176
     1
 40
30.0
176
     1
 62
     7
420
 16777215
176
     1
 90
        1
176
     1
 90
        4
176
     1
 62
     7
176
     1
 62
   257
176
     1
 90
        1
176
     1
 90
        1
176
     1
 40
1.0
176
     1
 90
        8
176
     1
 62
     7
176
     1
 40
1.0
176
     1
 90
        1
176
     1
 90
        6
176
     1
 90
        2
176
     1
 62
     7
176
     1
 90
        5
176
     1
 90
        0
176
     1
 90
        0
176
     1
290
     0
176
     1
 90
        1
176
     1
 40
-50.0
176
     1
 90
        0
176
     1
290
     0
176
     1
290
     1
176
     1
290
     1
176
     1
290
     0
176
     1
290
     0
176
     1
290
     0
176
     1
290
     0
176
     1
290
     0
176
     1
290
     0
176
     1
 90
       50
176
     1
 40
0.0
176
     1
 40
1.0
176
     1
 90
        0
176
     1
 62
    18
420
        0
176
     1
 90
       50
176
     1
 90
        3
176
     1
 62
     5
420
      255
176
     1
290
     0
176
     1
 90
       50
176
     1
 90
       50
176
     1
 90
       50
176
     1
290
     0
176
     1
 90
       50
176
     1
 62
   256
176
     0
 40
1.0
176
     0
 90
        2
176
     1
  1
strokes_ogs.tif
176
     1
290
     0
176
     1
 40
1.0
176
     1
 40
1.0
176
     1
  0
VISUALSTYLE
  5
7E57
102
{ACAD_REACTORS
330
7E3F
102
}
330
7E3F
100
AcDbVisualStyle
  2
EdgeColorOff
 70
    22
177
     3
291
     1
 70
    58
 90
        2
176
     0
 90
        2
176
     0
 90
        0
176
     0
 90
        0
176
     0
 40
0.6
176
     0
 40
30.0
176
     0
 62
     7
420
 16777215
176
     0
 90
        1
176
     0
 90
        4
176
     0
 62
     7
176
     0
 62
   257
176
     0
 90
        1
176
     0
 90
        1
176
     0
 40
1.0
176
     0
 90
        8
176
     2
 62
     7
176
     0
 40
1.0
176
     0
 90
        1
176
     0
 90
        6
176
     0
 90
        2
176
     0
 62
     7
176
     0
 90
        5
176
     0
 90
        0
176
     0
 90
        0
176
     0
290
     0
176
     0
 90
        1
176
     0
 40
0.0
176
     0
 90
        0
176
     0
290
     0
176
     0
290
     1
176
     0
290
     1
176
     0
290
     0
176
     0
290
     0
176
     0
290
     0
176
     0
290
     0
176
     0
290
     0
176
     0
290
     0
176
     0
 90
       50
176
     0
 40
0.0
176
     0
 40
1.0
176
     0
 90
        0
176
     0
 62
    18
420
        0
176
     0
 90
       50
176
     0
 90
        3
176
     0
 62
     5
420
      255
176
     0
290
     0
176
     0
 90
       50
176
     0
 90
       50
176
     0
 90
       50
176
     0
290
     0
176
     0
 90
       50
176
     0
 62
   256
176
     0
 40
1.0
176
     0
 90
        2
176
     0
  1
strokes_ogs.tif
176
     0
290
     0
176
     0
 40
1.0
176
     0
 40
1.0
176
     0
  0
VISUALSTYLE
  5
7E4E
102
{ACAD_REACTORS
330
7E3F
102
}
330
7E3F
100
AcDbVisualStyle
  2
Facepattern
 70
    15
177
     3
291
     1
 70
    58
 90
        2
176
     1
 90
        2
176
     1
 90
        0
176
     1
 90
        0
176
     1
 40
0.6
176
     1
 40
30.0
176
     1
 62
     7
420
 16777215
176
     1
 90
        1
176
     1
 90
        4
176
     1
 62
     7
176
     1
 62
   257
176
     1
 90
        1
176
     1
 90
        1
176
     1
 40
1.0
176
     1
 90
        8
176
     1
 62
     7
176
     1
 40
1.0
176
     1
 90
        1
176
     1
 90
        6
176
     1
 90
        2
176
     1
 62
     7
176
     1
 90
        5
176
     1
 90
        0
176
     1
 90
        0
176
     1
290
     0
176
     1
 90
        1
176
     1
 40
0.0
176
     1
 90
        0
176
     1
290
     0
176
     1
290
     1
176
     1
290
     1
176
     1
290
     0
176
     1
290
     0
176
     1
290
     0
176
     1
290
     0
176
     1
290
     0
176
     1
290
     0
176
     1
 90
       50
176
     1
 40
0.0
176
     1
 40
1.0
176
     1
 90
        0
176
     1
 62
    18
420
        0
176
     1
 90
       50
176
     1
 90
        3
176
     1
 62
     5
420
      255
176
     1
290
     0
176
     1
 90
       50
176
     1
 90
       50
176
     1
 90
       50
176
     1
290
     0
176
     1
 90
       50
176
     1
 62
   256
176
     0
 40
1.0
176
     0
 90
        2
176
     1
  1
strokes_ogs.tif
176
     1
290
     0
176
     1
 40
1.0
176
     1
 40
1.0
176
     1
  0
VISUALSTYLE
  5
7E40
102
{ACAD_REACTORS
330
7E3F
102
}
330
7E3F
100
AcDbVisualStyle
  2
Flat
 70
     0
177
     3
291
     1
 70
    58
 90
        2
176
     1
 90
        1
176
     1
 90
        1
176
     1
 90
        2
176
     1
 40
0.6
176
     1
 40
30.0
176
     1
 62
     7
420
 16777215
176
     1
 90
        0
176
     1
 90
        0
176
     1
 62
     7
176
     1
 62
   257
176
     1
 90
        1
176
     1
 90
        1
176
     1
 40
1.0
176
     1
 90
        8
176
     1
 62
     7
176
     1
 40
1.0
176
     1
 90
        1
176
     1
 90
        6
176
     1
 90
        2
176
     1
 62
     7
176
     1
 90
        5
176
     1
 90
        0
176
     1
 90
        0
176
     1
290
     0
176
     1
 90
       13
176
     1
 40
0.0
176
     1
 90
        0
176
     1
290
     0
176
     1
290
     1
176
     1
290
     1
176
     1
290
     0
176
     1
290
     0
176
     1
290
     0
176
     1
290
     0
176
     1
290
     0
176
     1
290
     0
176
     1
 90
       50
176
     1
 40
0.0
176
     1
 40
1.0
176
     1
 90
        0
176
     1
 62
    18
420
        0
176
     1
 90
       50
176
     1
 90
        3
176
     1
 62
     5
420
      255
176
     1
290
     0
176
     1
 90
       50
176
     1
 90
       50
176
     1
 90
       50
176
     1
290
     0
176
     1
 90
       50
176
     1
 62
   256
176
     0
 40
1.0
176
     0
 90
        2
176
     1
  1
strokes_ogs.tif
176
     1
290
     0
176
     1
 40
1.0
176
     1
 40
1.0
176
     1
  0
VISUALSTYLE
  5
7E41
102
{ACAD_REACTORS
330
7E3F
102
}
330
7E3F
100
AcDbVisualStyle
  2
FlatWithEdges
 70
     1
177
     3
291
     1
 70
    58
 90
        2
176
     1
 90
        1
176
     1
 90
        1
176
     1
 90
        2
176
     1
 40
0.6
176
     1
 40
30.0
176
     1
 62
     7
420
 16777215
176
     1
 90
        1
176
     1
 90
        0
176
     1
 62
     7
176
     1
 62
   257
176
     1
 90
        1
176
     1
 90
        1
176
     1
 40
1.0
176
     1
 90
        0
176
     1
 62
   257
176
     1
 40
1.0
176
     1
 90
        1
176
     1
 90
        6
176
     1
 90
        2
176
     1
 62
     7
176
     1
 90
        5
176
     1
 90
        0
176
     1
 90
        0
176
     1
290
     0
176
     1
 90
       13
176
     1
 40
0.0
176
     1
 90
        0
176
     1
290
     0
176
     1
290
     1
176
     1
290
     1
176
     1
290
     0
176
     1
290
     0
176
     1
290
     0
176
     1
290
     0
176
     1
290
     0
176
     1
290
     0
176
     1
 90
       50
176
     1
 40
0.0
176
     1
 40
1.0
176
     1
 90
        0
176
     1
 62
    18
420
        0
176
     1
 90
       50
176
     1
 90
        3
176
     1
 62
     5
420
      255
176
     1
290
     0
176
     1
 90
       50
176
     1
 90
       50
176
     1
 90
       50
176
     1
290
     0
176
     1
 90
       50
176
     1
 62
   256
176
     0
 40
1.0
176
     0
 90
        2
176
     1
  1
strokes_ogs.tif
176
     1
290
     0
176
     1
 40
1.0
176
     1
 40
1.0
176
     1
  0
VISUALSTYLE
  5
7E42
102
{ACAD_REACTORS
330
7E3F
102
}
330
7E3F
100
AcDbVisualStyle
  2
Gouraud
 70
     2
177
     3
291
     1
 70
    58
 90
        2
176
     1
 90
        2
176
     1
 90
        1
176
     1
 90
        2
176
     1
 40
0.6
176
     1
 40
30.0
176
     1
 62
     7
420
 16777215
176
     1
 90
        0
176
     1
 90
        0
176
     1
 62
     7
176
     1
 62
   257
176
     1
 90
        1
176
     1
 90
        1
176
     1
 40
1.0
176
     1
 90
        0
176
     1
 62
     7
176
     1
 40
1.0
176
     1
 90
        1
176
     1
 90
        6
176
     1
 90
        2
176
     1
 62
     7
176
     1
 90
        5
176
     1
 90
        0
176
     1
 90
        0
176
     1
290
     0
176
     1
 90
       13
176
     1
 40
0.0
176
     1
 90
        0
176
     1
290
     0
176
     1
290
     1
176
     1
290
     1
176
     1
290
     0
176
     1
290
     0
176
     1
290
     0
176
     1
290
     0
176
     1
290
     0
176
     1
290
     0
176
     1
 90
       50
176
     1
 40
0.0
176
     1
 40
1.0
176
     1
 90
        0
176
     1
 62
    18
420
        0
176
     1
 90
       50
176
     1
 90
        3
176
     1
 62
     5
420
      255
176
     1
290
     0
176
     1
 90
       50
176
     1
 90
       50
176
     1
 90
       50
176
     1
290
     0
176
     1
 90
       50
176
     1
 62
   256
176
     0
 40
1.0
176
     0
 90
        2
176
     1
  1
strokes_ogs.tif
176
     1
290
     0
176
     1
 40
1.0
176
     1
 40
1.0
176
     1
  0
VISUALSTYLE
  5
7E43
102
{ACAD_REACTORS
330
7E3F
102
}
330
7E3F
100
AcDbVisualStyle
  2
GouraudWithEdges
 70
     3
177
     3
291
     1
 70
    58
 90
        2
176
     1
 90
        2
176
     1
 90
        1
176
     1
 90
        2
176
     1
 40
0.6
176
     1
 40
30.0
176
     1
 62
     7
420
 16777215
176
     1
 90
        1
176
     1
 90
        0
176
     1
 62
     7
176
     1
 62
   257
176
     1
 90
        1
176
     1
 90
        1
176
     1
 40
1.0
176
     1
 90
        0
176
     1
 62
   257
176
     1
 40
1.0
176
     1
 90
        1
176
     1
 90
        6
176
     1
 90
        2
176
     1
 62
     7
176
     1
 90
        5
176
     1
 90
        0
176
     1
 90
        0
176
     1
290
     0
176
     1
 90
       13
176
     1
 40
0.0
176
     1
 90
        0
176
     1
290
     0
176
     1
290
     1
176
     1
290
     1
176
     1
290
     0
176
     1
290
     0
176
     1
290
     0
176
     1
290
     0
176
     1
290
     0
176
     1
290
     0
176
     1
 90
       50
176
     1
 40
0.0
176
     1
 40
1.0
176
     1
 90
        0
176
     1
 62
    18
420
        0
176
     1
 90
       50
176
     1
 90
        3
176
     1
 62
     5
420
      255
176
     1
290
     0
176
     1
 90
       50
176
     1
 90
       50
176
     1
 90
       50
176
     1
290
     0
176
     1
 90
       50
176
     1
 62
   256
176
     0
 40
1.0
176
     0
 90
        2
176
     1
  1
strokes_ogs.tif
176
     1
290
     0
176
     1
 40
1.0
176
     1
 40
1.0
176
     1
  0
VISUALSTYLE
  5
7E47
102
{ACAD_REACTORS
330
7E3F
102
}
330
7E3F
100
AcDbVisualStyle
  2
Hidden
 70
     6
177
     3
291
     0
 70
    58
 90
        1
176
     1
 90
        2
176
     1
 90
        2
176
     1
 90
        0
176
     1
 40
0.6
176
     1
 40
30.0
176
     1
 62
     7
420
 16777215
176
     1
 90
        2
176
     1
 90
        2
176
     1
 62
     7
176
     1
 62
   257
176
     1
 90
        2
176
     1
 90
        1
176
     1
 40
40.0
176
     1
 90
        0
176
     1
 62
   257
176
     1
 40
1.0
176
     1
 90
        1
176
     1
 90
        6
176
     1
 90
        2
176
     1
 62
     7
176
     1
 90
        3
176
     1
 90
        0
176
     1
 90
        0
176
     1
290
     0
176
     1
 90
        1
176
     1
 40
0.0
176
     1
 90
        0
176
     1
290
     0
176
     1
290
     1
176
     1
290
     1
176
     1
290
     0
176
     1
290
     0
176
     1
290
     0
176
     1
290
     0
176
     1
290
     0
176
     1
290
     0
176
     1
 90
       50
176
     1
 40
0.0
176
     1
 40
1.0
176
     1
 90
        0
176
     1
 62
    18
420
        0
176
     1
 90
       50
176
     1
 90
        3
176
     1
 62
     5
420
      255
176
     1
290
     0
176
     1
 90
       50
176
     1
 90
       50
176
     1
 90
       50
176
     1
290
     0
176
     1
 90
       50
176
     1
 62
   256
176
     0
 40
1.0
176
     0
 90
        2
176
     1
  1
strokes_ogs.tif
176
     1
290
     0
176
     1
 40
1.0
176
     1
 40
1.0
176
     1
  0
VISUALSTYLE
  5
7E55
102
{ACAD_REACTORS
330
7E3F
102
}
330
7E3F
100
AcDbVisualStyle
  2
JitterOff
 70
    20
177
     3
291
     1
 70
    58
 90
        2
176
     0
 90
        2
176
     0
 90
        0
176
     0
 90
        0
176
     0
 40
0.6
176
     0
 40
30.0
176
     0
 62
     7
420
 16777215
176
     0
 90
        1
176
     0
 90
        4
176
     0
 62
     7
176
     0
 62
   257
176
     0
 90
        1
176
     0
 90
        1
176
     0
 40
1.0
176
     0
 90
       10
176
     2
 62
     7
176
     0
 40
1.0
176
     0
 90
        1
176
     0
 90
        6
176
     0
 90
        2
176
     0
 62
     7
176
     0
 90
        5
176
     0
 90
        0
176
     0
 90
        0
176
     0
290
     0
176
     0
 90
        1
176
     0
 40
0.0
176
     0
 90
        0
176
     0
290
     0
176
     0
290
     1
176
     0
290
     1
176
     0
290
     0
176
     0
290
     0
176
     0
290
     0
176
     0
290
     0
176
     0
290
     0
176
     0
290
     0
176
     0
 90
       50
176
     0
 40
0.0
176
     0
 40
1.0
176
     0
 90
        0
176
     0
 62
    18
420
        0
176
     0
 90
       50
176
     0
 90
        3
176
     0
 62
     5
420
      255
176
     0
290
     0
176
     0
 90
       50
176
     0
 90
       50
176
     0
 90
       50
176
     0
290
     0
176
     0
 90
       50
176
     0
 62
   256
176
     0
 40
1.0
176
     0
 90
        2
176
     0
  1
strokes_ogs.tif
176
     0
290
     0
176
     0
 40
1.0
176
     0
 40
1.0
176
     0
  0
VISUALSTYLE
  5
7E4D
102
{ACAD_REACTORS
330
7E3F
102
}
330
7E3F
100
AcDbVisualStyle
  2
Linepattern
 70
    14
177
     3
291
     1
 70
    58
 90
        2
176
     1
 90
        2
176
     1
 90
        0
176
     1
 90
        0
176
     1
 40
0.6
176
     1
 40
30.0
176
     1
 62
     7
420
 16777215
176
     1
 90
        1
176
     1
 90
        4
176
     1
 62
     7
176
     1
 62
   257
176
     1
 90
        7
176
     1
 90
        7
176
     1
 40
1.0
176
     1
 90
        8
176
     1
 62
     7
176
     1
 40
1.0
176
     1
 90
        1
176
     1
 90
        6
176
     1
 90
        2
176
     1
 62
     7
176
     1
 90
        5
176
     1
 90
        0
176
     1
 90
        0
176
     1
290
     0
176
     1
 90
        1
176
     1
 40
0.0
176
     1
 90
        0
176
     1
290
     0
176
     1
290
     1
176
     1
290
     1
176
     1
290
     0
176
     1
290
     0
176
     1
290
     0
176
     1
290
     0
176
     1
290
     0
176
     1
290
     0
176
     1
 90
       50
176
     1
 40
0.0
176
     1
 40
1.0
176
     1
 90
        0
176
     1
 62
    18
420
        0
176
     1
 90
       50
176
     1
 90
        3
176
     1
 62
     5
420
      255
176
     1
290
     0
176
     1
 90
       50
176
     1
 90
       50
176
     1
 90
       50
176
     1
290
     0
176
     1
 90
       50
176
     1
 62
   256
176
     0
 40
1.0
176
     0
 90
        2
176
     1
  1
strokes_ogs.tif
176
     1
290
     0
176
     1
 40
1.0
176
     1
 40
1.0
176
     1
  0
VISUALSTYLE
  5
7E56
102
{ACAD_REACTORS
330
7E3F
102
}
330
7E3F
100
AcDbVisualStyle
  2
OverhangOff
 70
    21
177
     3
291
     1
 70
    58
 90
        2
176
     0
 90
        2
176
     0
 90
        0
176
     0
 90
        0
176
     0
 40
0.6
176
     0
 40
30.0
176
     0
 62
     7
420
 16777215
176
     0
 90
        1
176
     0
 90
        4
176
     0
 62
     7
176
     0
 62
   257
176
     0
 90
        1
176
     0
 90
        1
176
     0
 40
1.0
176
     0
 90
        9
176
     2
 62
     7
176
     0
 40
1.0
176
     0
 90
        1
176
     0
 90
        6
176
     0
 90
        2
176
     0
 62
     7
176
     0
 90
        5
176
     0
 90
        0
176
     0
 90
        0
176
     0
290
     0
176
     0
 90
        1
176
     0
 40
0.0
176
     0
 90
        0
176
     0
290
     0
176
     0
290
     1
176
     0
290
     1
176
     0
290
     0
176
     0
290
     0
176
     0
290
     0
176
     0
290
     0
176
     0
290
     0
176
     0
290
     0
176
     0
 90
       50
176
     0
 40
0.0
176
     0
 40
1.0
176
     0
 90
        0
176
     0
 62
    18
420
        0
176
     0
 90
       50
176
     0
 90
        3
176
     0
 62
     5
420
      255
176
     0
290
     0
176
     0
 90
       50
176
     0
 90
       50
176
     0
 90
       50
176
     0
290
     0
176
     0
 90
       50
176
     0
 62
   256
176
     0
 40
1.0
176
     0
 90
        2
176
     0
  1
strokes_ogs.tif
176
     0
290
     0
176
     0
 40
1.0
176
     0
 40
1.0
176
     0
  0
VISUALSTYLE
  5
7E49
102
{ACAD_REACTORS
330
7E3F
102
}
330
7E3F
100
AcDbVisualStyle
  2
Realistic
 70
     8
177
     3
291
     0
 70
    58
 90
        2
176
     1
 90
        3
176
     1
 90
        0
176
     1
 90
        2
176
     1
 40
0.6
176
     1
 40
30.0
176
     1
 62
     7
420
 16777215
176
     1
 90
        0
176
     1
 90
        0
176
     1
 62
     7
176
     1
 62
   257
176
     1
 90
        1
176
     1
 90
        1
176
     1
 40
1.0
176
     1
 90
        8
176
     1
 62
   257
176
     1
 40
1.0
176
     1
 90
        1
176
     1
 90
        6
176
     1
 90
        2
176
     1
 62
     7
176
     1
 90
        3
176
     1
 90
        0
176
     1
 90
        0
176
     1
290
     0
176
     1
 90
       13
176
     1
 40
0.0
176
     1
 90
        0
176
     1
290
     0
176
     1
290
     1
176
     1
290
     1
176
     1
290
     0
176
     1
290
     0
176
     1
290
     0
176
     1
290
     0
176
     1
290
     0
176
     1
290
     0
176
     1
 90
       50
176
     1
 40
0.0
176
     1
 40
1.0
176
     1
 90
        0
176
     1
 62
    18
420
        0
176
     1
 90
       50
176
     1
 90
        3
176
     1
 62
     5
420
      255
176
     1
290
     0
176
     1
 90
       50
176
     1
 90
       50
176
     1
 90
       50
176
     1
290
     0
176
     1
 90
       50
176
     1
 62
   256
176
     0
 40
1.0
176
     0
 90
        2
176
     1
  1
strokes_ogs.tif
176
     1
290
     0
176
     1
 40
1.0
176
     1
 40
1.0
176
     1
  0
VISUALSTYLE
  5
7E54
102
{ACAD_REACTORS
330
7E3F
102
}
330
7E3F
100
AcDbVisualStyle
  2
Shaded
 70
    27
177
     3
291
     0
 70
    58
 90
        2
176
     1
 90
        2
176
     1
 90
        1
176
     1
 90
        2
176
     1
 40
0.6
176
     1
 40
30.0
176
     1
 62
     7
420
 16777215
176
     1
 90
        0
176
     1
 90
        4
176
     1
 62
     7
176
     1
 62
   257
176
     1
 90
        1
176
     1
 90
        1
176
     1
 40
1.0
176
     1
 90
        8
176
     1
 62
   257
176
     1
 40
1.0
176
     1
 90
        1
176
     1
 90
        6
176
     1
 90
        2
176
     1
 62
     8
420
  7895160
176
     1
 90
        3
176
     1
 90
        0
176
     1
 90
        0
176
     1
290
     0
176
     1
 90
        5
176
     1
 40
0.0
176
     1
 90
        0
176
     1
290
     0
176
     1
290
     1
176
     1
290
     1
176
     1
290
     0
176
     1
290
     0
176
     1
290
     0
176
     1
290
     0
176
     1
290
     0
176
     1
290
     0
176
     1
 90
       50
176
     1
 40
0.0
176
     1
 40
1.0
176
     1
 90
        0
176
     1
 62
    18
420
        0
176
     1
 90
       50
176
     1
 90
        3
176
     1
 62
     5
420
      255
176
     1
290
     0
176
     1
 90
       50
176
     1
 90
       50
176
     1
 90
       50
176
     1
290
     0
176
     1
 90
       50
176
     1
 62
   256
176
     0
 40
1.0
176
     0
 90
        2
176
     1
  1
strokes_ogs.tif
176
     1
290
     0
176
     1
 40
1.0
176
     1
 40
1.0
176
     1
  0
VISUALSTYLE
  5
7E53
102
{ACAD_REACTORS
330
7E3F
102
}
330
7E3F
100
AcDbVisualStyle
  2
Shaded with edges
 70
    26
177
     3
291
     0
 70
    58
 90
        2
176
     1
 90
        2
176
     1
 90
        1
176
     1
 90
        2
176
     1
 40
0.6
176
     1
 40
30.0
176
     1
 62
     7
420
 16777215
176
     1
 90
        1
176
     1
 90
       10
176
     1
 62
     7
176
     1
 62
   257
176
     1
 90
        2
176
     1
 90
        1
176
     1
 40
1.0
176
     1
 90
        8
176
     1
 62
   257
176
     1
 40
1.0
176
     1
 90
        1
176
     1
 90
        6
176
     1
 90
        2
176
     1
 62
     7
176
     1
 90
        3
176
     1
 90
        0
176
     1
 90
        0
176
     1
290
     0
176
     1
 90
        5
176
     1
 40
0.0
176
     1
 90
        0
176
     1
290
     0
176
     1
290
     1
176
     1
290
     1
176
     1
290
     0
176
     1
290
     0
176
     1
290
     0
176
     1
290
     0
176
     1
290
     0
176
     1
290
     0
176
     1
 90
       50
176
     1
 40
0.0
176
     1
 40
1.0
176
     1
 90
        0
176
     1
 62
    18
420
        0
176
     1
 90
       50
176
     1
 90
        3
176
     1
 62
     5
420
      255
176
     1
290
     0
176
     1
 90
       50
176
     1
 90
       50
176
     1
 90
       50
176
     1
290
     0
176
     1
 90
       50
176
     1
 62
   256
176
     0
 40
1.0
176
     0
 90
        2
176
     1
  1
strokes_ogs.tif
176
     1
290
     0
176
     1
 40
1.0
176
     1
 40
1.0
176
     1
  0
VISUALSTYLE
  5
7E50
102
{ACAD_REACTORS
330
7E3F
102
}
330
7E3F
100
AcDbVisualStyle
  2
Shades of Gray
 70
    23
177
     3
291
     0
 70
    58
 90
        2
176
     1
 90
        2
176
     1
 90
        3
176
     1
 90
        0
176
     1
 40
0.6
176
     1
 40
30.0
176
     1
 62
     7
420
 16777215
176
     1
 90
        2
176
     1
 90
        2
176
     1
 62
     7
176
     1
 62
     7
176
     1
 90
        1
176
     1
 90
        1
176
     1
 40
40.0
176
     1
 90
        8
176
     1
 62
     7
176
     1
 40
1.0
176
     1
 90
        1
176
     1
 90
        6
176
     1
 90
        2
176
     1
 62
     7
176
     1
 90
        3
176
     1
 90
        0
176
     1
 90
        0
176
     1
290
     0
176
     1
 90
        1
176
     1
 40
0.0
176
     1
 90
        0
176
     1
290
     0
176
     1
290
     1
176
     1
290
     1
176
     1
290
     0
176
     1
290
     0
176
     1
290
     0
176
     1
290
     0
176
     1
290
     0
176
     1
290
     0
176
     1
 90
       50
176
     1
 40
0.0
176
     1
 40
1.0
176
     1
 90
        0
176
     1
 62
    18
420
        0
176
     1
 90
       50
176
     1
 90
        3
176
     1
 62
     5
420
      255
176
     1
290
     0
176
     1
 90
       50
176
     1
 90
       50
176
     1
 90
       50
176
     1
290
     0
176
     1
 90
       50
176
     1
 62
   256
176
     0
 40
1.0
176
     0
 90
        2
176
     1
  1
strokes_ogs.tif
176
     1
290
     0
176
     1
 40
1.0
176
     1
 40
1.0
176
     1
  0
VISUALSTYLE
  5
7E51
102
{ACAD_REACTORS
330
7E3F
102
}
330
7E3F
100
AcDbVisualStyle
  2
Sketchy
 70
    24
177
     3
291
     0
 70
    58
 90
        1
176
     1
 90
        2
176
     1
 90
        2
176
     1
 90
        0
176
     1
 40
0.6
176
     1
 40
30.0
176
     1
 62
     7
420
 16777215
176
     1
 90
        2
176
     1
 90
        2
176
     1
 62
     7
176
     1
 62
     7
176
     1
 90
        1
176
     1
 90
        1
176
     1
 40
40.0
176
     1
 90
       11
176
     1
 62
     7
176
     1
 40
1.0
176
     1
 90
        1
176
     1
 90
        6
176
     1
 90
        2
176
     1
 62
     7
176
     1
 90
        6
176
     1
 90
        0
176
     1
 90
        0
176
     1
290
     0
176
     1
 90
        1
176
     1
 40
0.0
176
     1
 90
        0
176
     1
290
     0
176
     1
290
     1
176
     1
290
     1
176
     1
290
     0
176
     1
290
     0
176
     1
290
     0
176
     1
290
     0
176
     1
290
     0
176
     1
290
     0
176
     1
 90
       50
176
     1
 40
0.0
176
     1
 40
1.0
176
     1
 90
        0
176
     1
 62
    18
420
        0
176
     1
 90
       50
176
     1
 90
        3
176
     1
 62
     5
420
      255
176
     1
290
     0
176
     1
 90
       50
176
     1
 90
       50
176
     1
 90
       50
176
     1
290
     0
176
     1
 90
       50
176
     1
 62
   256
176
     0
 40
1.0
176
     0
 90
        2
176
     1
  1
strokes_ogs.tif
176
     1
290
     0
176
     1
 40
1.0
176
     1
 40
1.0
176
     1
  0
VISUALSTYLE
  5
7E4C
102
{ACAD_REACTORS
330
7E3F
102
}
330
7E3F
100
AcDbVisualStyle
  2
Thicken
 70
    13
177
     3
291
     1
 70
    58
 90
        2
176
     1
 90
        2
176
     1
 90
        0
176
     1
 90
        0
176
     1
 40
0.6
176
     1
 40
30.0
176
     1
 62
     7
420
 16777215
176
     1
 90
        1
176
     1
 90
        4
176
     1
 62
     7
176
     1
 62
   257
176
     1
 90
        1
176
     1
 90
        1
176
     1
 40
1.0
176
     1
 90
       12
176
     1
 62
     7
176
     1
 40
1.0
176
     1
 90
        1
176
     1
 90
        6
176
     1
 90
        2
176
     1
 62
     7
176
     1
 90
        5
176
     1
 90
        0
176
     1
 90
        0
176
     1
290
     0
176
     1
 90
        1
176
     1
 40
0.0
176
     1
 90
        0
176
     1
290
     0
176
     1
290
     1
176
     1
290
     1
176
     1
290
     0
176
     1
290
     0
176
     1
290
     0
176
     1
290
     0
176
     1
290
     0
176
     1
290
     0
176
     1
 90
       50
176
     1
 40
0.0
176
     1
 40
1.0
176
     1
 90
        0
176
     1
 62
    18
420
        0
176
     1
 90
       50
176
     1
 90
        3
176
     1
 62
     5
420
      255
176
     1
290
     0
176
     1
 90
       50
176
     1
 90
       50
176
     1
 90
       50
176
     1
290
     0
176
     1
 90
       50
176
     1
 62
   256
176
     0
 40
1.0
176
     0
 90
        2
176
     1
  1
strokes_ogs.tif
176
     1
290
     0
176
     1
 40
1.0
176
     1
 40
1.0
176
     1
  0
VISUALSTYLE
  5
7E46
102
{ACAD_REACTORS
330
7E3F
102
}
330
7E3F
100
AcDbVisualStyle
  2
Wireframe
 70
     5
177
     3
291
     0
 70
    58
 90
        0
176
     1
 90
        2
176
     1
 90
        0
176
     1
 90
        0
176
     1
 40
0.6
176
     1
 40
30.0
176
     1
 62
     7
420
 16777215
176
     1
 90
        1
176
     1
 90
        4
176
     1
 62
     7
176
     1
 62
   257
176
     1
 90
        1
176
     1
 90
        1
176
     1
 40
1.0
176
     1
 90
        0
176
     1
 62
   257
176
     1
 40
1.0
176
     1
 90
        1
176
     1
 90
        6
176
     1
 90
        2
176
     1
 62
     7
176
     1
 90
        3
176
     1
 90
        0
176
     1
 90
        0
176
     1
290
     0
176
     1
 90
        1
176
     1
 40
0.0
176
     1
 90
        0
176
     1
290
     0
176
     1
290
     1
176
     1
290
     1
176
     1
290
     0
176
     1
290
     0
176
     1
290
     0
176
     1
290
     0
176
     1
290
     0
176
     1
290
     0
176
     1
 90
       50
176
     1
 40
0.0
176
     1
 40
1.0
176
     1
 90
        0
176
     1
 62
    18
420
        0
176
     1
 90
       50
176
     1
 90
        3
176
     1
 62
     5
420
      255
176
     1
290
     0
176
     1
 90
       50
176
     1
 90
       50
176
     1
 90
       50
176
     1
290
     0
176
     1
 90
       50
176
     1
 62
   256
176
     0
 40
1.0
176
     0
 90
        2
176
     1
  1
strokes_ogs.tif
176
     1
290
     0
176
     1
 40
1.0
176
     1
 40
1.0
176
     1
  0
VISUALSTYLE
  5
7E52
102
{ACAD_REACTORS
330
7E3F
102
}
330
7E3F
100
AcDbVisualStyle
  2
X-Ray
 70
    25
177
     3
291
     0
 70
    58
 90
        2
176
     1
 90
        2
176
     1
 90
        1
176
     1
 90
        1
176
     1
 40
0.5
176
     1
 40
30.0
176
     1
 62
     7
420
 16777215
176
     1
 90
        1
176
     1
 90
        0
176
     1
 62
     7
176
     1
 62
   257
176
     1
 90
        1
176
     1
 90
        1
176
     1
 40
1.0
176
     1
 90
        8
176
     1
 62
     7
176
     1
 40
1.0
176
     1
 90
        1
176
     1
 90
        6
176
     1
 90
        2
176
     1
 62
     7
176
     1
 90
        3
176
     1
 90
        0
176
     1
 90
        0
176
     1
290
     0
176
     1
 90
       13
176
     1
 40
0.0
176
     1
 90
        0
176
     1
290
     0
176
     1
290
     1
176
     1
290
     1
176
     1
290
     0
176
     1
290
     0
176
     1
290
     0
176
     1
290
     0
176
     1
290
     0
176
     1
290
     0
176
     1
 90
       50
176
     1
 40
0.0
176
     1
 40
1.0
176
     1
 90
        0
176
     1
 62
    18
420
        0
176
     1
 90
       50
176
     1
 90
        3
176
     1
 62
     5
420
      255
176
     1
290
     0
176
     1
 90
       50
176
     1
 90
       50
176
     1
 90
       50
176
     1
290
     0
176
     1
 90
       50
176
     1
 62
   256
176
     0
 40
1.0
176
     0
 90
        2
176
     1
  1
strokes_ogs.tif
176
     1
290
     0
176
     1
 40
1.0
176
     1
 40
1.0
176
     1
  0
DICTIONARYVAR
  5
7EDF
102
{ACAD_REACTORS
330
7E1E
102
}
330
7E1E
100
DictionaryVariables
280
     0
  1
1:1
  0
DICTIONARYVAR
  5
7EDB
102
{ACAD_REACTORS
330
7E1E
102
}
330
7E1E
100
DictionaryVariables
280
     0
  1
STANDARD
  0
DICTIONARYVAR
  5
7EDA
102
{ACAD_REACTORS
330
7E1E
102
}
330
7E1E
100
DictionaryVariables
280
     0
  1
STANDARD
  0
DICTIONARYVAR
  5
7EDC
102
{ACAD_REACTORS
330
7E1E
102
}
330
7E1E
100
DictionaryVariables
280
     0
  1
Imperial24
  0
DICTIONARYVAR
  5
7EDD
102
{ACAD_REACTORS
330
7E1E
102
}
330
7E1E
100
DictionaryVariables
280
     0
  1
Imperial24
  0
DICTIONARYVAR
  5
7E1F
102
{ACAD_REACTORS
330
7E1E
102
}
330
7E1E
100
DictionaryVariables
280
     0
  1
1
  0
DICTIONARYVAR
  5
7EE1
102
{ACAD_REACTORS
330
7E1E
102
}
330
7E1E
100
DictionaryVariables
280
     0
  1
1
  0
DICTIONARYVAR
  5
7EE2
102
{ACAD_REACTORS
330
7E1E
102
}
330
7E1E
100
DictionaryVariables
280
     0
  1
15
  0
DICTIONARYVAR
  5
7EE0
102
{ACAD_REACTORS
330
7E1E
102
}
330
7E1E
100
DictionaryVariables
280
     0
  1
0
  0
DICTIONARYVAR
  5
7EDE
102
{ACAD_REACTORS
330
7E1E
102
}
330
7E1E
100
DictionaryVariables
280
     0
  1
0
  0
DICTIONARY
  5
7ED7
330
7E72
100
AcDbDictionary
280
     1
281
     1
  3
ACAD_XREC_ROUNDTRIP
360
7F66
  0
DICTIONARY
  5
7E30
330
7E2F
100
AcDbDictionary
280
     1
281
     1
  3
BUMPTILE
360
7E32
  3
DIFFUSETILE
360
7E31
  3
OPACITYTILE
360
7E35
  3
REFLECTIONTILE
360
7E34
  3
REFRACTIONTILE
360
7E36
  3
SPECULARTILE
360
7E33
  0
DICTIONARY
  5
7E28
330
7E27
100
AcDbDictionary
280
     1
281
     1
  3
BUMPTILE
360
7E2A
  3
DIFFUSETILE
360
7E29
  3
OPACITYTILE
360
7E2D
  3
REFLECTIONTILE
360
7E2C
  3
REFRACTIONTILE
360
7E2E
  3
SPECULARTILE
360
7E2B
  0
DICTIONARY
  5
7E38
330
7E37
100
AcDbDictionary
280
     1
281
     1
  3
BUMPTILE
360
7E3A
  3
DIFFUSETILE
360
7E39
  3
OPACITYTILE
360
7E3D
  3
REFLECTIONTILE
360
7E3C
  3
REFRACTIONTILE
360
7E3E
  3
SPECULARTILE
360
7E3B
  0
DICTIONARY
  5
7ED5
330
7E70
100
AcDbDictionary
280
     1
281
     1
  3
ACAD_XREC_ROUNDTRIP
360
7F65
  0
DICTIONARY
  5
7F63
330
7E5A
100
AcDbDictionary
280
     1
281
     1
  3
ACAD_ROUNDTRIP_2008_TABLESTYLE_CELLSTYLEMAP
360
7F64
  0
XRECORD
  5
7F66
102
{ACAD_REACTORS
330
7ED7
102
}
330
7ED7
100
AcDbXrecord
280
     1
102
DISPLAYNAME
  1
Imperial24
102
FLAGS
 90
        0
  0
XRECORD
  5
7E32
102
{ACAD_REACTORS
330
7E30
102
}
330
7E30
100
AcDbXrecord
280
     1
270
     1
271
     1
  0
XRECORD
  5
7E31
102
{ACAD_REACTORS
330
7E30
102
}
330
7E30
100
AcDbXrecord
280
     1
270
     1
271
     1
  0
XRECORD
  5
7E35
102
{ACAD_REACTORS
330
7E30
102
}
330
7E30
100
AcDbXrecord
280
     1
270
     1
271
     1
  0
XRECORD
  5
7E34
102
{ACAD_REACTORS
330
7E30
102
}
330
7E30
100
AcDbXrecord
280
     1
270
     1
271
     1
  0
XRECORD
  5
7E36
102
{ACAD_REACTORS
330
7E30
102
}
330
7E30
100
AcDbXrecord
280
     1
270
     1
271
     1
  0
XRECORD
  5
7E33
102
{ACAD_REACTORS
330
7E30
102
}
330
7E30
100
AcDbXrecord
280
     1
270
     1
271
     1
  0
XRECORD
  5
7E2A
102
{ACAD_REACTORS
330
7E28
102
}
330
7E28
100
AcDbXrecord
280
     1
270
     1
271
     1
  0
XRECORD
  5
7E29
102
{ACAD_REACTORS
330
7E28
102
}
330
7E28
100
AcDbXrecord
280
     1
270
     1
271
     1
  0
XRECORD
  5
7E2D
102
{ACAD_REACTORS
330
7E28
102
}
330
7E28
100
AcDbXrecord
280
     1
270
     1
271
     1
  0
XRECORD
  5
7E2C
102
{ACAD_REACTORS
330
7E28
102
}
330
7E28
100
AcDbXrecord
280
     1
270
     1
271
     1
  0
XRECORD
  5
7E2E
102
{ACAD_REACTORS
330
7E28
102
}
330
7E28
100
AcDbXrecord
280
     1
270
     1
271
     1
  0
XRECORD
  5
7E2B
102
{ACAD_REACTORS
330
7E28
102
}
330
7E28
100
AcDbXrecord
280
     1
270
     1
271
     1
  0
XRECORD
  5
7E3A
102
{ACAD_REACTORS
330
7E38
102
}
330
7E38
100
AcDbXrecord
280
     1
270
     1
271
     1
  0
XRECORD
  5
7E39
102
{ACAD_REACTORS
330
7E38
102
}
330
7E38
100
AcDbXrecord
280
     1
270
     1
271
     1
  0
XRECORD
  5
7E3D
102
{ACAD_REACTORS
330
7E38
102
}
330
7E38
100
AcDbXrecord
280
     1
270
     1
271
     1
  0
XRECORD
  5
7E3C
102
{ACAD_REACTORS
330
7E38
102
}
330
7E38
100
AcDbXrecord
280
     1
270
     1
271
     1
  0
XRECORD
  5
7E3E
102
{ACAD_REACTORS
330
7E38
102
}
330
7E38
100
AcDbXrecord
280
     1
270
     1
271
     1
  0
XRECORD
  5
7E3B
102
{ACAD_REACTORS
330
7E38
102
}
330
7E38
100
AcDbXrecord
280
     1
270
     1
271
     1
  0
XRECORD
  5
7F65
102
{ACAD_REACTORS
330
7ED5
102
}
330
7ED5
100
AcDbXrecord
280
     1
102
DISPLAYNAME
  1
Imperial24
102
FLAGS
 90
        0
  0
CELLSTYLEMAP
  5
7F64
102
{ACAD_REACTORS
330
7F63
102
}
330
7F63
100
AcDbCellStyleMap
 90
        3
300
CELLSTYLE
  1
TABLEFORMAT_BEGIN
 90
        5
170
     1
 91
        0
 92
    32768
 62
   257
 93
        1
300
CONTENTFORMAT
  1
CONTENTFORMAT_BEGIN
 90
        0
 91
        0
 92
      512
 93
        0
300

 40
0.0
140
1.0
 94
        5
 62
     0
340
10
144
0.25
309
CONTENTFORMAT_END
171
     0
 94
        0
309
TABLEFORMAT_END
  1
CELLSTYLE_BEGIN
 90
        1
 91
        1
300
_TITLE
309
CELLSTYLE_END
300
CELLSTYLE
  1
TABLEFORMAT_BEGIN
 90
        5
170
     1
 91
        0
 92
        0
 62
   257
 93
        1
300
CONTENTFORMAT
  1
CONTENTFORMAT_BEGIN
 90
        0
 91
        0
 92
      512
 93
        0
300

 40
0.0
140
1.0
 94
        5
 62
     0
340
10
144
0.18
309
CONTENTFORMAT_END
171
     0
 94
        0
309
TABLEFORMAT_END
  1
CELLSTYLE_BEGIN
 90
        2
 91
        1
300
_HEADER
309
CELLSTYLE_END
300
CELLSTYLE
  1
TABLEFORMAT_BEGIN
 90
        5
170
     1
 91
        0
 92
        0
 62
   257
 93
        1
300
CONTENTFORMAT
  1
CONTENTFORMAT_BEGIN
 90
        0
 91
        0
 92
      512
 93
        0
300

 40
0.0
140
1.0
 94
        2
 62
     0
340
10
144
0.18
309
CONTENTFORMAT_END
171
     0
 94
        0
309
TABLEFORMAT_END
  1
CELLSTYLE_BEGIN
 90
        3
 91
        2
300
_DATA
309
CELLSTYLE_END
  0
ENDSEC
  0
SECTION
  2
ACDSDATA
 70
     2
 71
     8
  0
ACDSSCHEMA
 90
        0
  1
AcDb_Thumbnail_Schema
  2
AcDbDs::ID
280
    10
 91
        8
  2
Thumbnail_Data
280
    15
 91
        0
101
ACDSRECORD
 95
        0
 90
        1
  2
AcDbDs::TreatedAsObjectData
280
     1
291
     1
101
ACDSRECORD
 95
        0
 90
        2
  2
AcDbDs::Legacy
280
     1
291
     1
101
ACDSRECORD
  1
AcDbDs::ID
 90
        3
  2
AcDs:Indexable
280
     1
291
     1
101
ACDSRECORD
  1
AcDbDs::ID
 90
        4
  2
AcDbDs::HandleAttribute
280
     7
282
     1
  0
ACDSSCHEMA
 90
        1
  1
AcDbDs::TreatedAsObjectDataSchema
  2
AcDbDs::TreatedAsObjectData
280
     1
 91
        0
  0
ACDSSCHEMA
 90
        2
  1
AcDbDs::LegacySchema
  2
AcDbDs::Legacy
280
     1
 91
        0
  0
ACDSSCHEMA
 90
        3
  1
AcDbDs::IndexedPropertySchema
  2
AcDs:Indexable
280
     1
 91
        0
  0
ACDSSCHEMA
 90
        4
  1
AcDbDs::HandleAttributeSchema
  2
AcDbDs::HandleAttribute
280
     7
 91
        1
284
     1
  0
ACDSRECORD
 90
        0
  2
AcDbDs::ID
280
    10
320
7D58
  2
Thumbnail_Data
280
    15
 94
     1865
310
89504E470D0A1A0A0000000D49484452000001000000007C0803000000B13B9E5A00000300504C5445000000000000C8C8C80000000000000000000000000000000000000000000000000000330000660000990000CC0000FF0033000033330033660033990033CC0033FF0066000066330066660066990066CC0066FF0099
310
000099330099660099990099CC0099FF00CC0000CC3300CC6600CC9900CCCC00CCFF00FF0000FF3300FF6600FF9900FFCC00FFFF3300003300333300663300993300CC3300FF3333003333333333663333993333CC3333FF3366003366333366663366993366CC3366FF3399003399333399663399993399CC3399FF33CC00
310
33CC3333CC6633CC9933CCCC33CCFF33FF0033FF3333FF6633FF9933FFCC33FFFF6600006600336600666600996600CC6600FF6633006633336633666633996633CC6633FF6666006666336666666666996666CC6666FF6699006699336699666699996699CC6699FF66CC0066CC3366CC6666CC9966CCCC66CCFF66FF0066
310
FF3366FF6666FF9966FFCC66FFFF9900009900339900669900999900CC9900FF9933009933339933669933999933CC9933FF9966009966339966669966999966CC9966FF9999009999339999669999999999CC9999FF99CC0099CC3399CC6699CC9999CCCC99CCFF99FF0099FF3399FF6699FF9999FFCC99FFFFCC0000CC00
310
33CC0066CC0099CC00CCCC00FFCC3300CC3333CC3366CC3399CC33CCCC33FFCC6600CC6633CC6666CC6699CC66CCCC66FFCC9900CC9933CC9966CC9999CC99CCCC99FFCCCC00CCCC33CCCC66CCCC99CCCCCCCCCCFFCCFF00CCFF33CCFF66CCFF99CCFFCCCCFFFFFF0000FF0033FF0066FF0099FF00CCFF00FFFF3300FF3333
310
FF3366FF3399FF33CCFF33FFFF6600FF6633FF6666FF6699FF66CCFF66FFFF9900FF9933FF9966FF9999FF99CCFF99FFFFCC00FFCC33FFCC66FFCC99FFCCCCFFCCFFFFFF00FFFF33FFFF66FFFF99FFFFCCFFFFFF0000000D0D0D1A1A1A2828283535354343435050505D5D5D6B6B6B787878868686939393A1A1A1AEAEAEBB
310
BBBBC9C9C9D6D6D6E4E4E4F1F1F1FFFFFF00000000000000000000000000000000000000000000000000000000000008F1915C000003EE4944415478DAED9D5B8E23210C45BD1C7EBCFFCD781BFC4F02059857A5D26A699A6B7B5AE9A90A1DC9A7FCC21041F40725AE840C497C780F17409CF5350660367A73163012F01870
310
AA1DFF9A403CC6BFF3710EE03F0148F92D65B9989DA4DCCC3788B6D67E268098E23935D526C78E9B7714AF8301C4D85E68D0BBDD982F92E6E9CF0E075014EF2CE0B2F2FC5B5DD06817BDDAE7C680CE05CA038E9D53504150471517F22CE000BC12B4D80F8099FFAC9FE35407345D55508C2D859C0DA0BCD0124097F334805A
310
1E46380B182FEF0198F47D831D1017171717175B12CC6ACEBDBC6ED855BE32B00360E1020EC001D809FC5B8154575E7213EF9405A09A805C16BFCE789600B400E000785109A2029005004B95902C01D42B6E77CD032007E000CC640107B0C8030600ACB29DBE82AD03167381A508ECF44F4AA29F9FBFB67E7C00939D732A85
310
ED00306E01B76200C046C2B3616000DE9941BEE284660142B6003C146000BF37CA98887130DA35C422880180D8531D384C2A7D56AAC9623856A2FC0E808001F86CDFB21E0E581ACA46E7B142085009515693A17B730850C5B2B47640A80D31A5BA0C1650C66101C84D807E87C815E806009C3B478405800717700037005EFF
310
52EF100900D30C601703B8FC0001A86B25A1F449F70052D7346001686B45A1EC8D1900A80672FA4F60DAB5D24E0590BBC1C9029847004C6A31B1026094622807C1AC585230FFDC00C82EC028C590B44D6121DBC2755DB3000F2E800620A95C826075870E405D38CE6343CE8618318085EA3AD9B536B805508C23D43879B0E2
310
E183B41810DA242184F4F296D7EFE32D203FE8BC50AA57879BCB6708CCED1EB749D3E92ED0DCBAAE958671DF880250CBA552311E0E4047B56BBB800A82F00058EF0BE306A018F90880E10068454B126C8D911100D53D251D8083EB006E06AFA340B81E35778DB1AD05D0C916F0AEFCA9CEFDB86B8991CE01DB1870F464E82A
310
672EE3D7A530376BA73A1760E52F9D0B1C9C034A357385C132CBD3EE8E0D205B00AB8DB37C65810D00C202D0F57F8696580B82DD6C50EDB10D677FA564DE13F709804E835DEF1001809630EEA15616D08D3B1CC07E86380E915AECF0B34F300200DF05E6A5512417A0CF16D0CF053E8F4306406800EEB68907F58D9162FF70
310
2EC0CF2C80D56C102B08CA7716500808CC178AE4D97B32DC9062119F3E030980CE00A293C2D19BE4A63D6FFD7B4AC71E00CC46D15EE34E911CF4F32EC819403FEE601778FE8509F16F0DB8B8B8B8B8B8B8608BF90316226D548A4FFE160200ED00B46376489D37D89DC4036401B401D031207D2E118E05FCC0BE23900B7810
310
A4B546EAB02D6AA7941D7ED2D47759407B7B05108D01A801B01E468807E0D605DA316BE5FC2138007F3008FE037A8F6F5E00C93A750000000049454E44AE426082855CCAC58A0D0000000049454E44AE426082AE426082
  0
ENDSEC
  0
EOF
