  0
SECTION
  2
HEADER
  9
$ACADVER
  1
AC1027
  9
$ACADMAINTVER
 70
    81
  9
$DWGCODEPAGE
  3
ANSI_932
  9
$LASTSAVEDBY
  1
reiko.miyawaki
  9
$REQUIREDVERSIONS
160
                 0
  9
$INSBASE
 10
0.0
 20
0.0
 30
0.0
  9
$EXTMIN
 10
-326.7108162498318
 20
-2292.039438
 30
0.0
  9
$EXTMAX
 10
1357.58898484729
 20
194.612824
 30
0.0
  9
$LIMMIN
 10
0.0
 20
0.0
  9
$LIMMAX
 10
297.0
 20
210.0
  9
$ORTHOMODE
 70
     1
  9
$REGENMODE
 70
     1
  9
$FILLMODE
 70
     0
  9
$QTEXTMODE
 70
     0
  9
$MIRRTEXT
 70
     1
  9
$LTSCALE
 40
100.0
  9
$ATTMODE
 70
     1
  9
$TEXTSIZE
 40
180.0
  9
$TRACEWID
 40
0.05
  9
$TEXTSTYLE
  7
STANDARD
  9
$CLAYER
  8
3
  9
$CELTYPE
  6
BYLAYER
  9
$CECOLOR
 62
   256
  9
$CELTSCALE
 40
1.0
  9
$DISPSILH
 70
     0
  9
$DIMSCALE
 40
10.0
  9
$DIMASZ
 40
2.0
  9
$DIMEXO
 40
0.5
  9
$DIMDLI
 40
10.0
  9
$DIMRND
 40
0.0
  9
$DIMDLE
 40
0.0
  9
$DIMEXE
 40
1.0
  9
$DIMTP
 40
1.0
  9
$DIMTM
 40
1.0
  9
$DIMTXT
 40
3.0
  9
$DIMCEN
 40
0.0
  9
$DIMTSZ
 40
0.0
  9
$DIMTOL
 70
     0
  9
$DIMLIM
 70
     0
  9
$DIMTIH
 70
     0
  9
$DIMTOH
 70
     0
  9
$DIMSE1
 70
     0
  9
$DIMSE2
 70
     0
  9
$DIMTAD
 70
     1
  9
$DIMZIN
 70
     8
  9
$DIMBLK
  1

  9
$DIMASO
 70
     1
  9
$DIMSHO
 70
     1
  9
$DIMPOST
  1
(<>)
  9
$DIMAPOST
  1

  9
$DIMALT
 70
     0
  9
$DIMALTD
 70
     2
  9
$DIMALTF
 40
0.039
  9
$DIMLFAC
 40
1.0
  9
$DIMTOFL
 70
     1
  9
$DIMTVP
 40
0.0
  9
$DIMTIX
 70
     0
  9
$DIMSOXD
 70
     0
  9
$DIMSAH
 70
     1
  9
$DIMBLK1
  1
DOT
  9
$DIMBLK2
  1
OPEN
  9
$DIMSTYLE
  2
IGA
  9
$DIMCLRD
 70
     0
  9
$DIMCLRE
 70
     0
  9
$DIMCLRT
 70
     0
  9
$DIMTFAC
 40
10.0
  9
$DIMGAP
 40
1.0
  9
$DIMJUST
 70
     0
  9
$DIMSD1
 70
     0
  9
$DIMSD2
 70
     0
  9
$DIMTOLJ
 70
     1
  9
$DIMTZIN
 70
     8
  9
$DIMALTZ
 70
     0
  9
$DIMALTTZ
 70
     0
  9
$DIMUPT
 70
     0
  9
$DIMDEC
 70
     0
  9
$DIMTDEC
 70
     0
  9
$DIMALTU
 70
     2
  9
$DIMALTTD
 70
     2
  9
$DIMTXSTY
  7
STANDARD
  9
$DIMAUNIT
 70
     0
  9
$DIMADEC
 70
     0
  9
$DIMALTRND
 40
0.0
  9
$DIMAZIN
 70
     0
  9
$DIMDSEP
 70
    46
  9
$DIMATFIT
 70
     3
  9
$DIMFRAC
 70
     0
  9
$DIMLDRBLK
  1
DOT
  9
$DIMLUNIT
 70
     2
  9
$DIMLWD
 70
    -2
  9
$DIMLWE
 70
    -2
  9
$DIMTMOVE
 70
     2
  9
$DIMFXL
 40
1.0
  9
$DIMFXLON
 70
     0
  9
$DIMJOGANG
 40
0.7853981633974483
  9
$DIMTFILL
 70
     0
  9
$DIMTFILLCLR
 70
     0
  9
$DIMARCSYM
 70
     0
  9
$DIMLTYPE
  6

  9
$DIMLTEX1
  6

  9
$DIMLTEX2
  6

  9
$DIMTXTDIRECTION
 70
     0
  9
$LUNITS
 70
     2
  9
$LUPREC
 70
     3
  9
$SKETCHINC
 40
0.1
  9
$FILLETRAD
 40
50.0
  9
$AUNITS
 70
     0
  9
$AUPREC
 70
     0
  9
$MENU
  1
acad
  9
$ELEVATION
 40
0.0
  9
$PELEVATION
 40
0.0
  9
$THICKNESS
 40
0.0
  9
$LIMCHECK
 70
     0
  9
$CHAMFERA
 40
0.5
  9
$CHAMFERB
 40
0.5
  9
$CHAMFERC
 40
20.0
  9
$CHAMFERD
 40
0.0
  9
$SKPOLY
 70
     0
  9
$TDCREATE
 40
2450740.610665857
  9
$TDUCREATE
 40
2450740.235665857
  9
$TDUPDATE
 40
2459024.548680961
  9
$TDUUPDATE
 40
2459024.173680961
  9
$TDINDWG
 40
0.0073706481
  9
$TDUSRTIMER
 40
0.0073706481
  9
$USRTIMER
 70
     1
  9
$ANGBASE
 50
0.0
  9
$ANGDIR
 70
     0
  9
$PDMODE
 70
     0
  9
$PDSIZE
 40
0.0
  9
$PLINEWID
 40
0.0
  9
$SPLFRAME
 70
     0
  9
$SPLINETYPE
 70
     6
  9
$SPLINESEGS
 70
     8
  9
$HANDSEED
  5
7FA7
  9
$SURFTAB1
 70
     6
  9
$SURFTAB2
 70
     6
  9
$SURFTYPE
 70
     6
  9
$SURFU
 70
     6
  9
$SURFV
 70
     6
  9
$UCSBASE
  2

  9
$UCSNAME
  2

  9
$UCSORG
 10
0.0
 20
0.0
 30
0.0
  9
$UCSXDIR
 10
1.0
 20
0.0
 30
0.0
  9
$UCSYDIR
 10
0.0
 20
1.0
 30
0.0
  9
$UCSORTHOREF
  2

  9
$UCSORTHOVIEW
 70
     0
  9
$UCSORGTOP
 10
0.0
 20
0.0
 30
0.0
  9
$UCSORGBOTTOM
 10
0.0
 20
0.0
 30
0.0
  9
$UCSORGLEFT
 10
0.0
 20
0.0
 30
0.0
  9
$UCSORGRIGHT
 10
0.0
 20
0.0
 30
0.0
  9
$UCSORGFRONT
 10
0.0
 20
0.0
 30
0.0
  9
$UCSORGBACK
 10
0.0
 20
0.0
 30
0.0
  9
$PUCSBASE
  2

  9
$PUCSNAME
  2

  9
$PUCSORG
 10
0.0
 20
0.0
 30
0.0
  9
$PUCSXDIR
 10
1.0
 20
0.0
 30
0.0
  9
$PUCSYDIR
 10
0.0
 20
1.0
 30
0.0
  9
$PUCSORTHOREF
  2

  9
$PUCSORTHOVIEW
 70
     0
  9
$PUCSORGTOP
 10
0.0
 20
0.0
 30
0.0
  9
$PUCSORGBOTTOM
 10
0.0
 20
0.0
 30
0.0
  9
$PUCSORGLEFT
 10
0.0
 20
0.0
 30
0.0
  9
$PUCSORGRIGHT
 10
0.0
 20
0.0
 30
0.0
  9
$PUCSORGFRONT
 10
0.0
 20
0.0
 30
0.0
  9
$PUCSORGBACK
 10
0.0
 20
0.0
 30
0.0
  9
$USERI1
 70
     0
  9
$USERI2
 70
     0
  9
$USERI3
 70
     0
  9
$USERI4
 70
     0
  9
$USERI5
 70
     0
  9
$USERR1
 40
0.0
  9
$USERR2
 40
0.0
  9
$USERR3
 40
0.0
  9
$USERR4
 40
0.0
  9
$USERR5
 40
0.0
  9
$WORLDVIEW
 70
     1
  9
$SHADEDGE
 70
     3
  9
$SHADEDIF
 70
    70
  9
$TILEMODE
 70
     1
  9
$MAXACTVP
 70
    16
  9
$PINSBASE
 10
0.0
 20
0.0
 30
0.0
  9
$PLIMCHECK
 70
     0
  9
$PEXTMIN
 10
1.000000000000000E+20
 20
1.000000000000000E+20
 30
1.000000000000000E+20
  9
$PEXTMAX
 10
-1.000000000000000E+20
 20
-1.000000000000000E+20
 30
-1.000000000000000E+20
  9
$PLIMMIN
 10
0.0
 20
0.0
  9
$PLIMMAX
 10
12.0
 20
9.0
  9
$UNITMODE
 70
     0
  9
$VISRETAIN
 70
     0
  9
$PLINEGEN
 70
     0
  9
$PSLTSCALE
 70
     1
  9
$TREEDEPTH
 70
  3020
  9
$CMLSTYLE
  2
STANDARD
  9
$CMLJUST
 70
     0
  9
$CMLSCALE
 40
20.0
  9
$PROXYGRAPHICS
 70
     1
  9
$MEASUREMENT
 70
     0
  9
$CELWEIGHT
370
    -1
  9
$ENDCAPS
280
     0
  9
$JOINSTYLE
280
     0
  9
$LWDISPLAY
290
     0
  9
$INSUNITS
 70
     0
  9
$HYPERLINKBASE
  1

  9
$STYLESHEET
  1

  9
$XEDIT
290
     1
  9
$CEPSNTYPE
380
     0
  9
$PSTYLEMODE
290
     1
  9
$FINGERPRINTGUID
  2
{BD8B4308-7943-4723-86C9-14DE5CCA8C68}
  9
$VERSIONGUID
  2
{24C291CB-C28F-441F-BD38-E4102471C9C5}
  9
$EXTNAMES
290
     1
  9
$PSVPSCALE
 40
0.0
  9
$OLESTARTUP
290
     0
  9
$SORTENTS
280
   127
  9
$INDEXCTL
280
     0
  9
$HIDETEXT
280
     0
  9
$XCLIPFRAME
280
     2
  9
$HALOGAP
280
     0
  9
$OBSCOLOR
 70
   257
  9
$OBSLTYPE
280
     0
  9
$INTERSECTIONDISPLAY
280
     0
  9
$INTERSECTIONCOLOR
 70
   257
  9
$DIMASSOC
280
     1
  9
$PROJECTNAME
  1

  9
$CAMERADISPLAY
290
     0
  9
$LENSLENGTH
 40
50.0
  9
$CAMERAHEIGHT
 40
0.0
  9
$STEPSPERSEC
 40
2.0
  9
$STEPSIZE
 40
6.0
  9
$3DDWFPREC
 40
2.0
  9
$PSOLWIDTH
 40
0.25
  9
$PSOLHEIGHT
 40
4.0
  9
$LOFTANG1
 40
1.570796326794896
  9
$LOFTANG2
 40
1.570796326794896
  9
$LOFTMAG1
 40
0.0
  9
$LOFTMAG2
 40
0.0
  9
$LOFTPARAM
 70
     7
  9
$LOFTNORMALS
280
     1
  9
$LATITUDE
 40
37.795
  9
$LONGITUDE
 40
-122.394
  9
$NORTHDIRECTION
 40
0.0
  9
$TIMEZONE
 70
 -8000
  9
$LIGHTGLYPHDISPLAY
280
     1
  9
$TILEMODELIGHTSYNCH
280
     1
  9
$CMATERIAL
347
7E9B
  9
$SOLIDHIST
280
     0
  9
$SHOWHIST
280
     1
  9
$DWFFRAME
280
     2
  9
$DGNFRAME
280
     0
  9
$REALWORLDSCALE
290
     1
  9
$INTERFERECOLOR
 62
     1
  9
$INTERFEREOBJVS
345
7EBD
  9
$INTERFEREVPVS
346
7EBA
  9
$CSHADOW
280
     0
  9
$SHADOWPLANELOCATION
 40
0.0
  0
ENDSEC
  0
SECTION
  2
CLASSES
  0
CLASS
  1
ACDBDICTIONARYWDFLT
  2
AcDbDictionaryWithDefault
  3
ObjectDBX Classes
 90
        0
 91
        1
280
     0
281
     0
  0
CLASS
  1
DICTIONARYVAR
  2
AcDbDictionaryVar
  3
ObjectDBX Classes
 90
        0
 91
       10
280
     0
281
     0
  0
CLASS
  1
MATERIAL
  2
AcDbMaterial
  3
ObjectDBX Classes
 90
     1153
 91
        3
280
     0
281
     0
  0
CLASS
  1
VISUALSTYLE
  2
AcDbVisualStyle
  3
ObjectDBX Classes
 90
     4095
 91
       24
280
     0
281
     0
  0
CLASS
  1
TABLESTYLE
  2
AcDbTableStyle
  3
ObjectDBX Classes
 90
     4095
 91
        1
280
     0
281
     0
  0
CLASS
  1
SCALE
  2
AcDbScale
  3
ObjectDBX Classes
 90
     1153
 91
       17
280
     0
281
     0
  0
CLASS
  1
MLEADERSTYLE
  2
AcDbMLeaderStyle
  3
ACDB_MLEADERSTYLE_CLASS
 90
     4095
 91
        1
280
     0
281
     0
  0
CLASS
  1
ACDBSECTIONVIEWSTYLE
  2
AcDbSectionViewStyle
  3
ObjectDBX Classes
 90
     1025
 91
        1
280
     0
281
     0
  0
CLASS
  1
ACDBDETAILVIEWSTYLE
  2
AcDbDetailViewStyle
  3
ObjectDBX Classes
 90
     1025
 91
        1
280
     0
281
     0
  0
CLASS
  1
CELLSTYLEMAP
  2
AcDbCellStyleMap
  3
ObjectDBX Classes
 90
     1152
 91
        1
280
     0
281
     0
  0
ENDSEC
  0
SECTION
  2
TABLES
  0
TABLE
  2
VPORT
  5
8
330
0
100
AcDbSymbolTable
 70
     1
  0
VPORT
  5
7E98
330
8
100
AcDbSymbolTableRecord
100
AcDbViewportTableRecord
  2
*Active
 70
     0
 10
0.0
 20
0.0
 11
1.0
 21
1.0
 12
515.439088220296
 22
-989.2211894430051
 13
0.0
 23
0.0
 14
10.0
 24
10.0
 15
10.0
 25
10.0
 16
0.0
 26
0.0
 36
1.0
 17
0.0
 27
0.0
 37
0.0
 40
2621.712762546778
 41
1.957107843137254
 42
50.0
 43
0.0
 44
0.0
 50
0.0
 51
0.0
 71
     0
 72
   100
 73
     1
 74
     0
 75
     0
 76
     0
 77
     0
 78
     0
281
     0
 65
     1
110
0.0
120
0.0
130
0.0
111
1.0
121
0.0
131
0.0
112
0.0
122
1.0
132
0.0
 79
     0
146
0.0
348
7EB9
 60
     3
 61
     5
292
     1
282
     1
141
0.0
142
0.0
 63
   250
421
  3355443
1001
ACAD_NAV_VCDISPLAY
1070
     3
  0
ENDTAB
  0
TABLE
  2
LTYPE
  5
5
330
0
100
AcDbSymbolTable
 70
     2
  0
LTYPE
  5
13
330
5
100
AcDbSymbolTableRecord
100
AcDbLinetypeTableRecord
  2
BYBLOCK
 70
     0
  3

 72
    65
 73
     0
 40
0.0
  0
LTYPE
  5
14
330
5
100
AcDbSymbolTableRecord
100
AcDbLinetypeTableRecord
  2
BYLAYER
 70
     0
  3

 72
    65
 73
     0
 40
0.0
  0
LTYPE
  5
15
330
5
100
AcDbSymbolTableRecord
100
AcDbLinetypeTableRecord
  2
CONTINUOUS
 70
     0
  3
Solid line
 72
    65
 73
     0
 40
0.0
  0
LTYPE
  5
1F
330
5
100
AcDbSymbolTableRecord
100
AcDbLinetypeTableRecord
  2
CENTER
 70
     0
  3
____ _ ____ _ ____ _ ____ _ ____ _ ____ _ ____ 
 72
    65
 73
     4
 40
2.0
 49
1.25
 74
     0
 49
-0.25
 74
     0
 49
0.25
 74
     0
 49
-0.25
 74
     0
  0
ENDTAB
  0
TABLE
  2
LAYER
  5
2
102
{ACAD_XDICTIONARY
360
7EEB
102
}
330
0
100
AcDbSymbolTable
 70
     6
  0
LAYER
  5
F
102
{ACAD_XDICTIONARY
360
7F38
102
}
330
2
100
AcDbSymbolTableRecord
100
AcDbLayerTableRecord
  2
0
 70
     0
 62
     7
  6
CONTINUOUS
370
    -3
390
7DC0
347
7EAB
348
0
  0
LAYER
  5
31
102
{ACAD_XDICTIONARY
360
7F3A
102
}
330
2
100
AcDbSymbolTableRecord
100
AcDbLayerTableRecord
  2
3
 70
     0
 62
     2
  6
CONTINUOUS
370
    -3
390
7DC0
347
7EAB
348
0
  0
LAYER
  5
76D0
102
{ACAD_XDICTIONARY
360
7F3C
102
}
330
2
100
AcDbSymbolTableRecord
100
AcDbLayerTableRecord
  2
2
 70
     0
 62
     3
  6
CENTER
370
    -3
390
7DC0
347
7EAB
348
0
  0
LAYER
  5
76D1
102
{ACAD_XDICTIONARY
360
7F3E
102
}
330
2
100
AcDbSymbolTableRecord
100
AcDbLayerTableRecord
  2
1
 70
     0
 62
     4
  6
CONTINUOUS
370
    -3
390
7DC0
347
7EAB
348
0
  0
LAYER
  5
76D2
102
{ACAD_XDICTIONARY
360
7F40
102
}
330
2
100
AcDbSymbolTableRecord
100
AcDbLayerTableRecord
  2
4
 70
     0
 62
     7
  6
CONTINUOUS
370
    -3
390
7DC0
347
7EAB
348
0
  0
LAYER
  5
7B4C
330
2
100
AcDbSymbolTableRecord
100
AcDbLayerTableRecord
  2
DEFPOINTS
 70
     0
 62
     7
  6
CONTINUOUS
290
     0
370
    -3
390
7DC0
347
7EAB
348
0
  0
ENDTAB
  0
TABLE
  2
STYLE
  5
3
330
0
100
AcDbSymbolTable
 70
     1
  0
STYLE
  5
10
330
3
100
AcDbSymbolTableRecord
100
AcDbTextStyleTableRecord
  2
STANDARD
 70
     0
 40
0.0
 41
1.0
 50
0.0
 71
     0
 42
180.0
  3
simplex.shx
  4
extfont.shx
  0
ENDTAB
  0
TABLE
  2
VIEW
  5
6
330
0
100
AcDbSymbolTable
 70
     0
  0
ENDTAB
  0
TABLE
  2
UCS
  5
7
330
0
100
AcDbSymbolTable
 70
     0
  0
ENDTAB
  0
TABLE
  2
APPID
  5
9
330
0
100
AcDbSymbolTable
 70
     4
  0
APPID
  5
11
330
9
100
AcDbSymbolTableRecord
100
AcDbRegAppTableRecord
  2
ACAD
 70
     0
  0
APPID
  5
7EEA
330
9
100
AcDbSymbolTableRecord
100
AcDbRegAppTableRecord
  2
ACAD_NAV_VCDISPLAY
 70
     0
  0
APPID
  5
7F5B
330
9
100
AcDbSymbolTableRecord
100
AcDbRegAppTableRecord
  2
AcadAnnoMonitorAlertIconDisabled
 70
     0
  0
APPID
  5
7F5C
330
9
100
AcDbSymbolTableRecord
100
AcDbRegAppTableRecord
  2
ACAD_EXEMPT_FROM_CAD_STANDARDS
 70
     0
  0
ENDTAB
  0
TABLE
  2
DIMSTYLE
  5
A
330
0
100
AcDbSymbolTable
 70
     1
100
AcDbDimStyleTable
 71
     1
340
1D
  0
DIMSTYLE
105
1D
102
{ACAD_REACTORS
330
7B51
330
7B5D
330
7B6A
330
7B77
330
7B83
330
7BC7
330
7BE5
330
7BF2
330
7BFF
330
7C0D
330
7C30
330
7C3C
330
7C7B
330
7CA4
330
7D7B
330
7D93
330
7DAA
330
7DB7
330
7F7E
102
}
330
A
100
AcDbSymbolTableRecord
100
AcDbDimStyleTableRecord
  2
IGA
 70
     0
 40
2.0
 41
2.0
 42
0.5
 43
10.0
 44
1.0
 47
1.0
 48
1.0
 73
     0
 74
     0
 77
     1
 78
     8
140
3.0
141
0.0
143
0.03937
146
10.0
147
1.0
173
     1
271
     1
272
     0
279
     2
284
     8
340
10
341
7B3E
343
7B3E
344
7B3E
  0
ENDTAB
  0
TABLE
  2
BLOCK_RECORD
  5
1
330
0
100
AcDbSymbolTable
 70
    21
  0
BLOCK_RECORD
  5
19
102
{ACAD_XDICTIONARY
360
7DEE
102
}
330
1
100
AcDbSymbolTableRecord
100
AcDbBlockTableRecord
  2
*MODEL_SPACE
340
7DC3
 70
     0
280
     1
281
     0
  0
BLOCK_RECORD
  5
16
102
{ACAD_XDICTIONARY
360
7DEC
102
}
330
1
100
AcDbSymbolTableRecord
100
AcDbBlockTableRecord
  2
*PAPER_SPACE
340
7DC4
 70
     0
280
     1
281
     0
  0
BLOCK_RECORD
  5
7B3E
330
1
100
AcDbSymbolTableRecord
100
AcDbBlockTableRecord
  2
_OPEN
340
0
102
{BLKREFS
331
7E08
331
7E09
331
7E19
331
7E1A
331
7E22
331
7E23
331
7E34
331
7E35
331
7E46
331
7E47
331
7E4E
331
7E4F
331
7E56
331
7E57
331
7E5F
331
7E60
331
7E68
331
7E69
331
7E71
331
7E72
331
7EFB
331
7EFC
331
7F07
331
7F18
331
7F19
331
7F20
331
7F21
331
7F29
331
7F2A
331
7F34
331
7F6A
331
7F6B
331
7F86
331
7F8E
331
7F8F
102
}
 70
     0
280
     1
281
     0
  0
BLOCK_RECORD
  5
7B44
330
1
100
AcDbSymbolTableRecord
100
AcDbBlockTableRecord
  2
*D1
340
0
 70
     0
280
     1
281
     0
  0
BLOCK_RECORD
  5
7B52
330
1
100
AcDbSymbolTableRecord
100
AcDbBlockTableRecord
  2
*D2
340
0
 70
     0
280
     1
281
     0
  0
BLOCK_RECORD
  5
7B5E
330
1
100
AcDbSymbolTableRecord
100
AcDbBlockTableRecord
  2
*D3
340
0
 70
     0
280
     1
281
     0
  0
BLOCK_RECORD
  5
7B6B
330
1
100
AcDbSymbolTableRecord
100
AcDbBlockTableRecord
  2
*D4
340
0
 70
     0
280
     1
281
     0
  0
BLOCK_RECORD
  5
7B78
330
1
100
AcDbSymbolTableRecord
100
AcDbBlockTableRecord
  2
*D5
340
0
 70
     0
280
     1
281
     0
  0
BLOCK_RECORD
  5
7BBB
330
1
100
AcDbSymbolTableRecord
100
AcDbBlockTableRecord
  2
*D6
340
0
 70
     0
280
     1
281
     0
  0
BLOCK_RECORD
  5
7BD9
330
1
100
AcDbSymbolTableRecord
100
AcDbBlockTableRecord
  2
*D7
340
0
 70
     0
280
     1
281
     0
  0
BLOCK_RECORD
  5
7BE6
330
1
100
AcDbSymbolTableRecord
100
AcDbBlockTableRecord
  2
*D8
340
0
 70
     0
280
     1
281
     0
  0
BLOCK_RECORD
  5
7BF3
330
1
100
AcDbSymbolTableRecord
100
AcDbBlockTableRecord
  2
*D9
340
0
 70
     0
280
     1
281
     0
  0
BLOCK_RECORD
  5
7C00
330
1
100
AcDbSymbolTableRecord
100
AcDbBlockTableRecord
  2
*D10
340
0
 70
     0
280
     1
281
     0
  0
BLOCK_RECORD
  5
7C24
330
1
100
AcDbSymbolTableRecord
100
AcDbBlockTableRecord
  2
*D11
340
0
 70
     0
280
     1
281
     0
  0
BLOCK_RECORD
  5
7C31
330
1
100
AcDbSymbolTableRecord
100
AcDbBlockTableRecord
  2
*D12
340
0
 70
     0
280
     1
281
     0
  0
BLOCK_RECORD
  5
7C6F
330
1
100
AcDbSymbolTableRecord
100
AcDbBlockTableRecord
  2
*D13
340
0
 70
     0
280
     1
281
     0
  0
BLOCK_RECORD
  5
7C98
330
1
100
AcDbSymbolTableRecord
100
AcDbBlockTableRecord
  2
*D14
340
0
 70
     0
280
     1
281
     0
  0
BLOCK_RECORD
  5
7D6F
330
1
100
AcDbSymbolTableRecord
100
AcDbBlockTableRecord
  2
*D15
340
0
 70
     0
280
     1
281
     0
  0
BLOCK_RECORD
  5
7D85
330
1
100
AcDbSymbolTableRecord
100
AcDbBlockTableRecord
  2
*D16
340
0
 70
     0
280
     1
281
     0
  0
BLOCK_RECORD
  5
7D94
330
1
100
AcDbSymbolTableRecord
100
AcDbBlockTableRecord
  2
_DOT
340
0
102
{BLKREFS
331
7F06
331
7F33
331
7F85
102
}
 70
     0
280
     1
281
     0
  0
BLOCK_RECORD
  5
7D9C
330
1
100
AcDbSymbolTableRecord
100
AcDbBlockTableRecord
  2
*D18
340
0
 70
     0
280
     1
281
     0
  0
BLOCK_RECORD
  5
7DAB
330
1
100
AcDbSymbolTableRecord
100
AcDbBlockTableRecord
  2
*D19
340
0
 70
     0
280
     1
281
     0
  0
BLOCK_RECORD
  5
7F7F
330
1
100
AcDbSymbolTableRecord
100
AcDbBlockTableRecord
  2
*D20
340
0
 70
     0
280
     1
281
     0
  0
ENDTAB
  0
ENDSEC
  0
SECTION
  2
BLOCKS
  0
BLOCK
  5
1A
330
19
100
AcDbEntity
  8
0
100
AcDbBlockBegin
  2
*MODEL_SPACE
 70
     0
 10
0.0
 20
0.0
 30
0.0
  3
*MODEL_SPACE
  1

  0
ENDBLK
  5
1B
330
19
100
AcDbEntity
  8
0
100
AcDbBlockEnd
  0
BLOCK
  5
17
330
16
100
AcDbEntity
 67
     1
  8
0
100
AcDbBlockBegin
  2
*PAPER_SPACE
 70
     0
 10
0.0
 20
0.0
 30
0.0
  3
*PAPER_SPACE
  1

  0
ENDBLK
  5
18
330
16
100
AcDbEntity
 67
     1
  8
0
100
AcDbBlockEnd
  0
BLOCK
  5
7B3F
330
7B3E
100
AcDbEntity
  8
0
100
AcDbBlockBegin
  2
_OPEN
 70
     0
 10
0.0
 20
0.0
 30
0.0
  3
_OPEN
  1

  0
LINE
  5
7B40
330
7B3E
100
AcDbEntity
  8
0
  6
ByBlock
 62
     0
100
AcDbLine
 10
-1.0
 20
0.166667
 30
0.0
 11
0.0
 21
0.0
 31
0.0
  0
LINE
  5
7B41
330
7B3E
100
AcDbEntity
  8
0
  6
ByBlock
 62
     0
100
AcDbLine
 10
0.0
 20
0.0
 30
0.0
 11
-1.0
 21
-0.166667
 31
0.0
  0
LINE
  5
7B42
330
7B3E
100
AcDbEntity
  8
0
  6
ByBlock
 62
     0
100
AcDbLine
 10
0.0
 20
0.0
 30
0.0
 11
-1.0
 21
0.0
 31
0.0
  0
ENDBLK
  5
7B43
330
7B3E
100
AcDbEntity
  8
0
100
AcDbBlockEnd
  0
BLOCK
  5
7B45
330
7B44
100
AcDbEntity
  8
0
100
AcDbBlockBegin
  2
*D1
 70
     1
 10
0.0
 20
0.0
 30
0.0
  3
*D1
  1

  0
LINE
  5
7F15
330
7B44
100
AcDbEntity
  8
3
  6
Continuous
 62
     0
440
 16777216
370
    -2
100
AcDbLine
 10
-237.6160253054654
 20
-1903.468980736337
 30
0.0
 11
-237.6160253054654
 21
-1995.538654736338
 31
0.0
  0
LINE
  5
7F16
330
7B44
100
AcDbEntity
  8
3
  6
Continuous
 62
     0
440
 16777216
370
    -2
100
AcDbLine
 10
312.3839746945346
 20
-1903.468980736337
 30
0.0
 11
312.3839746945346
 21
-1995.538654736338
 31
0.0
  0
LINE
  5
7F17
330
7B44
100
AcDbEntity
  8
3
  6
Continuous
 62
     0
440
 16777216
370
    -2
100
AcDbLine
 10
-217.6160253054654
 20
-1985.538654736338
 30
0.0
 11
292.3839746945346
 21
-1985.538654736338
 31
0.0
  0
INSERT
  5
7F18
330
7B44
100
AcDbEntity
  8
3
  6
Continuous
 62
     0
440
 16777216
370
    -2
100
AcDbBlockReference
  2
_OPEN
 10
-237.6160253054654
 20
-1985.538654736338
 30
0.0
 41
20.0
 42
20.0
 43
20.0
 50
180.0
  0
INSERT
  5
7F19
330
7B44
100
AcDbEntity
  8
3
  6
Continuous
 62
     0
440
 16777216
370
    -2
100
AcDbBlockReference
  2
_OPEN
 10
312.3839746945346
 20
-1985.538654736338
 30
0.0
 41
20.0
 42
20.0
 43
20.0
  0
MTEXT
  5
7F1A
330
7B44
100
AcDbEntity
  8
3
  6
Continuous
 62
     0
440
 16777216
100
AcDbMText
 10
41.1464306945345
 20
-1960.538654736337
 30
0.0
 40
30.0
 41
0.0
 46
0.0
 71
     5
 72
     1
  1
\A1;550
 73
     1
 44
1.0
  0
POINT
  5
7F1B
330
7B44
100
AcDbEntity
  8
DEFPOINTS
  6
Continuous
 62
     0
440
 16777216
100
AcDbPoint
 10
-237.6160253054654
 20
-1898.468980736337
 30
0.0
  0
POINT
  5
7F1C
330
7B44
100
AcDbEntity
  8
DEFPOINTS
  6
Continuous
 62
     0
440
 16777216
100
AcDbPoint
 10
312.3839746945346
 20
-1898.468980736337
 30
0.0
  0
POINT
  5
7F1D
330
7B44
100
AcDbEntity
  8
DEFPOINTS
  6
Continuous
 62
     0
440
 16777216
100
AcDbPoint
 10
312.3839746945346
 20
-1985.538654736338
 30
0.0
  0
ENDBLK
  5
7B50
330
7B44
100
AcDbEntity
  8
0
100
AcDbBlockEnd
  0
BLOCK
  5
7B53
330
7B52
100
AcDbEntity
  8
0
100
AcDbBlockBegin
  2
*D2
 70
     1
 10
0.0
 20
0.0
 30
0.0
  3
*D2
  1

  0
LINE
  5
7F1E
330
7B52
100
AcDbEntity
  8
3
  6
Continuous
 62
     0
440
 16777216
370
    -2
100
AcDbLine
 10
532.3839746945346
 20
-1903.468980736337
 30
0.0
 11
532.3839746945346
 21
-1995.538654736338
 31
0.0
  0
LINE
  5
7F1F
330
7B52
100
AcDbEntity
  8
3
  6
Continuous
 62
     0
440
 16777216
370
    -2
100
AcDbLine
 10
332.3839746945346
 20
-1985.538654736338
 30
0.0
 11
512.3839746945345
 21
-1985.538654736338
 31
0.0
  0
INSERT
  5
7F20
330
7B52
100
AcDbEntity
  8
3
  6
Continuous
 62
     0
440
 16777216
370
    -2
100
AcDbBlockReference
  2
_OPEN
 10
312.3839746945346
 20
-1985.538654736338
 30
0.0
 41
20.0
 42
20.0
 43
20.0
 50
180.0
  0
INSERT
  5
7F21
330
7B52
100
AcDbEntity
  8
3
  6
Continuous
 62
     0
440
 16777216
370
    -2
100
AcDbBlockReference
  2
_OPEN
 10
532.3839746945346
 20
-1985.538654736338
 30
0.0
 41
20.0
 42
20.0
 43
20.0
  0
MTEXT
  5
7F22
330
7B52
100
AcDbEntity
  8
3
  6
Continuous
 62
     0
440
 16777216
100
AcDbMText
 10
422.3839746945345
 20
-1960.538654736337
 30
0.0
 40
30.0
 41
0.0
 46
0.0
 71
     5
 72
     1
  1
\A1;220
 73
     1
 44
1.0
  0
POINT
  5
7F23
330
7B52
100
AcDbEntity
  8
DEFPOINTS
  6
Continuous
 62
     0
440
 16777216
100
AcDbPoint
 10
312.3839746945346
 20
-1898.468980736337
 30
0.0
  0
POINT
  5
7F24
330
7B52
100
AcDbEntity
  8
DEFPOINTS
  6
Continuous
 62
     0
440
 16777216
100
AcDbPoint
 10
532.3839746945346
 20
-1898.468980736337
 30
0.0
  0
POINT
  5
7F25
330
7B52
100
AcDbEntity
  8
DEFPOINTS
  6
Continuous
 62
     0
440
 16777216
100
AcDbPoint
 10
532.3839746945346
 20
-1985.538654736338
 30
0.0
  0
ENDBLK
  5
7B5C
330
7B52
100
AcDbEntity
  8
0
100
AcDbBlockEnd
  0
BLOCK
  5
7B5F
330
7B5E
100
AcDbEntity
  8
0
100
AcDbBlockBegin
  2
*D3
 70
     1
 10
0.0
 20
0.0
 30
0.0
  3
*D3
  1

  0
LINE
  5
7E05
330
7B5E
100
AcDbEntity
  8
3
  6
Continuous
 62
     0
440
 16777216
100
AcDbLine
 10
517.3839746945345
 20
-1483.468980736337
 30
0.0
 11
598.1876656945344
 21
-1483.468980736337
 31
0.0
  0
LINE
  5
7E06
330
7B5E
100
AcDbEntity
  8
3
  6
Continuous
 62
     0
440
 16777216
100
AcDbLine
 10
517.3839746945345
 20
-1733.468980736337
 30
0.0
 11
598.1876656945344
 21
-1733.468980736337
 31
0.0
  0
LINE
  5
7E07
330
7B5E
100
AcDbEntity
  8
3
  6
Continuous
 62
     0
440
 16777216
100
AcDbLine
 10
588.1876656945344
 20
-1503.468980736337
 30
0.0
 11
588.1876656945344
 21
-1713.468980736337
 31
0.0
  0
INSERT
  5
7E08
330
7B5E
100
AcDbEntity
  8
3
  6
Continuous
 62
     0
440
 16777216
100
AcDbBlockReference
  2
_OPEN
 10
588.1876656945344
 20
-1483.468980736337
 30
0.0
 41
20.0
 42
20.0
 43
20.0
 50
90.0
  0
INSERT
  5
7E09
330
7B5E
100
AcDbEntity
  8
3
  6
Continuous
 62
     0
440
 16777216
100
AcDbBlockReference
  2
_OPEN
 10
588.1876656945344
 20
-1733.468980736337
 30
0.0
 41
20.0
 42
20.0
 43
20.0
 50
270.0
  0
MTEXT
  5
7E0A
330
7B5E
100
AcDbEntity
  8
3
  6
Continuous
 62
     0
440
 16777216
100
AcDbMText
 10
563.1876656945346
 20
-1600.237395736337
 30
0.0
 40
30.0
 41
0.0
 46
0.0
 71
     5
 72
     5
  1
\A1;250
 11
0.0000000000000001
 21
1.0
 31
0.0
 73
     1
 44
1.0
  0
POINT
  5
7E0B
330
7B5E
100
AcDbEntity
  8
DEFPOINTS
  6
Continuous
 62
     0
440
 16777216
100
AcDbPoint
 10
512.3839746945345
 20
-1483.468980736337
 30
0.0
  0
POINT
  5
7E0C
330
7B5E
100
AcDbEntity
  8
DEFPOINTS
  6
Continuous
 62
     0
440
 16777216
100
AcDbPoint
 10
512.3839746945345
 20
-1733.468980736337
 30
0.0
  0
POINT
  5
7E0D
330
7B5E
100
AcDbEntity
  8
DEFPOINTS
  6
Continuous
 62
     0
440
 16777216
100
AcDbPoint
 10
588.1876656945344
 20
-1733.468980736337
 30
0.0
  0
ENDBLK
  5
7B69
330
7B5E
100
AcDbEntity
  8
0
100
AcDbBlockEnd
  0
BLOCK
  5
7CFC
330
7B6B
100
AcDbEntity
  8
0
100
AcDbBlockBegin
  2
*D4
 70
     1
 10
0.0
 20
0.0
 30
0.0
  3
*D4
  1

  0
LINE
  5
7F8B
330
7B6B
100
AcDbEntity
  8
3
  6
Continuous
 62
     0
440
 16777216
370
    -2
100
AcDbLine
 10
300.3839746945346
 20
-1296.768980736337
 30
0.0
 11
716.5519559654231
 21
-1296.768980736337
 31
0.0
  0
LINE
  5
7F8C
330
7B6B
100
AcDbEntity
  8
3
  6
Continuous
 62
     0
440
 16777216
370
    -2
100
AcDbLine
 10
517.3839746945345
 20
-1483.468980736337
 30
0.0
 11
716.5519559654231
 21
-1483.468980736337
 31
0.0
  0
LINE
  5
7F8D
330
7B6B
100
AcDbEntity
  8
3
  6
Continuous
 62
     0
440
 16777216
370
    -2
100
AcDbLine
 10
706.551955965423
 20
-1316.768980736337
 30
0.0
 11
706.551955965423
 21
-1463.468980736337
 31
0.0
  0
INSERT
  5
7F8E
330
7B6B
100
AcDbEntity
  8
3
  6
Continuous
 62
     0
440
 16777216
370
    -2
100
AcDbBlockReference
  2
_OPEN
 10
706.551955965423
 20
-1296.768980736337
 30
0.0
 41
20.0
 42
20.0
 43
20.0
 50
90.0
  0
INSERT
  5
7F8F
330
7B6B
100
AcDbEntity
  8
3
  6
Continuous
 62
     0
440
 16777216
370
    -2
100
AcDbBlockReference
  2
_OPEN
 10
706.551955965423
 20
-1483.468980736337
 30
0.0
 41
20.0
 42
20.0
 43
20.0
 50
270.0
  0
MTEXT
  5
7F90
330
7B6B
100
AcDbEntity
  8
3
  6
Continuous
 62
     0
440
 16777216
100
AcDbMText
 10
681.5519559654233
 20
-1418.468980736337
 30
0.0
 40
30.0
 41
0.0
 46
0.0
 71
     5
 72
     1
  1
\A1;187
 11
0.0000000000000001
 21
1.0
 31
0.0
 73
     1
 44
1.0
  0
POINT
  5
7F91
330
7B6B
100
AcDbEntity
  8
DEFPOINTS
  6
Continuous
 62
     0
440
 16777216
100
AcDbPoint
 10
295.3839746945346
 20
-1296.768980736337
 30
0.0
  0
POINT
  5
7F92
330
7B6B
100
AcDbEntity
  8
DEFPOINTS
  6
Continuous
 62
     0
440
 16777216
100
AcDbPoint
 10
512.3839746945345
 20
-1483.468980736337
 30
0.0
  0
POINT
  5
7F93
330
7B6B
100
AcDbEntity
  8
DEFPOINTS
  6
Continuous
 62
     0
440
 16777216
100
AcDbPoint
 10
706.551955965423
 20
-1483.468980736337
 30
0.0
  0
ENDBLK
  5
7D06
330
7B6B
100
AcDbEntity
  8
0
100
AcDbBlockEnd
  0
BLOCK
  5
7CF2
330
7B78
100
AcDbEntity
  8
0
100
AcDbBlockBegin
  2
*D5
 70
     1
 10
0.0
 20
0.0
 30
0.0
  3
*D5
  1

  0
LINE
  5
7E17
330
7B78
100
AcDbEntity
  8
3
  6
Continuous
 62
     0
440
 16777216
100
AcDbLine
 10
507.3839746945346
 20
-1798.468980736337
 30
0.0
 11
716.5519559654232
 21
-1798.468980736337
 31
0.0
  0
LINE
  5
7E18
330
7B78
100
AcDbEntity
  8
3
  6
Continuous
 62
     0
440
 16777216
100
AcDbLine
 10
706.5519559654234
 20
-1503.468980736337
 30
0.0
 11
706.5519559654234
 21
-1778.468980736337
 31
0.0
  0
INSERT
  5
7E19
330
7B78
100
AcDbEntity
  8
3
  6
Continuous
 62
     0
440
 16777216
100
AcDbBlockReference
  2
_OPEN
 10
706.5519559654234
 20
-1483.468980736337
 30
0.0
 41
20.0
 42
20.0
 43
20.0
 50
90.0
  0
INSERT
  5
7E1A
330
7B78
100
AcDbEntity
  8
3
  6
Continuous
 62
     0
440
 16777216
100
AcDbBlockReference
  2
_OPEN
 10
706.5519559654233
 20
-1798.468980736337
 30
0.0
 41
20.0
 42
20.0
 43
20.0
 50
270.0
  0
MTEXT
  5
7E1B
330
7B78
100
AcDbEntity
  8
3
  6
Continuous
 62
     0
440
 16777216
100
AcDbMText
 10
681.5519559654236
 20
-1640.968980736337
 30
0.0
 40
30.0
 41
0.0
 46
0.0
 71
     5
 72
     5
  1
\A1;315
 11
0.0000000000000001
 21
1.0
 31
0.0
 73
     1
 44
1.0
  0
POINT
  5
7E1C
330
7B78
100
AcDbEntity
  8
DEFPOINTS
  6
Continuous
 62
     0
440
 16777216
100
AcDbPoint
 10
512.3839746945345
 20
-1483.468980736337
 30
0.0
  0
POINT
  5
7E1D
330
7B78
100
AcDbEntity
  8
DEFPOINTS
  6
Continuous
 62
     0
440
 16777216
100
AcDbPoint
 10
502.3839746945346
 20
-1798.468980736337
 30
0.0
  0
POINT
  5
7E1E
330
7B78
100
AcDbEntity
  8
DEFPOINTS
  6
Continuous
 62
     0
440
 16777216
100
AcDbPoint
 10
706.5519559654233
 20
-1798.468980736337
 30
0.0
  0
ENDBLK
  5
7CFB
330
7B78
100
AcDbEntity
  8
0
100
AcDbBlockEnd
  0
BLOCK
  5
7BBC
330
7BBB
100
AcDbEntity
  8
0
100
AcDbBlockBegin
  2
*D6
 70
     1
 10
0.0
 20
0.0
 30
0.0
  3
*D6
  1

  0
LINE
  5
7E1F
330
7BBB
100
AcDbEntity
  8
3
  6
Continuous
 62
     0
440
 16777216
100
AcDbLine
 10
-237.6160253054654
 20
-865.725708921299
 30
0.0
 11
-237.6160253054654
 21
-1044.022161921299
 31
0.0
  0
LINE
  5
7E20
330
7BBB
100
AcDbEntity
  8
3
  6
Continuous
 62
     0
440
 16777216
100
AcDbLine
 10
532.3839746945346
 20
-865.725708921299
 30
0.0
 11
532.3839746945346
 21
-1044.022161921299
 31
0.0
  0
LINE
  5
7E21
330
7BBB
100
AcDbEntity
  8
3
  6
Continuous
 62
     0
440
 16777216
100
AcDbLine
 10
-217.6160253054654
 20
-1034.022161921299
 30
0.0
 11
512.3839746945345
 21
-1034.022161921299
 31
0.0
  0
INSERT
  5
7E22
330
7BBB
100
AcDbEntity
  8
3
  6
Continuous
 62
     0
440
 16777216
100
AcDbBlockReference
  2
_OPEN
 10
-237.6160253054654
 20
-1034.022161921299
 30
0.0
 41
20.0
 42
20.0
 43
20.0
 50
180.0
  0
INSERT
  5
7E23
330
7BBB
100
AcDbEntity
  8
3
  6
Continuous
 62
     0
440
 16777216
100
AcDbBlockReference
  2
_OPEN
 10
532.3839746945346
 20
-1034.022161921299
 30
0.0
 41
20.0
 42
20.0
 43
20.0
  0
MTEXT
  5
7E24
330
7BBB
100
AcDbEntity
  8
3
  6
Continuous
 62
     0
440
 16777216
100
AcDbMText
 10
137.3878546945345
 20
-1009.022161921299
 30
0.0
 40
30.0
 41
0.0
 46
0.0
 71
     5
 72
     5
  1
\A1;770
 73
     1
 44
1.0
  0
POINT
  5
7E25
330
7BBB
100
AcDbEntity
  8
DEFPOINTS
  6
Continuous
 62
     0
440
 16777216
100
AcDbPoint
 10
-237.6160253054654
 20
-860.7257089212991
 30
0.0
  0
POINT
  5
7E26
330
7BBB
100
AcDbEntity
  8
DEFPOINTS
  6
Continuous
 62
     0
440
 16777216
100
AcDbPoint
 10
532.3839746945346
 20
-860.7257089212991
 30
0.0
  0
POINT
  5
7E27
330
7BBB
100
AcDbEntity
  8
DEFPOINTS
  6
Continuous
 62
     0
440
 16777216
100
AcDbPoint
 10
532.3839746945346
 20
-1034.022161921299
 30
0.0
  0
ENDBLK
  5
7BC6
330
7BBB
100
AcDbEntity
  8
0
100
AcDbBlockEnd
  0
BLOCK
  5
7BDA
330
7BD9
100
AcDbEntity
  8
0
100
AcDbBlockBegin
  2
*D7
 70
     1
 10
0.0
 20
0.0
 30
0.0
  3
*D7
  1

  0
LINE
  5
7F26
330
7BD9
100
AcDbEntity
  8
3
  6
Continuous
 62
     0
440
 16777216
370
    -2
100
AcDbLine
 10
917.3967338472907
 20
-1903.468980736337
 30
0.0
 11
917.3967338472907
 21
-1990.233972736337
 31
0.0
  0
LINE
  5
7F27
330
7BD9
100
AcDbEntity
  8
3
  6
Continuous
 62
     0
440
 16777216
370
    -2
100
AcDbLine
 10
1167.396733847291
 20
-1903.468980736337
 30
0.0
 11
1167.396733847291
 21
-1990.233972736337
 31
0.0
  0
LINE
  5
7F28
330
7BD9
100
AcDbEntity
  8
3
  6
Continuous
 62
     0
440
 16777216
370
    -2
100
AcDbLine
 10
937.3967338472906
 20
-1980.233972736337
 30
0.0
 11
1147.396733847291
 21
-1980.233972736337
 31
0.0
  0
INSERT
  5
7F29
330
7BD9
100
AcDbEntity
  8
3
  6
Continuous
 62
     0
440
 16777216
370
    -2
100
AcDbBlockReference
  2
_OPEN
 10
917.3967338472907
 20
-1980.233972736337
 30
0.0
 41
20.0
 42
20.0
 43
20.0
 50
180.0
  0
INSERT
  5
7F2A
330
7BD9
100
AcDbEntity
  8
3
  6
Continuous
 62
     0
440
 16777216
370
    -2
100
AcDbBlockReference
  2
_OPEN
 10
1167.396733847291
 20
-1980.233972736337
 30
0.0
 41
20.0
 42
20.0
 43
20.0
  0
MTEXT
  5
7F2B
330
7BD9
100
AcDbEntity
  8
3
  6
Continuous
 62
     0
440
 16777216
100
AcDbMText
 10
1033.231463847291
 20
-1955.233972736337
 30
0.0
 40
30.0
 41
0.0
 46
0.0
 71
     5
 72
     1
  1
\A1;250
 73
     1
 44
1.0
  0
POINT
  5
7F2C
330
7BD9
100
AcDbEntity
  8
DEFPOINTS
  6
Continuous
 62
     0
440
 16777216
100
AcDbPoint
 10
917.3967338472907
 20
-1898.468980736337
 30
0.0
  0
POINT
  5
7F2D
330
7BD9
100
AcDbEntity
  8
DEFPOINTS
  6
Continuous
 62
     0
440
 16777216
100
AcDbPoint
 10
1167.396733847291
 20
-1898.468980736337
 30
0.0
  0
POINT
  5
7F2E
330
7BD9
100
AcDbEntity
  8
DEFPOINTS
  6
Continuous
 62
     0
440
 16777216
100
AcDbPoint
 10
1167.396733847291
 20
-1980.233972736337
 30
0.0
  0
ENDBLK
  5
7BE4
330
7BD9
100
AcDbEntity
  8
0
100
AcDbBlockEnd
  0
BLOCK
  5
7BE7
330
7BE6
100
AcDbEntity
  8
0
100
AcDbBlockBegin
  2
*D8
 70
     1
 10
0.0
 20
0.0
 30
0.0
  3
*D8
  1

  0
LINE
  5
7E31
330
7BE6
100
AcDbEntity
  8
3
  6
Continuous
 62
     0
440
 16777216
100
AcDbLine
 10
1085.39673384729
 20
-1279.568980736337
 30
0.0
 11
1085.39673384729
 21
-1219.668875736337
 31
0.0
  0
LINE
  5
7E32
330
7BE6
100
AcDbEntity
  8
3
  6
Continuous
 62
     0
440
 16777216
100
AcDbLine
 10
1265.396733847291
 20
-1279.568980736337
 30
0.0
 11
1265.396733847291
 21
-1219.668875736337
 31
0.0
  0
LINE
  5
7E33
330
7BE6
100
AcDbEntity
  8
3
  6
Continuous
 62
     0
440
 16777216
100
AcDbLine
 10
1105.396733847291
 20
-1229.668875736337
 30
0.0
 11
1245.396733847291
 21
-1229.668875736337
 31
0.0
  0
INSERT
  5
7E34
330
7BE6
100
AcDbEntity
  8
3
  6
Continuous
 62
     0
440
 16777216
100
AcDbBlockReference
  2
_OPEN
 10
1085.39673384729
 20
-1229.668875736337
 30
0.0
 41
20.0
 42
20.0
 43
20.0
 50
180.0
  0
INSERT
  5
7E35
330
7BE6
100
AcDbEntity
  8
3
  6
Continuous
 62
     0
440
 16777216
100
AcDbBlockReference
  2
_OPEN
 10
1265.396733847291
 20
-1229.668875736337
 30
0.0
 41
20.0
 42
20.0
 43
20.0
  0
MTEXT
  5
7E36
330
7BE6
100
AcDbEntity
  8
3
  6
Continuous
 62
     0
440
 16777216
100
AcDbMText
 10
1171.806268847291
 20
-1204.668875736337
 30
0.0
 40
30.0
 41
0.0
 46
0.0
 71
     5
 72
     5
  1
\A1;180
 73
     1
 44
1.0
  0
POINT
  5
7E37
330
7BE6
100
AcDbEntity
  8
DEFPOINTS
  6
Continuous
 62
     0
440
 16777216
100
AcDbPoint
 10
1085.39673384729
 20
-1284.568980736337
 30
0.0
  0
POINT
  5
7E38
330
7BE6
100
AcDbEntity
  8
DEFPOINTS
  6
Continuous
 62
     0
440
 16777216
100
AcDbPoint
 10
1265.396733847291
 20
-1284.568980736337
 30
0.0
  0
POINT
  5
7E39
330
7BE6
100
AcDbEntity
  8
DEFPOINTS
  6
Continuous
 62
     0
440
 16777216
100
AcDbPoint
 10
1265.396733847291
 20
-1229.668875736337
 30
0.0
  0
ENDBLK
  5
7BF1
330
7BE6
100
AcDbEntity
  8
0
100
AcDbBlockEnd
  0
BLOCK
  5
7D2F
330
7BF3
100
AcDbEntity
  8
0
100
AcDbBlockBegin
  2
*D9
 70
     1
 10
0.0
 20
0.0
 30
0.0
  3
*D9
  1

  0
LINE
  5
7F67
330
7BF3
100
AcDbEntity
  8
3
  6
Continuous
 62
     0
440
 16777216
370
    -2
100
AcDbLine
 10
835.3967338472907
 20
-1353.468980736337
 30
0.0
 11
835.3967338472907
 21
-1157.372463736337
 31
0.0
  0
LINE
  5
7F68
330
7BF3
100
AcDbEntity
  8
3
  6
Continuous
 62
     0
440
 16777216
370
    -2
100
AcDbLine
 10
1175.396733847291
 20
-1177.934672736337
 30
0.0
 11
1175.396733847291
 21
-1157.372463736337
 31
0.0
  0
LINE
  5
7F69
330
7BF3
100
AcDbEntity
  8
3
  6
Continuous
 62
     0
440
 16777216
370
    -2
100
AcDbLine
 10
855.3967338472908
 20
-1167.372463736337
 30
0.0
 11
1155.396733847291
 21
-1167.372463736337
 31
0.0
  0
INSERT
  5
7F6A
330
7BF3
100
AcDbEntity
  8
3
  6
Continuous
 62
     0
440
 16777216
370
    -2
100
AcDbBlockReference
  2
_OPEN
 10
835.3967338472907
 20
-1167.372463736337
 30
0.0
 41
20.0
 42
20.0
 43
20.0
 50
180.0
  0
INSERT
  5
7F6B
330
7BF3
100
AcDbEntity
  8
3
  6
Continuous
 62
     0
440
 16777216
370
    -2
100
AcDbBlockReference
  2
_OPEN
 10
1175.396733847291
 20
-1167.372463736337
 30
0.0
 41
20.0
 42
20.0
 43
20.0
  0
MTEXT
  5
7F6C
330
7BF3
100
AcDbEntity
  8
3
  6
Continuous
 62
     0
440
 16777216
100
AcDbMText
 10
1002.05213684729
 20
-1134.515320879194
 30
0.0
 40
30.0
 41
0.0
 46
0.0
 71
     5
 72
     1
  1
\A1;(340)
 73
     1
 44
1.0
  0
POINT
  5
7F6D
330
7BF3
100
AcDbEntity
  8
DEFPOINTS
  6
Continuous
 62
     0
440
 16777216
100
AcDbPoint
 10
835.3967338472907
 20
-1358.468980736337
 30
0.0
  0
POINT
  5
7F6E
330
7BF3
100
AcDbEntity
  8
DEFPOINTS
  6
Continuous
 62
     0
440
 16777216
100
AcDbPoint
 10
1175.396733847291
 20
-1182.934672736337
 30
0.0
  0
POINT
  5
7F6F
330
7BF3
100
AcDbEntity
  8
DEFPOINTS
  6
Continuous
 62
     0
440
 16777216
100
AcDbPoint
 10
1175.396733847291
 20
-1167.372463736337
 30
0.0
  0
ENDBLK
  5
7D39
330
7BF3
100
AcDbEntity
  8
0
100
AcDbBlockEnd
  0
BLOCK
  5
7C81
330
7C00
100
AcDbEntity
  8
0
100
AcDbBlockBegin
  2
*D10
 70
     1
 10
0.0
 20
0.0
 30
0.0
  3
*D10
  1

  0
LINE
  5
7E43
330
7C00
100
AcDbEntity
  8
3
  6
Continuous
 62
     0
440
 16777216
100
AcDbLine
 10
1274.396733847291
 20
-1331.468980736337
 30
0.0
 11
1274.396733847291
 21
-1157.372463736337
 31
0.0
  0
LINE
  5
7E44
330
7C00
100
AcDbEntity
  8
3
  6
Continuous
 62
     0
440
 16777216
100
AcDbLine
 10
1195.396733847291
 20
-1167.372463736337
 30
0.0
 11
1254.396733847291
 21
-1167.372463736337
 31
0.0
  0
MTEXT
  5
7E45
330
7C00
100
AcDbEntity
  8
3
  6
Continuous
 62
     0
440
 16777216
100
AcDbMText
 10
1220.30745684729
 20
-1142.372463736337
 30
0.0
 40
30.0
 41
0.0
 46
0.0
 71
     5
 72
     5
  1
\A1;99
 73
     1
 44
1.0
  0
INSERT
  5
7E46
330
7C00
100
AcDbEntity
  8
3
  6
Continuous
 62
     0
440
 16777216
100
AcDbBlockReference
  2
_OPEN
 10
1175.396733847291
 20
-1167.372463736337
 30
0.0
 41
20.0
 42
20.0
 43
20.0
 50
180.0
  0
INSERT
  5
7E47
330
7C00
100
AcDbEntity
  8
3
  6
Continuous
 62
     0
440
 16777216
100
AcDbBlockReference
  2
_OPEN
 10
1274.396733847291
 20
-1167.372463736337
 30
0.0
 41
20.0
 42
20.0
 43
20.0
  0
POINT
  5
7E48
330
7C00
100
AcDbEntity
  8
DEFPOINTS
  6
Continuous
 62
     0
440
 16777216
100
AcDbPoint
 10
1175.396733847291
 20
-1182.934672736337
 30
0.0
  0
POINT
  5
7E49
330
7C00
100
AcDbEntity
  8
DEFPOINTS
  6
Continuous
 62
     0
440
 16777216
100
AcDbPoint
 10
1274.396733847291
 20
-1336.468980736337
 30
0.0
  0
POINT
  5
7E4A
330
7C00
100
AcDbEntity
  8
DEFPOINTS
  6
Continuous
 62
     0
440
 16777216
100
AcDbPoint
 10
1274.396733847291
 20
-1167.372463736337
 30
0.0
  0
ENDBLK
  5
7C8A
330
7C00
100
AcDbEntity
  8
0
100
AcDbBlockEnd
  0
BLOCK
  5
7C25
330
7C24
100
AcDbEntity
  8
0
100
AcDbBlockBegin
  2
*D11
 70
     1
 10
0.0
 20
0.0
 30
0.0
  3
*D11
  1

  0
LINE
  5
7E4B
330
7C24
100
AcDbEntity
  8
3
  6
Continuous
 62
     0
440
 16777216
100
AcDbLine
 10
92.39459069453459
 20
-1478.468980736337
 30
0.0
 11
92.39459069453461
 21
-1233.512525736337
 31
0.0
  0
LINE
  5
7E4C
330
7C24
100
AcDbEntity
  8
3
  6
Continuous
 62
     0
440
 16777216
100
AcDbLine
 10
312.3839746945346
 20
-1292.479596736337
 30
0.0
 11
312.3839746945346
 21
-1233.512525736337
 31
0.0
  0
LINE
  5
7E4D
330
7C24
100
AcDbEntity
  8
3
  6
Continuous
 62
     0
440
 16777216
100
AcDbLine
 10
112.3945906945346
 20
-1243.512525736337
 30
0.0
 11
292.3839746945346
 21
-1243.512525736337
 31
0.0
  0
INSERT
  5
7E4E
330
7C24
100
AcDbEntity
  8
3
  6
Continuous
 62
     0
440
 16777216
100
AcDbBlockReference
  2
_OPEN
 10
92.39459069453461
 20
-1243.512525736337
 30
0.0
 41
20.0
 42
20.0
 43
20.0
 50
180.0
  0
INSERT
  5
7E4F
330
7C24
100
AcDbEntity
  8
3
  6
Continuous
 62
     0
440
 16777216
100
AcDbBlockReference
  2
_OPEN
 10
312.3839746945346
 20
-1243.512525736337
 30
0.0
 41
20.0
 42
20.0
 43
20.0
  0
MTEXT
  5
7E50
330
7C24
100
AcDbEntity
  8
3
  6
Continuous
 62
     0
440
 16777216
100
AcDbMText
 10
198.3589996945345
 20
-1218.512525736337
 30
0.0
 40
30.0
 41
0.0
 46
0.0
 71
     5
 72
     5
  1
\A1;220
 73
     1
 44
1.0
  0
POINT
  5
7E51
330
7C24
100
AcDbEntity
  8
DEFPOINTS
  6
Continuous
 62
     0
440
 16777216
100
AcDbPoint
 10
92.39459069453459
 20
-1483.468980736337
 30
0.0
  0
POINT
  5
7E52
330
7C24
100
AcDbEntity
  8
DEFPOINTS
  6
Continuous
 62
     0
440
 16777216
100
AcDbPoint
 10
312.3839746945346
 20
-1297.479596736337
 30
0.0
  0
POINT
  5
7E53
330
7C24
100
AcDbEntity
  8
DEFPOINTS
  6
Continuous
 62
     0
440
 16777216
100
AcDbPoint
 10
312.3839746945346
 20
-1243.512525736337
 30
0.0
  0
ENDBLK
  5
7C2F
330
7C24
100
AcDbEntity
  8
0
100
AcDbBlockEnd
  0
BLOCK
  5
7C32
330
7C31
100
AcDbEntity
  8
0
100
AcDbBlockBegin
  2
*D12
 70
     1
 10
0.0
 20
0.0
 30
0.0
  3
*D12
  1

  0
LINE
  5
7E54
330
7C31
100
AcDbEntity
  8
3
  6
Continuous
 62
     0
440
 16777216
100
AcDbLine
 10
512.3839746945345
 20
-1457.468980736337
 30
0.0
 11
512.3839746945345
 21
-1233.512525736337
 31
0.0
  0
LINE
  5
7E55
330
7C31
100
AcDbEntity
  8
3
  6
Continuous
 62
     0
440
 16777216
100
AcDbLine
 10
332.3839746945346
 20
-1243.512525736337
 30
0.0
 11
492.3839746945345
 21
-1243.512525736337
 31
0.0
  0
INSERT
  5
7E56
330
7C31
100
AcDbEntity
  8
3
  6
Continuous
 62
     0
440
 16777216
100
AcDbBlockReference
  2
_OPEN
 10
312.3839746945346
 20
-1243.512525736337
 30
0.0
 41
20.0
 42
20.0
 43
20.0
 50
180.0
  0
INSERT
  5
7E57
330
7C31
100
AcDbEntity
  8
3
  6
Continuous
 62
     0
440
 16777216
100
AcDbBlockReference
  2
_OPEN
 10
512.3839746945345
 20
-1243.512525736337
 30
0.0
 41
20.0
 42
20.0
 43
20.0
  0
MTEXT
  5
7E58
330
7C31
100
AcDbEntity
  8
3
  6
Continuous
 62
     0
440
 16777216
100
AcDbMText
 10
412.3839746945345
 20
-1218.512525736337
 30
0.0
 40
30.0
 41
0.0
 46
0.0
 71
     5
 72
     5
  1
\A1;200
 73
     1
 44
1.0
  0
POINT
  5
7E59
330
7C31
100
AcDbEntity
  8
DEFPOINTS
  6
Continuous
 62
     0
440
 16777216
100
AcDbPoint
 10
312.3839746945346
 20
-1297.479596736337
 30
0.0
  0
POINT
  5
7E5A
330
7C31
100
AcDbEntity
  8
DEFPOINTS
  6
Continuous
 62
     0
440
 16777216
100
AcDbPoint
 10
512.3839746945345
 20
-1462.468980736337
 30
0.0
  0
POINT
  5
7E5B
330
7C31
100
AcDbEntity
  8
DEFPOINTS
  6
Continuous
 62
     0
440
 16777216
100
AcDbPoint
 10
512.3839746945345
 20
-1243.512525736337
 30
0.0
  0
ENDBLK
  5
7C3B
330
7C31
100
AcDbEntity
  8
0
100
AcDbBlockEnd
  0
BLOCK
  5
7D12
330
7C6F
100
AcDbEntity
  8
0
100
AcDbBlockBegin
  2
*D13
 70
     1
 10
0.0
 20
0.0
 30
0.0
  3
*D13
  1

  0
LINE
  5
7E5C
330
7C6F
100
AcDbEntity
  8
3
  6
Continuous
 62
     0
440
 16777216
100
AcDbLine
 10
517.3839746945345
 20
-1483.468980736337
 30
0.0
 11
668.5571176945343
 21
-1483.468980736337
 31
0.0
  0
LINE
  5
7E5D
330
7C6F
100
AcDbEntity
  8
3
  6
Continuous
 62
     0
440
 16777216
100
AcDbLine
 10
497.3839746945345
 20
-1743.468980736337
 30
0.0
 11
668.5571176945343
 21
-1743.468980736337
 31
0.0
  0
LINE
  5
7E5E
330
7C6F
100
AcDbEntity
  8
3
  6
Continuous
 62
     0
440
 16777216
100
AcDbLine
 10
658.5571176945343
 20
-1503.468980736337
 30
0.0
 11
658.5571176945343
 21
-1723.468980736337
 31
0.0
  0
INSERT
  5
7E5F
330
7C6F
100
AcDbEntity
  8
3
  6
Continuous
 62
     0
440
 16777216
100
AcDbBlockReference
  2
_OPEN
 10
658.5571176945343
 20
-1483.468980736337
 30
0.0
 41
20.0
 42
20.0
 43
20.0
 50
90.0
  0
INSERT
  5
7E60
330
7C6F
100
AcDbEntity
  8
3
  6
Continuous
 62
     0
440
 16777216
100
AcDbBlockReference
  2
_OPEN
 10
658.5571176945343
 20
-1743.468980736337
 30
0.0
 41
20.0
 42
20.0
 43
20.0
 50
270.0
  0
MTEXT
  5
7E61
330
7C6F
100
AcDbEntity
  8
3
  6
Continuous
 62
     0
440
 16777216
100
AcDbMText
 10
633.5571176945345
 20
-1652.481797428371
 30
0.0
 40
30.0
 41
0.0
 46
0.0
 71
     5
 72
     5
  1
\A1;260
 11
0.0000000000000001
 21
1.0
 31
0.0
 73
     1
 44
1.0
  0
POINT
  5
7E62
330
7C6F
100
AcDbEntity
  8
DEFPOINTS
  6
Continuous
 62
     0
440
 16777216
100
AcDbPoint
 10
512.3839746945345
 20
-1483.468980736337
 30
0.0
  0
POINT
  5
7E63
330
7C6F
100
AcDbEntity
  8
DEFPOINTS
  6
Continuous
 62
     0
440
 16777216
100
AcDbPoint
 10
492.3839746945345
 20
-1743.468980736337
 30
0.0
  0
POINT
  5
7E64
330
7C6F
100
AcDbEntity
  8
DEFPOINTS
  6
Continuous
 62
     0
440
 16777216
100
AcDbPoint
 10
658.5571176945343
 20
-1743.468980736337
 30
0.0
  0
ENDBLK
  5
7D1C
330
7C6F
100
AcDbEntity
  8
0
100
AcDbBlockEnd
  0
BLOCK
  5
7D3A
330
7C98
100
AcDbEntity
  8
0
100
AcDbBlockBegin
  2
*D14
 70
     1
 10
0.0
 20
0.0
 30
0.0
  3
*D14
  1

  0
LINE
  5
7E65
330
7C98
100
AcDbEntity
  8
3
  6
Continuous
 62
     0
440
 16777216
100
AcDbLine
 10
1279.396733847291
 20
-1358.468980736337
 30
0.0
 11
1357.58898484729
 21
-1358.468980736337
 31
0.0
  0
LINE
  5
7E66
330
7C98
100
AcDbEntity
  8
3
  6
Continuous
 62
     0
440
 16777216
100
AcDbLine
 10
1279.396733847291
 20
-1608.468980736337
 30
0.0
 11
1357.58898484729
 21
-1608.468980736337
 31
0.0
  0
LINE
  5
7E67
330
7C98
100
AcDbEntity
  8
3
  6
Continuous
 62
     0
440
 16777216
100
AcDbLine
 10
1347.58898484729
 20
-1378.468980736337
 30
0.0
 11
1347.58898484729
 21
-1588.468980736337
 31
0.0
  0
INSERT
  5
7E68
330
7C98
100
AcDbEntity
  8
3
  6
Continuous
 62
     0
440
 16777216
100
AcDbBlockReference
  2
_OPEN
 10
1347.58898484729
 20
-1358.468980736337
 30
0.0
 41
20.0
 42
20.0
 43
20.0
 50
90.0
  0
INSERT
  5
7E69
330
7C98
100
AcDbEntity
  8
3
  6
Continuous
 62
     0
440
 16777216
100
AcDbBlockReference
  2
_OPEN
 10
1347.58898484729
 20
-1608.468980736337
 30
0.0
 41
20.0
 42
20.0
 43
20.0
 50
270.0
  0
MTEXT
  5
7E6A
330
7C98
100
AcDbEntity
  8
3
  6
Continuous
 62
     0
440
 16777216
100
AcDbMText
 10
1322.58898484729
 20
-1485.070296736337
 30
0.0
 40
30.0
 41
0.0
 46
0.0
 71
     5
 72
     5
  1
\A1;φ250
 11
0.0000000000000001
 21
1.0
 31
0.0
 73
     1
 44
1.0
  0
POINT
  5
7E6B
330
7C98
100
AcDbEntity
  8
DEFPOINTS
  6
Continuous
 62
     0
440
 16777216
100
AcDbPoint
 10
1274.396733847291
 20
-1358.468980736337
 30
0.0
  0
POINT
  5
7E6C
330
7C98
100
AcDbEntity
  8
DEFPOINTS
  6
Continuous
 62
     0
440
 16777216
100
AcDbPoint
 10
1274.396733847291
 20
-1608.468980736337
 30
0.0
  0
POINT
  5
7E6D
330
7C98
100
AcDbEntity
  8
DEFPOINTS
  6
Continuous
 62
     0
440
 16777216
100
AcDbPoint
 10
1347.58898484729
 20
-1608.468980736337
 30
0.0
  0
ENDBLK
  5
7D44
330
7C98
100
AcDbEntity
  8
0
100
AcDbBlockEnd
  0
BLOCK
  5
7D70
330
7D6F
100
AcDbEntity
  8
0
100
AcDbBlockBegin
  2
*D15
 70
     1
 10
0.0
 20
0.0
 30
0.0
  3
*D15
  1

  0
LINE
  5
7E6E
330
7D6F
100
AcDbEntity
  8
3
 62
     0
440
 16777216
100
AcDbLine
 10
-242.6160253054654
 20
-610.7257089212989
 30
0.0
 11
-296.7108162498317
 21
-610.7257089212988
 31
0.0
  0
LINE
  5
7E6F
330
7D6F
100
AcDbEntity
  8
3
 62
     0
440
 16777216
100
AcDbLine
 10
-242.6160253054654
 20
-860.7257089212991
 30
0.0
 11
-296.7108162498318
 21
-860.7257089212989
 31
0.0
  0
LINE
  5
7E70
330
7D6F
100
AcDbEntity
  8
3
 62
     0
440
 16777216
100
AcDbLine
 10
-286.7108162498317
 20
-630.7257089212988
 30
0.0
 11
-286.7108162498317
 21
-840.725708921299
 31
0.0
  0
INSERT
  5
7E71
330
7D6F
100
AcDbEntity
  8
3
 62
     0
440
 16777216
100
AcDbBlockReference
  2
_OPEN
 10
-286.7108162498317
 20
-610.7257089212988
 30
0.0
 41
20.0
 42
20.0
 43
20.0
 50
90.0
  0
INSERT
  5
7E72
330
7D6F
100
AcDbEntity
  8
3
 62
     0
440
 16777216
100
AcDbBlockReference
  2
_OPEN
 10
-286.7108162498317
 20
-860.7257089212989
 30
0.0
 41
20.0
 42
20.0
 43
20.0
 50
270.0
  0
MTEXT
  5
7E73
330
7D6F
100
AcDbEntity
  8
3
 62
     0
440
 16777216
100
AcDbMText
 10
-311.7108162498316
 20
-746.6837097154866
 30
0.0
 40
30.0
 41
0.0
 46
0.0
 71
     5
 72
     5
  1
\A1;250
 11
0.0000000000000001
 21
1.0
 31
0.0
 73
     1
 44
1.0
  0
POINT
  5
7E74
330
7D6F
100
AcDbEntity
  8
DEFPOINTS
 62
     0
440
 16777216
100
AcDbPoint
 10
-237.6160253054654
 20
-610.7257089212989
 30
0.0
  0
POINT
  5
7E75
330
7D6F
100
AcDbEntity
  8
DEFPOINTS
 62
     0
440
 16777216
100
AcDbPoint
 10
-237.6160253054654
 20
-860.7257089212991
 30
0.0
  0
POINT
  5
7E76
330
7D6F
100
AcDbEntity
  8
DEFPOINTS
 62
     0
440
 16777216
100
AcDbPoint
 10
-286.7108162498317
 20
-860.7257089212989
 30
0.0
  0
ENDBLK
  5
7D7A
330
7D6F
100
AcDbEntity
  8
0
100
AcDbBlockEnd
  0
BLOCK
  5
7D86
330
7D85
100
AcDbEntity
  8
0
100
AcDbBlockBegin
  2
*D16
 70
     1
 10
0.0
 20
0.0
 30
0.0
  3
*D16
  1

  0
LINE
  5
7EF6
330
7D85
100
AcDbEntity
  8
3
 62
     0
440
 16777216
370
    -2
100
AcDbLine
 10
1167.396733847291
 20
-1903.468980736337
 30
0.0
 11
1167.396733847291
 21
-1989.051745273236
 31
0.0
  0
LINE
  5
7EF7
330
7D85
100
AcDbEntity
  8
3
 62
     0
440
 16777216
370
    -2
100
AcDbLine
 10
1175.396733847291
 20
-1903.468980736337
 30
0.0
 11
1175.396733847291
 21
-1989.051745273236
 31
0.0
  0
LINE
  5
7EF8
330
7D85
100
AcDbEntity
  8
3
 62
     0
440
 16777216
370
    -2
100
AcDbLine
 10
1147.396733847291
 20
-1979.051745273235
 30
0.0
 11
1127.39673384729
 21
-1979.051745273235
 31
0.0
  0
LINE
  5
7EF9
330
7D85
100
AcDbEntity
  8
3
 62
     0
440
 16777216
370
    -2
100
AcDbLine
 10
1195.396733847291
 20
-1979.051745273235
 30
0.0
 11
1255.396733847291
 21
-1979.051745273235
 31
0.0
  0
LINE
  5
7EFA
330
7D85
100
AcDbEntity
  8
3
 62
     0
440
 16777216
370
    -2
100
AcDbLine
 10
1167.396733847291
 20
-1979.051745273235
 30
0.0
 11
1175.396733847291
 21
-1979.051745273235
 31
0.0
  0
INSERT
  5
7EFB
330
7D85
100
AcDbEntity
  8
3
 62
     0
440
 16777216
370
    -2
100
AcDbBlockReference
  2
_OPEN
 10
1167.396733847291
 20
-1979.051745273235
 30
0.0
 41
20.0
 42
20.0
 43
20.0
  0
INSERT
  5
7EFC
330
7D85
100
AcDbEntity
  8
3
 62
     0
440
 16777216
370
    -2
100
AcDbBlockReference
  2
_OPEN
 10
1175.396733847291
 20
-1979.051745273235
 30
0.0
 41
20.0
 42
20.0
 43
20.0
 50
180.0
  0
MTEXT
  5
7EFD
330
7D85
100
AcDbEntity
  8
3
 62
     0
440
 16777216
100
AcDbMText
 10
1235.396733847291
 20
-1954.051745273235
 30
0.0
 40
30.0
 41
0.0
 46
0.0
 71
     5
 72
     1
  1
\A1;8
 73
     1
 44
1.0
  0
POINT
  5
7EFE
330
7D85
100
AcDbEntity
  8
DEFPOINTS
 62
     0
440
 16777216
100
AcDbPoint
 10
1167.396733847291
 20
-1898.468980736337
 30
0.0
  0
POINT
  5
7EFF
330
7D85
100
AcDbEntity
  8
DEFPOINTS
 62
     0
440
 16777216
100
AcDbPoint
 10
1175.396733847291
 20
-1898.468980736337
 30
0.0
  0
POINT
  5
7F00
330
7D85
100
AcDbEntity
  8
DEFPOINTS
 62
     0
440
 16777216
100
AcDbPoint
 10
1175.396733847291
 20
-1979.051745273235
 30
0.0
  0
ENDBLK
  5
7D92
330
7D85
100
AcDbEntity
  8
0
100
AcDbBlockEnd
  0
BLOCK
  5
7D95
330
7D94
100
AcDbEntity
  8
0
100
AcDbBlockBegin
  2
_DOT
 70
     0
 10
0.0
 20
0.0
 30
0.0
  3
_DOT
  1

  0
LWPOLYLINE
  5
7D96
330
7D94
100
AcDbEntity
  8
0
  6
ByBlock
 62
     0
100
AcDbPolyline
 90
        2
 70
     1
 43
0.5
 10
-0.25
 20
0.0
 42
1.0
 10
0.25
 20
0.0
 42
1.0
  0
LINE
  5
7D9A
330
7D94
100
AcDbEntity
  8
0
  6
ByBlock
 62
     0
100
AcDbLine
 10
-0.5
 20
0.0
 30
0.0
 11
-1.0
 21
0.0
 31
0.0
  0
ENDBLK
  5
7D9B
330
7D94
100
AcDbEntity
  8
0
100
AcDbBlockEnd
  0
BLOCK
  5
7D9D
330
7D9C
100
AcDbEntity
  8
0
100
AcDbBlockBegin
  2
*D18
 70
     1
 10
0.0
 20
0.0
 30
0.0
  3
*D18
  1

  0
LINE
  5
7F01
330
7D9C
100
AcDbEntity
  8
3
 62
     0
440
 16777216
370
    -2
100
AcDbLine
 10
537.3839746945345
 20
-1868.468980736337
 30
0.0
 11
717.2993164735108
 21
-1868.468980736337
 31
0.0
  0
LINE
  5
7F02
330
7D9C
100
AcDbEntity
  8
3
 62
     0
440
 16777216
370
    -2
100
AcDbLine
 10
537.3839746945345
 20
-1898.468980736337
 30
0.0
 11
717.2993164735108
 21
-1898.468980736337
 31
0.0
  0
LINE
  5
7F03
330
7D9C
100
AcDbEntity
  8
3
 62
     0
440
 16777216
370
    -2
100
AcDbLine
 10
707.2993164735107
 20
-1848.468980736337
 30
0.0
 11
707.2993164735107
 21
-1828.468980736337
 31
0.0
  0
LINE
  5
7F04
330
7D9C
100
AcDbEntity
  8
3
 62
     0
440
 16777216
370
    -2
100
AcDbLine
 10
707.2993164735107
 20
-1918.468980736337
 30
0.0
 11
707.2993164735107
 21
-2007.040409307766
 31
0.0
  0
LINE
  5
7F05
330
7D9C
100
AcDbEntity
  8
3
 62
     0
440
 16777216
370
    -2
100
AcDbLine
 10
707.2993164735107
 20
-1868.468980736337
 30
0.0
 11
707.2993164735107
 21
-1898.468980736337
 31
0.0
  0
INSERT
  5
7F06
330
7D9C
100
AcDbEntity
  8
3
 62
     0
440
 16777216
370
    -2
100
AcDbBlockReference
  2
_DOT
 10
707.2993164735107
 20
-1868.468980736337
 30
0.0
 41
20.0
 42
20.0
 43
20.0
 50
270.0
  0
INSERT
  5
7F07
330
7D9C
100
AcDbEntity
  8
3
 62
     0
440
 16777216
370
    -2
100
AcDbBlockReference
  2
_OPEN
 10
707.2993164735107
 20
-1898.468980736337
 30
0.0
 41
20.0
 42
20.0
 43
20.0
 50
90.0
  0
MTEXT
  5
7F08
330
7D9C
100
AcDbEntity
  8
3
 62
     0
440
 16777216
100
AcDbMText
 10
682.2993164735111
 20
-1972.754695022051
 30
0.0
 40
30.0
 41
0.0
 46
0.0
 71
     5
 72
     1
  1
\A1;30
 11
0.0000000000000001
 21
1.0
 31
0.0
 73
     1
 44
1.0
  0
POINT
  5
7F09
330
7D9C
100
AcDbEntity
  8
DEFPOINTS
 62
     0
440
 16777216
100
AcDbPoint
 10
532.3839746945346
 20
-1868.468980736337
 30
0.0
  0
POINT
  5
7F0A
330
7D9C
100
AcDbEntity
  8
DEFPOINTS
 62
     0
440
 16777216
100
AcDbPoint
 10
532.3839746945346
 20
-1898.468980736337
 30
0.0
  0
POINT
  5
7F0B
330
7D9C
100
AcDbEntity
  8
DEFPOINTS
 62
     0
440
 16777216
100
AcDbPoint
 10
707.2993164735107
 20
-1898.468980736337
 30
0.0
  0
ENDBLK
  5
7DA9
330
7D9C
100
AcDbEntity
  8
0
100
AcDbBlockEnd
  0
BLOCK
  5
7DAC
330
7DAB
100
AcDbEntity
  8
0
100
AcDbBlockBegin
  2
*D19
 70
     1
 10
0.0
 20
0.0
 30
0.0
  3
*D19
  1

  0
LINE
  5
7F2F
330
7DAB
100
AcDbEntity
  8
3
 62
     0
440
 16777216
370
    -2
100
AcDbLine
 10
537.3839746945345
 20
-1868.468980736337
 30
0.0
 11
717.2993164735108
 21
-1868.468980736337
 31
0.0
  0
LINE
  5
7F30
330
7DAB
100
AcDbEntity
  8
3
 62
     0
440
 16777216
370
    -2
100
AcDbLine
 10
507.3839746945346
 20
-1798.468980736337
 30
0.0
 11
717.2993164735108
 21
-1798.468980736337
 31
0.0
  0
LINE
  5
7F31
330
7DAB
100
AcDbEntity
  8
3
 62
     0
440
 16777216
370
    -2
100
AcDbLine
 10
707.2993164735107
 20
-1848.468980736337
 30
0.0
 11
707.2993164735107
 21
-1818.468980736337
 31
0.0
  0
MTEXT
  5
7F32
330
7DAB
100
AcDbEntity
  8
3
 62
     0
440
 16777216
100
AcDbMText
 10
752.8168309901993
 20
-1833.468980736337
 30
0.0
 40
30.0
 41
0.0
 46
0.0
 71
     5
 72
     1
  1
\A1;(70)
 11
0.0000000000000001
 21
1.0
 31
0.0
 73
     1
 44
1.0
  0
INSERT
  5
7F33
330
7DAB
100
AcDbEntity
  8
3
 62
     0
440
 16777216
370
    -2
100
AcDbBlockReference
  2
_DOT
 10
707.2993164735107
 20
-1868.468980736337
 30
0.0
 41
20.0
 42
20.0
 43
20.0
 50
270.0
  0
INSERT
  5
7F34
330
7DAB
100
AcDbEntity
  8
3
 62
     0
440
 16777216
370
    -2
100
AcDbBlockReference
  2
_OPEN
 10
707.2993164735107
 20
-1798.468980736337
 30
0.0
 41
20.0
 42
20.0
 43
20.0
 50
90.0
  0
POINT
  5
7F35
330
7DAB
100
AcDbEntity
  8
DEFPOINTS
 62
     0
440
 16777216
100
AcDbPoint
 10
532.3839746945346
 20
-1868.468980736337
 30
0.0
  0
POINT
  5
7F36
330
7DAB
100
AcDbEntity
  8
DEFPOINTS
 62
     0
440
 16777216
100
AcDbPoint
 10
502.3839746945346
 20
-1798.468980736337
 30
0.0
  0
POINT
  5
7F37
330
7DAB
100
AcDbEntity
  8
DEFPOINTS
 62
     0
440
 16777216
100
AcDbPoint
 10
707.2993164735107
 20
-1798.468980736337
 30
0.0
  0
ENDBLK
  5
7DB6
330
7DAB
100
AcDbEntity
  8
0
100
AcDbBlockEnd
  0
BLOCK
  5
7F80
330
7F7F
100
AcDbEntity
  8
0
100
AcDbBlockBegin
  2
*D20
 70
     1
 10
0.0
 20
0.0
 30
0.0
  3
*D20
  1

  0
LINE
  5
7F82
330
7F7F
100
AcDbEntity
  8
3
 62
     0
440
 16777216
370
    -2
100
AcDbLine
 10
537.3839746945345
 20
-1898.468980736337
 30
0.0
 11
787.0647976935759
 21
-1898.468980736337
 31
0.0
  0
LINE
  5
7F83
330
7F7F
100
AcDbEntity
  8
3
 62
     0
440
 16777216
370
    -2
100
AcDbLine
 10
300.3839746945346
 20
-1296.768980736337
 30
0.0
 11
787.0647976935761
 21
-1296.768980736337
 31
0.0
  0
LINE
  5
7F84
330
7F7F
100
AcDbEntity
  8
3
 62
     0
440
 16777216
370
    -2
100
AcDbLine
 10
777.064797693576
 20
-1878.468980736337
 30
0.0
 11
777.0647976935761
 21
-1316.768980736337
 31
0.0
  0
INSERT
  5
7F85
330
7F7F
100
AcDbEntity
  8
3
 62
     0
440
 16777216
370
    -2
100
AcDbBlockReference
  2
_DOT
 10
777.064797693576
 20
-1898.468980736337
 30
0.0
 41
20.0
 42
20.0
 43
20.0
 50
270.0
  0
INSERT
  5
7F86
330
7F7F
100
AcDbEntity
  8
3
 62
     0
440
 16777216
370
    -2
100
AcDbBlockReference
  2
_OPEN
 10
777.0647976935761
 20
-1296.768980736337
 30
0.0
 41
20.0
 42
20.0
 43
20.0
 50
90.0
  0
MTEXT
  5
7F87
330
7F7F
100
AcDbEntity
  8
3
 62
     0
440
 16777216
100
AcDbMText
 10
744.2076548364334
 20
-1597.618980736337
 30
0.0
 40
30.0
 41
0.0
 46
0.0
 71
     5
 72
     1
  1
\A1;(602)
 11
0.0000000000000001
 21
1.0
 31
0.0
 73
     1
 44
1.0
  0
POINT
  5
7F88
330
7F7F
100
AcDbEntity
  8
DEFPOINTS
 62
     0
440
 16777216
100
AcDbPoint
 10
532.3839746945346
 20
-1898.468980736337
 30
0.0
  0
POINT
  5
7F89
330
7F7F
100
AcDbEntity
  8
DEFPOINTS
 62
     0
440
 16777216
100
AcDbPoint
 10
295.3839746945346
 20
-1296.768980736337
 30
0.0
  0
POINT
  5
7F8A
330
7F7F
100
AcDbEntity
  8
DEFPOINTS
 62
     0
440
 16777216
100
AcDbPoint
 10
777.0647976935761
 20
-1296.768980736337
 30
0.0
  0
ENDBLK
  5
7F81
330
7F7F
100
AcDbEntity
  8
0
100
AcDbBlockEnd
  0
ENDSEC
  0
SECTION
  2
ENTITIES
  0
LINE
  5
7A8F
330
19
100
AcDbEntity
  8
1
  6
Continuous
100
AcDbLine
 10
1085.39673384729
 20
-1482.468980736337
 30
0.0
 11
1265.396733847291
 21
-1482.468980736337
 31
0.0
  0
LINE
  5
7A90
330
19
100
AcDbEntity
  8
1
  6
Continuous
100
AcDbLine
 10
1097.396733847291
 20
-1272.568980736337
 30
0.0
 11
1253.396733847291
 21
-1272.568980736337
 31
0.0
  0
LINE
  5
7A91
330
19
100
AcDbEntity
  8
1
  6
Continuous
100
AcDbLine
 10
1085.39673384729
 20
-1482.468980736337
 30
0.0
 11
1265.396733847291
 21
-1734.468980736337
 31
0.0
  0
LINE
  5
7A92
330
19
100
AcDbEntity
  8
1
  6
Continuous
100
AcDbLine
 10
1265.396733847291
 20
-1482.468980736337
 30
0.0
 11
1085.39673384729
 21
-1734.468980736337
 31
0.0
  0
LINE
  5
7A93
330
19
100
AcDbEntity
  8
1
  6
Continuous
100
AcDbLine
 10
1265.396733847291
 20
-1734.468980736337
 30
0.0
 11
1085.39673384729
 21
-1734.468980736337
 31
0.0
  0
CIRCLE
  5
7A94
330
19
100
AcDbEntity
  8
1
  6
Continuous
100
AcDbCircle
 10
312.3839746945346
 20
-1483.468980736337
 30
0.0
 40
125.0
  0
CIRCLE
  5
7A95
330
19
100
AcDbEntity
  8
1
  6
Continuous
100
AcDbCircle
 10
312.3839746945346
 20
-1483.468980736337
 30
0.0
 40
145.0
  0
LINE
  5
7A96
330
19
100
AcDbEntity
  8
1
  6
Continuous
100
AcDbLine
 10
-237.6160253054654
 20
-1868.468980736337
 30
0.0
 11
532.3839746945346
 21
-1868.468980736337
 31
0.0
  0
LINE
  5
7A97
330
19
100
AcDbEntity
  8
1
  6
Continuous
100
AcDbLine
 10
-237.6160253054654
 20
-1898.468980736337
 30
0.0
 11
532.3839746945346
 21
-1898.468980736337
 31
0.0
  0
LINE
  5
7A98
330
19
100
AcDbEntity
  8
1
  6
Continuous
100
AcDbLine
 10
492.3839746945345
 20
-1743.468980736337
 30
0.0
 11
311.9839746945345
 21
-1743.468980736337
 31
0.0
  0
ARC
  5
7A99
330
19
100
AcDbEntity
  8
1
  6
Continuous
100
AcDbCircle
 10
295.3839746945346
 20
-1500.468980736337
 30
0.0
 40
203.7
100
AcDbArc
 50
84.50000000000001
 51
175.4
  0
LINE
  5
7A9A
330
19
100
AcDbEntity
  8
2
  6
CENTER
100
AcDbLine
 10
1290.473984847291
 20
-1483.468980736337
 30
0.0
 11
778.5697361181791
 21
-1483.468980736337
 31
0.0
  0
LINE
  5
7A9B
330
19
100
AcDbEntity
  8
1
  6
Continuous
100
AcDbLine
 10
373.9839746945345
 20
-1333.468980736337
 30
0.0
 11
250.7839746945347
 21
-1333.468980736337
 31
0.0
  0
LINE
  5
7A9C
330
19
100
AcDbEntity
  8
1
  6
Continuous
100
AcDbLine
 10
152.3839746945346
 20
-1798.468980736337
 30
0.0
 11
472.3839746945345
 21
-1798.468980736337
 31
0.0
  0
LINE
  5
7A9D
330
19
100
AcDbEntity
  8
1
  6
Continuous
100
AcDbLine
 10
-207.6160253054654
 20
-1798.468980736337
 30
0.0
 11
502.3839746945346
 21
-1798.468980736337
 31
0.0
  0
LINE
  5
7A9E
330
19
100
AcDbEntity
  8
1
  6
Continuous
100
AcDbLine
 10
-29.3160253054657
 20
-1699.668980736337
 30
0.0
 11
337.4839746945345
 21
-1541.768980736337
 31
0.0
  0
LINE
  5
7A9F
330
19
100
AcDbEntity
  8
1
  6
Continuous
100
AcDbLine
 10
-207.6160253054654
 20
-1738.468980736337
 30
0.0
 11
502.3839746945346
 21
-1738.468980736337
 31
0.0
  0
CIRCLE
  5
7AA0
330
19
100
AcDbEntity
  8
1
  6
Continuous
100
AcDbCircle
 10
312.3839746945346
 20
-1483.468980736337
 30
0.0
 40
63.5
  0
LINE
  5
7AA1
330
19
100
AcDbEntity
  8
1
  6
Continuous
100
AcDbLine
 10
437.3839746945345
 20
-1428.468980736337
 30
0.0
 11
312.5839746945346
 21
-1358.468980736337
 31
0.0
  0
LINE
  5
7AA2
330
19
100
AcDbEntity
  8
1
  6
Continuous
100
AcDbLine
 10
312.5839746945346
 20
-1358.468980736337
 30
0.0
 11
-142.6160253054654
 21
-1558.468980736337
 31
0.0
  0
LINE
  5
7AA3
330
19
100
AcDbEntity
  8
1
  6
Continuous
100
AcDbLine
 10
47.08397469453439
 20
-1718.468980736337
 30
0.0
 11
-207.6160253054654
 21
-1718.468980736337
 31
0.0
  0
ARC
  5
7AA4
330
19
100
AcDbEntity
  8
1
  6
Continuous
100
AcDbCircle
 10
-50.21602530546534
 20
-1650.968980736337
 30
0.0
 40
75.8
100
AcDbArc
 50
322.9
 51
217.1
  0
LINE
  5
7AA5
330
19
100
AcDbEntity
  8
1
  6
Continuous
100
AcDbLine
 10
-142.6160253054654
 20
-1738.468980736337
 30
0.0
 11
-142.6160253054654
 21
-1558.468980736337
 31
0.0
  0
LINE
  5
7AA6
330
19
100
AcDbEntity
  8
1
  6
Continuous
 62
     4
100
AcDbLine
 10
-237.6160253054654
 20
-1868.468980736337
 30
0.0
 11
-237.6160253054654
 21
-1898.468980736337
 31
0.0
  0
LINE
  5
7AA7
330
19
100
AcDbEntity
  8
1
  6
Continuous
100
AcDbLine
 10
-207.6160253054654
 20
-1738.468980736337
 30
0.0
 11
-207.6160253054654
 21
-1798.468980736337
 31
0.0
  0
LINE
  5
7AA8
330
19
100
AcDbEntity
  8
1
  6
Continuous
100
AcDbLine
 10
-207.6160253054654
 20
-1718.468980736337
 30
0.0
 11
-207.6160253054654
 21
-1738.468980736337
 31
0.0
  0
ARC
  5
7AA9
330
19
100
AcDbEntity
  8
1
  6
Continuous
100
AcDbCircle
 10
332.3839746945346
 20
-1503.468980736337
 30
0.0
 40
240.9
100
AcDbArc
 50
175.4
 51
265.1
  0
LINE
  5
7AAA
330
19
100
AcDbEntity
  8
1
  6
Continuous
100
AcDbLine
 10
152.3839746945346
 20
-1417.368980736337
 30
0.0
 11
152.3839746945346
 21
-1738.468980736337
 31
0.0
  0
LINE
  5
7AAB
330
19
100
AcDbEntity
  8
1
  6
Continuous
100
AcDbLine
 10
-73.71602530546534
 20
-1603.468980736337
 30
0.0
 11
284.2839746945347
 21
-1426.568980736337
 31
0.0
  0
LINE
  5
7AAC
330
19
100
AcDbEntity
  8
2
  6
CENTER
100
AcDbLine
 10
-103.2160253054653
 20
-1650.968980736337
 30
0.0
 11
2.783974694534663
 21
-1650.968980736337
 31
0.0
  0
CIRCLE
  5
7AAD
330
19
100
AcDbEntity
  8
1
  6
Continuous
100
AcDbCircle
 10
-50.21602530546534
 20
-1650.968980736337
 30
0.0
 40
53.0
  0
LINE
  5
7AAE
330
19
100
AcDbEntity
  8
2
  6
CENTER
100
AcDbLine
 10
-50.21602530546534
 20
-1703.968980736337
 30
0.0
 11
-50.21602530546534
 21
-1597.968980736337
 31
0.0
  0
LINE
  5
7AAF
330
19
100
AcDbEntity
  8
1
  6
Continuous
100
AcDbLine
 10
-116.2160253054653
 20
-1710.968980736337
 30
0.0
 11
-110.7160253054653
 21
-1696.668980736337
 31
0.0
  0
LINE
  5
7AB0
330
19
100
AcDbEntity
  8
1
  6
Continuous
100
AcDbLine
 10
-116.2160253054653
 20
-1718.468980736337
 30
0.0
 11
-116.2160253054653
 21
-1710.968980736337
 31
0.0
  0
LINE
  5
7AB1
330
19
100
AcDbEntity
  8
1
  6
Continuous
100
AcDbLine
 10
47.08397469453439
 20
-1738.468980736337
 30
0.0
 11
47.08397469453439
 21
-1718.468980736337
 31
0.0
  0
LINE
  5
7AB2
330
19
100
AcDbEntity
  8
1
  6
Continuous
100
AcDbLine
 10
15.78397469453466
 20
-1718.468980736337
 30
0.0
 11
15.78397469453466
 21
-1710.968980736337
 31
0.0
  0
LINE
  5
7AB3
330
19
100
AcDbEntity
  8
1
  6
Continuous
100
AcDbLine
 10
15.78397469453466
 20
-1710.968980736337
 30
0.0
 11
10.18397469453452
 21
-1696.668980736337
 31
0.0
  0
POINT
  5
7AB4
330
19
100
AcDbEntity
  8
1
  6
Continuous
100
AcDbPoint
 10
20.18397469453453
 20
-1650.968980736337
 30
0.0
  0
LINE
  5
7AB5
330
19
100
AcDbEntity
  8
1
  6
Continuous
100
AcDbLine
 10
250.7839746945347
 20
-1333.468980736337
 30
0.0
 11
152.3839746945346
 21
-1417.368980736337
 31
0.0
  0
LINE
  5
7AB6
330
19
100
AcDbEntity
  8
2
  6
CENTER
100
AcDbLine
 10
312.3839746945346
 20
-1898.468980736337
 30
0.0
 11
312.3839746945346
 21
-1273.635275736337
 31
0.0
  0
LINE
  5
7AB9
330
19
100
AcDbEntity
  8
1
  6
Continuous
100
AcDbLine
 10
492.3839746945345
 20
-1713.468980736337
 30
0.0
 11
492.3839746945345
 21
-1503.468980736337
 31
0.0
  0
LINE
  5
7ABA
330
19
100
AcDbEntity
  8
1
  6
Continuous
100
AcDbLine
 10
512.3839746945345
 20
-1462.468980736337
 30
0.0
 11
512.3839746945345
 21
-1754.468980736337
 31
0.0
  0
LINE
  5
7ABB
330
19
100
AcDbEntity
  8
1
  6
Continuous
100
AcDbLine
 10
472.3839746945345
 20
-1738.468980736337
 30
0.0
 11
472.3839746945345
 21
-1417.368980736337
 31
0.0
  0
LINE
  5
7ABC
330
19
100
AcDbEntity
  8
1
  6
Continuous
100
AcDbLine
 10
437.3839746945345
 20
-1738.468980736337
 30
0.0
 11
437.3839746945345
 21
-1428.468980736337
 31
0.0
  0
LINE
  5
7ABD
330
19
100
AcDbEntity
  8
1
  6
Continuous
100
AcDbLine
 10
512.3839746945345
 20
-1733.468980736337
 30
0.0
 11
492.3839746945345
 21
-1713.468980736337
 31
0.0
  0
LINE
  5
7ABE
330
19
100
AcDbEntity
  8
1
  6
Continuous
100
AcDbLine
 10
502.3839746945346
 20
-1738.468980736337
 30
0.0
 11
502.3839746945346
 21
-1798.468980736337
 31
0.0
  0
LINE
  5
7ABF
330
19
100
AcDbEntity
  8
1
  6
Continuous
100
AcDbLine
 10
512.3839746945345
 20
-1733.468980736337
 30
0.0
 11
492.3839746945345
 21
-1733.468980736337
 31
0.0
  0
LINE
  5
7AC0
330
19
100
AcDbEntity
  8
1
  6
Continuous
100
AcDbLine
 10
492.3839746945345
 20
-1743.468980736337
 30
0.0
 11
492.3839746945345
 21
-1733.468980736337
 31
0.0
  0
LINE
  5
7AC1
330
19
100
AcDbEntity
  8
1
  6
Continuous
100
AcDbLine
 10
532.3839746945346
 20
-1868.468980736337
 30
0.0
 11
532.3839746945346
 21
-1898.468980736337
 31
0.0
  0
ARC
  5
7AC3
330
19
100
AcDbEntity
  8
1
  6
Continuous
100
AcDbCircle
 10
298.3839746945346
 20
-1469.468980736337
 30
0.0
 40
172.6
100
AcDbArc
 50
358.7
 51
84.50000000000001
  0
LINE
  5
7AC4
330
19
100
AcDbEntity
  8
1
  6
Continuous
100
AcDbLine
 10
373.9839746945345
 20
-1333.468980736337
 30
0.0
 11
472.3839746945345
 21
-1417.368980736337
 31
0.0
  0
LINE
  5
7AC5
330
19
100
AcDbEntity
  8
1
  6
Continuous
100
AcDbLine
 10
512.3839746945345
 20
-1483.468980736337
 30
0.0
 11
492.3839746945345
 21
-1503.468980736337
 31
0.0
  0
LINE
  5
7AC6
330
19
100
AcDbEntity
  8
1
  6
Continuous
100
AcDbLine
 10
492.3839746945345
 20
-1473.468980736337
 30
0.0
 11
470.9839746945345
 21
-1473.468980736337
 31
0.0
  0
LINE
  5
7AC7
330
19
100
AcDbEntity
  8
1
  6
Continuous
100
AcDbLine
 10
512.3839746945345
 20
-1483.468980736337
 30
0.0
 11
492.3839746945345
 21
-1483.468980736337
 31
0.0
  0
LINE
  5
7AC8
330
19
100
AcDbEntity
  8
1
  6
Continuous
100
AcDbLine
 10
492.3839746945345
 20
-1483.468980736337
 30
0.0
 11
492.3839746945345
 21
-1473.468980736337
 31
0.0
  0
LINE
  5
7AC9
330
19
100
AcDbEntity
  8
1
  6
Continuous
100
AcDbLine
 10
1085.39673384729
 20
-1734.468980736337
 30
0.0
 11
1085.39673384729
 21
-1284.568980736337
 31
0.0
  0
LINE
  5
7ACA
330
19
100
AcDbEntity
  8
1
  6
Continuous
100
AcDbLine
 10
1076.396733847291
 20
-1630.468980736337
 30
0.0
 11
1076.396733847291
 21
-1483.468980736337
 31
0.0
  0
LINE
  5
7ACB
330
19
100
AcDbEntity
  8
1
  6
Continuous
100
AcDbLine
 10
1076.396733847291
 20
-1336.468980736337
 30
0.0
 11
1076.396733847291
 21
-1738.468980736337
 31
0.0
  0
LINE
  5
7ACC
330
19
100
AcDbEntity
  8
1
  6
Continuous
100
AcDbLine
 10
910.3967338472907
 20
-1738.468980736337
 30
0.0
 11
910.3967338472907
 21
-1358.468980736337
 31
0.0
  0
LINE
  5
7ACD
330
19
100
AcDbEntity
  8
1
  6
Continuous
100
AcDbLine
 10
835.3967338472907
 20
-1738.468980736337
 30
0.0
 11
835.3967338472907
 21
-1358.468980736337
 31
0.0
  0
LINE
  5
7ACE
330
19
100
AcDbEntity
  8
1
  6
Continuous
100
AcDbLine
 10
947.3967338472908
 20
-1738.468980736337
 30
0.0
 11
947.3967338472908
 21
-1521.668980736337
 31
0.0
  0
LINE
  5
7ACF
330
19
100
AcDbEntity
  8
1
  6
Continuous
100
AcDbLine
 10
917.3967338472907
 20
-1898.468980736337
 30
0.0
 11
1167.396733847291
 21
-1898.468980736337
 31
0.0
  0
LINE
  5
7AD0
330
19
100
AcDbEntity
  8
1
  6
Continuous
100
AcDbLine
 10
917.3967338472907
 20
-1868.468980736337
 30
0.0
 11
1167.396733847291
 21
-1868.468980736337
 31
0.0
  0
LINE
  5
7AD1
330
19
100
AcDbEntity
  8
1
  6
Continuous
100
AcDbLine
 10
917.3967338472907
 20
-1798.468980736337
 30
0.0
 11
1167.396733847291
 21
-1798.468980736337
 31
0.0
  0
LINE
  5
7AD2
330
19
100
AcDbEntity
  8
1
  6
Continuous
100
AcDbLine
 10
835.3967338472907
 20
-1738.468980736337
 30
0.0
 11
1167.396733847291
 21
-1738.468980736337
 31
0.0
  0
LINE
  5
7AD3
330
19
100
AcDbEntity
  8
1
  6
Continuous
100
AcDbLine
 10
890.3967338472908
 20
-1638.968980736337
 30
0.0
 11
947.3967338472908
 21
-1638.968980736337
 31
0.0
  0
LINE
  5
7AD4
330
19
100
AcDbEntity
  8
1
  6
Continuous
100
AcDbLine
 10
890.3967338472908
 20
-1662.968980736337
 30
0.0
 11
947.3967338472908
 21
-1662.968980736337
 31
0.0
  0
LINE
  5
7AD5
330
19
100
AcDbEntity
  8
1
  6
Continuous
100
AcDbLine
 10
917.3967338472907
 20
-1868.468980736337
 30
0.0
 11
917.3967338472907
 21
-1898.468980736337
 31
0.0
  0
LINE
  5
7AD6
330
19
100
AcDbEntity
  8
1
  6
Continuous
100
AcDbLine
 10
917.3967338472907
 20
-1738.468980736337
 30
0.0
 11
917.3967338472907
 21
-1798.468980736337
 31
0.0
  0
LINE
  5
7AD7
330
19
100
AcDbEntity
  8
1
  6
Continuous
100
AcDbLine
 10
890.3967338472908
 20
-1597.968980736337
 30
0.0
 11
890.3967338472908
 21
-1703.968980736337
 31
0.0
  0
LINE
  5
7AD8
330
19
100
AcDbEntity
  8
1
  6
Continuous
100
AcDbLine
 10
855.3967338472908
 20
-1703.968980736337
 30
0.0
 11
890.3967338472908
 21
-1703.968980736337
 31
0.0
  0
LINE
  5
7AD9
330
19
100
AcDbEntity
  8
1
  6
Continuous
100
AcDbLine
 10
855.3967338472908
 20
-1597.968980736337
 30
0.0
 11
855.3967338472908
 21
-1703.968980736337
 31
0.0
  0
LINE
  5
7ADA
330
19
100
AcDbEntity
  8
1
  6
Continuous
100
AcDbLine
 10
855.3967338472908
 20
-1597.968980736337
 30
0.0
 11
890.3967338472908
 21
-1597.968980736337
 31
0.0
  0
LINE
  5
7ADB
330
19
100
AcDbEntity
  8
1
  6
Continuous
100
AcDbLine
 10
1085.39673384729
 20
-1630.468980736337
 30
0.0
 11
1076.396733847291
 21
-1630.468980736337
 31
0.0
  0
LINE
  5
7ADC
330
19
100
AcDbEntity
  8
1
  6
Continuous
100
AcDbLine
 10
1085.39673384729
 20
-1734.468980736337
 30
0.0
 11
1085.39673384729
 21
-1712.488695736337
 31
0.0
  0
LINE
  5
7ADD
330
19
100
AcDbEntity
  8
1
  6
Continuous
100
AcDbLine
 10
1167.396733847291
 20
-1868.468980736337
 30
0.0
 11
1167.396733847291
 21
-1898.468980736337
 31
0.0
  0
LINE
  5
7ADE
330
19
100
AcDbEntity
  8
1
  6
Continuous
100
AcDbLine
 10
1167.396733847291
 20
-1738.468980736337
 30
0.0
 11
1167.396733847291
 21
-1798.468980736337
 31
0.0
  0
LINE
  5
7ADF
330
19
100
AcDbEntity
  8
1
  6
Continuous
100
AcDbLine
 10
947.3967338472908
 20
-1521.668980736337
 30
0.0
 11
1076.396733847291
 21
-1417.368980736337
 31
0.0
  0
LINE
  5
7AE0
330
19
100
AcDbEntity
  8
1
  6
Continuous
100
AcDbLine
 10
890.3967338472908
 20
-1495.468980736337
 30
0.0
 11
979.7967338472906
 21
-1495.468980736337
 31
0.0
  0
LINE
  5
7AE1
330
19
100
AcDbEntity
  8
1
  6
Continuous
100
AcDbLine
 10
890.3967338472908
 20
-1471.468980736337
 30
0.0
 11
1009.49673384729
 21
-1471.468980736337
 31
0.0
  0
LINE
  5
7AE2
330
19
100
AcDbEntity
  8
1
  6
Continuous
100
AcDbLine
 10
890.3967338472908
 20
-1419.968980736337
 30
0.0
 11
890.3967338472908
 21
-1546.968980736337
 31
0.0
  0
LINE
  5
7AE3
330
19
100
AcDbEntity
  8
1
  6
Continuous
100
AcDbLine
 10
855.3967338472908
 20
-1546.968980736337
 30
0.0
 11
890.3967338472908
 21
-1546.968980736337
 31
0.0
  0
LINE
  5
7AE4
330
19
100
AcDbEntity
  8
1
  6
Continuous
100
AcDbLine
 10
855.3967338472908
 20
-1419.968980736337
 30
0.0
 11
890.3967338472908
 21
-1419.968980736337
 31
0.0
  0
LINE
  5
7AE5
330
19
100
AcDbEntity
  8
1
  6
Continuous
100
AcDbLine
 10
855.3967338472908
 20
-1419.968980736337
 30
0.0
 11
855.3967338472908
 21
-1546.968980736337
 31
0.0
  0
LINE
  5
7AE6
330
19
100
AcDbEntity
  8
1
  6
Continuous
100
AcDbLine
 10
835.3967338472907
 20
-1358.468980736337
 30
0.0
 11
910.3967338472907
 21
-1358.468980736337
 31
0.0
  0
ARC
  5
7AE7
330
19
100
AcDbEntity
  8
1
  6
Continuous
100
AcDbCircle
 10
1097.396733847291
 20
-1284.568980736337
 30
0.0
 40
12.0
100
AcDbArc
 50
90.0
 51
180.0
  0
LINE
  5
7AE8
330
19
100
AcDbEntity
  8
1
  6
Continuous
100
AcDbLine
 10
1076.396733847291
 20
-1336.468980736337
 30
0.0
 11
1076.396733847291
 21
-1483.468980736337
 31
0.0
  0
LINE
  5
7AE9
330
19
100
AcDbEntity
  8
1
  6
Continuous
100
AcDbLine
 10
1085.39673384729
 20
-1336.468980736337
 30
0.0
 11
1076.396733847291
 21
-1336.468980736337
 31
0.0
  0
LINE
  5
7AEA
330
19
100
AcDbEntity
  8
1
  6
Continuous
100
AcDbLine
 10
512.3839746945345
 20
-512.925708921299
 30
0.0
 11
113.4839746945345
 21
-512.925708921299
 31
0.0
  0
LINE
  5
7AEB
330
19
100
AcDbEntity
  8
1
  6
Continuous
100
AcDbLine
 10
165.3839746945346
 20
-503.725708921299
 30
0.0
 11
459.3839746945345
 21
-503.725708921299
 31
0.0
  0
LINE
  5
7AEC
330
19
100
AcDbEntity
  8
1
  6
Continuous
100
AcDbLine
 10
512.3839746945345
 20
-692.5257089212991
 30
0.0
 11
312.3839746945346
 21
-692.5257089212991
 31
0.0
  0
LINE
  5
7AED
330
19
100
AcDbEntity
  8
1
  6
Continuous
100
AcDbLine
 10
152.3839746945346
 20
-701.7257089212989
 30
0.0
 11
472.3839746945345
 21
-701.7257089212989
 31
0.0
  0
LINE
  5
7AEE
330
19
100
AcDbEntity
  8
1
  6
Continuous
100
AcDbLine
 10
375.8839746945346
 20
-922.725708921299
 30
0.0
 11
248.8839746945346
 21
-922.725708921299
 31
0.0
  0
LINE
  5
7AEF
330
19
100
AcDbEntity
  8
1
  6
Continuous
100
AcDbLine
 10
375.8839746945346
 20
-887.725708921299
 30
0.0
 11
248.8839746945346
 21
-887.725708921299
 31
0.0
  0
LINE
  5
7AF0
330
19
100
AcDbEntity
  8
1
  6
Continuous
100
AcDbLine
 10
437.3839746945345
 20
-867.7257089212991
 30
0.0
 11
-142.6160253054654
 21
-867.7257089212991
 31
0.0
  0
LINE
  5
7AF1
330
19
100
AcDbEntity
  8
1
  6
Continuous
100
AcDbLine
 10
437.3839746945345
 20
-942.7257089212991
 30
0.0
 11
-142.6160253054654
 21
-942.7257089212991
 31
0.0
  0
LINE
  5
7AF2
330
19
100
AcDbEntity
  8
1
  6
Continuous
100
AcDbLine
 10
101.4839746945344
 20
-610.7257089212989
 30
0.0
 11
-237.6160253054654
 21
-610.7257089212989
 31
0.0
  0
LINE
  5
7AF3
330
19
100
AcDbEntity
  8
1
  6
Continuous
100
AcDbLine
 10
26.38397469453457
 20
-632.425708921299
 30
0.0
 11
-125.1160253054654
 21
-632.425708921299
 31
0.0
  0
LINE
  5
7AF4
330
19
100
AcDbEntity
  8
1
  6
Continuous
100
AcDbLine
 10
26.38397469453457
 20
-836.4257089212991
 30
0.0
 11
-125.1160253054654
 21
-836.4257089212991
 31
0.0
  0
LINE
  5
7AF5
330
19
100
AcDbEntity
  8
1
  6
Continuous
100
AcDbLine
 10
-62.21602530546533
 20
-860.7257089212991
 30
0.0
 11
-237.6160253054654
 21
-860.7257089212991
 31
0.0
  0
LINE
  5
7AF6
330
19
100
AcDbEntity
  8
1
  6
Continuous
100
AcDbLine
 10
-237.6160253054654
 20
-610.7257089212989
 30
0.0
 11
-237.6160253054654
 21
-860.7257089212991
 31
0.0
  0
LINE
  5
7AF7
330
19
100
AcDbEntity
  8
1
  6
Continuous
100
AcDbLine
 10
-142.6160253054654
 20
-942.7257089212991
 30
0.0
 11
-142.6160253054654
 21
-867.7257089212991
 31
0.0
  0
LINE
  5
7AF8
330
19
100
AcDbEntity
  8
1
  6
Continuous
100
AcDbLine
 10
-125.1160253054654
 20
-836.4257089212991
 30
0.0
 11
-125.1160253054654
 21
-632.425708921299
 31
0.0
  0
LINE
  5
7AF9
330
19
100
AcDbEntity
  8
1
  6
Continuous
100
AcDbLine
 10
101.4839746945344
 20
-524.9257089212989
 30
0.0
 11
101.4839746945344
 21
-680.5257089212991
 31
0.0
  0
LINE
  5
7AFA
330
19
100
AcDbEntity
  8
1
  6
Continuous
100
AcDbLine
 10
300.3839746945346
 20
-860.7257089212991
 30
0.0
 11
-38.21602530546534
 21
-860.7257089212991
 31
0.0
  0
LINE
  5
7AFB
330
19
100
AcDbEntity
  8
1
  6
Continuous
100
AcDbLine
 10
2.783974694534549
 20
-922.725708921299
 30
0.0
 11
-103.2160253054653
 21
-922.725708921299
 31
0.0
  0
LINE
  5
7AFC
330
19
100
AcDbEntity
  8
1
  6
Continuous
100
AcDbLine
 10
2.783974694534549
 20
-887.725708921299
 30
0.0
 11
-103.2160253054653
 21
-887.725708921299
 31
0.0
  0
LINE
  5
7AFD
330
19
100
AcDbEntity
  8
1
  6
Continuous
100
AcDbLine
 10
-103.2160253054653
 20
-922.725708921299
 30
0.0
 11
-103.2160253054653
 21
-887.725708921299
 31
0.0
  0
LINE
  5
7AFE
330
19
100
AcDbEntity
  8
1
  6
Continuous
100
AcDbLine
 10
-62.21602530546533
 20
-887.725708921299
 30
0.0
 11
-62.31602530546547
 21
-836.4257089212991
 31
0.0
  0
LINE
  5
7AFF
330
19
100
AcDbEntity
  8
1
  6
Continuous
100
AcDbLine
 10
-38.21602530546534
 20
-887.725708921299
 30
0.0
 11
-38.21602530546534
 21
-836.4257089212991
 31
0.0
  0
LINE
  5
7B00
330
19
100
AcDbEntity
  8
1
  6
Continuous
100
AcDbLine
 10
2.783974694534549
 20
-922.725708921299
 30
0.0
 11
2.783974694534549
 21
-887.725708921299
 31
0.0
  0
LINE
  5
7B01
330
19
100
AcDbEntity
  8
1
  6
Continuous
100
AcDbLine
 10
26.38397469453457
 20
-836.4257089212991
 30
0.0
 11
26.38397469453457
 21
-632.425708921299
 31
0.0
  0
LINE
  5
7B02
330
19
100
AcDbEntity
  8
1
  6
Continuous
100
AcDbLine
 10
113.4839746945345
 20
-692.5257089212991
 30
0.0
 11
312.3839746945346
 21
-692.5257089212991
 31
0.0
  0
LINE
  5
7B03
330
19
100
AcDbEntity
  8
1
  6
Continuous
100
AcDbLine
 10
300.3839746945346
 20
-830.725708921299
 30
0.0
 11
152.3839746945346
 21
-830.725708921299
 31
0.0
  0
LINE
  5
7B04
330
19
100
AcDbEntity
  8
1
  6
Continuous
100
AcDbLine
 10
165.3839746945346
 20
-692.5257089212991
 30
0.0
 11
165.3839746945346
 21
-701.7257089212989
 31
0.0
  0
ARC
  5
7B05
330
19
100
AcDbEntity
  8
1
  6
Continuous
100
AcDbCircle
 10
113.4839746945345
 20
-680.5257089212991
 30
0.0
 40
12.0
100
AcDbArc
 50
180.0
 51
270.0
  0
LINE
  5
7B06
330
19
100
AcDbEntity
  8
1
  6
Continuous
100
AcDbLine
 10
152.3839746945346
 20
-701.7257089212989
 30
0.0
 11
152.3839746945346
 21
-830.725708921299
 31
0.0
  0
LINE
  5
7B07
330
19
100
AcDbEntity
  8
1
  6
Continuous
100
AcDbLine
 10
300.3839746945346
 20
-887.725708921299
 30
0.0
 11
300.3839746945346
 21
-701.7257089212989
 31
0.0
  0
LINE
  5
7B08
330
19
100
AcDbEntity
  8
1
  6
Continuous
100
AcDbLine
 10
248.8839746945346
 20
-922.725708921299
 30
0.0
 11
248.8839746945346
 21
-887.725708921299
 31
0.0
  0
LINE
  5
7B09
330
19
100
AcDbEntity
  8
1
  6
Continuous
100
AcDbLine
 10
165.3839746945346
 20
-512.925708921299
 30
0.0
 11
165.3839746945346
 21
-503.725708921299
 31
0.0
  0
ARC
  5
7B0A
330
19
100
AcDbEntity
  8
1
  6
Continuous
100
AcDbCircle
 10
113.4839746945345
 20
-524.9257089212989
 30
0.0
 40
12.0
100
AcDbArc
 50
90.0
 51
180.0
  0
LINE
  5
7B0B
330
19
100
AcDbEntity
  8
1
  6
Continuous
100
AcDbLine
 10
492.3839746945345
 20
-541.9257089212989
 30
0.0
 11
492.3839746945345
 21
-663.5257089212991
 31
0.0
  0
LINE
  5
7B0C
330
19
100
AcDbEntity
  8
1
  6
Continuous
100
AcDbLine
 10
512.3839746945345
 20
-494.9173670170648
 30
0.0
 11
512.3839746945345
 21
-716.917367017065
 31
0.0
  0
LINE
  5
7B0D
330
19
100
AcDbEntity
  8
1
  6
Continuous
100
AcDbLine
 10
532.3839746945346
 20
-610.7257089212989
 30
0.0
 11
532.3839746945346
 21
-860.7257089212991
 31
0.0
  0
LINE
  5
7B0E
330
19
100
AcDbEntity
  8
1
  6
Continuous
100
AcDbLine
 10
532.3839746945346
 20
-860.7257089212991
 30
0.0
 11
324.3839746945346
 21
-860.7257089212991
 31
0.0
  0
LINE
  5
7B0F
330
19
100
AcDbEntity
  8
1
  6
Continuous
100
AcDbLine
 10
437.3839746945345
 20
-942.7257089212991
 30
0.0
 11
437.3839746945345
 21
-867.7257089212991
 31
0.0
  0
LINE
  5
7B10
330
19
100
AcDbEntity
  8
1
  6
Continuous
100
AcDbLine
 10
472.3839746945345
 20
-830.725708921299
 30
0.0
 11
324.3839746945346
 21
-830.725708921299
 31
0.0
  0
LINE
  5
7B11
330
19
100
AcDbEntity
  8
1
  6
Continuous
100
AcDbLine
 10
324.3839746945346
 20
-887.725708921299
 30
0.0
 11
324.3839746945346
 21
-701.7257089212989
 31
0.0
  0
LINE
  5
7B12
330
19
100
AcDbEntity
  8
1
  6
Continuous
100
AcDbLine
 10
375.8839746945346
 20
-922.725708921299
 30
0.0
 11
375.8839746945346
 21
-887.725708921299
 31
0.0
  0
LINE
  5
7B13
330
19
100
AcDbEntity
  8
1
  6
Continuous
100
AcDbLine
 10
512.3839746945345
 20
-683.5257089212992
 30
0.0
 11
492.3839746945345
 21
-663.5257089212991
 31
0.0
  0
LINE
  5
7B14
330
19
100
AcDbEntity
  8
1
  6
Continuous
100
AcDbLine
 10
459.3839746945345
 20
-692.5257089212991
 30
0.0
 11
459.3839746945345
 21
-701.7257089212989
 31
0.0
  0
LINE
  5
7B15
330
19
100
AcDbEntity
  8
1
  6
Continuous
100
AcDbLine
 10
472.3839746945345
 20
-830.725708921299
 30
0.0
 11
472.3839746945345
 21
-701.7257089212989
 31
0.0
  0
LINE
  5
7B16
330
19
100
AcDbEntity
  8
1
  6
Continuous
100
AcDbLine
 10
532.3839746945346
 20
-610.7257089212989
 30
0.0
 11
512.3839746945345
 21
-610.7257089212989
 31
0.0
  0
LINE
  5
7B17
330
19
100
AcDbEntity
  8
1
  6
Continuous
100
AcDbLine
 10
512.3839746945345
 20
-521.925708921299
 30
0.0
 11
492.3839746945345
 21
-541.9257089212989
 31
0.0
  0
LINE
  5
7B18
330
19
100
AcDbEntity
  8
1
  6
Continuous
100
AcDbLine
 10
459.3839746945345
 20
-512.925708921299
 30
0.0
 11
459.3839746945345
 21
-503.725708921299
 31
0.0
  0
LINE
  5
7B19
330
19
100
AcDbEntity
  8
1
  6
Continuous
100
AcDbLine
 10
1265.396733847291
 20
-1284.568980736337
 30
0.0
 11
1265.396733847291
 21
-1734.468980736337
 31
0.0
  0
LINE
  5
7B1A
330
19
100
AcDbEntity
  8
1
  6
Continuous
100
AcDbLine
 10
1274.396733847291
 20
-1630.468980736337
 30
0.0
 11
1274.396733847291
 21
-1336.468980736337
 31
0.0
  0
LINE
  5
7B1B
330
19
100
AcDbEntity
  8
1
  6
Continuous
100
AcDbLine
 10
1265.396733847291
 20
-1630.468980736337
 30
0.0
 11
1274.396733847291
 21
-1630.468980736337
 31
0.0
  0
ARC
  5
7B1C
330
19
100
AcDbEntity
  8
1
  6
Continuous
100
AcDbCircle
 10
1253.396733847291
 20
-1284.568980736337
 30
0.0
 40
12.0
100
AcDbArc
 50
0.0
 51
90.0
  0
LINE
  5
7B1D
330
19
100
AcDbEntity
  8
1
  6
Continuous
100
AcDbLine
 10
1265.396733847291
 20
-1336.468980736337
 30
0.0
 11
1274.396733847291
 21
-1336.468980736337
 31
0.0
  0
LINE
  5
7B1E
330
19
100
AcDbEntity
  8
4
  6
Continuous
100
AcDbLine
 10
1316.352832
 20
-2092.039438
 30
0.0
 11
1316.352832
 21
-2292.039438
 31
0.0
  0
LINE
  5
7B1F
330
19
100
AcDbEntity
  8
4
  6
Continuous
100
AcDbLine
 10
616.352832
 20
-2092.039438
 30
0.0
 11
616.352832
 21
-2292.039438
 31
0.0
  0
LINE
  5
7B20
330
19
100
AcDbEntity
  8
4
  6
Continuous
100
AcDbLine
 10
116.352832
 20
-2092.039438
 30
0.0
 11
116.352832
 21
-2292.039438
 31
0.0
  0
LINE
  5
7B23
330
19
100
AcDbEntity
  8
4
  6
Continuous
100
AcDbLine
 10
116.352832
 20
-2292.039438
 30
0.0
 11
1316.352832
 21
-2292.039438
 31
0.0
  0
LINE
  5
7B24
330
19
100
AcDbEntity
  8
4
  6
Continuous
100
AcDbLine
 10
116.352832
 20
-2192.039438
 30
0.0
 11
1316.352832
 21
-2192.039438
 31
0.0
  0
TEXT
  5
7B25
330
19
100
AcDbEntity
  8
4
  6
Continuous
100
AcDbText
 10
154.854913
 20
-2160.496412
 30
0.0
 40
50.0
  1
機器名称
100
AcDbText
  0
TEXT
  5
7B26
330
19
100
AcDbEntity
  8
4
  6
Continuous
100
AcDbText
 10
152.610938
 20
-2270.394281
 30
0.0
 40
50.0
  1
機器型番
100
AcDbText
  0
TEXT
  5
7B27
330
19
100
AcDbEntity
  8
4
  6
Continuous
100
AcDbText
 10
644.0315769999999
 20
-2169.467669
 30
0.0
 40
45.0
  1
ミツヤニューマルチファン
100
AcDbText
  0
TEXT
  5
7B28
330
19
100
AcDbEntity
  8
4
  6
Continuous
100
AcDbText
 10
653.0073269999999
 20
-2274.879853
 30
0.0
 40
50.0
  1
NM#1 1/2-1
100
AcDbText
  0
TEXT
  5
7B2A
330
19
100
AcDbEntity
  8
4
  6
Continuous
100
AcDbText
 10
192.979218
 20
-198.141091
 30
0.0
 40
54.0
  1
床置防振ベット
100
AcDbText
  0
TEXT
  5
7B2B
330
19
100
AcDbEntity
  8
4
  6
Continuous
100
AcDbText
 10
-217.479575
 20
-58.15846099999999
 30
0.0
 40
72.0
  1
ベルト駆動式片吸込片持多翼ファン
100
AcDbText
  0
LINE
  5
7B2C
330
19
100
AcDbEntity
  8
4
  6
Continuous
100
AcDbLine
 10
-283.647168
 20
-122.630683
 30
0.0
 11
1316.352832
 21
-122.630683
 31
0.0
  0
LINE
  5
7B2D
330
19
100
AcDbEntity
  8
4
  6
Continuous
100
AcDbLine
 10
-283.647168
 20
77.36931700000001
 30
0.0
 11
1316.352832
 21
77.36931700000001
 31
0.0
  0
LINE
  5
7B2E
330
19
100
AcDbEntity
  8
4
  6
Continuous
100
AcDbLine
 10
116.352832
 20
-2092.039438
 30
0.0
 11
1316.352832
 21
-2092.039438
 31
0.0
  0
LINE
  5
7B2F
330
19
100
AcDbEntity
  8
4
  6
Continuous
100
AcDbLine
 10
-283.647168
 20
77.36931700000001
 30
0.0
 11
-283.647168
 21
-122.630683
 31
0.0
  0
TEXT
  5
7B30
330
19
100
AcDbEntity
  8
4
  6
Continuous
100
AcDbText
 10
-242.879614
 20
-199.250455
 30
0.0
 40
54.0
  1
左回転右横向
100
AcDbText
  0
TEXT
  5
7B31
330
19
100
AcDbEntity
  8
4
  6
Continuous
100
AcDbText
 10
935.322391
 20
114.021644
 30
0.0
 40
56.0
  1
No.
100
AcDbText
  0
TEXT
  5
7B32
330
19
100
AcDbEntity
  8
4
  6
Continuous
100
AcDbText
 10
777.6488940000001
 20
-208.610596
 30
0.0
 40
54.0
  1
縮尺：1/10
100
AcDbText
  0
LINE
  5
7B33
330
19
100
AcDbEntity
  8
4
  6
Continuous
100
AcDbLine
 10
1316.352832
 20
77.36931700000001
 30
0.0
 11
1316.352832
 21
-122.630683
 31
0.0
  0
LINE
  5
7B35
330
19
100
AcDbEntity
  8
4
  6
Continuous
100
AcDbLine
 10
906.9702539999999
 20
89.22414599999999
 30
0.0
 11
906.9702539999999
 21
194.612824
 31
0.0
  0
LINE
  5
7B36
330
19
100
AcDbEntity
  8
4
  6
Continuous
100
AcDbLine
 10
906.9702539999999
 20
194.612824
 30
0.0
 11
1316.352832
 21
194.612824
 31
0.0
  0
LINE
  5
7B37
330
19
100
AcDbEntity
  8
4
  6
Continuous
100
AcDbLine
 10
1316.352832
 20
194.612824
 30
0.0
 11
1316.352832
 21
89.22414599999999
 31
0.0
  0
LINE
  5
7B38
330
19
100
AcDbEntity
  8
4
  6
Continuous
100
AcDbLine
 10
1316.352832
 20
89.22414599999999
 30
0.0
 11
906.9702539999999
 21
89.22414599999999
 31
0.0
  0
DIMENSION
  5
7B51
330
19
100
AcDbEntity
  8
3
  6
Continuous
100
AcDbDimension
280
     0
  2
*D1
 10
312.3839746945346
 20
-1985.538654736338
 30
0.0
 11
41.1464306945345
 21
-1985.538654736338
 31
0.0
 70
   160
 71
     5
 42
550.0
 73
     0
 74
     0
 75
     0
  3
IGA
100
AcDbAlignedDimension
 13
-237.6160253054654
 23
-1898.468980736337
 33
0.0
 14
312.3839746945346
 24
-1898.468980736337
 34
0.0
100
AcDbRotatedDimension
1001
ACAD
1000
DSTYLE
1002
{
1070
   287
1070
     3
1070
    40
1040
10.0
1070
   143
1040
0.039
1070
   172
1070
     1
1070
   271
1070
     0
1070
   279
1070
     0
1070
   288
1070
     1
1002
}
  0
DIMENSION
  5
7B5D
330
19
100
AcDbEntity
  8
3
  6
Continuous
100
AcDbDimension
280
     0
  2
*D2
 10
532.3839746945346
 20
-1985.538654736338
 30
0.0
 11
422.3839746945345
 21
-1960.538654736337
 31
0.0
 70
    32
 71
     5
 42
220.0
 73
     0
 74
     0
 75
     0
  3
IGA
100
AcDbAlignedDimension
 13
312.3839746945346
 23
-1898.468980736337
 33
0.0
 14
532.3839746945346
 24
-1898.468980736337
 34
0.0
100
AcDbRotatedDimension
1001
ACAD
1000
DSTYLE
1002
{
1070
   287
1070
     4
1070
    40
1040
10.0
1070
    75
1070
     1
1070
   143
1040
0.039
1070
   172
1070
     1
1070
   271
1070
     0
1070
   279
1070
     1
1070
   288
1070
     1
1002
}
  0
DIMENSION
  5
7B6A
330
19
100
AcDbEntity
  8
3
  6
Continuous
100
AcDbDimension
280
     0
  2
*D3
 10
588.1876656945344
 20
-1733.468980736337
 30
0.0
 11
588.1876656945346
 21
-1600.237395736337
 31
0.0
 70
   160
 71
     5
 42
-1.0
 73
     0
 74
     0
 75
     0
  3
IGA
100
AcDbAlignedDimension
 13
512.3839746945345
 23
-1483.468980736337
 33
0.0
 14
512.3839746945345
 24
-1733.468980736337
 34
0.0
 50
90.0
100
AcDbRotatedDimension
1001
ACAD
1000
DSTYLE
1002
{
1070
   287
1070
     3
1070
    40
1040
10.0
1070
   143
1040
0.039
1070
   172
1070
     1
1070
   271
1070
     0
1070
   279
1070
     0
1070
   288
1070
     1
1002
}
  0
DIMENSION
  5
7B77
330
19
100
AcDbEntity
  8
3
  6
Continuous
100
AcDbDimension
280
     0
  2
*D4
 10
706.551955965423
 20
-1483.468980736337
 30
0.0
 11
706.5519559654233
 21
-1418.468980736337
 31
0.0
 70
   160
 71
     5
 42
186.6999999999998
 73
     0
 74
     0
 75
     0
  3
IGA
100
AcDbAlignedDimension
 13
295.3839746945346
 23
-1296.768980736337
 33
0.0
 14
512.3839746945345
 24
-1483.468980736337
 34
0.0
 50
90.0
100
AcDbRotatedDimension
1001
ACAD
1000
DSTYLE
1002
{
1070
   287
1070
     3
1070
    40
1040
10.0
1070
   143
1040
0.039
1070
   172
1070
     1
1070
   271
1070
     0
1070
   279
1070
     0
1070
   288
1070
     1
1002
}
  0
DIMENSION
  5
7B83
330
19
100
AcDbEntity
  8
3
  6
Continuous
100
AcDbDimension
280
     0
  2
*D5
 10
706.5519559654233
 20
-1798.468980736337
 30
0.0
 11
681.5519559654236
 21
-1640.968980736337
 31
0.0
 70
    32
 71
     5
 42
-1.0
 73
     0
 74
     0
 75
     0
  3
IGA
100
AcDbAlignedDimension
 13
512.3839746945345
 23
-1483.468980736337
 33
0.0
 14
502.3839746945346
 24
-1798.468980736337
 34
0.0
 50
90.0
100
AcDbRotatedDimension
1001
ACAD
1000
DSTYLE
1002
{
1070
   287
1070
     4
1070
    40
1040
10.0
1070
    75
1070
     1
1070
   143
1040
0.039
1070
   172
1070
     1
1070
   271
1070
     0
1070
   279
1070
     1
1070
   288
1070
     1
1002
}
  0
DIMENSION
  5
7BC7
330
19
100
AcDbEntity
  8
3
  6
Continuous
100
AcDbDimension
280
     0
  2
*D6
 10
532.3839746945346
 20
-1034.022161921299
 30
0.0
 11
137.3878546945345
 21
-1034.022161921299
 31
0.0
 70
   160
 71
     5
 42
-1.0
 73
     0
 74
     0
 75
     0
  3
IGA
100
AcDbAlignedDimension
 13
-237.6160253054654
 23
-860.7257089212991
 33
0.0
 14
532.3839746945346
 24
-860.7257089212991
 34
0.0
100
AcDbRotatedDimension
1001
ACAD
1000
DSTYLE
1002
{
1070
   287
1070
     3
1070
    40
1040
10.0
1070
   143
1040
0.039
1070
   172
1070
     1
1070
   271
1070
     0
1070
   279
1070
     0
1070
   288
1070
     1
1002
}
  0
LINE
  5
7BD5
330
19
100
AcDbEntity
  8
2
  6
CENTER
100
AcDbLine
 10
54.71498469453456
 20
-602.7257089212989
 30
0.0
 11
563.6783426945345
 21
-602.7257089212989
 31
0.0
  0
LINE
  5
7BD6
330
19
100
AcDbEntity
  8
2
  6
CENTER
100
AcDbLine
 10
312.3839746945346
 20
-965.36722613716
 30
0.0
 11
312.3839746945346
 21
-466.9438361371601
 31
0.0
  0
LINE
  5
7BD7
330
19
100
AcDbEntity
  8
2
  6
CENTER
100
AcDbLine
 10
1175.396733847291
 20
-1223.868498736337
 30
0.0
 11
1175.396733847291
 21
-1898.468980736337
 31
0.0
  0
LINE
  5
7BD8
330
19
100
AcDbEntity
  8
2
  6
CENTER
100
AcDbLine
 10
537.8672636945343
 20
-1483.468980736337
 30
0.0
 11
5.733123694534697
 21
-1483.468980736337
 31
0.0
  0
DIMENSION
  5
7BE5
330
19
100
AcDbEntity
  8
3
  6
Continuous
100
AcDbDimension
280
     0
  2
*D7
 10
1167.396733847291
 20
-1980.233972736337
 30
0.0
 11
1033.231463847291
 21
-1980.233972736337
 31
0.0
 70
   160
 71
     5
 42
250.0
 73
     0
 74
     0
 75
     0
  3
IGA
100
AcDbAlignedDimension
 13
917.3967338472907
 23
-1898.468980736337
 33
0.0
 14
1167.396733847291
 24
-1898.468980736337
 34
0.0
100
AcDbRotatedDimension
1001
ACAD
1000
DSTYLE
1002
{
1070
   287
1070
     3
1070
    40
1040
10.0
1070
   143
1040
0.039
1070
   172
1070
     1
1070
   271
1070
     0
1070
   279
1070
     0
1070
   288
1070
     1
1002
}
  0
DIMENSION
  5
7BF2
330
19
100
AcDbEntity
  8
3
  6
Continuous
100
AcDbDimension
280
     0
  2
*D8
 10
1265.396733847291
 20
-1229.668875736337
 30
0.0
 11
1171.806268847291
 21
-1229.668875736337
 31
0.0
 70
   160
 71
     5
 42
-1.0
 73
     0
 74
     0
 75
     0
  3
IGA
100
AcDbAlignedDimension
 13
1085.39673384729
 23
-1284.568980736337
 33
0.0
 14
1265.396733847291
 24
-1284.568980736337
 34
0.0
100
AcDbRotatedDimension
1001
ACAD
1000
DSTYLE
1002
{
1070
   287
1070
     3
1070
    40
1040
10.0
1070
   143
1040
0.039
1070
   172
1070
     1
1070
   271
1070
     0
1070
   279
1070
     0
1070
   288
1070
     1
1002
}
  0
DIMENSION
  5
7BFF
330
19
100
AcDbEntity
  8
3
  6
Continuous
100
AcDbDimension
280
     0
  2
*D9
 10
1175.396733847291
 20
-1167.372463736337
 30
0.0
 11
1002.05213684729
 21
-1167.372463736337
 31
0.0
 70
   160
  1
(340)
 71
     5
 42
340.0
 73
     0
 74
     0
 75
     0
  3
IGA
100
AcDbAlignedDimension
 13
835.3967338472907
 23
-1358.468980736337
 33
0.0
 14
1175.396733847291
 24
-1182.934672736337
 34
0.0
100
AcDbRotatedDimension
1001
ACAD
1000
DSTYLE
1002
{
1070
   287
1070
     3
1070
    40
1040
10.0
1070
   143
1040
0.039
1070
   172
1070
     1
1070
   271
1070
     0
1070
   279
1070
     0
1070
   288
1070
     1
1002
}
  0
DIMENSION
  5
7C0D
330
19
100
AcDbEntity
  8
3
  6
Continuous
100
AcDbDimension
280
     0
  2
*D10
 10
1274.396733847291
 20
-1167.372463736337
 30
0.0
 11
1220.30745684729
 21
-1167.372463736337
 31
0.0
 70
   160
 71
     5
 42
-1.0
 73
     0
 74
     0
 75
     0
  3
IGA
100
AcDbAlignedDimension
 13
1175.396733847291
 23
-1182.934672736337
 33
0.0
 14
1274.396733847291
 24
-1336.468980736337
 34
0.0
100
AcDbRotatedDimension
1001
ACAD
1000
DSTYLE
1002
{
1070
   287
1070
     4
1070
    40
1040
10.0
1070
    75
1070
     1
1070
   143
1040
0.039
1070
   172
1070
     1
1070
   271
1070
     0
1070
   279
1070
     1
1070
   288
1070
     1
1002
}
  0
DIMENSION
  5
7C30
330
19
100
AcDbEntity
  8
3
  6
Continuous
100
AcDbDimension
280
     0
  2
*D11
 10
312.3839746945346
 20
-1243.512525736337
 30
0.0
 11
198.3589996945345
 21
-1243.512525736337
 31
0.0
 70
   160
 71
     5
 42
-1.0
 73
     0
 74
     0
 75
     0
  3
IGA
100
AcDbAlignedDimension
 13
92.39459069453459
 23
-1483.468980736337
 33
0.0
 14
312.3839746945346
 24
-1297.479596736337
 34
0.0
100
AcDbRotatedDimension
1001
ACAD
1000
DSTYLE
1002
{
1070
   287
1070
     3
1070
    40
1040
10.0
1070
   143
1040
0.039
1070
   172
1070
     1
1070
   271
1070
     0
1070
   279
1070
     0
1070
   288
1070
     1
1002
}
  0
DIMENSION
  5
7C3C
330
19
100
AcDbEntity
  8
3
  6
Continuous
100
AcDbDimension
280
     0
  2
*D12
 10
512.3839746945345
 20
-1243.512525736337
 30
0.0
 11
412.3839746945345
 21
-1218.512525736337
 31
0.0
 70
    32
 71
     5
 42
-1.0
 73
     0
 74
     0
 75
     0
  3
IGA
100
AcDbAlignedDimension
 13
312.3839746945346
 23
-1297.479596736337
 33
0.0
 14
512.3839746945345
 24
-1462.468980736337
 34
0.0
100
AcDbRotatedDimension
1001
ACAD
1000
DSTYLE
1002
{
1070
   287
1070
     4
1070
    40
1040
10.0
1070
    75
1070
     1
1070
   143
1040
0.039
1070
   172
1070
     1
1070
   271
1070
     0
1070
   279
1070
     1
1070
   288
1070
     1
1002
}
  0
DIMENSION
  5
7C7B
330
19
100
AcDbEntity
  8
3
  6
Continuous
100
AcDbDimension
280
     0
  2
*D13
 10
658.5571176945343
 20
-1743.468980736337
 30
0.0
 11
658.5571176945345
 21
-1652.481797428371
 31
0.0
 70
   160
 71
     5
 42
-1.0
 73
     0
 74
     0
 75
     0
  3
IGA
100
AcDbAlignedDimension
 13
512.3839746945345
 23
-1483.468980736337
 33
0.0
 14
492.3839746945345
 24
-1743.468980736337
 34
0.0
 50
90.0
100
AcDbRotatedDimension
1001
ACAD
1000
DSTYLE
1002
{
1070
   287
1070
     3
1070
    40
1040
10.0
1070
   143
1040
0.039
1070
   172
1070
     1
1070
   271
1070
     0
1070
   279
1070
     0
1070
   288
1070
     1
1002
}
  0
DIMENSION
  5
7CA4
330
19
100
AcDbEntity
  8
3
  6
Continuous
100
AcDbDimension
280
     0
  2
*D14
 10
1347.58898484729
 20
-1608.468980736337
 30
0.0
 11
1347.588984847291
 21
-1485.070296736337
 31
0.0
 70
   160
 71
     5
 42
-1.0
 73
     0
 74
     0
 75
     0
  3
IGA
100
AcDbAlignedDimension
 13
1274.396733847291
 23
-1358.468980736337
 33
0.0
 14
1274.396733847291
 24
-1608.468980736337
 34
0.0
 50
90.0
100
AcDbRotatedDimension
1001
ACAD
1000
DSTYLE
1002
{
1070
   287
1070
     3
1070
     3
1000
φ<>
1070
    40
1040
10.0
1070
   143
1040
0.039
1070
   172
1070
     1
1070
   271
1070
     0
1070
   279
1070
     0
1070
   288
1070
     1
1002
}
  0
DIMENSION
  5
7D7B
330
19
100
AcDbEntity
  8
3
100
AcDbDimension
280
     0
  2
*D15
 10
-286.7108162498317
 20
-860.7257089212989
 30
0.0
 11
-286.7108162498316
 21
-746.6837097154866
 31
0.0
 70
   160
 71
     5
 42
-1.0
 73
     0
 74
     0
 75
     0
  3
IGA
100
AcDbAlignedDimension
 13
-237.6160253054654
 23
-610.7257089212989
 33
0.0
 14
-237.6160253054654
 24
-860.7257089212991
 34
0.0
 50
90.0
100
AcDbRotatedDimension
1001
ACAD
1000
DSTYLE
1002
{
1070
   287
1070
     3
1070
    40
1040
10.0
1070
   143
1040
0.039
1070
   172
1070
     1
1070
   271
1070
     0
1070
   279
1070
     0
1070
   288
1070
     1
1002
}
  0
DIMENSION
  5
7D93
330
19
100
AcDbEntity
  8
3
100
AcDbDimension
280
     0
  2
*D16
 10
1175.396733847291
 20
-1979.051745273235
 30
0.0
 11
1235.396733847291
 21
-1979.051745273235
 31
0.0
 70
   160
 71
     5
 42
8.000000000000227
 73
     0
 74
     0
 75
     0
  3
IGA
100
AcDbAlignedDimension
 13
1167.396733847291
 23
-1898.468980736337
 33
0.0
 14
1175.396733847291
 24
-1898.468980736337
 34
0.0
100
AcDbRotatedDimension
1001
ACAD
1000
DSTYLE
1002
{
1070
   287
1070
     3
1070
    40
1040
10.0
1070
   143
1040
0.039
1070
   172
1070
     1
1070
   271
1070
     0
1070
   279
1070
     0
1070
   288
1070
     1
1002
}
  0
DIMENSION
  5
7DAA
330
19
100
AcDbEntity
  8
3
100
AcDbDimension
280
     0
  2
*D18
 10
707.2993164735107
 20
-1898.468980736337
 30
0.0
 11
682.2993164735111
 21
-1972.754695022051
 31
0.0
 70
    32
 71
     5
 42
30.0
 73
     0
 74
     0
 75
     0
  3
IGA
100
AcDbAlignedDimension
 13
532.3839746945346
 23
-1868.468980736337
 33
0.0
 14
532.3839746945346
 24
-1898.468980736337
 34
0.0
 50
90.0
100
AcDbRotatedDimension
1001
ACAD
1000
DSTYLE
1002
{
1070
   287
1070
     3
1070
    40
1040
10.0
1070
   143
1040
0.039
1070
   172
1070
     1
1070
   271
1070
     0
1070
   279
1070
     0
1070
     6
1000
DOT
1002
}
  0
DIMENSION
  5
7DB7
330
19
100
AcDbEntity
  8
3
100
AcDbDimension
280
     0
  2
*D19
 10
707.2993164735107
 20
-1798.468980736337
 30
0.0
 11
752.8168309901993
 21
-1833.468980736337
 31
0.0
 70
   160
 71
     5
 42
69.99999999999977
 73
     0
 74
     0
 75
     0
  3
IGA
100
AcDbAlignedDimension
 13
532.3839746945346
 23
-1868.468980736337
 33
0.0
 14
502.3839746945346
 24
-1798.468980736337
 34
0.0
 50
90.0
100
AcDbRotatedDimension
1001
ACAD
1000
DSTYLE
1002
{
1070
     3
1000
(<>)
1070
    40
1040
10.0
1070
   143
1040
0.039
1070
   172
1070
     1
1070
   271
1070
     0
1070
   343
1005
7D94
1002
}
  0
DIMENSION
  5
7F7E
330
19
100
AcDbEntity
  8
3
100
AcDbDimension
280
     0
  2
*D20
 10
777.0647976935761
 20
-1296.768980736337
 30
0.0
 11
744.2076548364334
 21
-1597.618980736337
 31
0.0
 70
    32
 71
     5
 42
601.6999999999998
 73
     0
 74
     0
 75
     0
  3
IGA
100
AcDbAlignedDimension
 13
532.3839746945346
 23
-1898.468980736337
 33
0.0
 14
295.3839746945346
 24
-1296.768980736337
 34
0.0
 50
90.0
100
AcDbRotatedDimension
1001
ACAD
1000
DSTYLE
1002
{
1070
     3
1000
(<>)
1070
    40
1040
10.0
1070
   143
1040
0.039
1070
   172
1070
     1
1070
   271
1070
     0
1070
   341
1005
7D94
1070
   343
1005
7D94
1002
}
  0
ENDSEC
  0
SECTION
  2
OBJECTS
  0
DICTIONARY
  5
C
330
0
100
AcDbDictionary
281
     1
  3
ACAD_CIP_PREVIOUS_PRODUCT_INFO
350
7EE9
  3
ACAD_COLOR
350
7ECC
  3
ACAD_DETAILVIEWSTYLE
350
7EE5
  3
ACAD_GROUP
350
D
  3
ACAD_LAYOUT
350
7DC1
  3
ACAD_MATERIAL
350
7E9A
  3
ACAD_MLEADERSTYLE
350
7EE1
  3
ACAD_MLINESTYLE
350
E
  3
ACAD_PLOTSETTINGS
350
7DC2
  3
ACAD_PLOTSTYLENAME
350
7DBF
  3
ACAD_SCALELIST
350
7ECF
  3
ACAD_SECTIONVIEWSTYLE
350
7EE3
  3
ACAD_TABLESTYLE
350
7ECD
  3
ACAD_VISUALSTYLE
350
7EB3
  3
ACDB_RECOMPOSE_DATA
350
7FA6
  3
AcDbVariableDictionary
350
7E92
  0
DICTIONARY
  5
7EEB
330
2
100
AcDbDictionary
280
     1
281
     1
  3
ACAD_LAYERSTATES
360
7EEC
  0
DICTIONARY
  5
7F38
330
F
100
AcDbDictionary
280
     1
281
     1
  3
ADSK_XREC_LAYER_RECONCILED
360
7F39
  0
DICTIONARY
  5
7F3A
330
31
100
AcDbDictionary
280
     1
281
     1
  3
ADSK_XREC_LAYER_RECONCILED
360
7F3B
  0
DICTIONARY
  5
7F3C
330
76D0
100
AcDbDictionary
280
     1
281
     1
  3
ADSK_XREC_LAYER_RECONCILED
360
7F3D
  0
DICTIONARY
  5
7F3E
330
76D1
100
AcDbDictionary
280
     1
281
     1
  3
ADSK_XREC_LAYER_RECONCILED
360
7F3F
  0
DICTIONARY
  5
7F40
330
76D2
100
AcDbDictionary
280
     1
281
     1
  3
ADSK_XREC_LAYER_RECONCILED
360
7F41
  0
DICTIONARY
  5
7DEE
330
19
100
AcDbDictionary
280
     1
281
     1
  3
ACAD_LAYOUTSELFREF
360
7DEF
  0
DICTIONARY
  5
7DEC
330
16
100
AcDbDictionary
280
     1
281
     1
  3
ACAD_LAYOUTSELFREF
360
7DED
  0
XRECORD
  5
7EE9
102
{ACAD_REACTORS
330
C
102
}
330
C
100
AcDbXrecord
280
     1
300
ACDLT
300
2015
300
INVLTS_F_S
  0
DICTIONARY
  5
7ECC
102
{ACAD_REACTORS
330
C
102
}
330
C
100
AcDbDictionary
281
     1
  0
DICTIONARY
  5
7EE5
102
{ACAD_REACTORS
330
C
102
}
330
C
100
AcDbDictionary
281
     1
  3
Imperial24
350
7EE6
  0
DICTIONARY
  5
D
102
{ACAD_REACTORS
330
C
102
}
330
0
100
AcDbDictionary
281
     1
  0
DICTIONARY
  5
7DC1
102
{ACAD_REACTORS
330
C
102
}
330
C
100
AcDbDictionary
281
     1
  3
Model
350
7DC3
  3
ﾚｲｱｳﾄ1
350
7DC4
  0
DICTIONARY
  5
7E9A
102
{ACAD_REACTORS
330
C
102
}
330
C
100
AcDbDictionary
281
     1
  3
ByBlock
350
7EA3
  3
ByLayer
350
7E9B
  3
Global
350
7EAB
  0
DICTIONARY
  5
7EE1
102
{ACAD_REACTORS
330
C
102
}
330
C
100
AcDbDictionary
281
     1
  3
Standard
350
7EE2
  0
DICTIONARY
  5
E
102
{ACAD_REACTORS
330
C
102
}
330
0
100
AcDbDictionary
281
     1
  3
STANDARD
350
1C
  0
DICTIONARY
  5
7DC2
102
{ACAD_REACTORS
330
C
102
}
330
C
100
AcDbDictionary
281
     1
  0
ACDBDICTIONARYWDFLT
  5
7DBF
102
{ACAD_REACTORS
330
C
102
}
330
C
100
AcDbDictionary
281
     1
  3
Normal
350
7DC0
100
AcDbDictionaryWithDefault
340
7DC0
1001
ACAD
1000
TREAT_AS_HARD
1070
     0
  0
DICTIONARY
  5
7ECF
102
{ACAD_REACTORS
330
C
102
}
330
C
100
AcDbDictionary
281
     1
  3
A0
350
7ED0
  3
A1
350
7ED1
  3
A2
350
7ED2
  3
A3
350
7ED3
  3
A4
350
7ED4
  3
A5
350
7ED5
  3
A6
350
7ED6
  3
A7
350
7ED7
  3
A8
350
7ED8
  3
A9
350
7ED9
  3
B0
350
7EDA
  3
B1
350
7EDB
  3
B2
350
7EDC
  3
B3
350
7EDD
  3
B4
350
7EDE
  3
B5
350
7EDF
  3
B6
350
7EE0
  0
DICTIONARY
  5
7EE3
102
{ACAD_REACTORS
330
C
102
}
330
C
100
AcDbDictionary
281
     1
  3
Imperial24
350
7EE4
  0
DICTIONARY
  5
7ECD
102
{ACAD_REACTORS
330
C
102
}
330
C
100
AcDbDictionary
281
     1
  3
Standard
350
7ECE
  0
DICTIONARY
  5
7EB3
102
{ACAD_REACTORS
330
C
102
}
330
C
100
AcDbDictionary
281
     1
  3
2dWireframe
350
7EB9
  3
Basic
350
7EB8
  3
Brighten
350
7EBF
  3
ColorChange
350
7EC3
  3
Conceptual
350
7EBC
  3
Dim
350
7EBE
  3
EdgeColorOff
350
7ECB
  3
Facepattern
350
7EC2
  3
Flat
350
7EB4
  3
FlatWithEdges
350
7EB5
  3
Gouraud
350
7EB6
  3
GouraudWithEdges
350
7EB7
  3
Hidden
350
7EBB
  3
JitterOff
350
7EC9
  3
Linepattern
350
7EC1
  3
OverhangOff
350
7ECA
  3
Realistic
350
7EBD
  3
Shaded
350
7EC8
  3
Shaded with edges
350
7EC7
  3
Shades of Gray
350
7EC4
  3
Sketchy
350
7EC5
  3
Thicken
350
7EC0
  3
Wireframe
350
7EBA
  3
X-Ray
350
7EC6
  0
XRECORD
  5
7FA6
102
{ACAD_REACTORS
330
C
102
}
330
C
100
AcDbXrecord
280
     1
 90
        1
330
7ECE
330
7EE4
330
7EE6
  0
DICTIONARY
  5
7E92
102
{ACAD_REACTORS
330
C
102
}
330
C
100
AcDbDictionary
281
     1
  3
CANNOSCALE
350
7F53
  3
CMLEADERSTYLE
350
7F4F
  3
CTABLESTYLE
350
7F4E
  3
CVIEWDETAILSTYLE
350
7F50
  3
CVIEWSECTIONSTYLE
350
7F51
  3
DIMASSOC
350
7E93
  3
LAYEREVAL
350
7F55
  3
LAYERNOTIFY
350
7F56
  3
LIGHTINGUNITS
350
7F54
  3
MSLTSCALE
350
7F52
  0
DICTIONARY
  5
7EEC
102
{ACAD_REACTORS
330
7EEB
102
}
330
7EEB
100
AcDbDictionary
281
     1
  0
XRECORD
  5
7F39
102
{ACAD_REACTORS
330
7F38
102
}
330
7F38
100
AcDbXrecord
280
     1
290
     1
  0
XRECORD
  5
7F3B
102
{ACAD_REACTORS
330
7F3A
102
}
330
7F3A
100
AcDbXrecord
280
     1
290
     1
  0
XRECORD
  5
7F3D
102
{ACAD_REACTORS
330
7F3C
102
}
330
7F3C
100
AcDbXrecord
280
     1
290
     1
  0
XRECORD
  5
7F3F
102
{ACAD_REACTORS
330
7F3E
102
}
330
7F3E
100
AcDbXrecord
280
     1
290
     1
  0
XRECORD
  5
7F41
102
{ACAD_REACTORS
330
7F40
102
}
330
7F40
100
AcDbXrecord
280
     1
290
     1
  0
XRECORD
  5
7DEF
102
{ACAD_REACTORS
330
7DEE
102
}
330
7DEE
100
AcDbXrecord
280
     1
340
19
  0
XRECORD
  5
7DED
102
{ACAD_REACTORS
330
7DEC
102
}
330
7DEC
100
AcDbXrecord
280
     1
340
16
  0
ACDBDETAILVIEWSTYLE
  5
7EE6
102
{ACAD_XDICTIONARY
360
7F4B
102
}
102
{ACAD_REACTORS
330
7EE5
102
}
330
7EE5
100
AcDbModelDocViewStyle
 70
     0
  3
Imperial24
290
     0
100
AcDbDetailViewStyle
 70
     0
 71
     0
 90
        3
 71
     1
340
10
 62
   256
 40
0.24
340
0
 62
   256
 40
0.24
300

 40
0.36
280
     3
 71
     2
340
15
 90
       25
 62
   256
 71
     3
340
10
 62
   256
 40
0.24
 90
        1
 40
0.75
 90
        1
300
%<\AcVar ViewType \f "%tc1">% %<\AcVar ViewDetailId>%\PSCALE %<\AcVar ViewScale \f "%sn">%
 71
     4
340
15
 90
       25
 62
   256
340
15
 90
       25
 62
   256
280
     0
  0
LAYOUT
  5
7DC3
102
{ACAD_REACTORS
330
7DC1
102
}
330
7DC1
100
AcDbPlotSettings
  1

  2
\\Txbo34x8944cqyd\EPSON LP-6100
  4

  6

 40
0.0
 41
0.0
 42
0.0
 43
0.0
 44
0.0
 45
0.0
 46
0.0
 47
0.0
 48
0.0
 49
0.0
140
0.0
141
0.0
142
1.0
143
1.0
 70
  1712
 72
     0
 73
     0
 74
     0
  7
GOD2000TABLE.ctb
 75
     0
147
1.0
 76
     0
 77
     2
 78
   300
148
0.0
149
0.0
100
AcDbLayout
  1
Model
 70
     1
 71
     0
 10
0.0
 20
0.0
 11
12.0
 21
9.0
 12
0.0
 22
0.0
 32
0.0
 14
0.0
 24
0.0
 34
0.0
 15
0.0
 25
0.0
 35
0.0
146
0.0
 13
0.0
 23
0.0
 33
0.0
 16
1.0
 26
0.0
 36
0.0
 17
0.0
 27
1.0
 37
0.0
 76
     0
330
19
331
7E98
  0
LAYOUT
  5
7DC4
102
{ACAD_REACTORS
330
7DC1
102
}
330
7DC1
100
AcDbPlotSettings
  1

  2
\\Txbo34x8944cqyd\EPSON LP-6100
  4

  6

 40
0.0
 41
0.0
 42
0.0
 43
0.0
 44
0.0
 45
0.0
 46
0.0
 47
0.0
 48
0.0
 49
0.0
140
0.0
141
0.0
142
1.0
143
1.0
 70
   688
 72
     0
 73
     0
 74
     5
  7
GOD2000TABLE.ctb
 75
    16
147
1.0
 76
     0
 77
     2
 78
   300
148
0.0
149
0.0
100
AcDbLayout
  1
ﾚｲｱｳﾄ1
 70
     1
 71
     1
 10
0.0
 20
0.0
 11
12.0
 21
9.0
 12
0.0
 22
0.0
 32
0.0
 14
1.000000000000000E+20
 24
1.000000000000000E+20
 34
1.000000000000000E+20
 15
-1.000000000000000E+20
 25
-1.000000000000000E+20
 35
-1.000000000000000E+20
146
0.0
 13
0.0
 23
0.0
 33
0.0
 16
1.0
 26
0.0
 36
0.0
 17
0.0
 27
1.0
 37
0.0
 76
     0
330
16
  0
MATERIAL
  5
7EA3
102
{ACAD_XDICTIONARY
360
7EA4
102
}
102
{ACAD_REACTORS
330
7E9A
102
}
330
7E9A
100
AcDbMaterial
  1
ByBlock
 72
     0
 43
0.0208333333333333
 43
0.0
 43
0.0
 43
0.0
 43
0.0
 43
0.0208333333333333
 43
0.0
 43
0.0
 43
0.0
 43
0.0
 43
1.0
 43
0.0
 43
0.0
 43
0.0
 43
0.0
 43
1.0
 77
     0
 47
0.0208333333333333
 47
0.0
 47
0.0
 47
0.0
 47
0.0
 47
0.0208333333333333
 47
0.0
 47
0.0
 47
0.0
 47
0.0
 47
1.0
 47
0.0
 47
0.0
 47
0.0
 47
0.0
 47
1.0
171
     0
 49
0.0208333333333333
 49
0.0
 49
0.0
 49
0.0
 49
0.0
 49
0.0208333333333333
 49
0.0
 49
0.0
 49
0.0
 49
0.0
 49
1.0
 49
0.0
 49
0.0
 49
0.0
 49
0.0
 49
1.0
175
     0
142
0.0208333333333333
142
0.0
142
0.0
142
0.0
142
0.0
142
0.0208333333333333
142
0.0
142
0.0
142
0.0
142
0.0
142
1.0
142
0.0
142
0.0
142
0.0
142
0.0
142
1.0
179
     0
144
0.0208333333333333
144
0.0
144
0.0
144
0.0
144
0.0
144
0.0208333333333333
144
0.0
144
0.0
144
0.0
144
0.0
144
1.0
144
0.0
144
0.0
144
0.0
144
0.0
144
1.0
147
0.0208333333333333
147
0.0
147
0.0
147
0.0
147
0.0
147
0.0208333333333333
147
0.0
147
0.0
147
0.0
147
0.0
147
1.0
147
0.0
147
0.0
147
0.0
147
0.0
147
1.0
  0
MATERIAL
  5
7E9B
102
{ACAD_XDICTIONARY
360
7E9C
102
}
102
{ACAD_REACTORS
330
7E9A
102
}
330
7E9A
100
AcDbMaterial
  1
ByLayer
 72
     0
 43
0.0208333333333333
 43
0.0
 43
0.0
 43
0.0
 43
0.0
 43
0.0208333333333333
 43
0.0
 43
0.0
 43
0.0
 43
0.0
 43
1.0
 43
0.0
 43
0.0
 43
0.0
 43
0.0
 43
1.0
 77
     0
 47
0.0208333333333333
 47
0.0
 47
0.0
 47
0.0
 47
0.0
 47
0.0208333333333333
 47
0.0
 47
0.0
 47
0.0
 47
0.0
 47
1.0
 47
0.0
 47
0.0
 47
0.0
 47
0.0
 47
1.0
171
     0
 49
0.0208333333333333
 49
0.0
 49
0.0
 49
0.0
 49
0.0
 49
0.0208333333333333
 49
0.0
 49
0.0
 49
0.0
 49
0.0
 49
1.0
 49
0.0
 49
0.0
 49
0.0
 49
0.0
 49
1.0
175
     0
142
0.0208333333333333
142
0.0
142
0.0
142
0.0
142
0.0
142
0.0208333333333333
142
0.0
142
0.0
142
0.0
142
0.0
142
1.0
142
0.0
142
0.0
142
0.0
142
0.0
142
1.0
179
     0
144
0.0208333333333333
144
0.0
144
0.0
144
0.0
144
0.0
144
0.0208333333333333
144
0.0
144
0.0
144
0.0
144
0.0
144
1.0
144
0.0
144
0.0
144
0.0
144
0.0
144
1.0
147
0.0208333333333333
147
0.0
147
0.0
147
0.0
147
0.0
147
0.0208333333333333
147
0.0
147
0.0
147
0.0
147
0.0
147
1.0
147
0.0
147
0.0
147
0.0
147
0.0
147
1.0
  0
MATERIAL
  5
7EAB
102
{ACAD_XDICTIONARY
360
7EAC
102
}
102
{ACAD_REACTORS
330
7E9A
102
}
330
7E9A
100
AcDbMaterial
  1
Global
 72
     0
 43
0.0208333333333333
 43
0.0
 43
0.0
 43
0.0
 43
0.0
 43
0.0208333333333333
 43
0.0
 43
0.0
 43
0.0
 43
0.0
 43
1.0
 43
0.0
 43
0.0
 43
0.0
 43
0.0
 43
1.0
 77
     0
 47
0.0208333333333333
 47
0.0
 47
0.0
 47
0.0
 47
0.0
 47
0.0208333333333333
 47
0.0
 47
0.0
 47
0.0
 47
0.0
 47
1.0
 47
0.0
 47
0.0
 47
0.0
 47
0.0
 47
1.0
171
     0
 49
0.0208333333333333
 49
0.0
 49
0.0
 49
0.0
 49
0.0
 49
0.0208333333333333
 49
0.0
 49
0.0
 49
0.0
 49
0.0
 49
1.0
 49
0.0
 49
0.0
 49
0.0
 49
0.0
 49
1.0
175
     0
142
0.0208333333333333
142
0.0
142
0.0
142
0.0
142
0.0
142
0.0208333333333333
142
0.0
142
0.0
142
0.0
142
0.0
142
1.0
142
0.0
142
0.0
142
0.0
142
0.0
142
1.0
179
     0
144
0.0208333333333333
144
0.0
144
0.0
144
0.0
144
0.0
144
0.0208333333333333
144
0.0
144
0.0
144
0.0
144
0.0
144
1.0
144
0.0
144
0.0
144
0.0
144
0.0
144
1.0
147
0.0208333333333333
147
0.0
147
0.0
147
0.0
147
0.0
147
0.0208333333333333
147
0.0
147
0.0
147
0.0
147
0.0
147
1.0
147
0.0
147
0.0
147
0.0
147
0.0
147
1.0
  0
MLEADERSTYLE
  5
7EE2
102
{ACAD_REACTORS
330
7EE1
102
}
330
7EE1
100
AcDbMLeaderStyle
179
     2
170
     2
171
     1
172
     0
 90
        2
 40
0.0
 41
0.0
173
     1
 91
-1056964608
340
13
 92
       -2
290
     1
 42
0.09
291
     1
 43
0.36
  3
Standard
 44
0.18
300

342
10
174
     1
178
     6
175
     1
176
     0
 93
-1056964608
 45
0.18
292
     0
297
     0
 46
0.18
 94
-1056964608
 47
1.0
 49
1.0
140
1.0
293
     1
141
0.0
294
     1
177
     0
142
1.0
295
     1
296
     0
143
0.125
271
     0
272
     9
273
     9
298
     1
  0
MLINESTYLE
  5
1C
102
{ACAD_REACTORS
330
E
102
}
330
0
100
AcDbMlineStyle
  2
STANDARD
 70
     0
  3

 62
     0
 51
90.0
 52
90.0
 71
     2
 49
0.5
 62
   256
  6
BYLAYER
 49
-0.5
 62
   256
  6
BYLAYER
  0
ACDBPLACEHOLDER
  5
7DC0
102
{ACAD_REACTORS
330
7DBF
102
}
330
7DBF
  0
SCALE
  5
7ED0
102
{ACAD_REACTORS
330
7ECF
102
}
330
7ECF
100
AcDbScale
 70
     0
300
1:1
140
1.0
141
1.0
290
     1
  0
SCALE
  5
7ED1
102
{ACAD_REACTORS
330
7ECF
102
}
330
7ECF
100
AcDbScale
 70
     0
300
1/128" = 1'-0"
140
0.0078125
141
12.0
290
     0
  0
SCALE
  5
7ED2
102
{ACAD_REACTORS
330
7ECF
102
}
330
7ECF
100
AcDbScale
 70
     0
300
1/64" = 1'-0"
140
0.015625
141
12.0
290
     0
  0
SCALE
  5
7ED3
102
{ACAD_REACTORS
330
7ECF
102
}
330
7ECF
100
AcDbScale
 70
     0
300
1/32" = 1'-0"
140
0.03125
141
12.0
290
     0
  0
SCALE
  5
7ED4
102
{ACAD_REACTORS
330
7ECF
102
}
330
7ECF
100
AcDbScale
 70
     0
300
1/16" = 1'-0"
140
0.0625
141
12.0
290
     0
  0
SCALE
  5
7ED5
102
{ACAD_REACTORS
330
7ECF
102
}
330
7ECF
100
AcDbScale
 70
     0
300
3/32" = 1'-0"
140
0.09375
141
12.0
290
     0
  0
SCALE
  5
7ED6
102
{ACAD_REACTORS
330
7ECF
102
}
330
7ECF
100
AcDbScale
 70
     0
300
1/8" = 1'-0"
140
0.125
141
12.0
290
     0
  0
SCALE
  5
7ED7
102
{ACAD_REACTORS
330
7ECF
102
}
330
7ECF
100
AcDbScale
 70
     0
300
3/16" = 1'-0"
140
0.1875
141
12.0
290
     0
  0
SCALE
  5
7ED8
102
{ACAD_REACTORS
330
7ECF
102
}
330
7ECF
100
AcDbScale
 70
     0
300
1/4" = 1'-0"
140
0.25
141
12.0
290
     0
  0
SCALE
  5
7ED9
102
{ACAD_REACTORS
330
7ECF
102
}
330
7ECF
100
AcDbScale
 70
     0
300
3/8" = 1'-0"
140
0.375
141
12.0
290
     0
  0
SCALE
  5
7EDA
102
{ACAD_REACTORS
330
7ECF
102
}
330
7ECF
100
AcDbScale
 70
     0
300
1/2" = 1'-0"
140
0.5
141
12.0
290
     0
  0
SCALE
  5
7EDB
102
{ACAD_REACTORS
330
7ECF
102
}
330
7ECF
100
AcDbScale
 70
     0
300
3/4" = 1'-0"
140
0.75
141
12.0
290
     0
  0
SCALE
  5
7EDC
102
{ACAD_REACTORS
330
7ECF
102
}
330
7ECF
100
AcDbScale
 70
     0
300
1" = 1'-0"
140
1.0
141
12.0
290
     0
  0
SCALE
  5
7EDD
102
{ACAD_REACTORS
330
7ECF
102
}
330
7ECF
100
AcDbScale
 70
     0
300
1-1/2" = 1'-0"
140
1.5
141
12.0
290
     0
  0
SCALE
  5
7EDE
102
{ACAD_REACTORS
330
7ECF
102
}
330
7ECF
100
AcDbScale
 70
     0
300
3" = 1'-0"
140
3.0
141
12.0
290
     0
  0
SCALE
  5
7EDF
102
{ACAD_REACTORS
330
7ECF
102
}
330
7ECF
100
AcDbScale
 70
     0
300
6" = 1'-0"
140
6.0
141
12.0
290
     0
  0
SCALE
  5
7EE0
102
{ACAD_REACTORS
330
7ECF
102
}
330
7ECF
100
AcDbScale
 70
     0
300
1'-0" = 1'-0"
140
12.0
141
12.0
290
     0
  0
ACDBSECTIONVIEWSTYLE
  5
7EE4
102
{ACAD_XDICTIONARY
360
7F49
102
}
102
{ACAD_REACTORS
330
7EE3
102
}
330
7EE3
100
AcDbModelDocViewStyle
 70
     0
  3
Imperial24
290
     0
100
AcDbSectionViewStyle
 70
     0
 71
     0
 90
       78
 71
     1
340
10
 62
   256
 40
0.24
340
0
340
0
 62
   256
 40
0.24
300
I, O, Q, S, X, Z
 40
0.48
 90
        3
 40
0.18
 90
        1
 71
     2
340
15
 90
       25
 62
   256
340
15
 90
       50
 62
   256
 40
0.24
 40
0.0
 40
0.24
 71
     3
340
10
 62
   256
 40
0.24
 90
        1
 40
0.75
 90
        1
300
%<\AcVar ViewType \f "%tc1">% %<\AcVar ViewSectionStartId>%-%<\AcVar ViewSectionEndId>%\PSCALE %<\AcVar ViewScale \f "%sn">%
 71
     4
 62
   256
 62
   257
300
ANSI31
 40
1.0
 90
        0
290
     0
290
     0
 90
        6
 40
0.0
 40
1.570796326794896
 40
0.2617993877991494
 40
1.308996938995747
 40
-0.2617993877991494
 40
1.832595714594046
  0
TABLESTYLE
  5
7ECE
102
{ACAD_XDICTIONARY
360
7FA2
102
}
102
{ACAD_REACTORS
330
7ECD
102
}
330
7ECD
100
AcDbTableStyle
280
     0
  3
Standard
 70
     0
 71
     0
 40
0.06
 41
0.06
280
     0
281
     0
  7
STANDARD
140
0.18
170
     2
 62
     0
 63
     7
283
     0
 90
      512
 91
        0
  1

274
    -2
284
     1
 64
     0
275
    -2
285
     1
 65
     0
276
    -2
286
     1
 66
     0
277
    -2
287
     1
 67
     0
278
    -2
288
     1
 68
     0
279
    -2
289
     1
 69
     0
  7
STANDARD
140
0.25
170
     5
 62
     0
 63
     7
283
     0
 90
      512
 91
        0
  1

274
    -2
284
     1
 64
     0
275
    -2
285
     1
 65
     0
276
    -2
286
     1
 66
     0
277
    -2
287
     1
 67
     0
278
    -2
288
     1
 68
     0
279
    -2
289
     1
 69
     0
  7
STANDARD
140
0.18
170
     5
 62
     0
 63
     7
283
     0
 90
      512
 91
        0
  1

274
    -2
284
     1
 64
     0
275
    -2
285
     1
 65
     0
276
    -2
286
     1
 66
     0
277
    -2
287
     1
 67
     0
278
    -2
288
     1
 68
     0
279
    -2
289
     1
 69
     0
  0
VISUALSTYLE
  5
7EB9
102
{ACAD_REACTORS
330
7EB3
102
}
330
7EB3
100
AcDbVisualStyle
  2
2dWireframe
 70
     4
177
     3
291
     0
 70
    58
 90
        0
176
     1
 90
        2
176
     1
 90
        0
176
     1
 90
        0
176
     1
 40
0.6
176
     1
 40
30.0
176
     1
 62
     7
420
 16777215
176
     1
 90
        1
176
     1
 90
        4
176
     1
 62
     7
176
     1
 62
   257
176
     1
 90
        1
176
     1
 90
        1
176
     1
 40
1.0
176
     1
 90
        0
176
     1
 62
   257
176
     1
 40
1.0
176
     1
 90
        1
176
     1
 90
        6
176
     1
 90
        2
176
     1
 62
     7
176
     1
 90
        5
176
     1
 90
        0
176
     1
 90
        0
176
     1
290
     0
176
     1
 90
        1
176
     1
 40
0.0
176
     1
 90
        0
176
     1
290
     1
176
     1
290
     1
176
     1
290
     0
176
     1
290
     0
176
     1
290
     0
176
     1
290
     0
176
     1
290
     0
176
     1
290
     0
176
     1
290
     0
176
     1
 90
       50
176
     1
 40
0.0
176
     1
 40
1.0
176
     1
 90
        0
176
     1
 62
    18
420
        0
176
     1
 90
       50
176
     1
 90
        3
176
     1
 62
     5
420
      255
176
     1
290
     0
176
     1
 90
       50
176
     1
 90
       50
176
     1
 90
       50
176
     1
290
     0
176
     1
 90
       50
176
     1
 62
   256
176
     0
 40
1.0
176
     0
 90
        2
176
     1
  1
strokes_ogs.tif
176
     1
290
     0
176
     1
 40
1.0
176
     1
 40
1.0
176
     1
  0
VISUALSTYLE
  5
7EB8
102
{ACAD_REACTORS
330
7EB3
102
}
330
7EB3
100
AcDbVisualStyle
  2
Basic
 70
     7
177
     3
291
     1
 70
    58
 90
        1
176
     1
 90
        0
176
     1
 90
        1
176
     1
 90
        0
176
     1
 40
0.6
176
     1
 40
30.0
176
     1
 62
     7
420
 16777215
176
     1
 90
        0
176
     1
 90
        4
176
     1
 62
     7
176
     1
 62
   257
176
     1
 90
        1
176
     1
 90
        1
176
     1
 40
1.0
176
     1
 90
        8
176
     1
 62
     7
176
     1
 40
1.0
176
     1
 90
        1
176
     1
 90
        6
176
     1
 90
        2
176
     1
 62
     7
176
     1
 90
        5
176
     1
 90
        0
176
     1
 90
        0
176
     1
290
     0
176
     1
 90
        1
176
     1
 40
0.0
176
     1
 90
        0
176
     1
290
     0
176
     1
290
     1
176
     1
290
     1
176
     1
290
     0
176
     1
290
     0
176
     1
290
     0
176
     1
290
     0
176
     1
290
     0
176
     1
290
     0
176
     1
 90
       50
176
     1
 40
0.0
176
     1
 40
1.0
176
     1
 90
        0
176
     1
 62
    18
420
        0
176
     1
 90
       50
176
     1
 90
        3
176
     1
 62
     5
420
      255
176
     1
290
     0
176
     1
 90
       50
176
     1
 90
       50
176
     1
 90
       50
176
     1
290
     0
176
     1
 90
       50
176
     1
 62
   256
176
     0
 40
1.0
176
     0
 90
        2
176
     1
  1
strokes_ogs.tif
176
     1
290
     0
176
     1
 40
1.0
176
     1
 40
1.0
176
     1
  0
VISUALSTYLE
  5
7EBF
102
{ACAD_REACTORS
330
7EB3
102
}
330
7EB3
100
AcDbVisualStyle
  2
Brighten
 70
    12
177
     3
291
     1
 70
    58
 90
        2
176
     1
 90
        2
176
     1
 90
        0
176
     1
 90
        0
176
     1
 40
0.6
176
     1
 40
30.0
176
     1
 62
     7
420
 16777215
176
     1
 90
        1
176
     1
 90
        4
176
     1
 62
     7
176
     1
 62
   257
176
     1
 90
        1
176
     1
 90
        1
176
     1
 40
1.0
176
     1
 90
        8
176
     1
 62
     7
176
     1
 40
1.0
176
     1
 90
        1
176
     1
 90
        6
176
     1
 90
        2
176
     1
 62
     7
176
     1
 90
        5
176
     1
 90
        0
176
     1
 90
        0
176
     1
290
     0
176
     1
 90
        1
176
     1
 40
50.0
176
     1
 90
        0
176
     1
290
     0
176
     1
290
     1
176
     1
290
     1
176
     1
290
     0
176
     1
290
     0
176
     1
290
     0
176
     1
290
     0
176
     1
290
     0
176
     1
290
     0
176
     1
 90
       50
176
     1
 40
0.0
176
     1
 40
1.0
176
     1
 90
        0
176
     1
 62
    18
420
        0
176
     1
 90
       50
176
     1
 90
        3
176
     1
 62
     5
420
      255
176
     1
290
     0
176
     1
 90
       50
176
     1
 90
       50
176
     1
 90
       50
176
     1
290
     0
176
     1
 90
       50
176
     1
 62
   256
176
     0
 40
1.0
176
     0
 90
        2
176
     1
  1
strokes_ogs.tif
176
     1
290
     0
176
     1
 40
1.0
176
     1
 40
1.0
176
     1
  0
VISUALSTYLE
  5
7EC3
102
{ACAD_REACTORS
330
7EB3
102
}
330
7EB3
100
AcDbVisualStyle
  2
ColorChange
 70
    16
177
     3
291
     1
 70
    58
 90
        2
176
     1
 90
        2
176
     1
 90
        3
176
     1
 90
        0
176
     1
 40
0.6
176
     1
 40
30.0
176
     1
 62
     8
420
  8421504
176
     1
 90
        1
176
     1
 90
        4
176
     1
 62
     7
176
     1
 62
   257
176
     1
 90
        1
176
     1
 90
        1
176
     1
 40
1.0
176
     1
 90
        8
176
     1
 62
     8
420
  8421504
176
     1
 40
1.0
176
     1
 90
        1
176
     1
 90
        6
176
     1
 90
        2
176
     1
 62
     7
176
     1
 90
        5
176
     1
 90
        0
176
     1
 90
        0
176
     1
290
     0
176
     1
 90
        1
176
     1
 40
0.0
176
     1
 90
        0
176
     1
290
     0
176
     1
290
     1
176
     1
290
     1
176
     1
290
     0
176
     1
290
     0
176
     1
290
     0
176
     1
290
     0
176
     1
290
     0
176
     1
290
     0
176
     1
 90
       50
176
     1
 40
0.0
176
     1
 40
1.0
176
     1
 90
        0
176
     1
 62
    18
420
        0
176
     1
 90
       50
176
     1
 90
        3
176
     1
 62
     5
420
      255
176
     1
290
     0
176
     1
 90
       50
176
     1
 90
       50
176
     1
 90
       50
176
     1
290
     0
176
     1
 90
       50
176
     1
 62
   256
176
     0
 40
1.0
176
     0
 90
        2
176
     1
  1
strokes_ogs.tif
176
     1
290
     0
176
     1
 40
1.0
176
     1
 40
1.0
176
     1
  0
VISUALSTYLE
  5
7EBC
102
{ACAD_REACTORS
330
7EB3
102
}
330
7EB3
100
AcDbVisualStyle
  2
Conceptual
 70
     9
177
     3
291
     0
 70
    58
 90
        3
176
     1
 90
        2
176
     1
 90
        0
176
     1
 90
        0
176
     1
 40
0.6
176
     1
 40
30.0
176
     1
 62
     7
420
 16777215
176
     1
 90
        2
176
     1
 90
        2
176
     1
 62
     7
176
     1
 62
   257
176
     1
 90
        1
176
     1
 90
        1
176
     1
 40
179.0
176
     1
 90
        8
176
     1
 62
     7
176
     1
 40
1.0
176
     1
 90
        1
176
     1
 90
        6
176
     1
 90
        2
176
     1
 62
     7
176
     1
 90
        3
176
     1
 90
        0
176
     1
 90
        0
176
     1
290
     0
176
     1
 90
        1
176
     1
 40
0.0
176
     1
 90
        0
176
     1
290
     0
176
     1
290
     1
176
     1
290
     1
176
     1
290
     0
176
     1
290
     0
176
     1
290
     0
176
     1
290
     0
176
     1
290
     0
176
     1
290
     0
176
     1
 90
       50
176
     1
 40
0.0
176
     1
 40
1.0
176
     1
 90
        0
176
     1
 62
    18
420
        0
176
     1
 90
       50
176
     1
 90
        3
176
     1
 62
     5
420
      255
176
     1
290
     0
176
     1
 90
       50
176
     1
 90
       50
176
     1
 90
       50
176
     1
290
     0
176
     1
 90
       50
176
     1
 62
   256
176
     0
 40
1.0
176
     0
 90
        2
176
     1
  1
strokes_ogs.tif
176
     1
290
     0
176
     1
 40
1.0
176
     1
 40
1.0
176
     1
  0
VISUALSTYLE
  5
7EBE
102
{ACAD_REACTORS
330
7EB3
102
}
330
7EB3
100
AcDbVisualStyle
  2
Dim
 70
    11
177
     3
291
     1
 70
    58
 90
        2
176
     1
 90
        2
176
     1
 90
        0
176
     1
 90
        0
176
     1
 40
0.6
176
     1
 40
30.0
176
     1
 62
     7
420
 16777215
176
     1
 90
        1
176
     1
 90
        4
176
     1
 62
     7
176
     1
 62
   257
176
     1
 90
        1
176
     1
 90
        1
176
     1
 40
1.0
176
     1
 90
        8
176
     1
 62
     7
176
     1
 40
1.0
176
     1
 90
        1
176
     1
 90
        6
176
     1
 90
        2
176
     1
 62
     7
176
     1
 90
        5
176
     1
 90
        0
176
     1
 90
        0
176
     1
290
     0
176
     1
 90
        1
176
     1
 40
-50.0
176
     1
 90
        0
176
     1
290
     0
176
     1
290
     1
176
     1
290
     1
176
     1
290
     0
176
     1
290
     0
176
     1
290
     0
176
     1
290
     0
176
     1
290
     0
176
     1
290
     0
176
     1
 90
       50
176
     1
 40
0.0
176
     1
 40
1.0
176
     1
 90
        0
176
     1
 62
    18
420
        0
176
     1
 90
       50
176
     1
 90
        3
176
     1
 62
     5
420
      255
176
     1
290
     0
176
     1
 90
       50
176
     1
 90
       50
176
     1
 90
       50
176
     1
290
     0
176
     1
 90
       50
176
     1
 62
   256
176
     0
 40
1.0
176
     0
 90
        2
176
     1
  1
strokes_ogs.tif
176
     1
290
     0
176
     1
 40
1.0
176
     1
 40
1.0
176
     1
  0
VISUALSTYLE
  5
7ECB
102
{ACAD_REACTORS
330
7EB3
102
}
330
7EB3
100
AcDbVisualStyle
  2
EdgeColorOff
 70
    22
177
     3
291
     1
 70
    58
 90
        2
176
     0
 90
        2
176
     0
 90
        0
176
     0
 90
        0
176
     0
 40
0.6
176
     0
 40
30.0
176
     0
 62
     7
420
 16777215
176
     0
 90
        1
176
     0
 90
        4
176
     0
 62
     7
176
     0
 62
   257
176
     0
 90
        1
176
     0
 90
        1
176
     0
 40
1.0
176
     0
 90
        8
176
     2
 62
     7
176
     0
 40
1.0
176
     0
 90
        1
176
     0
 90
        6
176
     0
 90
        2
176
     0
 62
     7
176
     0
 90
        5
176
     0
 90
        0
176
     0
 90
        0
176
     0
290
     0
176
     0
 90
        1
176
     0
 40
0.0
176
     0
 90
        0
176
     0
290
     0
176
     0
290
     1
176
     0
290
     1
176
     0
290
     0
176
     0
290
     0
176
     0
290
     0
176
     0
290
     0
176
     0
290
     0
176
     0
290
     0
176
     0
 90
       50
176
     0
 40
0.0
176
     0
 40
1.0
176
     0
 90
        0
176
     0
 62
    18
420
        0
176
     0
 90
       50
176
     0
 90
        3
176
     0
 62
     5
420
      255
176
     0
290
     0
176
     0
 90
       50
176
     0
 90
       50
176
     0
 90
       50
176
     0
290
     0
176
     0
 90
       50
176
     0
 62
   256
176
     0
 40
1.0
176
     0
 90
        2
176
     0
  1
strokes_ogs.tif
176
     0
290
     0
176
     0
 40
1.0
176
     0
 40
1.0
176
     0
  0
VISUALSTYLE
  5
7EC2
102
{ACAD_REACTORS
330
7EB3
102
}
330
7EB3
100
AcDbVisualStyle
  2
Facepattern
 70
    15
177
     3
291
     1
 70
    58
 90
        2
176
     1
 90
        2
176
     1
 90
        0
176
     1
 90
        0
176
     1
 40
0.6
176
     1
 40
30.0
176
     1
 62
     7
420
 16777215
176
     1
 90
        1
176
     1
 90
        4
176
     1
 62
     7
176
     1
 62
   257
176
     1
 90
        1
176
     1
 90
        1
176
     1
 40
1.0
176
     1
 90
        8
176
     1
 62
     7
176
     1
 40
1.0
176
     1
 90
        1
176
     1
 90
        6
176
     1
 90
        2
176
     1
 62
     7
176
     1
 90
        5
176
     1
 90
        0
176
     1
 90
        0
176
     1
290
     0
176
     1
 90
        1
176
     1
 40
0.0
176
     1
 90
        0
176
     1
290
     0
176
     1
290
     1
176
     1
290
     1
176
     1
290
     0
176
     1
290
     0
176
     1
290
     0
176
     1
290
     0
176
     1
290
     0
176
     1
290
     0
176
     1
 90
       50
176
     1
 40
0.0
176
     1
 40
1.0
176
     1
 90
        0
176
     1
 62
    18
420
        0
176
     1
 90
       50
176
     1
 90
        3
176
     1
 62
     5
420
      255
176
     1
290
     0
176
     1
 90
       50
176
     1
 90
       50
176
     1
 90
       50
176
     1
290
     0
176
     1
 90
       50
176
     1
 62
   256
176
     0
 40
1.0
176
     0
 90
        2
176
     1
  1
strokes_ogs.tif
176
     1
290
     0
176
     1
 40
1.0
176
     1
 40
1.0
176
     1
  0
VISUALSTYLE
  5
7EB4
102
{ACAD_REACTORS
330
7EB3
102
}
330
7EB3
100
AcDbVisualStyle
  2
Flat
 70
     0
177
     3
291
     1
 70
    58
 90
        2
176
     1
 90
        1
176
     1
 90
        1
176
     1
 90
        2
176
     1
 40
0.6
176
     1
 40
30.0
176
     1
 62
     7
420
 16777215
176
     1
 90
        0
176
     1
 90
        0
176
     1
 62
     7
176
     1
 62
   257
176
     1
 90
        1
176
     1
 90
        1
176
     1
 40
1.0
176
     1
 90
        8
176
     1
 62
     7
176
     1
 40
1.0
176
     1
 90
        1
176
     1
 90
        6
176
     1
 90
        2
176
     1
 62
     7
176
     1
 90
        5
176
     1
 90
        0
176
     1
 90
        0
176
     1
290
     0
176
     1
 90
       13
176
     1
 40
0.0
176
     1
 90
        0
176
     1
290
     0
176
     1
290
     1
176
     1
290
     1
176
     1
290
     0
176
     1
290
     0
176
     1
290
     0
176
     1
290
     0
176
     1
290
     0
176
     1
290
     0
176
     1
 90
       50
176
     1
 40
0.0
176
     1
 40
1.0
176
     1
 90
        0
176
     1
 62
    18
420
        0
176
     1
 90
       50
176
     1
 90
        3
176
     1
 62
     5
420
      255
176
     1
290
     0
176
     1
 90
       50
176
     1
 90
       50
176
     1
 90
       50
176
     1
290
     0
176
     1
 90
       50
176
     1
 62
   256
176
     0
 40
1.0
176
     0
 90
        2
176
     1
  1
strokes_ogs.tif
176
     1
290
     0
176
     1
 40
1.0
176
     1
 40
1.0
176
     1
  0
VISUALSTYLE
  5
7EB5
102
{ACAD_REACTORS
330
7EB3
102
}
330
7EB3
100
AcDbVisualStyle
  2
FlatWithEdges
 70
     1
177
     3
291
     1
 70
    58
 90
        2
176
     1
 90
        1
176
     1
 90
        1
176
     1
 90
        2
176
     1
 40
0.6
176
     1
 40
30.0
176
     1
 62
     7
420
 16777215
176
     1
 90
        1
176
     1
 90
        0
176
     1
 62
     7
176
     1
 62
   257
176
     1
 90
        1
176
     1
 90
        1
176
     1
 40
1.0
176
     1
 90
        0
176
     1
 62
   257
176
     1
 40
1.0
176
     1
 90
        1
176
     1
 90
        6
176
     1
 90
        2
176
     1
 62
     7
176
     1
 90
        5
176
     1
 90
        0
176
     1
 90
        0
176
     1
290
     0
176
     1
 90
       13
176
     1
 40
0.0
176
     1
 90
        0
176
     1
290
     0
176
     1
290
     1
176
     1
290
     1
176
     1
290
     0
176
     1
290
     0
176
     1
290
     0
176
     1
290
     0
176
     1
290
     0
176
     1
290
     0
176
     1
 90
       50
176
     1
 40
0.0
176
     1
 40
1.0
176
     1
 90
        0
176
     1
 62
    18
420
        0
176
     1
 90
       50
176
     1
 90
        3
176
     1
 62
     5
420
      255
176
     1
290
     0
176
     1
 90
       50
176
     1
 90
       50
176
     1
 90
       50
176
     1
290
     0
176
     1
 90
       50
176
     1
 62
   256
176
     0
 40
1.0
176
     0
 90
        2
176
     1
  1
strokes_ogs.tif
176
     1
290
     0
176
     1
 40
1.0
176
     1
 40
1.0
176
     1
  0
VISUALSTYLE
  5
7EB6
102
{ACAD_REACTORS
330
7EB3
102
}
330
7EB3
100
AcDbVisualStyle
  2
Gouraud
 70
     2
177
     3
291
     1
 70
    58
 90
        2
176
     1
 90
        2
176
     1
 90
        1
176
     1
 90
        2
176
     1
 40
0.6
176
     1
 40
30.0
176
     1
 62
     7
420
 16777215
176
     1
 90
        0
176
     1
 90
        0
176
     1
 62
     7
176
     1
 62
   257
176
     1
 90
        1
176
     1
 90
        1
176
     1
 40
1.0
176
     1
 90
        0
176
     1
 62
     7
176
     1
 40
1.0
176
     1
 90
        1
176
     1
 90
        6
176
     1
 90
        2
176
     1
 62
     7
176
     1
 90
        5
176
     1
 90
        0
176
     1
 90
        0
176
     1
290
     0
176
     1
 90
       13
176
     1
 40
0.0
176
     1
 90
        0
176
     1
290
     0
176
     1
290
     1
176
     1
290
     1
176
     1
290
     0
176
     1
290
     0
176
     1
290
     0
176
     1
290
     0
176
     1
290
     0
176
     1
290
     0
176
     1
 90
       50
176
     1
 40
0.0
176
     1
 40
1.0
176
     1
 90
        0
176
     1
 62
    18
420
        0
176
     1
 90
       50
176
     1
 90
        3
176
     1
 62
     5
420
      255
176
     1
290
     0
176
     1
 90
       50
176
     1
 90
       50
176
     1
 90
       50
176
     1
290
     0
176
     1
 90
       50
176
     1
 62
   256
176
     0
 40
1.0
176
     0
 90
        2
176
     1
  1
strokes_ogs.tif
176
     1
290
     0
176
     1
 40
1.0
176
     1
 40
1.0
176
     1
  0
VISUALSTYLE
  5
7EB7
102
{ACAD_REACTORS
330
7EB3
102
}
330
7EB3
100
AcDbVisualStyle
  2
GouraudWithEdges
 70
     3
177
     3
291
     1
 70
    58
 90
        2
176
     1
 90
        2
176
     1
 90
        1
176
     1
 90
        2
176
     1
 40
0.6
176
     1
 40
30.0
176
     1
 62
     7
420
 16777215
176
     1
 90
        1
176
     1
 90
        0
176
     1
 62
     7
176
     1
 62
   257
176
     1
 90
        1
176
     1
 90
        1
176
     1
 40
1.0
176
     1
 90
        0
176
     1
 62
   257
176
     1
 40
1.0
176
     1
 90
        1
176
     1
 90
        6
176
     1
 90
        2
176
     1
 62
     7
176
     1
 90
        5
176
     1
 90
        0
176
     1
 90
        0
176
     1
290
     0
176
     1
 90
       13
176
     1
 40
0.0
176
     1
 90
        0
176
     1
290
     0
176
     1
290
     1
176
     1
290
     1
176
     1
290
     0
176
     1
290
     0
176
     1
290
     0
176
     1
290
     0
176
     1
290
     0
176
     1
290
     0
176
     1
 90
       50
176
     1
 40
0.0
176
     1
 40
1.0
176
     1
 90
        0
176
     1
 62
    18
420
        0
176
     1
 90
       50
176
     1
 90
        3
176
     1
 62
     5
420
      255
176
     1
290
     0
176
     1
 90
       50
176
     1
 90
       50
176
     1
 90
       50
176
     1
290
     0
176
     1
 90
       50
176
     1
 62
   256
176
     0
 40
1.0
176
     0
 90
        2
176
     1
  1
strokes_ogs.tif
176
     1
290
     0
176
     1
 40
1.0
176
     1
 40
1.0
176
     1
  0
VISUALSTYLE
  5
7EBB
102
{ACAD_REACTORS
330
7EB3
102
}
330
7EB3
100
AcDbVisualStyle
  2
Hidden
 70
     6
177
     3
291
     0
 70
    58
 90
        1
176
     1
 90
        2
176
     1
 90
        2
176
     1
 90
        0
176
     1
 40
0.6
176
     1
 40
30.0
176
     1
 62
     7
420
 16777215
176
     1
 90
        2
176
     1
 90
        2
176
     1
 62
     7
176
     1
 62
   257
176
     1
 90
        2
176
     1
 90
        1
176
     1
 40
40.0
176
     1
 90
        0
176
     1
 62
   257
176
     1
 40
1.0
176
     1
 90
        1
176
     1
 90
        6
176
     1
 90
        2
176
     1
 62
     7
176
     1
 90
        3
176
     1
 90
        0
176
     1
 90
        0
176
     1
290
     0
176
     1
 90
        1
176
     1
 40
0.0
176
     1
 90
        0
176
     1
290
     0
176
     1
290
     1
176
     1
290
     1
176
     1
290
     0
176
     1
290
     0
176
     1
290
     0
176
     1
290
     0
176
     1
290
     0
176
     1
290
     0
176
     1
 90
       50
176
     1
 40
0.0
176
     1
 40
1.0
176
     1
 90
        0
176
     1
 62
    18
420
        0
176
     1
 90
       50
176
     1
 90
        3
176
     1
 62
     5
420
      255
176
     1
290
     0
176
     1
 90
       50
176
     1
 90
       50
176
     1
 90
       50
176
     1
290
     0
176
     1
 90
       50
176
     1
 62
   256
176
     0
 40
1.0
176
     0
 90
        2
176
     1
  1
strokes_ogs.tif
176
     1
290
     0
176
     1
 40
1.0
176
     1
 40
1.0
176
     1
  0
VISUALSTYLE
  5
7EC9
102
{ACAD_REACTORS
330
7EB3
102
}
330
7EB3
100
AcDbVisualStyle
  2
JitterOff
 70
    20
177
     3
291
     1
 70
    58
 90
        2
176
     0
 90
        2
176
     0
 90
        0
176
     0
 90
        0
176
     0
 40
0.6
176
     0
 40
30.0
176
     0
 62
     7
420
 16777215
176
     0
 90
        1
176
     0
 90
        4
176
     0
 62
     7
176
     0
 62
   257
176
     0
 90
        1
176
     0
 90
        1
176
     0
 40
1.0
176
     0
 90
       10
176
     2
 62
     7
176
     0
 40
1.0
176
     0
 90
        1
176
     0
 90
        6
176
     0
 90
        2
176
     0
 62
     7
176
     0
 90
        5
176
     0
 90
        0
176
     0
 90
        0
176
     0
290
     0
176
     0
 90
        1
176
     0
 40
0.0
176
     0
 90
        0
176
     0
290
     0
176
     0
290
     1
176
     0
290
     1
176
     0
290
     0
176
     0
290
     0
176
     0
290
     0
176
     0
290
     0
176
     0
290
     0
176
     0
290
     0
176
     0
 90
       50
176
     0
 40
0.0
176
     0
 40
1.0
176
     0
 90
        0
176
     0
 62
    18
420
        0
176
     0
 90
       50
176
     0
 90
        3
176
     0
 62
     5
420
      255
176
     0
290
     0
176
     0
 90
       50
176
     0
 90
       50
176
     0
 90
       50
176
     0
290
     0
176
     0
 90
       50
176
     0
 62
   256
176
     0
 40
1.0
176
     0
 90
        2
176
     0
  1
strokes_ogs.tif
176
     0
290
     0
176
     0
 40
1.0
176
     0
 40
1.0
176
     0
  0
VISUALSTYLE
  5
7EC1
102
{ACAD_REACTORS
330
7EB3
102
}
330
7EB3
100
AcDbVisualStyle
  2
Linepattern
 70
    14
177
     3
291
     1
 70
    58
 90
        2
176
     1
 90
        2
176
     1
 90
        0
176
     1
 90
        0
176
     1
 40
0.6
176
     1
 40
30.0
176
     1
 62
     7
420
 16777215
176
     1
 90
        1
176
     1
 90
        4
176
     1
 62
     7
176
     1
 62
   257
176
     1
 90
        7
176
     1
 90
        7
176
     1
 40
1.0
176
     1
 90
        8
176
     1
 62
     7
176
     1
 40
1.0
176
     1
 90
        1
176
     1
 90
        6
176
     1
 90
        2
176
     1
 62
     7
176
     1
 90
        5
176
     1
 90
        0
176
     1
 90
        0
176
     1
290
     0
176
     1
 90
        1
176
     1
 40
0.0
176
     1
 90
        0
176
     1
290
     0
176
     1
290
     1
176
     1
290
     1
176
     1
290
     0
176
     1
290
     0
176
     1
290
     0
176
     1
290
     0
176
     1
290
     0
176
     1
290
     0
176
     1
 90
       50
176
     1
 40
0.0
176
     1
 40
1.0
176
     1
 90
        0
176
     1
 62
    18
420
        0
176
     1
 90
       50
176
     1
 90
        3
176
     1
 62
     5
420
      255
176
     1
290
     0
176
     1
 90
       50
176
     1
 90
       50
176
     1
 90
       50
176
     1
290
     0
176
     1
 90
       50
176
     1
 62
   256
176
     0
 40
1.0
176
     0
 90
        2
176
     1
  1
strokes_ogs.tif
176
     1
290
     0
176
     1
 40
1.0
176
     1
 40
1.0
176
     1
  0
VISUALSTYLE
  5
7ECA
102
{ACAD_REACTORS
330
7EB3
102
}
330
7EB3
100
AcDbVisualStyle
  2
OverhangOff
 70
    21
177
     3
291
     1
 70
    58
 90
        2
176
     0
 90
        2
176
     0
 90
        0
176
     0
 90
        0
176
     0
 40
0.6
176
     0
 40
30.0
176
     0
 62
     7
420
 16777215
176
     0
 90
        1
176
     0
 90
        4
176
     0
 62
     7
176
     0
 62
   257
176
     0
 90
        1
176
     0
 90
        1
176
     0
 40
1.0
176
     0
 90
        9
176
     2
 62
     7
176
     0
 40
1.0
176
     0
 90
        1
176
     0
 90
        6
176
     0
 90
        2
176
     0
 62
     7
176
     0
 90
        5
176
     0
 90
        0
176
     0
 90
        0
176
     0
290
     0
176
     0
 90
        1
176
     0
 40
0.0
176
     0
 90
        0
176
     0
290
     0
176
     0
290
     1
176
     0
290
     1
176
     0
290
     0
176
     0
290
     0
176
     0
290
     0
176
     0
290
     0
176
     0
290
     0
176
     0
290
     0
176
     0
 90
       50
176
     0
 40
0.0
176
     0
 40
1.0
176
     0
 90
        0
176
     0
 62
    18
420
        0
176
     0
 90
       50
176
     0
 90
        3
176
     0
 62
     5
420
      255
176
     0
290
     0
176
     0
 90
       50
176
     0
 90
       50
176
     0
 90
       50
176
     0
290
     0
176
     0
 90
       50
176
     0
 62
   256
176
     0
 40
1.0
176
     0
 90
        2
176
     0
  1
strokes_ogs.tif
176
     0
290
     0
176
     0
 40
1.0
176
     0
 40
1.0
176
     0
  0
VISUALSTYLE
  5
7EBD
102
{ACAD_REACTORS
330
7EB3
102
}
330
7EB3
100
AcDbVisualStyle
  2
Realistic
 70
     8
177
     3
291
     0
 70
    58
 90
        2
176
     1
 90
        3
176
     1
 90
        0
176
     1
 90
        2
176
     1
 40
0.6
176
     1
 40
30.0
176
     1
 62
     7
420
 16777215
176
     1
 90
        0
176
     1
 90
        0
176
     1
 62
     7
176
     1
 62
   257
176
     1
 90
        1
176
     1
 90
        1
176
     1
 40
1.0
176
     1
 90
        8
176
     1
 62
   257
176
     1
 40
1.0
176
     1
 90
        1
176
     1
 90
        6
176
     1
 90
        2
176
     1
 62
     7
176
     1
 90
        3
176
     1
 90
        0
176
     1
 90
        0
176
     1
290
     0
176
     1
 90
       13
176
     1
 40
0.0
176
     1
 90
        0
176
     1
290
     0
176
     1
290
     1
176
     1
290
     1
176
     1
290
     0
176
     1
290
     0
176
     1
290
     0
176
     1
290
     0
176
     1
290
     0
176
     1
290
     0
176
     1
 90
       50
176
     1
 40
0.0
176
     1
 40
1.0
176
     1
 90
        0
176
     1
 62
    18
420
        0
176
     1
 90
       50
176
     1
 90
        3
176
     1
 62
     5
420
      255
176
     1
290
     0
176
     1
 90
       50
176
     1
 90
       50
176
     1
 90
       50
176
     1
290
     0
176
     1
 90
       50
176
     1
 62
   256
176
     0
 40
1.0
176
     0
 90
        2
176
     1
  1
strokes_ogs.tif
176
     1
290
     0
176
     1
 40
1.0
176
     1
 40
1.0
176
     1
  0
VISUALSTYLE
  5
7EC8
102
{ACAD_REACTORS
330
7EB3
102
}
330
7EB3
100
AcDbVisualStyle
  2
Shaded
 70
    27
177
     3
291
     0
 70
    58
 90
        2
176
     1
 90
        2
176
     1
 90
        1
176
     1
 90
        2
176
     1
 40
0.6
176
     1
 40
30.0
176
     1
 62
     7
420
 16777215
176
     1
 90
        0
176
     1
 90
        4
176
     1
 62
     7
176
     1
 62
   257
176
     1
 90
        1
176
     1
 90
        1
176
     1
 40
1.0
176
     1
 90
        8
176
     1
 62
   257
176
     1
 40
1.0
176
     1
 90
        1
176
     1
 90
        6
176
     1
 90
        2
176
     1
 62
     8
420
  7895160
176
     1
 90
        3
176
     1
 90
        0
176
     1
 90
        0
176
     1
290
     0
176
     1
 90
        5
176
     1
 40
0.0
176
     1
 90
        0
176
     1
290
     0
176
     1
290
     1
176
     1
290
     1
176
     1
290
     0
176
     1
290
     0
176
     1
290
     0
176
     1
290
     0
176
     1
290
     0
176
     1
290
     0
176
     1
 90
       50
176
     1
 40
0.0
176
     1
 40
1.0
176
     1
 90
        0
176
     1
 62
    18
420
        0
176
     1
 90
       50
176
     1
 90
        3
176
     1
 62
     5
420
      255
176
     1
290
     0
176
     1
 90
       50
176
     1
 90
       50
176
     1
 90
       50
176
     1
290
     0
176
     1
 90
       50
176
     1
 62
   256
176
     0
 40
1.0
176
     0
 90
        2
176
     1
  1
strokes_ogs.tif
176
     1
290
     0
176
     1
 40
1.0
176
     1
 40
1.0
176
     1
  0
VISUALSTYLE
  5
7EC7
102
{ACAD_REACTORS
330
7EB3
102
}
330
7EB3
100
AcDbVisualStyle
  2
Shaded with edges
 70
    26
177
     3
291
     0
 70
    58
 90
        2
176
     1
 90
        2
176
     1
 90
        1
176
     1
 90
        2
176
     1
 40
0.6
176
     1
 40
30.0
176
     1
 62
     7
420
 16777215
176
     1
 90
        1
176
     1
 90
       10
176
     1
 62
     7
176
     1
 62
   257
176
     1
 90
        2
176
     1
 90
        1
176
     1
 40
1.0
176
     1
 90
        8
176
     1
 62
   257
176
     1
 40
1.0
176
     1
 90
        1
176
     1
 90
        6
176
     1
 90
        2
176
     1
 62
     7
176
     1
 90
        3
176
     1
 90
        0
176
     1
 90
        0
176
     1
290
     0
176
     1
 90
        5
176
     1
 40
0.0
176
     1
 90
        0
176
     1
290
     0
176
     1
290
     1
176
     1
290
     1
176
     1
290
     0
176
     1
290
     0
176
     1
290
     0
176
     1
290
     0
176
     1
290
     0
176
     1
290
     0
176
     1
 90
       50
176
     1
 40
0.0
176
     1
 40
1.0
176
     1
 90
        0
176
     1
 62
    18
420
        0
176
     1
 90
       50
176
     1
 90
        3
176
     1
 62
     5
420
      255
176
     1
290
     0
176
     1
 90
       50
176
     1
 90
       50
176
     1
 90
       50
176
     1
290
     0
176
     1
 90
       50
176
     1
 62
   256
176
     0
 40
1.0
176
     0
 90
        2
176
     1
  1
strokes_ogs.tif
176
     1
290
     0
176
     1
 40
1.0
176
     1
 40
1.0
176
     1
  0
VISUALSTYLE
  5
7EC4
102
{ACAD_REACTORS
330
7EB3
102
}
330
7EB3
100
AcDbVisualStyle
  2
Shades of Gray
 70
    23
177
     3
291
     0
 70
    58
 90
        2
176
     1
 90
        2
176
     1
 90
        3
176
     1
 90
        0
176
     1
 40
0.6
176
     1
 40
30.0
176
     1
 62
     7
420
 16777215
176
     1
 90
        2
176
     1
 90
        2
176
     1
 62
     7
176
     1
 62
     7
176
     1
 90
        1
176
     1
 90
        1
176
     1
 40
40.0
176
     1
 90
        8
176
     1
 62
     7
176
     1
 40
1.0
176
     1
 90
        1
176
     1
 90
        6
176
     1
 90
        2
176
     1
 62
     7
176
     1
 90
        3
176
     1
 90
        0
176
     1
 90
        0
176
     1
290
     0
176
     1
 90
        1
176
     1
 40
0.0
176
     1
 90
        0
176
     1
290
     0
176
     1
290
     1
176
     1
290
     1
176
     1
290
     0
176
     1
290
     0
176
     1
290
     0
176
     1
290
     0
176
     1
290
     0
176
     1
290
     0
176
     1
 90
       50
176
     1
 40
0.0
176
     1
 40
1.0
176
     1
 90
        0
176
     1
 62
    18
420
        0
176
     1
 90
       50
176
     1
 90
        3
176
     1
 62
     5
420
      255
176
     1
290
     0
176
     1
 90
       50
176
     1
 90
       50
176
     1
 90
       50
176
     1
290
     0
176
     1
 90
       50
176
     1
 62
   256
176
     0
 40
1.0
176
     0
 90
        2
176
     1
  1
strokes_ogs.tif
176
     1
290
     0
176
     1
 40
1.0
176
     1
 40
1.0
176
     1
  0
VISUALSTYLE
  5
7EC5
102
{ACAD_REACTORS
330
7EB3
102
}
330
7EB3
100
AcDbVisualStyle
  2
Sketchy
 70
    24
177
     3
291
     0
 70
    58
 90
        1
176
     1
 90
        2
176
     1
 90
        2
176
     1
 90
        0
176
     1
 40
0.6
176
     1
 40
30.0
176
     1
 62
     7
420
 16777215
176
     1
 90
        2
176
     1
 90
        2
176
     1
 62
     7
176
     1
 62
     7
176
     1
 90
        1
176
     1
 90
        1
176
     1
 40
40.0
176
     1
 90
       11
176
     1
 62
     7
176
     1
 40
1.0
176
     1
 90
        1
176
     1
 90
        6
176
     1
 90
        2
176
     1
 62
     7
176
     1
 90
        6
176
     1
 90
        0
176
     1
 90
        0
176
     1
290
     0
176
     1
 90
        1
176
     1
 40
0.0
176
     1
 90
        0
176
     1
290
     0
176
     1
290
     1
176
     1
290
     1
176
     1
290
     0
176
     1
290
     0
176
     1
290
     0
176
     1
290
     0
176
     1
290
     0
176
     1
290
     0
176
     1
 90
       50
176
     1
 40
0.0
176
     1
 40
1.0
176
     1
 90
        0
176
     1
 62
    18
420
        0
176
     1
 90
       50
176
     1
 90
        3
176
     1
 62
     5
420
      255
176
     1
290
     0
176
     1
 90
       50
176
     1
 90
       50
176
     1
 90
       50
176
     1
290
     0
176
     1
 90
       50
176
     1
 62
   256
176
     0
 40
1.0
176
     0
 90
        2
176
     1
  1
strokes_ogs.tif
176
     1
290
     0
176
     1
 40
1.0
176
     1
 40
1.0
176
     1
  0
VISUALSTYLE
  5
7EC0
102
{ACAD_REACTORS
330
7EB3
102
}
330
7EB3
100
AcDbVisualStyle
  2
Thicken
 70
    13
177
     3
291
     1
 70
    58
 90
        2
176
     1
 90
        2
176
     1
 90
        0
176
     1
 90
        0
176
     1
 40
0.6
176
     1
 40
30.0
176
     1
 62
     7
420
 16777215
176
     1
 90
        1
176
     1
 90
        4
176
     1
 62
     7
176
     1
 62
   257
176
     1
 90
        1
176
     1
 90
        1
176
     1
 40
1.0
176
     1
 90
       12
176
     1
 62
     7
176
     1
 40
1.0
176
     1
 90
        1
176
     1
 90
        6
176
     1
 90
        2
176
     1
 62
     7
176
     1
 90
        5
176
     1
 90
        0
176
     1
 90
        0
176
     1
290
     0
176
     1
 90
        1
176
     1
 40
0.0
176
     1
 90
        0
176
     1
290
     0
176
     1
290
     1
176
     1
290
     1
176
     1
290
     0
176
     1
290
     0
176
     1
290
     0
176
     1
290
     0
176
     1
290
     0
176
     1
290
     0
176
     1
 90
       50
176
     1
 40
0.0
176
     1
 40
1.0
176
     1
 90
        0
176
     1
 62
    18
420
        0
176
     1
 90
       50
176
     1
 90
        3
176
     1
 62
     5
420
      255
176
     1
290
     0
176
     1
 90
       50
176
     1
 90
       50
176
     1
 90
       50
176
     1
290
     0
176
     1
 90
       50
176
     1
 62
   256
176
     0
 40
1.0
176
     0
 90
        2
176
     1
  1
strokes_ogs.tif
176
     1
290
     0
176
     1
 40
1.0
176
     1
 40
1.0
176
     1
  0
VISUALSTYLE
  5
7EBA
102
{ACAD_REACTORS
330
7EB3
102
}
330
7EB3
100
AcDbVisualStyle
  2
Wireframe
 70
     5
177
     3
291
     0
 70
    58
 90
        0
176
     1
 90
        2
176
     1
 90
        0
176
     1
 90
        0
176
     1
 40
0.6
176
     1
 40
30.0
176
     1
 62
     7
420
 16777215
176
     1
 90
        1
176
     1
 90
        4
176
     1
 62
     7
176
     1
 62
   257
176
     1
 90
        1
176
     1
 90
        1
176
     1
 40
1.0
176
     1
 90
        0
176
     1
 62
   257
176
     1
 40
1.0
176
     1
 90
        1
176
     1
 90
        6
176
     1
 90
        2
176
     1
 62
     7
176
     1
 90
        3
176
     1
 90
        0
176
     1
 90
        0
176
     1
290
     0
176
     1
 90
        1
176
     1
 40
0.0
176
     1
 90
        0
176
     1
290
     0
176
     1
290
     1
176
     1
290
     1
176
     1
290
     0
176
     1
290
     0
176
     1
290
     0
176
     1
290
     0
176
     1
290
     0
176
     1
290
     0
176
     1
 90
       50
176
     1
 40
0.0
176
     1
 40
1.0
176
     1
 90
        0
176
     1
 62
    18
420
        0
176
     1
 90
       50
176
     1
 90
        3
176
     1
 62
     5
420
      255
176
     1
290
     0
176
     1
 90
       50
176
     1
 90
       50
176
     1
 90
       50
176
     1
290
     0
176
     1
 90
       50
176
     1
 62
   256
176
     0
 40
1.0
176
     0
 90
        2
176
     1
  1
strokes_ogs.tif
176
     1
290
     0
176
     1
 40
1.0
176
     1
 40
1.0
176
     1
  0
VISUALSTYLE
  5
7EC6
102
{ACAD_REACTORS
330
7EB3
102
}
330
7EB3
100
AcDbVisualStyle
  2
X-Ray
 70
    25
177
     3
291
     0
 70
    58
 90
        2
176
     1
 90
        2
176
     1
 90
        1
176
     1
 90
        1
176
     1
 40
0.5
176
     1
 40
30.0
176
     1
 62
     7
420
 16777215
176
     1
 90
        1
176
     1
 90
        0
176
     1
 62
     7
176
     1
 62
   257
176
     1
 90
        1
176
     1
 90
        1
176
     1
 40
1.0
176
     1
 90
        8
176
     1
 62
     7
176
     1
 40
1.0
176
     1
 90
        1
176
     1
 90
        6
176
     1
 90
        2
176
     1
 62
     7
176
     1
 90
        3
176
     1
 90
        0
176
     1
 90
        0
176
     1
290
     0
176
     1
 90
       13
176
     1
 40
0.0
176
     1
 90
        0
176
     1
290
     0
176
     1
290
     1
176
     1
290
     1
176
     1
290
     0
176
     1
290
     0
176
     1
290
     0
176
     1
290
     0
176
     1
290
     0
176
     1
290
     0
176
     1
 90
       50
176
     1
 40
0.0
176
     1
 40
1.0
176
     1
 90
        0
176
     1
 62
    18
420
        0
176
     1
 90
       50
176
     1
 90
        3
176
     1
 62
     5
420
      255
176
     1
290
     0
176
     1
 90
       50
176
     1
 90
       50
176
     1
 90
       50
176
     1
290
     0
176
     1
 90
       50
176
     1
 62
   256
176
     0
 40
1.0
176
     0
 90
        2
176
     1
  1
strokes_ogs.tif
176
     1
290
     0
176
     1
 40
1.0
176
     1
 40
1.0
176
     1
  0
DICTIONARYVAR
  5
7F53
102
{ACAD_REACTORS
330
7E92
102
}
330
7E92
100
DictionaryVariables
280
     0
  1
1:1
  0
DICTIONARYVAR
  5
7F4F
102
{ACAD_REACTORS
330
7E92
102
}
330
7E92
100
DictionaryVariables
280
     0
  1
STANDARD
  0
DICTIONARYVAR
  5
7F4E
102
{ACAD_REACTORS
330
7E92
102
}
330
7E92
100
DictionaryVariables
280
     0
  1
STANDARD
  0
DICTIONARYVAR
  5
7F50
102
{ACAD_REACTORS
330
7E92
102
}
330
7E92
100
DictionaryVariables
280
     0
  1
Imperial24
  0
DICTIONARYVAR
  5
7F51
102
{ACAD_REACTORS
330
7E92
102
}
330
7E92
100
DictionaryVariables
280
     0
  1
Imperial24
  0
DICTIONARYVAR
  5
7E93
102
{ACAD_REACTORS
330
7E92
102
}
330
7E92
100
DictionaryVariables
280
     0
  1
1
  0
DICTIONARYVAR
  5
7F55
102
{ACAD_REACTORS
330
7E92
102
}
330
7E92
100
DictionaryVariables
280
     0
  1
1
  0
DICTIONARYVAR
  5
7F56
102
{ACAD_REACTORS
330
7E92
102
}
330
7E92
100
DictionaryVariables
280
     0
  1
15
  0
DICTIONARYVAR
  5
7F54
102
{ACAD_REACTORS
330
7E92
102
}
330
7E92
100
DictionaryVariables
280
     0
  1
0
  0
DICTIONARYVAR
  5
7F52
102
{ACAD_REACTORS
330
7E92
102
}
330
7E92
100
DictionaryVariables
280
     0
  1
0
  0
DICTIONARY
  5
7F4B
330
7EE6
100
AcDbDictionary
280
     1
281
     1
  3
ACAD_XREC_ROUNDTRIP
360
7FA5
  0
DICTIONARY
  5
7EA4
330
7EA3
100
AcDbDictionary
280
     1
281
     1
  3
BUMPTILE
360
7EA6
  3
DIFFUSETILE
360
7EA5
  3
OPACITYTILE
360
7EA9
  3
REFLECTIONTILE
360
7EA8
  3
REFRACTIONTILE
360
7EAA
  3
SPECULARTILE
360
7EA7
  0
DICTIONARY
  5
7E9C
330
7E9B
100
AcDbDictionary
280
     1
281
     1
  3
BUMPTILE
360
7E9E
  3
DIFFUSETILE
360
7E9D
  3
OPACITYTILE
360
7EA1
  3
REFLECTIONTILE
360
7EA0
  3
REFRACTIONTILE
360
7EA2
  3
SPECULARTILE
360
7E9F
  0
DICTIONARY
  5
7EAC
330
7EAB
100
AcDbDictionary
280
     1
281
     1
  3
BUMPTILE
360
7EAE
  3
DIFFUSETILE
360
7EAD
  3
OPACITYTILE
360
7EB1
  3
REFLECTIONTILE
360
7EB0
  3
REFRACTIONTILE
360
7EB2
  3
SPECULARTILE
360
7EAF
  0
DICTIONARY
  5
7F49
330
7EE4
100
AcDbDictionary
280
     1
281
     1
  3
ACAD_XREC_ROUNDTRIP
360
7FA4
  0
DICTIONARY
  5
7FA2
330
7ECE
100
AcDbDictionary
280
     1
281
     1
  3
ACAD_ROUNDTRIP_2008_TABLESTYLE_CELLSTYLEMAP
360
7FA3
  0
XRECORD
  5
7FA5
102
{ACAD_REACTORS
330
7F4B
102
}
330
7F4B
100
AcDbXrecord
280
     1
102
DISPLAYNAME
  1
Imperial24
102
FLAGS
 90
        0
  0
XRECORD
  5
7EA6
102
{ACAD_REACTORS
330
7EA4
102
}
330
7EA4
100
AcDbXrecord
280
     1
270
     1
271
     1
  0
XRECORD
  5
7EA5
102
{ACAD_REACTORS
330
7EA4
102
}
330
7EA4
100
AcDbXrecord
280
     1
270
     1
271
     1
  0
XRECORD
  5
7EA9
102
{ACAD_REACTORS
330
7EA4
102
}
330
7EA4
100
AcDbXrecord
280
     1
270
     1
271
     1
  0
XRECORD
  5
7EA8
102
{ACAD_REACTORS
330
7EA4
102
}
330
7EA4
100
AcDbXrecord
280
     1
270
     1
271
     1
  0
XRECORD
  5
7EAA
102
{ACAD_REACTORS
330
7EA4
102
}
330
7EA4
100
AcDbXrecord
280
     1
270
     1
271
     1
  0
XRECORD
  5
7EA7
102
{ACAD_REACTORS
330
7EA4
102
}
330
7EA4
100
AcDbXrecord
280
     1
270
     1
271
     1
  0
XRECORD
  5
7E9E
102
{ACAD_REACTORS
330
7E9C
102
}
330
7E9C
100
AcDbXrecord
280
     1
270
     1
271
     1
  0
XRECORD
  5
7E9D
102
{ACAD_REACTORS
330
7E9C
102
}
330
7E9C
100
AcDbXrecord
280
     1
270
     1
271
     1
  0
XRECORD
  5
7EA1
102
{ACAD_REACTORS
330
7E9C
102
}
330
7E9C
100
AcDbXrecord
280
     1
270
     1
271
     1
  0
XRECORD
  5
7EA0
102
{ACAD_REACTORS
330
7E9C
102
}
330
7E9C
100
AcDbXrecord
280
     1
270
     1
271
     1
  0
XRECORD
  5
7EA2
102
{ACAD_REACTORS
330
7E9C
102
}
330
7E9C
100
AcDbXrecord
280
     1
270
     1
271
     1
  0
XRECORD
  5
7E9F
102
{ACAD_REACTORS
330
7E9C
102
}
330
7E9C
100
AcDbXrecord
280
     1
270
     1
271
     1
  0
XRECORD
  5
7EAE
102
{ACAD_REACTORS
330
7EAC
102
}
330
7EAC
100
AcDbXrecord
280
     1
270
     1
271
     1
  0
XRECORD
  5
7EAD
102
{ACAD_REACTORS
330
7EAC
102
}
330
7EAC
100
AcDbXrecord
280
     1
270
     1
271
     1
  0
XRECORD
  5
7EB1
102
{ACAD_REACTORS
330
7EAC
102
}
330
7EAC
100
AcDbXrecord
280
     1
270
     1
271
     1
  0
XRECORD
  5
7EB0
102
{ACAD_REACTORS
330
7EAC
102
}
330
7EAC
100
AcDbXrecord
280
     1
270
     1
271
     1
  0
XRECORD
  5
7EB2
102
{ACAD_REACTORS
330
7EAC
102
}
330
7EAC
100
AcDbXrecord
280
     1
270
     1
271
     1
  0
XRECORD
  5
7EAF
102
{ACAD_REACTORS
330
7EAC
102
}
330
7EAC
100
AcDbXrecord
280
     1
270
     1
271
     1
  0
XRECORD
  5
7FA4
102
{ACAD_REACTORS
330
7F49
102
}
330
7F49
100
AcDbXrecord
280
     1
102
DISPLAYNAME
  1
Imperial24
102
FLAGS
 90
        0
  0
CELLSTYLEMAP
  5
7FA3
102
{ACAD_REACTORS
330
7FA2
102
}
330
7FA2
100
AcDbCellStyleMap
 90
        3
300
CELLSTYLE
  1
TABLEFORMAT_BEGIN
 90
        5
170
     1
 91
        0
 92
    32768
 62
   257
 93
        1
300
CONTENTFORMAT
  1
CONTENTFORMAT_BEGIN
 90
        0
 91
        0
 92
      512
 93
        0
300

 40
0.0
140
1.0
 94
        5
 62
     0
340
10
144
0.25
309
CONTENTFORMAT_END
171
     0
 94
        0
309
TABLEFORMAT_END
  1
CELLSTYLE_BEGIN
 90
        1
 91
        1
300
_TITLE
309
CELLSTYLE_END
300
CELLSTYLE
  1
TABLEFORMAT_BEGIN
 90
        5
170
     1
 91
        0
 92
        0
 62
   257
 93
        1
300
CONTENTFORMAT
  1
CONTENTFORMAT_BEGIN
 90
        0
 91
        0
 92
      512
 93
        0
300

 40
0.0
140
1.0
 94
        5
 62
     0
340
10
144
0.18
309
CONTENTFORMAT_END
171
     0
 94
        0
309
TABLEFORMAT_END
  1
CELLSTYLE_BEGIN
 90
        2
 91
        1
300
_HEADER
309
CELLSTYLE_END
300
CELLSTYLE
  1
TABLEFORMAT_BEGIN
 90
        5
170
     1
 91
        0
 92
        0
 62
   257
 93
        1
300
CONTENTFORMAT
  1
CONTENTFORMAT_BEGIN
 90
        0
 91
        0
 92
      512
 93
        0
300

 40
0.0
140
1.0
 94
        2
 62
     0
340
10
144
0.18
309
CONTENTFORMAT_END
171
     0
 94
        0
309
TABLEFORMAT_END
  1
CELLSTYLE_BEGIN
 90
        3
 91
        2
300
_DATA
309
CELLSTYLE_END
  0
ENDSEC
  0
SECTION
  2
ACDSDATA
 70
     2
 71
     8
  0
ACDSSCHEMA
 90
        0
  1
AcDb_Thumbnail_Schema
  2
AcDbDs::ID
280
    10
 91
        8
  2
Thumbnail_Data
280
    15
 91
        0
101
ACDSRECORD
 95
        0
 90
        1
  2
AcDbDs::TreatedAsObjectData
280
     1
291
     1
101
ACDSRECORD
 95
        0
 90
        2
  2
AcDbDs::Legacy
280
     1
291
     1
101
ACDSRECORD
  1
AcDbDs::ID
 90
        3
  2
AcDs:Indexable
280
     1
291
     1
101
ACDSRECORD
  1
AcDbDs::ID
 90
        4
  2
AcDbDs::HandleAttribute
280
     7
282
     1
  0
ACDSSCHEMA
 90
        1
  1
AcDbDs::TreatedAsObjectDataSchema
  2
AcDbDs::TreatedAsObjectData
280
     1
 91
        0
  0
ACDSSCHEMA
 90
        2
  1
AcDbDs::LegacySchema
  2
AcDbDs::Legacy
280
     1
 91
        0
  0
ACDSSCHEMA
 90
        3
  1
AcDbDs::IndexedPropertySchema
  2
AcDs:Indexable
280
     1
 91
        0
  0
ACDSSCHEMA
 90
        4
  1
AcDbDs::HandleAttributeSchema
  2
AcDbDs::HandleAttribute
280
     7
 91
        1
284
     1
  0
ACDSRECORD
 90
        0
  2
AcDbDs::ID
280
    10
320
7DC3
  2
Thumbnail_Data
280
    15
 94
     1869
310
89504E470D0A1A0A0000000D49484452000001000000007C0803000000B13B9E5A00000300504C5445000000000000C8C8C80000000000000000000000000000000000000000000000000000330000660000990000CC0000FF0033000033330033660033990033CC0033FF0066000066330066660066990066CC0066FF0099
310
000099330099660099990099CC0099FF00CC0000CC3300CC6600CC9900CCCC00CCFF00FF0000FF3300FF6600FF9900FFCC00FFFF3300003300333300663300993300CC3300FF3333003333333333663333993333CC3333FF3366003366333366663366993366CC3366FF3399003399333399663399993399CC3399FF33CC00
310
33CC3333CC6633CC9933CCCC33CCFF33FF0033FF3333FF6633FF9933FFCC33FFFF6600006600336600666600996600CC6600FF6633006633336633666633996633CC6633FF6666006666336666666666996666CC6666FF6699006699336699666699996699CC6699FF66CC0066CC3366CC6666CC9966CCCC66CCFF66FF0066
310
FF3366FF6666FF9966FFCC66FFFF9900009900339900669900999900CC9900FF9933009933339933669933999933CC9933FF9966009966339966669966999966CC9966FF9999009999339999669999999999CC9999FF99CC0099CC3399CC6699CC9999CCCC99CCFF99FF0099FF3399FF6699FF9999FFCC99FFFFCC0000CC00
310
33CC0066CC0099CC00CCCC00FFCC3300CC3333CC3366CC3399CC33CCCC33FFCC6600CC6633CC6666CC6699CC66CCCC66FFCC9900CC9933CC9966CC9999CC99CCCC99FFCCCC00CCCC33CCCC66CCCC99CCCCCCCCCCFFCCFF00CCFF33CCFF66CCFF99CCFFCCCCFFFFFF0000FF0033FF0066FF0099FF00CCFF00FFFF3300FF3333
310
FF3366FF3399FF33CCFF33FFFF6600FF6633FF6666FF6699FF66CCFF66FFFF9900FF9933FF9966FF9999FF99CCFF99FFFFCC00FFCC33FFCC66FFCC99FFCCCCFFCCFFFFFF00FFFF33FFFF66FFFF99FFFFCCFFFFFF0000000D0D0D1A1A1A2828283535354343435050505D5D5D6B6B6B787878868686939393A1A1A1AEAEAEBB
310
BBBBC9C9C9D6D6D6E4E4E4F1F1F1FFFFFF00000000000000000000000000000000000000000000000000000000000008F1915C000003E54944415478DAED9D598E23210C407D1C7E7CFFCB700DFE3B01BCB054A566D452C7C6562FB525921FDE208E00F83E293B8183A43CBCE6174059F53D0CC06AF4C759C04C206280553B
310
FE3571318CDFF37601E08F0034532E35CED593764A17BAE7F80150556495B543ABFFB0BDD1DFA35807D0077D56535FA02774B8EB2601C5380060F5560B00197090133A00B61CF3316070815EE5D25FC6A1F4068E0C83D6910502405482166BFAC1C9292E0EC1F06E78AD4F80F6C3B8BB58C69700E501E32B419F0180540513
310
00D009C13601180D7EBA32A53B1A7FAE8FCF5A0B3C770928242424242424242424E414490180044F521B59921C1E05E0780B58016000381300F807905F8283A42A9048D4914F007DC055B4DFBA805F13200062FE01E07800BB42C829809C3700C406125F3D1E00048000E095C0E100202C60AD04E524C955BF00E6B9C0302F
310
90C3EC77F29761287E7600E829CF0060A9F7084033FF00102EE01BC05ED2A3A71C03803301BC53633E1B009C05E099404848C836309CEC1C437838314C68008705CAE35345DE00F1140E06D7DE0D6CDE3E9F7D99F86300CE5CE091774F00DAC4D10B80DDE13D009A391F0B80D64E3C01684BC19733A34155746801A8D70467
310
5B380000B665D2B45912CCF557AB8AFE0060778106E07DBA00504BC80A808B54987B43C4EB2741D31F194053300FAD34B298EE63F938F70F09FAB036141F01245700FAE7216F1768096105B0750104172ED01DBFBA400F071B006CF9E80C00E6EE01081D000C258E028084CA0F8077476C4E4AA851769C15E4C429F2758FFB
310
6B1326E3009A554B4B44928C389440EC02C83ED0E3A56900AC3E3407C015008C00A89FA43D6A1C00A95FAB807626594003A86EC0159202D02AA66C567DCE6C6DF86B29DC4F91C7B602E03A8001BC5881ED46823A885D2324BBAFC34AB17E02305A00FD310C009BC1AB28A83A4408804C86A718D03BEA0CCF0578BC41F5C6F7
310
18F01C80E15EBA9ECB757603EE10E12028B500F27C618E0160DC0250CFEFB6007425B86601C349B07A3C8744BC00F0A10E303BFC6AF9036802B002D08590CE0252099A0670D72A4BD16F00B03E6A15C0E5DC68D43F8B0B2C2F33FDADC26B009B475C0278EA02E30765E3A3708A5C547B3E01A400B00300CE00E0B36F8CF88D
310
01375F99C9B70086171A5E09CB8F6E657540001EBE8B3F00BA22207BC87657C3F27588572A4AC7903F00F90A40D39C26012B00276D82FFD42E3F5B808718F07B21232424C4879CB6C1C20A60DA5B47DDF8FC525F00CA0CA0EFBC33EC42017A531EE70064EBA17E4380F802F01F065E3CB94004C10B8DD8DC81F7E59A86DD7F
310
0C90CD781840F107A0DC01904D770A6FB7E2D9021617901D768AECCCE8D902BE2308FE00441A8FCAE06CD72D0000000049454E44AE4260827306E02B9AB158A94F05FCC52CF00FCA3CB8E777E513C90000000049454E44AE426082
  0
ENDSEC
  0
EOF
