  0
SECTION
  2
HEADER
  9
$ACADVER
  1
AC1027
  9
$ACADMAINTVER
 70
    81
  9
$DWGCODEPAGE
  3
ANSI_932
  9
$LASTSAVEDBY
  1
reiko.miyawaki
  9
$REQUIREDVERSIONS
160
                 0
  9
$INSBASE
 10
0.0
 20
0.0
 30
0.0
  9
$EXTMIN
 10
250.0
 20
300.0
 30
0.0
  9
$EXTMAX
 10
1865.014988930849
 20
2786.652262
 30
0.0
  9
$LIMMIN
 10
0.0
 20
0.0
  9
$LIMMAX
 10
297.0
 20
210.0
  9
$ORTHOMODE
 70
     0
  9
$REGENMODE
 70
     1
  9
$FILLMODE
 70
     0
  9
$QTEXTMODE
 70
     0
  9
$MIRRTEXT
 70
     1
  9
$LTSCALE
 40
100.0
  9
$ATTMODE
 70
     1
  9
$TEXTSIZE
 40
180.0
  9
$TRACEWID
 40
0.05
  9
$TEXTSTYLE
  7
STANDARD
  9
$CLAYER
  8
3
  9
$CELTYPE
  6
BYLAYER
  9
$CECOLOR
 62
   256
  9
$CELTSCALE
 40
1.0
  9
$DISPSILH
 70
     0
  9
$DIMSCALE
 40
10.0
  9
$DIMASZ
 40
2.0
  9
$DIMEXO
 40
0.5
  9
$DIMDLI
 40
10.0
  9
$DIMRND
 40
0.0
  9
$DIMDLE
 40
0.0
  9
$DIMEXE
 40
1.0
  9
$DIMTP
 40
1.0
  9
$DIMTM
 40
1.0
  9
$DIMTXT
 40
3.0
  9
$DIMCEN
 40
0.0
  9
$DIMTSZ
 40
0.0
  9
$DIMTOL
 70
     0
  9
$DIMLIM
 70
     0
  9
$DIMTIH
 70
     0
  9
$DIMTOH
 70
     0
  9
$DIMSE1
 70
     0
  9
$DIMSE2
 70
     0
  9
$DIMTAD
 70
     1
  9
$DIMZIN
 70
     8
  9
$DIMBLK
  1

  9
$DIMASO
 70
     1
  9
$DIMSHO
 70
     1
  9
$DIMPOST
  1
(<>)
  9
$DIMAPOST
  1

  9
$DIMALT
 70
     0
  9
$DIMALTD
 70
     2
  9
$DIMALTF
 40
0.039
  9
$DIMLFAC
 40
1.0
  9
$DIMTOFL
 70
     1
  9
$DIMTVP
 40
0.0
  9
$DIMTIX
 70
     0
  9
$DIMSOXD
 70
     0
  9
$DIMSAH
 70
     1
  9
$DIMBLK1
  1
DOT
  9
$DIMBLK2
  1
OPEN
  9
$DIMSTYLE
  2
IGA
  9
$DIMCLRD
 70
     0
  9
$DIMCLRE
 70
     0
  9
$DIMCLRT
 70
     0
  9
$DIMTFAC
 40
10.0
  9
$DIMGAP
 40
1.0
  9
$DIMJUST
 70
     0
  9
$DIMSD1
 70
     0
  9
$DIMSD2
 70
     0
  9
$DIMTOLJ
 70
     1
  9
$DIMTZIN
 70
     8
  9
$DIMALTZ
 70
     0
  9
$DIMALTTZ
 70
     0
  9
$DIMUPT
 70
     0
  9
$DIMDEC
 70
     0
  9
$DIMTDEC
 70
     0
  9
$DIMALTU
 70
     2
  9
$DIMALTTD
 70
     2
  9
$DIMTXSTY
  7
STANDARD
  9
$DIMAUNIT
 70
     0
  9
$DIMADEC
 70
     0
  9
$DIMALTRND
 40
0.0
  9
$DIMAZIN
 70
     0
  9
$DIMDSEP
 70
    46
  9
$DIMATFIT
 70
     3
  9
$DIMFRAC
 70
     0
  9
$DIMLDRBLK
  1
DOT
  9
$DIMLUNIT
 70
     2
  9
$DIMLWD
 70
    -2
  9
$DIMLWE
 70
    -2
  9
$DIMTMOVE
 70
     2
  9
$DIMFXL
 40
1.0
  9
$DIMFXLON
 70
     0
  9
$DIMJOGANG
 40
0.7853981633974483
  9
$DIMTFILL
 70
     0
  9
$DIMTFILLCLR
 70
     0
  9
$DIMARCSYM
 70
     0
  9
$DIMLTYPE
  6

  9
$DIMLTEX1
  6

  9
$DIMLTEX2
  6

  9
$DIMTXTDIRECTION
 70
     0
  9
$LUNITS
 70
     2
  9
$LUPREC
 70
     3
  9
$SKETCHINC
 40
0.1
  9
$FILLETRAD
 40
50.0
  9
$AUNITS
 70
     0
  9
$AUPREC
 70
     0
  9
$MENU
  1
acad
  9
$ELEVATION
 40
0.0
  9
$PELEVATION
 40
0.0
  9
$THICKNESS
 40
0.0
  9
$LIMCHECK
 70
     0
  9
$CHAMFERA
 40
0.5
  9
$CHAMFERB
 40
0.5
  9
$CHAMFERC
 40
20.0
  9
$CHAMFERD
 40
0.0
  9
$SKPOLY
 70
     0
  9
$TDCREATE
 40
2450740.470096643
  9
$TDUCREATE
 40
2450740.095096644
  9
$TDUPDATE
 40
2459024.547713090
  9
$TDUUPDATE
 40
2459024.172713090
  9
$TDINDWG
 40
0.0347964583
  9
$TDUSRTIMER
 40
0.0347964583
  9
$USRTIMER
 70
     1
  9
$ANGBASE
 50
0.0
  9
$ANGDIR
 70
     0
  9
$PDMODE
 70
     0
  9
$PDSIZE
 40
0.0
  9
$PLINEWID
 40
0.0
  9
$SPLFRAME
 70
     0
  9
$SPLINETYPE
 70
     6
  9
$SPLINESEGS
 70
     8
  9
$HANDSEED
  5
8098
  9
$SURFTAB1
 70
     6
  9
$SURFTAB2
 70
     6
  9
$SURFTYPE
 70
     6
  9
$SURFU
 70
     6
  9
$SURFV
 70
     6
  9
$UCSBASE
  2

  9
$UCSNAME
  2

  9
$UCSORG
 10
0.0
 20
0.0
 30
0.0
  9
$UCSXDIR
 10
1.0
 20
0.0
 30
0.0
  9
$UCSYDIR
 10
0.0
 20
1.0
 30
0.0
  9
$UCSORTHOREF
  2

  9
$UCSORTHOVIEW
 70
     0
  9
$UCSORGTOP
 10
0.0
 20
0.0
 30
0.0
  9
$UCSORGBOTTOM
 10
0.0
 20
0.0
 30
0.0
  9
$UCSORGLEFT
 10
0.0
 20
0.0
 30
0.0
  9
$UCSORGRIGHT
 10
0.0
 20
0.0
 30
0.0
  9
$UCSORGFRONT
 10
0.0
 20
0.0
 30
0.0
  9
$UCSORGBACK
 10
0.0
 20
0.0
 30
0.0
  9
$PUCSBASE
  2

  9
$PUCSNAME
  2

  9
$PUCSORG
 10
0.0
 20
0.0
 30
0.0
  9
$PUCSXDIR
 10
1.0
 20
0.0
 30
0.0
  9
$PUCSYDIR
 10
0.0
 20
1.0
 30
0.0
  9
$PUCSORTHOREF
  2

  9
$PUCSORTHOVIEW
 70
     0
  9
$PUCSORGTOP
 10
0.0
 20
0.0
 30
0.0
  9
$PUCSORGBOTTOM
 10
0.0
 20
0.0
 30
0.0
  9
$PUCSORGLEFT
 10
0.0
 20
0.0
 30
0.0
  9
$PUCSORGRIGHT
 10
0.0
 20
0.0
 30
0.0
  9
$PUCSORGFRONT
 10
0.0
 20
0.0
 30
0.0
  9
$PUCSORGBACK
 10
0.0
 20
0.0
 30
0.0
  9
$USERI1
 70
     0
  9
$USERI2
 70
     0
  9
$USERI3
 70
     0
  9
$USERI4
 70
     0
  9
$USERI5
 70
     0
  9
$USERR1
 40
0.0
  9
$USERR2
 40
0.0
  9
$USERR3
 40
0.0
  9
$USERR4
 40
0.0
  9
$USERR5
 40
0.0
  9
$WORLDVIEW
 70
     1
  9
$SHADEDGE
 70
     3
  9
$SHADEDIF
 70
    70
  9
$TILEMODE
 70
     1
  9
$MAXACTVP
 70
    16
  9
$PINSBASE
 10
0.0
 20
0.0
 30
0.0
  9
$PLIMCHECK
 70
     0
  9
$PEXTMIN
 10
1.000000000000000E+20
 20
1.000000000000000E+20
 30
1.000000000000000E+20
  9
$PEXTMAX
 10
-1.000000000000000E+20
 20
-1.000000000000000E+20
 30
-1.000000000000000E+20
  9
$PLIMMIN
 10
0.0
 20
0.0
  9
$PLIMMAX
 10
12.0
 20
9.0
  9
$UNITMODE
 70
     0
  9
$VISRETAIN
 70
     0
  9
$PLINEGEN
 70
     0
  9
$PSLTSCALE
 70
     1
  9
$TREEDEPTH
 70
  3020
  9
$CMLSTYLE
  2
STANDARD
  9
$CMLJUST
 70
     0
  9
$CMLSCALE
 40
20.0
  9
$PROXYGRAPHICS
 70
     1
  9
$MEASUREMENT
 70
     0
  9
$CELWEIGHT
370
    -1
  9
$ENDCAPS
280
     0
  9
$JOINSTYLE
280
     0
  9
$LWDISPLAY
290
     0
  9
$INSUNITS
 70
     0
  9
$HYPERLINKBASE
  1

  9
$STYLESHEET
  1

  9
$XEDIT
290
     1
  9
$CEPSNTYPE
380
     0
  9
$PSTYLEMODE
290
     1
  9
$FINGERPRINTGUID
  2
{A6C07E44-682A-47E3-99B5-BCFCD376A1DE}
  9
$VERSIONGUID
  2
{BA9E00C7-7F97-42BF-8948-D0B4B42D7A29}
  9
$EXTNAMES
290
     1
  9
$PSVPSCALE
 40
0.0
  9
$OLESTARTUP
290
     0
  9
$SORTENTS
280
   127
  9
$INDEXCTL
280
     0
  9
$HIDETEXT
280
     0
  9
$XCLIPFRAME
280
     2
  9
$HALOGAP
280
     0
  9
$OBSCOLOR
 70
   257
  9
$OBSLTYPE
280
     0
  9
$INTERSECTIONDISPLAY
280
     0
  9
$INTERSECTIONCOLOR
 70
   257
  9
$DIMASSOC
280
     1
  9
$PROJECTNAME
  1

  9
$CAMERADISPLAY
290
     0
  9
$LENSLENGTH
 40
50.0
  9
$CAMERAHEIGHT
 40
0.0
  9
$STEPSPERSEC
 40
2.0
  9
$STEPSIZE
 40
6.0
  9
$3DDWFPREC
 40
2.0
  9
$PSOLWIDTH
 40
0.25
  9
$PSOLHEIGHT
 40
4.0
  9
$LOFTANG1
 40
1.570796326794896
  9
$LOFTANG2
 40
1.570796326794896
  9
$LOFTMAG1
 40
0.0
  9
$LOFTMAG2
 40
0.0
  9
$LOFTPARAM
 70
     7
  9
$LOFTNORMALS
280
     1
  9
$LATITUDE
 40
37.795
  9
$LONGITUDE
 40
-122.394
  9
$NORTHDIRECTION
 40
0.0
  9
$TIMEZONE
 70
 -8000
  9
$LIGHTGLYPHDISPLAY
280
     1
  9
$TILEMODELIGHTSYNCH
280
     1
  9
$CMATERIAL
347
7E9E
  9
$SOLIDHIST
280
     0
  9
$SHOWHIST
280
     1
  9
$DWFFRAME
280
     2
  9
$DGNFRAME
280
     0
  9
$REALWORLDSCALE
290
     1
  9
$INTERFERECOLOR
 62
     1
  9
$INTERFEREOBJVS
345
7EC0
  9
$INTERFEREVPVS
346
7EBD
  9
$CSHADOW
280
     0
  9
$SHADOWPLANELOCATION
 40
0.0
  0
ENDSEC
  0
SECTION
  2
CLASSES
  0
CLASS
  1
ACDBDICTIONARYWDFLT
  2
AcDbDictionaryWithDefault
  3
ObjectDBX Classes
 90
        0
 91
        1
280
     0
281
     0
  0
CLASS
  1
DICTIONARYVAR
  2
AcDbDictionaryVar
  3
ObjectDBX Classes
 90
        0
 91
       10
280
     0
281
     0
  0
CLASS
  1
MATERIAL
  2
AcDbMaterial
  3
ObjectDBX Classes
 90
     1153
 91
        3
280
     0
281
     0
  0
CLASS
  1
VISUALSTYLE
  2
AcDbVisualStyle
  3
ObjectDBX Classes
 90
     4095
 91
       24
280
     0
281
     0
  0
CLASS
  1
TABLESTYLE
  2
AcDbTableStyle
  3
ObjectDBX Classes
 90
     4095
 91
        1
280
     0
281
     0
  0
CLASS
  1
SCALE
  2
AcDbScale
  3
ObjectDBX Classes
 90
     1153
 91
       17
280
     0
281
     0
  0
CLASS
  1
MLEADERSTYLE
  2
AcDbMLeaderStyle
  3
ACDB_MLEADERSTYLE_CLASS
 90
     4095
 91
        1
280
     0
281
     0
  0
CLASS
  1
ACDBSECTIONVIEWSTYLE
  2
AcDbSectionViewStyle
  3
ObjectDBX Classes
 90
     1025
 91
        1
280
     0
281
     0
  0
CLASS
  1
ACDBDETAILVIEWSTYLE
  2
AcDbDetailViewStyle
  3
ObjectDBX Classes
 90
     1025
 91
        1
280
     0
281
     0
  0
CLASS
  1
CELLSTYLEMAP
  2
AcDbCellStyleMap
  3
ObjectDBX Classes
 90
     1152
 91
        1
280
     0
281
     0
  0
ENDSEC
  0
SECTION
  2
TABLES
  0
TABLE
  2
VPORT
  5
8
330
0
100
AcDbSymbolTable
 70
     1
  0
VPORT
  5
7E9B
330
8
100
AcDbSymbolTableRecord
100
AcDbViewportTableRecord
  2
*Active
 70
     0
 10
0.0
 20
0.0
 11
1.0
 21
1.0
 12
1057.502096409014
 22
1602.837341890046
 13
0.0
 23
0.0
 14
10.0
 24
10.0
 15
10.0
 25
10.0
 16
0.0
 26
0.0
 36
1.0
 17
0.0
 27
0.0
 37
0.0
 40
2621.761552567065
 41
1.957107843137254
 42
50.0
 43
0.0
 44
0.0
 50
0.0
 51
0.0
 71
     0
 72
   100
 73
     1
 74
     0
 75
     0
 76
     0
 77
     0
 78
     0
281
     0
 65
     1
110
0.0
120
0.0
130
0.0
111
1.0
121
0.0
131
0.0
112
0.0
122
1.0
132
0.0
 79
     0
146
0.0
348
7EBC
 60
     3
 61
     5
292
     1
282
     1
141
0.0
142
0.0
 63
   250
421
  3355443
1001
ACAD_NAV_VCDISPLAY
1070
     3
  0
ENDTAB
  0
TABLE
  2
LTYPE
  5
5
330
0
100
AcDbSymbolTable
 70
     2
  0
LTYPE
  5
13
330
5
100
AcDbSymbolTableRecord
100
AcDbLinetypeTableRecord
  2
BYBLOCK
 70
     0
  3

 72
    65
 73
     0
 40
0.0
  0
LTYPE
  5
14
330
5
100
AcDbSymbolTableRecord
100
AcDbLinetypeTableRecord
  2
BYLAYER
 70
     0
  3

 72
    65
 73
     0
 40
0.0
  0
LTYPE
  5
15
330
5
100
AcDbSymbolTableRecord
100
AcDbLinetypeTableRecord
  2
CONTINUOUS
 70
     0
  3
Solid line
 72
    65
 73
     0
 40
0.0
  0
LTYPE
  5
1F
330
5
100
AcDbSymbolTableRecord
100
AcDbLinetypeTableRecord
  2
CENTER
 70
     0
  3
____ _ ____ _ ____ _ ____ _ ____ _ ____ _ ____ 
 72
    65
 73
     4
 40
2.0
 49
1.25
 74
     0
 49
-0.25
 74
     0
 49
0.25
 74
     0
 49
-0.25
 74
     0
  0
ENDTAB
  0
TABLE
  2
LAYER
  5
2
102
{ACAD_XDICTIONARY
360
7EEE
102
}
330
0
100
AcDbSymbolTable
 70
     6
  0
LAYER
  5
F
102
{ACAD_XDICTIONARY
360
7F3B
102
}
330
2
100
AcDbSymbolTableRecord
100
AcDbLayerTableRecord
  2
0
 70
     0
 62
     7
  6
CONTINUOUS
370
    -3
390
7DCB
347
7EAE
348
0
  0
LAYER
  5
31
102
{ACAD_XDICTIONARY
360
7F3D
102
}
330
2
100
AcDbSymbolTableRecord
100
AcDbLayerTableRecord
  2
3
 70
     0
 62
     2
  6
CONTINUOUS
370
    -3
390
7DCB
347
7EAE
348
0
  0
LAYER
  5
76D0
102
{ACAD_XDICTIONARY
360
7F3F
102
}
330
2
100
AcDbSymbolTableRecord
100
AcDbLayerTableRecord
  2
2
 70
     0
 62
     3
  6
CENTER
370
    -3
390
7DCB
347
7EAE
348
0
  0
LAYER
  5
76D1
102
{ACAD_XDICTIONARY
360
7F41
102
}
330
2
100
AcDbSymbolTableRecord
100
AcDbLayerTableRecord
  2
1
 70
     0
 62
     4
  6
CONTINUOUS
370
    -3
390
7DCB
347
7EAE
348
0
  0
LAYER
  5
76D2
102
{ACAD_XDICTIONARY
360
7F43
102
}
330
2
100
AcDbSymbolTableRecord
100
AcDbLayerTableRecord
  2
4
 70
     0
 62
     7
  6
CONTINUOUS
370
    -3
390
7DCB
347
7EAE
348
0
  0
LAYER
  5
7B43
330
2
100
AcDbSymbolTableRecord
100
AcDbLayerTableRecord
  2
DEFPOINTS
 70
     0
 62
     7
  6
CONTINUOUS
290
     0
370
    -3
390
7DCB
347
7EAE
348
0
  0
ENDTAB
  0
TABLE
  2
STYLE
  5
3
330
0
100
AcDbSymbolTable
 70
     1
  0
STYLE
  5
10
330
3
100
AcDbSymbolTableRecord
100
AcDbTextStyleTableRecord
  2
STANDARD
 70
     0
 40
0.0
 41
1.0
 50
0.0
 71
     0
 42
180.0
  3
simplex.shx
  4
extfont.shx
  0
ENDTAB
  0
TABLE
  2
VIEW
  5
6
330
0
100
AcDbSymbolTable
 70
     0
  0
ENDTAB
  0
TABLE
  2
UCS
  5
7
330
0
100
AcDbSymbolTable
 70
     0
  0
ENDTAB
  0
TABLE
  2
APPID
  5
9
330
0
100
AcDbSymbolTable
 70
     4
  0
APPID
  5
11
330
9
100
AcDbSymbolTableRecord
100
AcDbRegAppTableRecord
  2
ACAD
 70
     0
  0
APPID
  5
7EED
330
9
100
AcDbSymbolTableRecord
100
AcDbRegAppTableRecord
  2
ACAD_NAV_VCDISPLAY
 70
     0
  0
APPID
  5
7F5E
330
9
100
AcDbSymbolTableRecord
100
AcDbRegAppTableRecord
  2
AcadAnnoMonitorAlertIconDisabled
 70
     0
  0
APPID
  5
7F5F
330
9
100
AcDbSymbolTableRecord
100
AcDbRegAppTableRecord
  2
ACAD_EXEMPT_FROM_CAD_STANDARDS
 70
     0
  0
ENDTAB
  0
TABLE
  2
DIMSTYLE
  5
A
330
0
100
AcDbSymbolTable
 70
     1
100
AcDbDimStyleTable
 71
     1
340
1D
  0
DIMSTYLE
105
1D
102
{ACAD_REACTORS
330
7B48
330
7B54
330
7B61
330
7B7B
330
7B87
330
7BF3
330
7BFF
330
7C0C
330
7C19
330
7C2B
330
7C98
330
7CA5
330
7CB3
330
7CDA
330
7D9F
330
7DB6
330
7DC3
330
7F81
102
}
330
A
100
AcDbSymbolTableRecord
100
AcDbDimStyleTableRecord
  2
IGA
 70
     0
 40
2.0
 41
2.0
 42
0.5
 43
10.0
 44
1.0
 47
1.0
 48
1.0
 73
     0
 74
     0
 77
     1
 78
     8
140
3.0
141
0.0
143
0.03937
146
10.0
147
1.0
173
     1
271
     1
272
     0
279
     2
284
     8
340
10
341
7B35
343
7B35
344
7B35
  0
ENDTAB
  0
TABLE
  2
BLOCK_RECORD
  5
1
330
0
100
AcDbSymbolTable
 70
    21
  0
BLOCK_RECORD
  5
19
102
{ACAD_XDICTIONARY
360
7DF9
102
}
330
1
100
AcDbSymbolTableRecord
100
AcDbBlockTableRecord
  2
*MODEL_SPACE
340
7DCE
 70
     0
280
     1
281
     0
  0
BLOCK_RECORD
  5
16
102
{ACAD_XDICTIONARY
360
7DF7
102
}
330
1
100
AcDbSymbolTableRecord
100
AcDbBlockTableRecord
  2
*PAPER_SPACE
340
7DCF
 70
     0
280
     1
281
     0
  0
BLOCK_RECORD
  5
7B35
330
1
100
AcDbSymbolTableRecord
100
AcDbBlockTableRecord
  2
_OPEN
340
0
102
{BLKREFS
331
7E13
331
7E14
331
7E1C
331
7E1D
331
7E24
331
7E25
331
7E2D
331
7E2E
331
7E35
331
7E36
331
7E3E
331
7E3F
331
7E47
331
7E48
331
7E59
331
7E5A
331
7E6B
331
7E6C
331
7E73
331
7E74
331
7EFC
331
7EFD
331
7F04
331
7F05
331
7F0D
331
7F0E
331
7F18
331
7F19
331
7F24
331
7F37
331
7F6D
331
7F6E
331
807F
331
8080
102
}
 70
     0
280
     1
281
     0
  0
BLOCK_RECORD
  5
7B3B
330
1
100
AcDbSymbolTableRecord
100
AcDbBlockTableRecord
  2
*D1
340
0
 70
     0
280
     1
281
     0
  0
BLOCK_RECORD
  5
7B49
330
1
100
AcDbSymbolTableRecord
100
AcDbBlockTableRecord
  2
*D2
340
0
 70
     0
280
     1
281
     0
  0
BLOCK_RECORD
  5
7B55
330
1
100
AcDbSymbolTableRecord
100
AcDbBlockTableRecord
  2
*D3
340
0
 70
     0
280
     1
281
     0
  0
BLOCK_RECORD
  5
7B6F
330
1
100
AcDbSymbolTableRecord
100
AcDbBlockTableRecord
  2
*D4
340
0
 70
     0
280
     1
281
     0
  0
BLOCK_RECORD
  5
7B7C
330
1
100
AcDbSymbolTableRecord
100
AcDbBlockTableRecord
  2
*D5
340
0
 70
     0
280
     1
281
     0
  0
BLOCK_RECORD
  5
7BE7
330
1
100
AcDbSymbolTableRecord
100
AcDbBlockTableRecord
  2
*D6
340
0
 70
     0
280
     1
281
     0
  0
BLOCK_RECORD
  5
7BF4
330
1
100
AcDbSymbolTableRecord
100
AcDbBlockTableRecord
  2
*D7
340
0
 70
     0
280
     1
281
     0
  0
BLOCK_RECORD
  5
7C00
330
1
100
AcDbSymbolTableRecord
100
AcDbBlockTableRecord
  2
*D8
340
0
 70
     0
280
     1
281
     0
  0
BLOCK_RECORD
  5
7C0D
330
1
100
AcDbSymbolTableRecord
100
AcDbBlockTableRecord
  2
*D9
340
0
 70
     0
280
     1
281
     0
  0
BLOCK_RECORD
  5
7C1F
330
1
100
AcDbSymbolTableRecord
100
AcDbBlockTableRecord
  2
*D10
340
0
 70
     0
280
     1
281
     0
  0
BLOCK_RECORD
  5
7C8C
330
1
100
AcDbSymbolTableRecord
100
AcDbBlockTableRecord
  2
*D11
340
0
 70
     0
280
     1
281
     0
  0
BLOCK_RECORD
  5
7C99
330
1
100
AcDbSymbolTableRecord
100
AcDbBlockTableRecord
  2
*D12
340
0
 70
     0
280
     1
281
     0
  0
BLOCK_RECORD
  5
7CA6
330
1
100
AcDbSymbolTableRecord
100
AcDbBlockTableRecord
  2
*D13
340
0
 70
     0
280
     1
281
     0
  0
BLOCK_RECORD
  5
7CCE
330
1
100
AcDbSymbolTableRecord
100
AcDbBlockTableRecord
  2
*D14
340
0
 70
     0
280
     1
281
     0
  0
BLOCK_RECORD
  5
7D91
330
1
100
AcDbSymbolTableRecord
100
AcDbBlockTableRecord
  2
*D15
340
0
 70
     0
280
     1
281
     0
  0
BLOCK_RECORD
  5
7DA0
330
1
100
AcDbSymbolTableRecord
100
AcDbBlockTableRecord
  2
_DOT
340
0
102
{BLKREFS
331
7F23
331
7F36
102
}
 70
     0
280
     1
281
     0
  0
BLOCK_RECORD
  5
7DA8
330
1
100
AcDbSymbolTableRecord
100
AcDbBlockTableRecord
  2
*D17
340
0
 70
     0
280
     1
281
     0
  0
BLOCK_RECORD
  5
7DB7
330
1
100
AcDbSymbolTableRecord
100
AcDbBlockTableRecord
  2
*D18
340
0
 70
     0
280
     1
281
     0
  0
BLOCK_RECORD
  5
7F82
330
1
100
AcDbSymbolTableRecord
100
AcDbBlockTableRecord
  2
*D19
340
0
 70
     0
280
     1
281
     0
  0
BLOCK_RECORD
  5
8007
330
1
100
AcDbSymbolTableRecord
100
AcDbBlockTableRecord
  2
_Origin
340
0
 70
     0
280
     1
281
     0
  0
ENDTAB
  0
ENDSEC
  0
SECTION
  2
BLOCKS
  0
BLOCK
  5
1A
330
19
100
AcDbEntity
  8
0
100
AcDbBlockBegin
  2
*MODEL_SPACE
 70
     0
 10
0.0
 20
0.0
 30
0.0
  3
*MODEL_SPACE
  1

  0
ENDBLK
  5
1B
330
19
100
AcDbEntity
  8
0
100
AcDbBlockEnd
  0
BLOCK
  5
17
330
16
100
AcDbEntity
 67
     1
  8
0
100
AcDbBlockBegin
  2
*PAPER_SPACE
 70
     0
 10
0.0
 20
0.0
 30
0.0
  3
*PAPER_SPACE
  1

  0
ENDBLK
  5
18
330
16
100
AcDbEntity
 67
     1
  8
0
100
AcDbBlockEnd
  0
BLOCK
  5
7B36
330
7B35
100
AcDbEntity
  8
0
100
AcDbBlockBegin
  2
_OPEN
 70
     0
 10
0.0
 20
0.0
 30
0.0
  3
_OPEN
  1

  0
LINE
  5
7B37
330
7B35
100
AcDbEntity
  8
0
  6
ByBlock
 62
     0
100
AcDbLine
 10
-1.0
 20
0.166667
 30
0.0
 11
0.0
 21
0.0
 31
0.0
  0
LINE
  5
7B38
330
7B35
100
AcDbEntity
  8
0
  6
ByBlock
 62
     0
100
AcDbLine
 10
0.0
 20
0.0
 30
0.0
 11
-1.0
 21
-0.166667
 31
0.0
  0
LINE
  5
7B39
330
7B35
100
AcDbEntity
  8
0
  6
ByBlock
 62
     0
100
AcDbLine
 10
0.0
 20
0.0
 30
0.0
 11
-1.0
 21
0.0
 31
0.0
  0
ENDBLK
  5
7B3A
330
7B35
100
AcDbEntity
  8
0
100
AcDbBlockEnd
  0
BLOCK
  5
7B3C
330
7B3B
100
AcDbEntity
  8
0
100
AcDbBlockBegin
  2
*D1
 70
     1
 10
0.0
 20
0.0
 30
0.0
  3
*D1
  1

  0
LINE
  5
7EF9
330
7B3B
100
AcDbEntity
  8
3
  6
Continuous
 62
     0
440
 16777216
370
    -2
100
AcDbLine
 10
478.5082240692004
 20
716.5931397230971
 30
0.0
 11
478.5082240692004
 21
638.0389797230971
 31
0.0
  0
LINE
  5
7EFA
330
7B3B
100
AcDbEntity
  8
3
  6
Continuous
 62
     0
440
 16777216
370
    -2
100
AcDbLine
 10
698.5082240692004
 20
716.5931397230971
 30
0.0
 11
698.5082240692004
 21
638.0389797230971
 31
0.0
  0
LINE
  5
7EFB
330
7B3B
100
AcDbEntity
  8
3
  6
Continuous
 62
     0
440
 16777216
370
    -2
100
AcDbLine
 10
498.5082240692004
 20
648.038979723097
 30
0.0
 11
678.5082240692004
 21
648.038979723097
 31
0.0
  0
INSERT
  5
7EFC
330
7B3B
100
AcDbEntity
  8
3
  6
Continuous
 62
     0
440
 16777216
370
    -2
100
AcDbBlockReference
  2
_OPEN
 10
478.5082240692004
 20
648.038979723097
 30
0.0
 41
20.0
 42
20.0
 43
20.0
 50
180.0
  0
INSERT
  5
7EFD
330
7B3B
100
AcDbEntity
  8
3
  6
Continuous
 62
     0
440
 16777216
370
    -2
100
AcDbBlockReference
  2
_OPEN
 10
698.5082240692004
 20
648.038979723097
 30
0.0
 41
20.0
 42
20.0
 43
20.0
  0
MTEXT
  5
7EFE
330
7B3B
100
AcDbEntity
  8
3
  6
Continuous
 62
     0
440
 16777216
100
AcDbMText
 10
592.7971710692003
 20
673.038979723097
 30
0.0
 40
30.0
 41
0.0
 46
0.0
 71
     5
 72
     1
  1
\A1;220
 73
     1
 44
1.0
  0
POINT
  5
7EFF
330
7B3B
100
AcDbEntity
  8
DEFPOINTS
  6
Continuous
 62
     0
440
 16777216
100
AcDbPoint
 10
478.5082240692004
 20
721.5931397230971
 30
0.0
  0
POINT
  5
7F00
330
7B3B
100
AcDbEntity
  8
DEFPOINTS
  6
Continuous
 62
     0
440
 16777216
100
AcDbPoint
 10
698.5082240692004
 20
721.5931397230971
 30
0.0
  0
POINT
  5
7F01
330
7B3B
100
AcDbEntity
  8
DEFPOINTS
  6
Continuous
 62
     0
440
 16777216
100
AcDbPoint
 10
698.5082240692004
 20
648.038979723097
 30
0.0
  0
ENDBLK
  5
7B47
330
7B3B
100
AcDbEntity
  8
0
100
AcDbBlockEnd
  0
BLOCK
  5
7B4A
330
7B49
100
AcDbEntity
  8
0
100
AcDbBlockBegin
  2
*D2
 70
     1
 10
0.0
 20
0.0
 30
0.0
  3
*D2
  1

  0
LINE
  5
7F02
330
7B49
100
AcDbEntity
  8
3
  6
Continuous
 62
     0
440
 16777216
370
    -2
100
AcDbLine
 10
1248.5082240692
 20
716.5931397230971
 30
0.0
 11
1248.5082240692
 21
638.0389797230971
 31
0.0
  0
LINE
  5
7F03
330
7B49
100
AcDbEntity
  8
3
  6
Continuous
 62
     0
440
 16777216
370
    -2
100
AcDbLine
 10
718.5082240692004
 20
648.038979723097
 30
0.0
 11
1228.5082240692
 21
648.038979723097
 31
0.0
  0
INSERT
  5
7F04
330
7B49
100
AcDbEntity
  8
3
  6
Continuous
 62
     0
440
 16777216
370
    -2
100
AcDbBlockReference
  2
_OPEN
 10
698.5082240692004
 20
648.038979723097
 30
0.0
 41
20.0
 42
20.0
 43
20.0
 50
180.0
  0
INSERT
  5
7F05
330
7B49
100
AcDbEntity
  8
3
  6
Continuous
 62
     0
440
 16777216
370
    -2
100
AcDbBlockReference
  2
_OPEN
 10
1248.5082240692
 20
648.038979723097
 30
0.0
 41
20.0
 42
20.0
 43
20.0
  0
MTEXT
  5
7F06
330
7B49
100
AcDbEntity
  8
3
  6
Continuous
 62
     0
440
 16777216
100
AcDbMText
 10
973.5082240692005
 20
673.038979723097
 30
0.0
 40
30.0
 41
0.0
 46
0.0
 71
     5
 72
     1
  1
\A1;550
 73
     1
 44
1.0
  0
POINT
  5
7F07
330
7B49
100
AcDbEntity
  8
DEFPOINTS
  6
Continuous
 62
     0
440
 16777216
100
AcDbPoint
 10
698.5082240692004
 20
721.5931397230971
 30
0.0
  0
POINT
  5
7F08
330
7B49
100
AcDbEntity
  8
DEFPOINTS
  6
Continuous
 62
     0
440
 16777216
100
AcDbPoint
 10
1248.5082240692
 20
721.5931397230971
 30
0.0
  0
POINT
  5
7F09
330
7B49
100
AcDbEntity
  8
DEFPOINTS
  6
Continuous
 62
     0
440
 16777216
100
AcDbPoint
 10
1248.5082240692
 20
648.038979723097
 30
0.0
  0
ENDBLK
  5
7B53
330
7B49
100
AcDbEntity
  8
0
100
AcDbBlockEnd
  0
BLOCK
  5
7B56
330
7B55
100
AcDbEntity
  8
0
100
AcDbBlockBegin
  2
*D3
 70
     1
 10
0.0
 20
0.0
 30
0.0
  3
*D3
  1

  0
LINE
  5
7E10
330
7B55
100
AcDbEntity
  8
3
  6
Continuous
 62
     0
440
 16777216
100
AcDbLine
 10
493.5082240692004
 20
1386.593139723097
 30
0.0
 11
435.8908660692005
 21
1386.593139723097
 31
0.0
  0
LINE
  5
7E11
330
7B55
100
AcDbEntity
  8
3
  6
Continuous
 62
     0
440
 16777216
100
AcDbLine
 10
493.5082240692004
 20
1136.593139723097
 30
0.0
 11
435.8908660692005
 21
1136.593139723097
 31
0.0
  0
LINE
  5
7E12
330
7B55
100
AcDbEntity
  8
3
  6
Continuous
 62
     0
440
 16777216
100
AcDbLine
 10
445.8908660692006
 20
1366.593139723097
 30
0.0
 11
445.8908660692006
 21
1156.593139723097
 31
0.0
  0
INSERT
  5
7E13
330
7B55
100
AcDbEntity
  8
3
  6
Continuous
 62
     0
440
 16777216
100
AcDbBlockReference
  2
_OPEN
 10
445.8908660692006
 20
1386.593139723097
 30
0.0
 41
20.0
 42
20.0
 43
20.0
 50
90.0
  0
INSERT
  5
7E14
330
7B55
100
AcDbEntity
  8
3
  6
Continuous
 62
     0
440
 16777216
100
AcDbBlockReference
  2
_OPEN
 10
445.8908660692005
 20
1136.593139723097
 30
0.0
 41
20.0
 42
20.0
 43
20.0
 50
270.0
  0
MTEXT
  5
7E15
330
7B55
100
AcDbEntity
  8
3
  6
Continuous
 62
     0
440
 16777216
100
AcDbMText
 10
420.8908660692003
 20
1256.828984723097
 30
0.0
 40
30.0
 41
0.0
 46
0.0
 71
     5
 72
     5
  1
\A1;250
 11
0.0000000000000001
 21
1.0
 31
0.0
 73
     1
 44
1.0
  0
POINT
  5
7E16
330
7B55
100
AcDbEntity
  8
DEFPOINTS
  6
Continuous
 62
     0
440
 16777216
100
AcDbPoint
 10
498.5082240692004
 20
1386.593139723097
 30
0.0
  0
POINT
  5
7E17
330
7B55
100
AcDbEntity
  8
DEFPOINTS
  6
Continuous
 62
     0
440
 16777216
100
AcDbPoint
 10
498.5082240692004
 20
1136.593139723097
 30
0.0
  0
POINT
  5
7E18
330
7B55
100
AcDbEntity
  8
DEFPOINTS
  6
Continuous
 62
     0
440
 16777216
100
AcDbPoint
 10
445.8908660692005
 20
1136.593139723097
 30
0.0
  0
ENDBLK
  5
7B60
330
7B55
100
AcDbEntity
  8
0
100
AcDbBlockEnd
  0
BLOCK
  5
7D20
330
7B6F
100
AcDbEntity
  8
0
100
AcDbBlockBegin
  2
*D4
 70
     1
 10
0.0
 20
0.0
 30
0.0
  3
*D4
  1

  0
LINE
  5
7E19
330
7B6F
100
AcDbEntity
  8
3
  6
Continuous
 62
     0
440
 16777216
100
AcDbLine
 10
513.5082240692004
 20
1396.593139723097
 30
0.0
 11
382.646255291158
 21
1396.593139723097
 31
0.0
  0
LINE
  5
7E1A
330
7B6F
100
AcDbEntity
  8
3
  6
Continuous
 62
     0
440
 16777216
100
AcDbLine
 10
493.5082240692004
 20
1136.593139723097
 30
0.0
 11
382.6462552911579
 21
1136.593139723097
 31
0.0
  0
LINE
  5
7E1B
330
7B6F
100
AcDbEntity
  8
3
  6
Continuous
 62
     0
440
 16777216
100
AcDbLine
 10
392.646255291158
 20
1376.593139723097
 30
0.0
 11
392.646255291158
 21
1156.593139723097
 31
0.0
  0
INSERT
  5
7E1C
330
7B6F
100
AcDbEntity
  8
3
  6
Continuous
 62
     0
440
 16777216
100
AcDbBlockReference
  2
_OPEN
 10
392.646255291158
 20
1396.593139723097
 30
0.0
 41
20.0
 42
20.0
 43
20.0
 50
90.0
  0
INSERT
  5
7E1D
330
7B6F
100
AcDbEntity
  8
3
  6
Continuous
 62
     0
440
 16777216
100
AcDbBlockReference
  2
_OPEN
 10
392.646255291158
 20
1136.593139723097
 30
0.0
 41
20.0
 42
20.0
 43
20.0
 50
270.0
  0
MTEXT
  5
7E1E
330
7B6F
100
AcDbEntity
  8
3
  6
Continuous
 62
     0
440
 16777216
100
AcDbMText
 10
367.6462552911578
 20
1257.684367723097
 30
0.0
 40
30.0
 41
0.0
 46
0.0
 71
     5
 72
     5
  1
\A1;260
 11
0.0000000000000001
 21
1.0
 31
0.0
 73
     1
 44
1.0
  0
POINT
  5
7E1F
330
7B6F
100
AcDbEntity
  8
DEFPOINTS
  6
Continuous
 62
     0
440
 16777216
100
AcDbPoint
 10
518.5082240692004
 20
1396.593139723097
 30
0.0
  0
POINT
  5
7E20
330
7B6F
100
AcDbEntity
  8
DEFPOINTS
  6
Continuous
 62
     0
440
 16777216
100
AcDbPoint
 10
498.5082240692004
 20
1136.593139723097
 30
0.0
  0
POINT
  5
7E21
330
7B6F
100
AcDbEntity
  8
DEFPOINTS
  6
Continuous
 62
     0
440
 16777216
100
AcDbPoint
 10
392.646255291158
 20
1136.593139723097
 30
0.0
  0
ENDBLK
  5
7D2A
330
7B6F
100
AcDbEntity
  8
0
100
AcDbBlockEnd
  0
BLOCK
  5
7D16
330
7B7C
100
AcDbEntity
  8
0
100
AcDbBlockBegin
  2
*D5
 70
     1
 10
0.0
 20
0.0
 30
0.0
  3
*D5
  1

  0
LINE
  5
7E22
330
7B7C
100
AcDbEntity
  8
3
  6
Continuous
 62
     0
440
 16777216
100
AcDbLine
 10
503.5082240692004
 20
821.5931397230971
 30
0.0
 11
382.6462552911578
 21
821.5931397230971
 31
0.0
  0
LINE
  5
7E23
330
7B7C
100
AcDbEntity
  8
3
  6
Continuous
 62
     0
440
 16777216
100
AcDbLine
 10
392.6462552911578
 20
1116.593139723097
 30
0.0
 11
392.6462552911578
 21
841.5931397230972
 31
0.0
  0
INSERT
  5
7E24
330
7B7C
100
AcDbEntity
  8
3
  6
Continuous
 62
     0
440
 16777216
100
AcDbBlockReference
  2
_OPEN
 10
392.6462552911578
 20
1136.593139723097
 30
0.0
 41
20.0
 42
20.0
 43
20.0
 50
90.0
  0
INSERT
  5
7E25
330
7B7C
100
AcDbEntity
  8
3
  6
Continuous
 62
     0
440
 16777216
100
AcDbBlockReference
  2
_OPEN
 10
392.6462552911578
 20
821.5931397230971
 30
0.0
 41
20.0
 42
20.0
 43
20.0
 50
270.0
  0
MTEXT
  5
7E26
330
7B7C
100
AcDbEntity
  8
3
  6
Continuous
 62
     0
440
 16777216
100
AcDbMText
 10
367.6462552911577
 20
979.0931397230972
 30
0.0
 40
30.0
 41
0.0
 46
0.0
 71
     5
 72
     5
  1
\A1;315
 11
0.0000000000000001
 21
1.0
 31
0.0
 73
     1
 44
1.0
  0
POINT
  5
7E27
330
7B7C
100
AcDbEntity
  8
DEFPOINTS
  6
Continuous
 62
     0
440
 16777216
100
AcDbPoint
 10
498.5082240692004
 20
1136.593139723097
 30
0.0
  0
POINT
  5
7E28
330
7B7C
100
AcDbEntity
  8
DEFPOINTS
  6
Continuous
 62
     0
440
 16777216
100
AcDbPoint
 10
508.5082240692003
 20
821.5931397230971
 30
0.0
  0
POINT
  5
7E29
330
7B7C
100
AcDbEntity
  8
DEFPOINTS
  6
Continuous
 62
     0
440
 16777216
100
AcDbPoint
 10
392.6462552911578
 20
821.5931397230971
 30
0.0
  0
ENDBLK
  5
7D1F
330
7B7C
100
AcDbEntity
  8
0
100
AcDbBlockEnd
  0
BLOCK
  5
7BE8
330
7BE7
100
AcDbEntity
  8
0
100
AcDbBlockBegin
  2
*D6
 70
     1
 10
0.0
 20
0.0
 30
0.0
  3
*D6
  1

  0
LINE
  5
7E2A
330
7BE7
100
AcDbEntity
  8
3
  6
Continuous
 62
     0
440
 16777216
100
AcDbLine
 10
498.5082240692004
 20
1412.593139723097
 30
0.0
 11
498.5082240692004
 21
1462.241577723097
 31
0.0
  0
LINE
  5
7E2B
330
7BE7
100
AcDbEntity
  8
3
  6
Continuous
 62
     0
440
 16777216
100
AcDbLine
 10
698.5082240692004
 20
1401.593139723097
 30
0.0
 11
698.5082240692004
 21
1462.241577723097
 31
0.0
  0
LINE
  5
7E2C
330
7BE7
100
AcDbEntity
  8
3
  6
Continuous
 62
     0
440
 16777216
100
AcDbLine
 10
518.5082240692004
 20
1452.241577723097
 30
0.0
 11
678.5082240692004
 21
1452.241577723097
 31
0.0
  0
INSERT
  5
7E2D
330
7BE7
100
AcDbEntity
  8
3
  6
Continuous
 62
     0
440
 16777216
100
AcDbBlockReference
  2
_OPEN
 10
498.5082240692004
 20
1452.241577723097
 30
0.0
 41
20.0
 42
20.0
 43
20.0
 50
180.0
  0
INSERT
  5
7E2E
330
7BE7
100
AcDbEntity
  8
3
  6
Continuous
 62
     0
440
 16777216
100
AcDbBlockReference
  2
_OPEN
 10
698.5082240692004
 20
1452.241577723097
 30
0.0
 41
20.0
 42
20.0
 43
20.0
  0
MTEXT
  5
7E2F
330
7BE7
100
AcDbEntity
  8
3
  6
Continuous
 62
     0
440
 16777216
100
AcDbMText
 10
603.9416310692004
 20
1477.241577723097
 30
0.0
 40
30.0
 41
0.0
 46
0.0
 71
     5
 72
     5
  1
\A1;200
 73
     1
 44
1.0
  0
POINT
  5
7E30
330
7BE7
100
AcDbEntity
  8
DEFPOINTS
  6
Continuous
 62
     0
440
 16777216
100
AcDbPoint
 10
498.5082240692004
 20
1407.593139723097
 30
0.0
  0
POINT
  5
7E31
330
7BE7
100
AcDbEntity
  8
DEFPOINTS
  6
Continuous
 62
     0
440
 16777216
100
AcDbPoint
 10
698.5082240692004
 20
1396.593139723097
 30
0.0
  0
POINT
  5
7E32
330
7BE7
100
AcDbEntity
  8
DEFPOINTS
  6
Continuous
 62
     0
440
 16777216
100
AcDbPoint
 10
698.5082240692004
 20
1452.241577723097
 30
0.0
  0
ENDBLK
  5
7BF2
330
7BE7
100
AcDbEntity
  8
0
100
AcDbBlockEnd
  0
BLOCK
  5
7BF5
330
7BF4
100
AcDbEntity
  8
0
100
AcDbBlockBegin
  2
*D7
 70
     1
 10
0.0
 20
0.0
 30
0.0
  3
*D7
  1

  0
LINE
  5
7E33
330
7BF4
100
AcDbEntity
  8
3
  6
Continuous
 62
     0
440
 16777216
100
AcDbLine
 10
918.4976080692004
 20
1141.593139723097
 30
0.0
 11
918.4976080692004
 21
1462.241577723097
 31
0.0
  0
LINE
  5
7E34
330
7BF4
100
AcDbEntity
  8
3
  6
Continuous
 62
     0
440
 16777216
100
AcDbLine
 10
718.5082240692004
 20
1452.241577723097
 30
0.0
 11
898.4976080692003
 21
1452.241577723097
 31
0.0
  0
INSERT
  5
7E35
330
7BF4
100
AcDbEntity
  8
3
  6
Continuous
 62
     0
440
 16777216
100
AcDbBlockReference
  2
_OPEN
 10
698.5082240692004
 20
1452.241577723097
 30
0.0
 41
20.0
 42
20.0
 43
20.0
 50
180.0
  0
INSERT
  5
7E36
330
7BF4
100
AcDbEntity
  8
3
  6
Continuous
 62
     0
440
 16777216
100
AcDbBlockReference
  2
_OPEN
 10
918.4976080692004
 20
1452.241577723097
 30
0.0
 41
20.0
 42
20.0
 43
20.0
  0
MTEXT
  5
7E37
330
7BF4
100
AcDbEntity
  8
3
  6
Continuous
 62
     0
440
 16777216
100
AcDbMText
 10
808.5029160692004
 20
1477.241577723097
 30
0.0
 40
30.0
 41
0.0
 46
0.0
 71
     5
 72
     5
  1
\A1;220
 73
     1
 44
1.0
  0
POINT
  5
7E38
330
7BF4
100
AcDbEntity
  8
DEFPOINTS
  6
Continuous
 62
     0
440
 16777216
100
AcDbPoint
 10
698.5082240692004
 20
1396.593139723097
 30
0.0
  0
POINT
  5
7E39
330
7BF4
100
AcDbEntity
  8
DEFPOINTS
  6
Continuous
 62
     0
440
 16777216
100
AcDbPoint
 10
918.4976080692004
 20
1136.593139723097
 30
0.0
  0
POINT
  5
7E3A
330
7BF4
100
AcDbEntity
  8
DEFPOINTS
  6
Continuous
 62
     0
440
 16777216
100
AcDbPoint
 10
918.4976080692004
 20
1452.241577723097
 30
0.0
  0
ENDBLK
  5
7BFE
330
7BF4
100
AcDbEntity
  8
0
100
AcDbBlockEnd
  0
BLOCK
  5
7C01
330
7C00
100
AcDbEntity
  8
0
100
AcDbBlockBegin
  2
*D8
 70
     1
 10
0.0
 20
0.0
 30
0.0
  3
*D8
  1

  0
LINE
  5
7E3B
330
7C00
100
AcDbEntity
  8
3
  6
Continuous
 62
     0
440
 16777216
100
AcDbLine
 10
478.5082240692004
 20
1832.402803159553
 30
0.0
 11
478.5082240692004
 21
1665.567724159553
 31
0.0
  0
LINE
  5
7E3C
330
7C00
100
AcDbEntity
  8
3
  6
Continuous
 62
     0
440
 16777216
100
AcDbLine
 10
1248.5082240692
 20
1832.402803159553
 30
0.0
 11
1248.5082240692
 21
1665.567724159553
 31
0.0
  0
LINE
  5
7E3D
330
7C00
100
AcDbEntity
  8
3
  6
Continuous
 62
     0
440
 16777216
100
AcDbLine
 10
498.5082240692004
 20
1675.567724159553
 30
0.0
 11
1228.5082240692
 21
1675.567724159553
 31
0.0
  0
INSERT
  5
7E3E
330
7C00
100
AcDbEntity
  8
3
  6
Continuous
 62
     0
440
 16777216
100
AcDbBlockReference
  2
_OPEN
 10
478.5082240692004
 20
1675.567724159553
 30
0.0
 41
20.0
 42
20.0
 43
20.0
 50
180.0
  0
INSERT
  5
7E3F
330
7C00
100
AcDbEntity
  8
3
  6
Continuous
 62
     0
440
 16777216
100
AcDbBlockReference
  2
_OPEN
 10
1248.5082240692
 20
1675.567724159553
 30
0.0
 41
20.0
 42
20.0
 43
20.0
  0
MTEXT
  5
7E40
330
7C00
100
AcDbEntity
  8
3
  6
Continuous
 62
     0
440
 16777216
100
AcDbMText
 10
853.0485010692004
 20
1700.567724159553
 30
0.0
 40
30.0
 41
0.0
 46
0.0
 71
     5
 72
     5
  1
\A1;770
 73
     1
 44
1.0
  0
POINT
  5
7E41
330
7C00
100
AcDbEntity
  8
DEFPOINTS
  6
Continuous
 62
     0
440
 16777216
100
AcDbPoint
 10
478.5082240692004
 20
1837.402803159553
 30
0.0
  0
POINT
  5
7E42
330
7C00
100
AcDbEntity
  8
DEFPOINTS
  6
Continuous
 62
     0
440
 16777216
100
AcDbPoint
 10
1248.5082240692
 20
1837.402803159553
 30
0.0
  0
POINT
  5
7E43
330
7C00
100
AcDbEntity
  8
DEFPOINTS
  6
Continuous
 62
     0
440
 16777216
100
AcDbPoint
 10
1248.5082240692
 20
1675.567724159553
 30
0.0
  0
ENDBLK
  5
7C0B
330
7C00
100
AcDbEntity
  8
0
100
AcDbBlockEnd
  0
BLOCK
  5
7C0E
330
7C0D
100
AcDbEntity
  8
0
100
AcDbBlockBegin
  2
*D9
 70
     1
 10
0.0
 20
0.0
 30
0.0
  3
*D9
  1

  0
LINE
  5
7E44
330
7C0D
100
AcDbEntity
  8
3
  6
Continuous
 62
     0
440
 16777216
100
AcDbLine
 10
1253.5082240692
 20
2087.402803159553
 30
0.0
 11
1353.901976069201
 21
2087.402803159553
 31
0.0
  0
LINE
  5
7E45
330
7C0D
100
AcDbEntity
  8
3
  6
Continuous
 62
     0
440
 16777216
100
AcDbLine
 10
1253.5082240692
 20
1837.402803159553
 30
0.0
 11
1353.901976069201
 21
1837.402803159553
 31
0.0
  0
LINE
  5
7E46
330
7C0D
100
AcDbEntity
  8
3
  6
Continuous
 62
     0
440
 16777216
100
AcDbLine
 10
1343.9019760692
 20
2067.402803159553
 30
0.0
 11
1343.9019760692
 21
1857.402803159553
 31
0.0
  0
INSERT
  5
7E47
330
7C0D
100
AcDbEntity
  8
3
  6
Continuous
 62
     0
440
 16777216
100
AcDbBlockReference
  2
_OPEN
 10
1343.9019760692
 20
2087.402803159553
 30
0.0
 41
20.0
 42
20.0
 43
20.0
 50
90.0
  0
INSERT
  5
7E48
330
7C0D
100
AcDbEntity
  8
3
  6
Continuous
 62
     0
440
 16777216
100
AcDbBlockReference
  2
_OPEN
 10
1343.9019760692
 20
1837.402803159553
 30
0.0
 41
20.0
 42
20.0
 43
20.0
 50
270.0
  0
MTEXT
  5
7E49
330
7C0D
100
AcDbEntity
  8
3
  6
Continuous
 62
     0
440
 16777216
100
AcDbMText
 10
1318.9019760692
 20
1964.016992159553
 30
0.0
 40
30.0
 41
0.0
 46
0.0
 71
     5
 72
     5
  1
\A1;250
 11
0.0000000000000001
 21
1.0
 31
0.0
 73
     1
 44
1.0
  0
POINT
  5
7E4A
330
7C0D
100
AcDbEntity
  8
DEFPOINTS
  6
Continuous
 62
     0
440
 16777216
100
AcDbPoint
 10
1248.5082240692
 20
2087.402803159553
 30
0.0
  0
POINT
  5
7E4B
330
7C0D
100
AcDbEntity
  8
DEFPOINTS
  6
Continuous
 62
     0
440
 16777216
100
AcDbPoint
 10
1248.5082240692
 20
1837.402803159553
 30
0.0
  0
POINT
  5
7E4C
330
7C0D
100
AcDbEntity
  8
DEFPOINTS
  6
Continuous
 62
     0
440
 16777216
100
AcDbPoint
 10
1343.9019760692
 20
1837.402803159553
 30
0.0
  0
ENDBLK
  5
7C18
330
7C0D
100
AcDbEntity
  8
0
100
AcDbBlockEnd
  0
BLOCK
  5
7C20
330
7C1F
100
AcDbEntity
  8
0
100
AcDbBlockBegin
  2
*D10
 70
     1
 10
0.0
 20
0.0
 30
0.0
  3
*D10
  1

  0
LINE
  5
7F0A
330
7C1F
100
AcDbEntity
  8
3
  6
Continuous
 62
     0
440
 16777216
370
    -2
100
AcDbLine
 10
1428.861047930848
 20
716.5931397230971
 30
0.0
 11
1428.861047930848
 21
635.8339837230971
 31
0.0
  0
LINE
  5
7F0B
330
7C1F
100
AcDbEntity
  8
3
  6
Continuous
 62
     0
440
 16777216
370
    -2
100
AcDbLine
 10
1678.861047930848
 20
716.5931397230971
 30
0.0
 11
1678.861047930848
 21
635.8339837230971
 31
0.0
  0
LINE
  5
7F0C
330
7C1F
100
AcDbEntity
  8
3
  6
Continuous
 62
     0
440
 16777216
370
    -2
100
AcDbLine
 10
1448.861047930848
 20
645.8339837230972
 30
0.0
 11
1658.861047930848
 21
645.8339837230972
 31
0.0
  0
INSERT
  5
7F0D
330
7C1F
100
AcDbEntity
  8
3
  6
Continuous
 62
     0
440
 16777216
370
    -2
100
AcDbBlockReference
  2
_OPEN
 10
1428.861047930848
 20
645.8339837230972
 30
0.0
 41
20.0
 42
20.0
 43
20.0
 50
180.0
  0
INSERT
  5
7F0E
330
7C1F
100
AcDbEntity
  8
3
  6
Continuous
 62
     0
440
 16777216
370
    -2
100
AcDbBlockReference
  2
_OPEN
 10
1678.861047930848
 20
645.8339837230972
 30
0.0
 41
20.0
 42
20.0
 43
20.0
  0
MTEXT
  5
7F0F
330
7C1F
100
AcDbEntity
  8
3
  6
Continuous
 62
     0
440
 16777216
100
AcDbMText
 10
1552.798559930848
 20
670.8339837230972
 30
0.0
 40
30.0
 41
0.0
 46
0.0
 71
     5
 72
     1
  1
\A1;250
 73
     1
 44
1.0
  0
POINT
  5
7F10
330
7C1F
100
AcDbEntity
  8
DEFPOINTS
  6
Continuous
 62
     0
440
 16777216
100
AcDbPoint
 10
1428.861047930848
 20
721.5931397230971
 30
0.0
  0
POINT
  5
7F11
330
7C1F
100
AcDbEntity
  8
DEFPOINTS
  6
Continuous
 62
     0
440
 16777216
100
AcDbPoint
 10
1678.861047930848
 20
721.5931397230971
 30
0.0
  0
POINT
  5
7F12
330
7C1F
100
AcDbEntity
  8
DEFPOINTS
  6
Continuous
 62
     0
440
 16777216
100
AcDbPoint
 10
1678.861047930848
 20
645.8339837230972
 30
0.0
  0
ENDBLK
  5
7C2A
330
7C1F
100
AcDbEntity
  8
0
100
AcDbBlockEnd
  0
BLOCK
  5
7C8D
330
7C8C
100
AcDbEntity
  8
0
100
AcDbBlockBegin
  2
*D11
 70
     1
 10
0.0
 20
0.0
 30
0.0
  3
*D11
  1

  0
LINE
  5
7E56
330
7C8C
100
AcDbEntity
  8
3
  6
Continuous
 62
     0
440
 16777216
100
AcDbLine
 10
1596.861047930848
 20
1392.593139723097
 30
0.0
 11
1596.861047930848
 21
1459.170435723097
 31
0.0
  0
LINE
  5
7E57
330
7C8C
100
AcDbEntity
  8
3
  6
Continuous
 62
     0
440
 16777216
100
AcDbLine
 10
1776.861047930848
 20
1392.593139723097
 30
0.0
 11
1776.861047930848
 21
1459.170435723097
 31
0.0
  0
LINE
  5
7E58
330
7C8C
100
AcDbEntity
  8
3
  6
Continuous
 62
     0
440
 16777216
100
AcDbLine
 10
1616.861047930848
 20
1449.170435723097
 30
0.0
 11
1756.861047930848
 21
1449.170435723097
 31
0.0
  0
INSERT
  5
7E59
330
7C8C
100
AcDbEntity
  8
3
  6
Continuous
 62
     0
440
 16777216
100
AcDbBlockReference
  2
_OPEN
 10
1596.861047930848
 20
1449.170435723097
 30
0.0
 41
20.0
 42
20.0
 43
20.0
 50
180.0
  0
INSERT
  5
7E5A
330
7C8C
100
AcDbEntity
  8
3
  6
Continuous
 62
     0
440
 16777216
100
AcDbBlockReference
  2
_OPEN
 10
1776.861047930848
 20
1449.170435723097
 30
0.0
 41
20.0
 42
20.0
 43
20.0
  0
MTEXT
  5
7E5B
330
7C8C
100
AcDbEntity
  8
3
  6
Continuous
 62
     0
440
 16777216
100
AcDbMText
 10
1684.312954930848
 20
1474.170435723097
 30
0.0
 40
30.0
 41
0.0
 46
0.0
 71
     5
 72
     5
  1
\A1;180
 73
     1
 44
1.0
  0
POINT
  5
7E5C
330
7C8C
100
AcDbEntity
  8
DEFPOINTS
  6
Continuous
 62
     0
440
 16777216
100
AcDbPoint
 10
1596.861047930848
 20
1387.593139723097
 30
0.0
  0
POINT
  5
7E5D
330
7C8C
100
AcDbEntity
  8
DEFPOINTS
  6
Continuous
 62
     0
440
 16777216
100
AcDbPoint
 10
1776.861047930848
 20
1387.593139723097
 30
0.0
  0
POINT
  5
7E5E
330
7C8C
100
AcDbEntity
  8
DEFPOINTS
  6
Continuous
 62
     0
440
 16777216
100
AcDbPoint
 10
1776.861047930848
 20
1449.170435723097
 30
0.0
  0
ENDBLK
  5
7C97
330
7C8C
100
AcDbEntity
  8
0
100
AcDbBlockEnd
  0
BLOCK
  5
7D72
330
7C99
100
AcDbEntity
  8
0
100
AcDbBlockBegin
  2
*D12
 70
     1
 10
0.0
 20
0.0
 30
0.0
  3
*D12
  1

  0
LINE
  5
7F6A
330
7C99
100
AcDbEntity
  8
3
  6
Continuous
 62
     0
440
 16777216
370
    -2
100
AcDbLine
 10
1346.861047930848
 20
1266.593139723097
 30
0.0
 11
1346.861047930848
 21
1513.270241723097
 31
0.0
  0
LINE
  5
7F6B
330
7C99
100
AcDbEntity
  8
3
  6
Continuous
 62
     0
440
 16777216
370
    -2
100
AcDbLine
 10
1686.861047930849
 20
1501.496731723097
 30
0.0
 11
1686.861047930849
 21
1513.270241723097
 31
0.0
  0
LINE
  5
7F6C
330
7C99
100
AcDbEntity
  8
3
  6
Continuous
 62
     0
440
 16777216
370
    -2
100
AcDbLine
 10
1366.861047930848
 20
1503.270241723097
 30
0.0
 11
1666.861047930848
 21
1503.270241723097
 31
0.0
  0
INSERT
  5
7F6D
330
7C99
100
AcDbEntity
  8
3
  6
Continuous
 62
     0
440
 16777216
370
    -2
100
AcDbBlockReference
  2
_OPEN
 10
1346.861047930848
 20
1503.270241723097
 30
0.0
 41
20.0
 42
20.0
 43
20.0
 50
180.0
  0
INSERT
  5
7F6E
330
7C99
100
AcDbEntity
  8
3
  6
Continuous
 62
     0
440
 16777216
370
    -2
100
AcDbBlockReference
  2
_OPEN
 10
1686.861047930849
 20
1503.270241723097
 30
0.0
 41
20.0
 42
20.0
 43
20.0
  0
MTEXT
  5
7F6F
330
7C99
100
AcDbEntity
  8
3
  6
Continuous
 62
     0
440
 16777216
100
AcDbMText
 10
1531.424478930848
 20
1536.12738458024
 30
0.0
 40
30.0
 41
0.0
 46
0.0
 71
     5
 72
     1
  1
\A1;(340)
 73
     1
 44
1.0
  0
POINT
  5
7F70
330
7C99
100
AcDbEntity
  8
DEFPOINTS
  6
Continuous
 62
     0
440
 16777216
100
AcDbPoint
 10
1346.861047930848
 20
1261.593139723097
 30
0.0
  0
POINT
  5
7F71
330
7C99
100
AcDbEntity
  8
DEFPOINTS
  6
Continuous
 62
     0
440
 16777216
100
AcDbPoint
 10
1686.861047930849
 20
1496.496731723097
 30
0.0
  0
POINT
  5
7F72
330
7C99
100
AcDbEntity
  8
DEFPOINTS
  6
Continuous
 62
     0
440
 16777216
100
AcDbPoint
 10
1686.861047930849
 20
1503.270241723097
 30
0.0
  0
ENDBLK
  5
7D7C
330
7C99
100
AcDbEntity
  8
0
100
AcDbBlockEnd
  0
BLOCK
  5
7CEB
330
7CA6
100
AcDbEntity
  8
0
100
AcDbBlockBegin
  2
*D13
 70
     1
 10
0.0
 20
0.0
 30
0.0
  3
*D13
  1

  0
LINE
  5
7E68
330
7CA6
100
AcDbEntity
  8
3
  6
Continuous
 62
     0
440
 16777216
100
AcDbLine
 10
1785.861047930848
 20
1288.593139723097
 30
0.0
 11
1785.861047930848
 21
1513.270241723097
 31
0.0
  0
LINE
  5
7E69
330
7CA6
100
AcDbEntity
  8
3
  6
Continuous
 62
     0
440
 16777216
100
AcDbLine
 10
1706.861047930848
 20
1503.270241723097
 30
0.0
 11
1765.861047930848
 21
1503.270241723097
 31
0.0
  0
MTEXT
  5
7E6A
330
7CA6
100
AcDbEntity
  8
3
  6
Continuous
 62
     0
440
 16777216
100
AcDbMText
 10
1733.911618930848
 20
1528.494725723097
 30
0.0
 40
30.0
 41
0.0
 46
0.0
 71
     5
 72
     5
  1
\A1;99
 73
     1
 44
1.0
  0
INSERT
  5
7E6B
330
7CA6
100
AcDbEntity
  8
3
  6
Continuous
 62
     0
440
 16777216
100
AcDbBlockReference
  2
_OPEN
 10
1686.861047930849
 20
1503.270241723097
 30
0.0
 41
20.0
 42
20.0
 43
20.0
 50
180.0
  0
INSERT
  5
7E6C
330
7CA6
100
AcDbEntity
  8
3
  6
Continuous
 62
     0
440
 16777216
100
AcDbBlockReference
  2
_OPEN
 10
1785.861047930848
 20
1503.270241723097
 30
0.0
 41
20.0
 42
20.0
 43
20.0
  0
POINT
  5
7E6D
330
7CA6
100
AcDbEntity
  8
DEFPOINTS
  6
Continuous
 62
     0
440
 16777216
100
AcDbPoint
 10
1686.861047930849
 20
1496.496731723097
 30
0.0
  0
POINT
  5
7E6E
330
7CA6
100
AcDbEntity
  8
DEFPOINTS
  6
Continuous
 62
     0
440
 16777216
100
AcDbPoint
 10
1785.861047930848
 20
1283.593139723097
 30
0.0
  0
POINT
  5
7E6F
330
7CA6
100
AcDbEntity
  8
DEFPOINTS
  6
Continuous
 62
     0
440
 16777216
100
AcDbPoint
 10
1785.861047930848
 20
1503.270241723097
 30
0.0
  0
ENDBLK
  5
7CF4
330
7CA6
100
AcDbEntity
  8
0
100
AcDbBlockEnd
  0
BLOCK
  5
7D7D
330
7CCE
100
AcDbEntity
  8
0
100
AcDbBlockBegin
  2
*D14
 70
     1
 10
0.0
 20
0.0
 30
0.0
  3
*D14
  1

  0
LINE
  5
7E70
330
7CCE
100
AcDbEntity
  8
3
  6
Continuous
 62
     0
440
 16777216
100
AcDbLine
 10
1790.861047930848
 20
1261.593139723097
 30
0.0
 11
1865.014988930849
 21
1261.593139723097
 31
0.0
  0
LINE
  5
7E71
330
7CCE
100
AcDbEntity
  8
3
  6
Continuous
 62
     0
440
 16777216
100
AcDbLine
 10
1790.861047930848
 20
1011.593139723097
 30
0.0
 11
1865.014988930849
 21
1011.593139723097
 31
0.0
  0
LINE
  5
7E72
330
7CCE
100
AcDbEntity
  8
3
  6
Continuous
 62
     0
440
 16777216
100
AcDbLine
 10
1855.014988930849
 20
1241.593139723097
 30
0.0
 11
1855.014988930849
 21
1031.593139723097
 31
0.0
  0
INSERT
  5
7E73
330
7CCE
100
AcDbEntity
  8
3
  6
Continuous
 62
     0
440
 16777216
100
AcDbBlockReference
  2
_OPEN
 10
1855.014988930849
 20
1261.593139723097
 30
0.0
 41
20.0
 42
20.0
 43
20.0
 50
90.0
  0
INSERT
  5
7E74
330
7CCE
100
AcDbEntity
  8
3
  6
Continuous
 62
     0
440
 16777216
100
AcDbBlockReference
  2
_OPEN
 10
1855.014988930849
 20
1011.593139723097
 30
0.0
 41
20.0
 42
20.0
 43
20.0
 50
270.0
  0
MTEXT
  5
7E75
330
7CCE
100
AcDbEntity
  8
3
  6
Continuous
 62
     0
440
 16777216
100
AcDbMText
 10
1830.014988930848
 20
1141.409386723097
 30
0.0
 40
30.0
 41
0.0
 46
0.0
 71
     5
 72
     5
  1
\A1;φ250
 11
0.0000000000000001
 21
1.0
 31
0.0
 73
     1
 44
1.0
  0
POINT
  5
7E76
330
7CCE
100
AcDbEntity
  8
DEFPOINTS
  6
Continuous
 62
     0
440
 16777216
100
AcDbPoint
 10
1785.861047930848
 20
1261.593139723097
 30
0.0
  0
POINT
  5
7E77
330
7CCE
100
AcDbEntity
  8
DEFPOINTS
  6
Continuous
 62
     0
440
 16777216
100
AcDbPoint
 10
1785.861047930848
 20
1011.593139723097
 30
0.0
  0
POINT
  5
7E78
330
7CCE
100
AcDbEntity
  8
DEFPOINTS
  6
Continuous
 62
     0
440
 16777216
100
AcDbPoint
 10
1855.014988930849
 20
1011.593139723097
 30
0.0
  0
ENDBLK
  5
7D87
330
7CCE
100
AcDbEntity
  8
0
100
AcDbBlockEnd
  0
BLOCK
  5
7D92
330
7D91
100
AcDbEntity
  8
0
100
AcDbBlockBegin
  2
*D15
 70
     1
 10
0.0
 20
0.0
 30
0.0
  3
*D15
  1

  0
LINE
  5
7F13
330
7D91
100
AcDbEntity
  8
3
 62
     0
440
 16777216
370
    -2
100
AcDbLine
 10
1678.861047930848
 20
716.5931397230971
 30
0.0
 11
1678.861047930848
 21
636.9280388506295
 31
0.0
  0
LINE
  5
7F14
330
7D91
100
AcDbEntity
  8
3
 62
     0
440
 16777216
370
    -2
100
AcDbLine
 10
1686.861047930849
 20
716.593139723097
 30
0.0
 11
1686.861047930849
 21
636.9280388506295
 31
0.0
  0
LINE
  5
7F15
330
7D91
100
AcDbEntity
  8
3
 62
     0
440
 16777216
370
    -2
100
AcDbLine
 10
1658.861047930848
 20
646.9280388506295
 30
0.0
 11
1638.861047930848
 21
646.9280388506295
 31
0.0
  0
LINE
  5
7F16
330
7D91
100
AcDbEntity
  8
3
 62
     0
440
 16777216
370
    -2
100
AcDbLine
 10
1706.861047930848
 20
646.9280388506295
 30
0.0
 11
1766.861047930849
 21
646.9280388506295
 31
0.0
  0
LINE
  5
7F17
330
7D91
100
AcDbEntity
  8
3
 62
     0
440
 16777216
370
    -2
100
AcDbLine
 10
1678.861047930848
 20
646.9280388506295
 30
0.0
 11
1686.861047930849
 21
646.9280388506295
 31
0.0
  0
INSERT
  5
7F18
330
7D91
100
AcDbEntity
  8
3
 62
     0
440
 16777216
370
    -2
100
AcDbBlockReference
  2
_OPEN
 10
1678.861047930848
 20
646.9280388506295
 30
0.0
 41
20.0
 42
20.0
 43
20.0
  0
INSERT
  5
7F19
330
7D91
100
AcDbEntity
  8
3
 62
     0
440
 16777216
370
    -2
100
AcDbBlockReference
  2
_OPEN
 10
1686.861047930849
 20
646.9280388506295
 30
0.0
 41
20.0
 42
20.0
 43
20.0
 50
180.0
  0
MTEXT
  5
7F1A
330
7D91
100
AcDbEntity
  8
3
 62
     0
440
 16777216
100
AcDbMText
 10
1746.861047930849
 20
671.9280388506295
 30
0.0
 40
30.0
 41
0.0
 46
0.0
 71
     5
 72
     1
  1
\A1;8
 73
     1
 44
1.0
  0
POINT
  5
7F1B
330
7D91
100
AcDbEntity
  8
DEFPOINTS
 62
     0
440
 16777216
100
AcDbPoint
 10
1678.861047930848
 20
721.5931397230971
 30
0.0
  0
POINT
  5
7F1C
330
7D91
100
AcDbEntity
  8
DEFPOINTS
 62
     0
440
 16777216
100
AcDbPoint
 10
1686.861047930849
 20
721.593139723097
 30
0.0
  0
POINT
  5
7F1D
330
7D91
100
AcDbEntity
  8
DEFPOINTS
 62
     0
440
 16777216
100
AcDbPoint
 10
1686.861047930849
 20
646.9280388506295
 30
0.0
  0
ENDBLK
  5
7D9E
330
7D91
100
AcDbEntity
  8
0
100
AcDbBlockEnd
  0
BLOCK
  5
7DA1
330
7DA0
100
AcDbEntity
  8
0
100
AcDbBlockBegin
  2
_DOT
 70
     0
 10
0.0
 20
0.0
 30
0.0
  3
_DOT
  1

  0
LWPOLYLINE
  5
7DA2
330
7DA0
100
AcDbEntity
  8
0
  6
ByBlock
 62
     0
100
AcDbPolyline
 90
        2
 70
     1
 43
0.5
 10
-0.25
 20
0.0
 42
1.0
 10
0.25
 20
0.0
 42
1.0
  0
LINE
  5
7DA6
330
7DA0
100
AcDbEntity
  8
0
  6
ByBlock
 62
     0
100
AcDbLine
 10
-0.5
 20
0.0
 30
0.0
 11
-1.0
 21
0.0
 31
0.0
  0
ENDBLK
  5
7DA7
330
7DA0
100
AcDbEntity
  8
0
100
AcDbBlockEnd
  0
BLOCK
  5
7DA9
330
7DA8
100
AcDbEntity
  8
0
100
AcDbBlockBegin
  2
*D17
 70
     1
 10
0.0
 20
0.0
 30
0.0
  3
*D17
  1

  0
LINE
  5
7F1E
330
7DA8
100
AcDbEntity
  8
3
 62
     0
440
 16777216
370
    -2
100
AcDbLine
 10
473.5082240692004
 20
751.5931397230971
 30
0.0
 11
382.5010508179621
 21
751.5931397230971
 31
0.0
  0
LINE
  5
7F1F
330
7DA8
100
AcDbEntity
  8
3
 62
     0
440
 16777216
370
    -2
100
AcDbLine
 10
473.5082240692004
 20
721.5931397230971
 30
0.0
 11
382.5010508179621
 21
721.5931397230971
 31
0.0
  0
LINE
  5
7F20
330
7DA8
100
AcDbEntity
  8
3
 62
     0
440
 16777216
370
    -2
100
AcDbLine
 10
392.5010508179621
 20
771.5931397230971
 30
0.0
 11
392.5010508179621
 21
791.5931397230971
 31
0.0
  0
LINE
  5
7F21
330
7DA8
100
AcDbEntity
  8
3
 62
     0
440
 16777216
370
    -2
100
AcDbLine
 10
392.5010508179621
 20
701.5931397230971
 30
0.0
 11
392.5010508179621
 21
613.0217111516685
 31
0.0
  0
LINE
  5
7F22
330
7DA8
100
AcDbEntity
  8
3
 62
     0
440
 16777216
370
    -2
100
AcDbLine
 10
392.5010508179621
 20
751.5931397230971
 30
0.0
 11
392.5010508179621
 21
721.5931397230971
 31
0.0
  0
INSERT
  5
7F23
330
7DA8
100
AcDbEntity
  8
3
 62
     0
440
 16777216
370
    -2
100
AcDbBlockReference
  2
_DOT
 10
392.5010508179621
 20
751.5931397230971
 30
0.0
 41
20.0
 42
20.0
 43
20.0
 50
270.0
  0
INSERT
  5
7F24
330
7DA8
100
AcDbEntity
  8
3
 62
     0
440
 16777216
370
    -2
100
AcDbBlockReference
  2
_OPEN
 10
392.5010508179621
 20
721.5931397230971
 30
0.0
 41
20.0
 42
20.0
 43
20.0
 50
90.0
  0
MTEXT
  5
7F25
330
7DA8
100
AcDbEntity
  8
3
 62
     0
440
 16777216
100
AcDbMText
 10
367.501050817962
 20
647.3074254373829
 30
0.0
 40
30.0
 41
0.0
 46
0.0
 71
     5
 72
     1
  1
\A1;30
 11
0.0000000000000001
 21
1.0
 31
0.0
 73
     1
 44
1.0
  0
POINT
  5
7F26
330
7DA8
100
AcDbEntity
  8
DEFPOINTS
 62
     0
440
 16777216
100
AcDbPoint
 10
478.5082240692004
 20
751.5931397230971
 30
0.0
  0
POINT
  5
7F27
330
7DA8
100
AcDbEntity
  8
DEFPOINTS
 62
     0
440
 16777216
100
AcDbPoint
 10
478.5082240692004
 20
721.5931397230971
 30
0.0
  0
POINT
  5
7F28
330
7DA8
100
AcDbEntity
  8
DEFPOINTS
 62
     0
440
 16777216
100
AcDbPoint
 10
392.5010508179621
 20
721.5931397230971
 30
0.0
  0
ENDBLK
  5
7DB5
330
7DA8
100
AcDbEntity
  8
0
100
AcDbBlockEnd
  0
BLOCK
  5
7DB8
330
7DB7
100
AcDbEntity
  8
0
100
AcDbBlockBegin
  2
*D18
 70
     1
 10
0.0
 20
0.0
 30
0.0
  3
*D18
  1

  0
LINE
  5
7F32
330
7DB7
100
AcDbEntity
  8
3
 62
     0
440
 16777216
370
    -2
100
AcDbLine
 10
473.5082240692004
 20
751.5931397230971
 30
0.0
 11
382.5010508179621
 21
751.5931397230971
 31
0.0
  0
LINE
  5
7F33
330
7DB7
100
AcDbEntity
  8
3
 62
     0
440
 16777216
370
    -2
100
AcDbLine
 10
503.5082240692004
 20
821.5931397230971
 30
0.0
 11
382.5010508179621
 21
821.5931397230971
 31
0.0
  0
LINE
  5
7F34
330
7DB7
100
AcDbEntity
  8
3
 62
     0
440
 16777216
370
    -2
100
AcDbLine
 10
392.5010508179621
 20
771.5931397230971
 30
0.0
 11
392.5010508179621
 21
801.5931397230971
 31
0.0
  0
MTEXT
  5
7F35
330
7DB7
100
AcDbEntity
  8
3
 62
     0
440
 16777216
100
AcDbMText
 10
355.7274367081154
 20
791.7760359238136
 30
0.0
 40
30.0
 41
0.0
 46
0.0
 71
     5
 72
     1
  1
\A1;(70)
 11
0.0000000000000001
 21
1.0
 31
0.0
 73
     1
 44
1.0
  0
INSERT
  5
7F36
330
7DB7
100
AcDbEntity
  8
3
 62
     0
440
 16777216
370
    -2
100
AcDbBlockReference
  2
_DOT
 10
392.5010508179621
 20
751.5931397230971
 30
0.0
 41
20.0
 42
20.0
 43
20.0
 50
270.0
  0
INSERT
  5
7F37
330
7DB7
100
AcDbEntity
  8
3
 62
     0
440
 16777216
370
    -2
100
AcDbBlockReference
  2
_OPEN
 10
392.5010508179621
 20
821.5931397230971
 30
0.0
 41
20.0
 42
20.0
 43
20.0
 50
90.0
  0
POINT
  5
7F38
330
7DB7
100
AcDbEntity
  8
DEFPOINTS
 62
     0
440
 16777216
100
AcDbPoint
 10
478.5082240692004
 20
751.5931397230971
 30
0.0
  0
POINT
  5
7F39
330
7DB7
100
AcDbEntity
  8
DEFPOINTS
 62
     0
440
 16777216
100
AcDbPoint
 10
508.5082240692003
 20
821.5931397230971
 30
0.0
  0
POINT
  5
7F3A
330
7DB7
100
AcDbEntity
  8
DEFPOINTS
 62
     0
440
 16777216
100
AcDbPoint
 10
392.5010508179621
 20
821.5931397230971
 30
0.0
  0
ENDBLK
  5
7DC2
330
7DB7
100
AcDbEntity
  8
0
100
AcDbBlockEnd
  0
BLOCK
  5
7F83
330
7F82
100
AcDbEntity
  8
0
100
AcDbBlockBegin
  2
*D19
 70
     1
 10
0.0
 20
0.0
 30
0.0
  3
*D19
  1

  0
LINE
  5
807C
330
7F82
100
AcDbEntity
  8
3
 62
     0
440
 16777216
370
    -2
100
AcDbLine
 10
473.5082240692004
 20
721.5931397230971
 30
0.0
 11
299.8523099883986
 21
721.5931397230971
 31
0.0
  0
LINE
  5
807D
330
7F82
100
AcDbEntity
  8
3
 62
     0
440
 16777216
370
    -2
100
AcDbLine
 10
493.5082240692004
 20
1407.593139723097
 30
0.0
 11
299.8523099883987
 21
1407.593139723097
 31
0.0
  0
LINE
  5
807E
330
7F82
100
AcDbEntity
  8
3
 62
     0
440
 16777216
370
    -2
100
AcDbLine
 10
309.8523099883986
 20
741.5931397230971
 30
0.0
 11
309.8523099883987
 21
1387.593139723097
 31
0.0
  0
INSERT
  5
807F
330
7F82
100
AcDbEntity
  8
3
 62
     0
440
 16777216
370
    -2
100
AcDbBlockReference
  2
_OPEN
 10
309.8523099883986
 20
721.5931397230971
 30
0.0
 41
20.0
 42
20.0
 43
20.0
 50
270.0
  0
INSERT
  5
8080
330
7F82
100
AcDbEntity
  8
3
 62
     0
440
 16777216
370
    -2
100
AcDbBlockReference
  2
_OPEN
 10
309.8523099883987
 20
1407.593139723097
 30
0.0
 41
20.0
 42
20.0
 43
20.0
 50
90.0
  0
MTEXT
  5
8081
330
7F82
100
AcDbEntity
  8
3
 62
     0
440
 16777216
100
AcDbMText
 10
276.9951671312556
 20
1064.593139723097
 30
0.0
 40
30.0
 41
0.0
 46
0.0
 71
     5
 72
     1
  1
\A1;(686)
 11
0.0000000000000001
 21
1.0
 31
0.0
 73
     1
 44
1.0
  0
POINT
  5
8082
330
7F82
100
AcDbEntity
  8
DEFPOINTS
 62
     0
440
 16777216
100
AcDbPoint
 10
478.5082240692004
 20
721.5931397230971
 30
0.0
  0
POINT
  5
8083
330
7F82
100
AcDbEntity
  8
DEFPOINTS
 62
     0
440
 16777216
100
AcDbPoint
 10
498.5082240692004
 20
1407.593139723097
 30
0.0
  0
POINT
  5
8084
330
7F82
100
AcDbEntity
  8
DEFPOINTS
 62
     0
440
 16777216
100
AcDbPoint
 10
309.8523099883987
 20
1407.593139723097
 30
0.0
  0
ENDBLK
  5
7F84
330
7F82
100
AcDbEntity
  8
0
100
AcDbBlockEnd
  0
BLOCK
  5
800A
330
8007
100
AcDbEntity
  8
0
100
AcDbBlockBegin
  2
_Origin
 70
     0
 10
0.0
 20
0.0
 30
0.0
  3
_Origin
  1

  0
CIRCLE
  5
8008
330
8007
100
AcDbEntity
  8
0
  6
ByBlock
 62
     0
370
    -2
100
AcDbCircle
 10
0.0
 20
0.0
 30
0.0
 40
0.5
  0
LINE
  5
8009
330
8007
100
AcDbEntity
  8
0
  6
ByBlock
 62
     0
370
    -2
100
AcDbLine
 10
0.0
 20
0.0
 30
0.0
 11
-1.0
 21
0.0
 31
0.0
  0
ENDBLK
  5
800B
330
8007
100
AcDbEntity
  8
0
100
AcDbBlockEnd
  0
ENDSEC
  0
SECTION
  2
ENTITIES
  0
LINE
  5
7A8B
330
19
100
AcDbEntity
  8
1
  6
Continuous
100
AcDbLine
 10
498.5082240692004
 20
2176.202803159553
 30
0.0
 11
518.5082240692004
 21
2156.202803159553
 31
0.0
  0
LINE
  5
7A8C
330
19
100
AcDbEntity
  8
1
  6
Continuous
100
AcDbLine
 10
498.5082240692004
 20
2014.602803159553
 30
0.0
 11
518.5082240692004
 21
2034.602803159553
 31
0.0
  0
LINE
  5
7A8D
330
19
100
AcDbEntity
  8
1
  6
Continuous
100
AcDbLine
 10
498.5082240692004
 20
2185.202803159553
 30
0.0
 11
897.4082240692004
 21
2185.202803159553
 31
0.0
  0
LINE
  5
7A8E
330
19
100
AcDbEntity
  8
1
  6
Continuous
100
AcDbLine
 10
498.5082240692004
 20
2005.602803159553
 30
0.0
 11
897.4082240692004
 21
2005.602803159553
 31
0.0
  0
LINE
  5
7A8F
330
19
100
AcDbEntity
  8
1
  6
Continuous
100
AcDbLine
 10
498.5082240692004
 20
1136.593139723097
 30
0.0
 11
518.5082240692004
 21
1136.593139723097
 31
0.0
  0
LINE
  5
7A90
330
19
100
AcDbEntity
  8
1
  6
Continuous
100
AcDbLine
 10
498.5082240692004
 20
1386.593139723097
 30
0.0
 11
518.5082240692004
 21
1386.593139723097
 31
0.0
  0
LINE
  5
7A91
330
19
100
AcDbEntity
  8
1
  6
Continuous
100
AcDbLine
 10
478.5082240692004
 20
1837.402803159553
 30
0.0
 11
686.5082240692004
 21
1837.402803159553
 31
0.0
  0
LINE
  5
7A92
330
19
100
AcDbEntity
  8
1
  6
Continuous
100
AcDbLine
 10
498.5082240692004
 20
1136.593139723097
 30
0.0
 11
518.5082240692004
 21
1156.593139723097
 31
0.0
  0
LINE
  5
7A93
330
19
100
AcDbEntity
  8
1
  6
Continuous
100
AcDbLine
 10
498.5082240692004
 20
1386.593139723097
 30
0.0
 11
518.5082240692004
 21
1366.593139723097
 31
0.0
  0
LINE
  5
7A94
330
19
100
AcDbEntity
  8
1
  6
Continuous
100
AcDbLine
 10
1248.5082240692
 20
751.5931397230971
 30
0.0
 11
478.5082240692004
 21
751.5931397230971
 31
0.0
  0
LINE
  5
7A95
330
19
100
AcDbEntity
  8
1
  6
Continuous
100
AcDbLine
 10
1248.5082240692
 20
721.5931397230971
 30
0.0
 11
478.5082240692004
 21
721.5931397230971
 31
0.0
  0
LINE
  5
7A96
330
19
100
AcDbEntity
  8
1
  6
Continuous
100
AcDbLine
 10
478.5082240692004
 20
751.5931397230971
 30
0.0
 11
478.5082240692004
 21
721.5931397230971
 31
0.0
  0
LINE
  5
7A97
330
19
100
AcDbEntity
  8
1
  6
Continuous
100
AcDbLine
 10
498.5082240692004
 20
1115.593139723097
 30
0.0
 11
498.5082240692004
 21
1407.593139723097
 31
0.0
  0
LINE
  5
7A98
330
19
100
AcDbEntity
  8
1
  6
Continuous
100
AcDbLine
 10
498.5082240692004
 20
2206.402803159553
 30
0.0
 11
498.5082240692004
 21
1984.402803159553
 31
0.0
  0
LINE
  5
7A99
330
19
100
AcDbEntity
  8
1
  6
Continuous
100
AcDbLine
 10
478.5082240692004
 20
2087.402803159553
 30
0.0
 11
478.5082240692004
 21
1837.402803159553
 31
0.0
  0
LINE
  5
7A9A
330
19
100
AcDbEntity
  8
1
  6
Continuous
100
AcDbLine
 10
478.5082240692004
 20
2087.402803159553
 30
0.0
 11
498.5082240692004
 21
2087.402803159553
 31
0.0
  0
LINE
  5
7A9B
330
19
100
AcDbEntity
  8
1
  6
Continuous
100
AcDbLine
 10
1084.6082240692
 20
1016.593139723097
 30
0.0
 11
726.6082240692003
 21
1193.493139723097
 31
0.0
  0
LINE
  5
7A9C
330
19
100
AcDbEntity
  8
1
  6
Continuous
100
AcDbLine
 10
1040.2082240692
 20
920.393139723097
 30
0.0
 11
673.4082240692004
 21
1078.293139723097
 31
0.0
  0
LINE
  5
7A9D
330
19
100
AcDbEntity
  8
1
  6
Continuous
100
AcDbLine
 10
698.3082240692003
 20
1261.593139723097
 30
0.0
 11
1153.5082240692
 21
1061.593139723097
 31
0.0
  0
LINE
  5
7A9E
330
19
100
AcDbEntity
  8
1
  6
Continuous
100
AcDbLine
 10
1218.5082240692
 20
881.593139723097
 30
0.0
 11
508.5082240692003
 21
881.593139723097
 31
0.0
  0
LINE
  5
7A9F
330
19
100
AcDbEntity
  8
1
  6
Continuous
100
AcDbLine
 10
1218.5082240692
 20
821.5931397230971
 30
0.0
 11
508.5082240692003
 21
821.5931397230971
 31
0.0
  0
ARC
  5
7AA0
330
19
100
AcDbEntity
  8
1
  6
Continuous
100
AcDbCircle
 10
678.5082240692004
 20
1156.593139723097
 30
0.0
 40
240.9
100
AcDbArc
 50
355.4
 51
85.09999999999999
  0
ARC
  5
7AA1
330
19
100
AcDbEntity
  8
1
  6
Continuous
100
AcDbCircle
 10
715.5082240692004
 20
1153.593139723097
 30
0.0
 40
203.7
100
AcDbArc
 50
264.5
 51
355.4
  0
CIRCLE
  5
7AA2
330
19
100
AcDbEntity
  8
1
  6
Continuous
100
AcDbCircle
 10
698.5082240692004
 20
1136.593139723097
 30
0.0
 40
125.0
  0
CIRCLE
  5
7AA3
330
19
100
AcDbEntity
  8
1
  6
Continuous
100
AcDbCircle
 10
698.5082240692004
 20
1136.593139723097
 30
0.0
 40
145.0
  0
LINE
  5
7AA4
330
19
100
AcDbEntity
  8
1
  6
Continuous
100
AcDbLine
 10
573.5082240692004
 20
881.593139723097
 30
0.0
 11
573.5082240692004
 21
1191.593139723097
 31
0.0
  0
LINE
  5
7AA5
330
19
100
AcDbEntity
  8
1
  6
Continuous
100
AcDbLine
 10
538.5082240692004
 20
881.593139723097
 30
0.0
 11
538.5082240692004
 21
1202.693139723097
 31
0.0
  0
LINE
  5
7AA6
330
19
100
AcDbEntity
  8
1
  6
Continuous
100
AcDbLine
 10
858.5082240692004
 20
1202.693139723097
 30
0.0
 11
858.5082240692004
 21
881.593139723097
 31
0.0
  0
ARC
  5
7AA7
330
19
100
AcDbEntity
  8
1
  6
Continuous
100
AcDbCircle
 10
712.5082240692004
 20
1122.593139723097
 30
0.0
 40
172.6
100
AcDbArc
 50
178.7
 51
264.5
  0
LINE
  5
7AA8
330
19
100
AcDbEntity
  8
1
  6
Continuous
100
AcDbLine
 10
508.5082240692003
 20
881.593139723097
 30
0.0
 11
508.5082240692003
 21
821.5931397230971
 31
0.0
  0
CIRCLE
  5
7AA9
330
19
100
AcDbEntity
  8
1
  6
Continuous
100
AcDbCircle
 10
698.5082240692004
 20
1136.593139723097
 30
0.0
 40
63.5
  0
LINE
  5
7AAA
330
19
100
AcDbEntity
  8
1
  6
Continuous
100
AcDbLine
 10
636.9082240692003
 20
1286.593139723097
 30
0.0
 11
760.1082240692003
 21
1286.593139723097
 31
0.0
  0
LINE
  5
7AAB
330
19
100
AcDbEntity
  8
1
  6
Continuous
100
AcDbLine
 10
538.5082240692004
 20
1103.293139723097
 30
0.0
 11
858.5082240692004
 21
1103.293139723097
 31
0.0
  0
LINE
  5
7AAC
330
19
100
AcDbEntity
  8
2
  6
CENTER
100
AcDbLine
 10
469.3450170692003
 20
1136.593139723097
 30
0.0
 11
1024.0247260692
 21
1136.593139723097
 31
0.0
  0
LINE
  5
7AAD
330
19
100
AcDbEntity
  8
1
  6
Continuous
100
AcDbLine
 10
518.5082240692004
 20
1366.593139723097
 30
0.0
 11
518.5082240692004
 21
1156.593139723097
 31
0.0
  0
LINE
  5
7AAE
330
19
100
AcDbEntity
  8
1
  6
Continuous
100
AcDbLine
 10
573.5082240692004
 20
1191.593139723097
 30
0.0
 11
698.3082240692003
 21
1261.593139723097
 31
0.0
  0
LINE
  5
7AAF
330
19
100
AcDbEntity
  8
1
  6
Continuous
100
AcDbLine
 10
636.9082240692003
 20
1286.593139723097
 30
0.0
 11
538.5082240692004
 21
1202.693139723097
 31
0.0
  0
LINE
  5
7AB0
330
19
100
AcDbEntity
  8
1
  6
Continuous
100
AcDbLine
 10
518.5082240692004
 20
1136.593139723097
 30
0.0
 11
518.5082240692004
 21
1126.593139723097
 31
0.0
  0
LINE
  5
7AB1
330
19
100
AcDbEntity
  8
1
  6
Continuous
100
AcDbLine
 10
518.5082240692004
 20
1126.593139723097
 30
0.0
 11
539.9082240692004
 21
1126.593139723097
 31
0.0
  0
LINE
  5
7AB2
330
19
100
AcDbEntity
  8
2
  6
CENTER
100
AcDbLine
 10
698.5082240692004
 20
2223.119591159553
 30
0.0
 11
698.5082240692004
 21
1727.052458159553
 31
0.0
  0
LINE
  5
7AB3
330
19
100
AcDbEntity
  8
1
  6
Continuous
100
AcDbLine
 10
518.5082240692004
 20
1396.593139723097
 30
0.0
 11
698.9082240692003
 21
1396.593139723097
 31
0.0
  0
LINE
  5
7AB4
330
19
100
AcDbEntity
  8
1
  6
Continuous
100
AcDbLine
 10
518.5082240692004
 20
1396.593139723097
 30
0.0
 11
518.5082240692004
 21
1386.593139723097
 31
0.0
  0
LINE
  5
7AB5
330
19
100
AcDbEntity
  8
1
  6
Continuous
100
AcDbLine
 10
760.1082240692003
 20
1286.593139723097
 30
0.0
 11
858.5082240692004
 21
1202.693139723097
 31
0.0
  0
LINE
  5
7AB6
330
19
100
AcDbEntity
  8
1
  6
Continuous
100
AcDbLine
 10
1153.5082240692
 20
881.593139723097
 30
0.0
 11
1153.5082240692
 21
1061.593139723097
 31
0.0
  0
LINE
  5
7AB7
330
19
100
AcDbEntity
  8
1
  6
Continuous
100
AcDbLine
 10
963.8082240692003
 20
901.5931397230971
 30
0.0
 11
1218.5082240692
 21
901.5931397230971
 31
0.0
  0
LINE
  5
7AB8
330
19
100
AcDbEntity
  8
2
  6
CENTER
100
AcDbLine
 10
1114.1082240692
 20
969.093139723097
 30
0.0
 11
1008.1082240692
 21
969.093139723097
 31
0.0
  0
CIRCLE
  5
7AB9
330
19
100
AcDbEntity
  8
1
  6
Continuous
100
AcDbCircle
 10
1061.1082240692
 20
969.093139723097
 30
0.0
 40
53.0
  0
ARC
  5
7ABA
330
19
100
AcDbEntity
  8
1
  6
Continuous
100
AcDbCircle
 10
1061.1082240692
 20
969.093139723097
 30
0.0
 40
75.8
100
AcDbArc
 50
322.9
 51
217.1
  0
LINE
  5
7ABB
330
19
100
AcDbEntity
  8
1
  6
Continuous
100
AcDbLine
 10
963.8082240692003
 20
881.593139723097
 30
0.0
 11
963.8082240692003
 21
901.5931397230971
 31
0.0
  0
LINE
  5
7ABC
330
19
100
AcDbEntity
  8
1
  6
Continuous
100
AcDbLine
 10
995.1082240692002
 20
901.5931397230971
 30
0.0
 11
995.1082240692002
 21
909.0931397230971
 31
0.0
  0
LINE
  5
7ABD
330
19
100
AcDbEntity
  8
1
  6
Continuous
100
AcDbLine
 10
995.1082240692002
 20
909.0931397230971
 30
0.0
 11
1000.7082240692
 21
923.3931397230971
 31
0.0
  0
POINT
  5
7ABE
330
19
100
AcDbEntity
  8
1
  6
Continuous
100
AcDbPoint
 10
990.7082240692004
 20
969.093139723097
 30
0.0
  0
LINE
  5
7ABF
330
19
100
AcDbEntity
  8
2
  6
CENTER
100
AcDbLine
 10
1061.1082240692
 20
916.0931397230971
 30
0.0
 11
1061.1082240692
 21
1022.093139723097
 31
0.0
  0
LINE
  5
7AC0
330
19
100
AcDbEntity
  8
1
  6
Continuous
100
AcDbLine
 10
1127.1082240692
 20
909.0931397230971
 30
0.0
 11
1121.6082240692
 21
923.3931397230971
 31
0.0
  0
LINE
  5
7AC1
330
19
100
AcDbEntity
  8
1
  6
Continuous
100
AcDbLine
 10
1127.1082240692
 20
901.5931397230971
 30
0.0
 11
1127.1082240692
 21
909.0931397230971
 31
0.0
  0
LINE
  5
7AC2
330
19
100
AcDbEntity
  8
1
  6
Continuous
100
AcDbLine
 10
1218.5082240692
 20
901.5931397230971
 30
0.0
 11
1218.5082240692
 21
881.593139723097
 31
0.0
  0
LINE
  5
7AC3
330
19
100
AcDbEntity
  8
1
  6
Continuous
100
AcDbLine
 10
1218.5082240692
 20
881.593139723097
 30
0.0
 11
1218.5082240692
 21
821.5931397230971
 31
0.0
  0
LINE
  5
7AC4
330
19
100
AcDbEntity
  8
1
  6
Continuous
100
AcDbLine
 10
1248.5082240692
 20
751.5931397230971
 30
0.0
 11
1248.5082240692
 21
721.5931397230971
 31
0.0
  0
LINE
  5
7AC5
330
19
100
AcDbEntity
  8
1
  6
Continuous
100
AcDbLine
 10
710.5082240692004
 20
1837.402803159553
 30
0.0
 11
1049.2082240692
 21
1837.402803159553
 31
0.0
  0
LINE
  5
7AC6
330
19
100
AcDbEntity
  8
1
  6
Continuous
100
AcDbLine
 10
573.5082240692004
 20
1830.402803159553
 30
0.0
 11
1153.5082240692
 21
1830.402803159553
 31
0.0
  0
LINE
  5
7AC7
330
19
100
AcDbEntity
  8
1
  6
Continuous
100
AcDbLine
 10
573.5082240692004
 20
1755.402803159553
 30
0.0
 11
1153.5082240692
 21
1755.402803159553
 31
0.0
  0
LINE
  5
7AC8
330
19
100
AcDbEntity
  8
1
  6
Continuous
100
AcDbLine
 10
909.4082240692003
 20
2087.402803159553
 30
0.0
 11
1248.5082240692
 21
2087.402803159553
 31
0.0
  0
LINE
  5
7AC9
330
19
100
AcDbEntity
  8
1
  6
Continuous
100
AcDbLine
 10
518.5082240692004
 20
2156.202803159553
 30
0.0
 11
518.5082240692004
 21
2034.602803159553
 31
0.0
  0
LINE
  5
7ACA
330
19
100
AcDbEntity
  8
1
  6
Continuous
100
AcDbLine
 10
909.4082240692003
 20
2173.202803159553
 30
0.0
 11
909.4082240692003
 21
2017.602803159553
 31
0.0
  0
LINE
  5
7ACB
330
19
100
AcDbEntity
  8
1
  6
Continuous
100
AcDbLine
 10
710.5082240692004
 20
1867.402803159553
 30
0.0
 11
858.5082240692004
 21
1867.402803159553
 31
0.0
  0
LINE
  5
7ACC
330
19
100
AcDbEntity
  8
1
  6
Continuous
100
AcDbLine
 10
635.0082240692004
 20
1775.402803159553
 30
0.0
 11
762.0082240692004
 21
1775.402803159553
 31
0.0
  0
LINE
  5
7ACD
330
19
100
AcDbEntity
  8
1
  6
Continuous
100
AcDbLine
 10
635.0082240692004
 20
1810.402803159553
 30
0.0
 11
762.0082240692004
 21
1810.402803159553
 31
0.0
  0
LINE
  5
7ACE
330
19
100
AcDbEntity
  8
1
  6
Continuous
100
AcDbLine
 10
538.5082240692004
 20
1996.402803159553
 30
0.0
 11
858.5082240692004
 21
1996.402803159553
 31
0.0
  0
LINE
  5
7ACF
330
19
100
AcDbEntity
  8
1
  6
Continuous
100
AcDbLine
 10
573.5082240692004
 20
1755.402803159553
 30
0.0
 11
573.5082240692004
 21
1830.402803159553
 31
0.0
  0
LINE
  5
7AD0
330
19
100
AcDbEntity
  8
1
  6
Continuous
100
AcDbLine
 10
538.5082240692004
 20
1867.402803159553
 30
0.0
 11
686.5082240692004
 21
1867.402803159553
 31
0.0
  0
LINE
  5
7AD1
330
19
100
AcDbEntity
  8
1
  6
Continuous
100
AcDbLine
 10
551.5082240692004
 20
2005.602803159553
 30
0.0
 11
551.5082240692004
 21
1996.402803159553
 31
0.0
  0
LINE
  5
7AD2
330
19
100
AcDbEntity
  8
1
  6
Continuous
100
AcDbLine
 10
538.5082240692004
 20
1867.402803159553
 30
0.0
 11
538.5082240692004
 21
1996.402803159553
 31
0.0
  0
LINE
  5
7AD3
330
19
100
AcDbEntity
  8
1
  6
Continuous
100
AcDbLine
 10
686.5082240692004
 20
1810.402803159553
 30
0.0
 11
686.5082240692004
 21
1996.402803159553
 31
0.0
  0
LINE
  5
7AD4
330
19
100
AcDbEntity
  8
1
  6
Continuous
100
AcDbLine
 10
710.5082240692004
 20
1810.402803159553
 30
0.0
 11
710.5082240692004
 21
1996.402803159553
 31
0.0
  0
LINE
  5
7AD5
330
19
100
AcDbEntity
  8
1
  6
Continuous
100
AcDbLine
 10
635.0082240692004
 20
1775.402803159553
 30
0.0
 11
635.0082240692004
 21
1810.402803159553
 31
0.0
  0
LINE
  5
7AD6
330
19
100
AcDbEntity
  8
1
  6
Continuous
100
AcDbLine
 10
762.0082240692004
 20
1775.402803159553
 30
0.0
 11
762.0082240692004
 21
1810.402803159553
 31
0.0
  0
LINE
  5
7AD7
330
19
100
AcDbEntity
  8
1
  6
Continuous
100
AcDbLine
 10
845.5082240692004
 20
2005.602803159553
 30
0.0
 11
845.5082240692004
 21
1996.402803159553
 31
0.0
  0
ARC
  5
7AD8
330
19
100
AcDbEntity
  8
1
  6
Continuous
100
AcDbCircle
 10
897.4082240692004
 20
2017.602803159553
 30
0.0
 40
12.0
100
AcDbArc
 50
270.0
 51
0.0
  0
LINE
  5
7AD9
330
19
100
AcDbEntity
  8
1
  6
Continuous
100
AcDbLine
 10
858.5082240692004
 20
1996.402803159553
 30
0.0
 11
858.5082240692004
 21
1867.402803159553
 31
0.0
  0
LINE
  5
7ADA
330
19
100
AcDbEntity
  8
1
  6
Continuous
100
AcDbLine
 10
845.5082240692004
 20
2194.402803159553
 30
0.0
 11
551.5082240692004
 21
2194.402803159553
 31
0.0
  0
LINE
  5
7ADB
330
19
100
AcDbEntity
  8
1
  6
Continuous
100
AcDbLine
 10
551.5082240692004
 20
2186.202803159553
 30
0.0
 11
551.5082240692004
 21
2194.402803159553
 31
0.0
  0
LINE
  5
7ADC
330
19
100
AcDbEntity
  8
1
  6
Continuous
100
AcDbLine
 10
845.5082240692004
 20
2186.202803159553
 30
0.0
 11
845.5082240692004
 21
2194.402803159553
 31
0.0
  0
ARC
  5
7ADD
330
19
100
AcDbEntity
  8
1
  6
Continuous
100
AcDbCircle
 10
897.4082240692004
 20
2173.202803159553
 30
0.0
 40
12.0
100
AcDbArc
 50
0.0
 51
90.0
  0
LINE
  5
7ADE
330
19
100
AcDbEntity
  8
1
  6
Continuous
100
AcDbLine
 10
1248.5082240692
 20
2087.402803159553
 30
0.0
 11
1248.5082240692
 21
1837.402803159553
 31
0.0
  0
LINE
  5
7ADF
330
19
100
AcDbEntity
  8
1
  6
Continuous
100
AcDbLine
 10
1073.2082240692
 20
1837.402803159553
 30
0.0
 11
1248.5082240692
 21
1837.402803159553
 31
0.0
  0
LINE
  5
7AE0
330
19
100
AcDbEntity
  8
1
  6
Continuous
100
AcDbLine
 10
1008.2082240692
 20
1775.402803159553
 30
0.0
 11
1114.2082240692
 21
1775.402803159553
 31
0.0
  0
LINE
  5
7AE1
330
19
100
AcDbEntity
  8
1
  6
Continuous
100
AcDbLine
 10
1008.2082240692
 20
1810.402803159553
 30
0.0
 11
1114.2082240692
 21
1810.402803159553
 31
0.0
  0
LINE
  5
7AE2
330
19
100
AcDbEntity
  8
1
  6
Continuous
100
AcDbLine
 10
984.5082240692004
 20
2065.702803159553
 30
0.0
 11
1136.0082240692
 21
2065.702803159553
 31
0.0
  0
LINE
  5
7AE3
330
19
100
AcDbEntity
  8
1
  6
Continuous
100
AcDbLine
 10
984.5082240692004
 20
1861.702803159553
 30
0.0
 11
1136.0082240692
 21
1861.702803159553
 31
0.0
  0
LINE
  5
7AE4
330
19
100
AcDbEntity
  8
1
  6
Continuous
100
AcDbLine
 10
1008.2082240692
 20
1775.402803159553
 30
0.0
 11
1008.2082240692
 21
1810.402803159553
 31
0.0
  0
LINE
  5
7AE5
330
19
100
AcDbEntity
  8
1
  6
Continuous
100
AcDbLine
 10
984.5082240692004
 20
1861.702803159553
 30
0.0
 11
984.5082240692004
 21
2065.702803159553
 31
0.0
  0
LINE
  5
7AE6
330
19
100
AcDbEntity
  8
1
  6
Continuous
100
AcDbLine
 10
1114.2082240692
 20
1775.402803159553
 30
0.0
 11
1114.2082240692
 21
1810.402803159553
 31
0.0
  0
LINE
  5
7AE7
330
19
100
AcDbEntity
  8
1
  6
Continuous
100
AcDbLine
 10
1136.0082240692
 20
1861.702803159553
 30
0.0
 11
1136.0082240692
 21
2065.702803159553
 31
0.0
  0
LINE
  5
7AE8
330
19
100
AcDbEntity
  8
1
  6
Continuous
100
AcDbLine
 10
1073.2082240692
 20
1810.402803159553
 30
0.0
 11
1073.2082240692
 21
1861.702803159553
 31
0.0
  0
LINE
  5
7AE9
330
19
100
AcDbEntity
  8
1
  6
Continuous
100
AcDbLine
 10
1049.2082240692
 20
1810.402803159553
 30
0.0
 11
1049.2082240692
 21
1861.702803159553
 31
0.0
  0
LINE
  5
7AEA
330
19
100
AcDbEntity
  8
1
  6
Continuous
100
AcDbLine
 10
1153.5082240692
 20
1755.402803159553
 30
0.0
 11
1153.5082240692
 21
1830.402803159553
 31
0.0
  0
LINE
  5
7AEB
330
19
100
AcDbEntity
  8
1
  6
Continuous
100
AcDbLine
 10
1428.861047930848
 20
751.5931397230971
 30
0.0
 11
1678.861047930848
 21
751.5931397230971
 31
0.0
  0
LINE
  5
7AEC
330
19
100
AcDbEntity
  8
1
  6
Continuous
100
AcDbLine
 10
1428.861047930848
 20
721.5931397230971
 30
0.0
 11
1678.861047930848
 21
721.5931397230971
 31
0.0
  0
LINE
  5
7AED
330
19
100
AcDbEntity
  8
1
  6
Continuous
100
AcDbLine
 10
1346.861047930848
 20
881.593139723097
 30
0.0
 11
1678.861047930848
 21
881.593139723097
 31
0.0
  0
LINE
  5
7AEE
330
19
100
AcDbEntity
  8
1
  6
Continuous
100
AcDbLine
 10
1428.861047930848
 20
821.5931397230971
 30
0.0
 11
1678.861047930848
 21
821.5931397230971
 31
0.0
  0
LINE
  5
7AEF
330
19
100
AcDbEntity
  8
1
  6
Continuous
100
AcDbLine
 10
1458.861047930848
 20
1098.393139723097
 30
0.0
 11
1587.861047930848
 21
1202.693139723097
 31
0.0
  0
LINE
  5
7AF0
330
19
100
AcDbEntity
  8
1
  6
Continuous
100
AcDbLine
 10
1458.861047930848
 20
881.593139723097
 30
0.0
 11
1458.861047930848
 21
1098.393139723097
 31
0.0
  0
LINE
  5
7AF1
330
19
100
AcDbEntity
  8
1
  6
Continuous
100
AcDbLine
 10
1346.861047930848
 20
881.593139723097
 30
0.0
 11
1346.861047930848
 21
1261.593139723097
 31
0.0
  0
LINE
  5
7AF2
330
19
100
AcDbEntity
  8
1
  6
Continuous
100
AcDbLine
 10
1421.861047930848
 20
881.593139723097
 30
0.0
 11
1421.861047930848
 21
1261.593139723097
 31
0.0
  0
LINE
  5
7AF5
330
19
100
AcDbEntity
  8
1
  6
Continuous
100
AcDbLine
 10
1401.861047930848
 20
957.0931397230971
 30
0.0
 11
1458.861047930848
 21
957.0931397230971
 31
0.0
  0
LINE
  5
7AF6
330
19
100
AcDbEntity
  8
1
  6
Continuous
100
AcDbLine
 10
1401.861047930848
 20
981.0931397230971
 30
0.0
 11
1458.861047930848
 21
981.0931397230971
 31
0.0
  0
LINE
  5
7AF7
330
19
100
AcDbEntity
  8
1
  6
Continuous
100
AcDbLine
 10
1366.861047930848
 20
1022.093139723097
 30
0.0
 11
1401.861047930848
 21
1022.093139723097
 31
0.0
  0
LINE
  5
7AF8
330
19
100
AcDbEntity
  8
1
  6
Continuous
100
AcDbLine
 10
1366.861047930848
 20
1022.093139723097
 30
0.0
 11
1366.861047930848
 21
916.0931397230971
 31
0.0
  0
LINE
  5
7AF9
330
19
100
AcDbEntity
  8
1
  6
Continuous
100
AcDbLine
 10
1366.861047930848
 20
916.0931397230971
 30
0.0
 11
1401.861047930848
 21
916.0931397230971
 31
0.0
  0
LINE
  5
7AFA
330
19
100
AcDbEntity
  8
1
  6
Continuous
100
AcDbLine
 10
1401.861047930848
 20
1022.093139723097
 30
0.0
 11
1401.861047930848
 21
916.0931397230971
 31
0.0
  0
LINE
  5
7AFB
330
19
100
AcDbEntity
  8
1
  6
Continuous
100
AcDbLine
 10
1428.861047930848
 20
751.5931397230971
 30
0.0
 11
1428.861047930848
 21
721.5931397230971
 31
0.0
  0
LINE
  5
7AFC
330
19
100
AcDbEntity
  8
1
  6
Continuous
100
AcDbLine
 10
1428.861047930848
 20
881.593139723097
 30
0.0
 11
1428.861047930848
 21
821.5931397230971
 31
0.0
  0
LINE
  5
7AFD
330
19
100
AcDbEntity
  8
1
  6
Continuous
100
AcDbLine
 10
1346.861047930848
 20
1261.593139723097
 30
0.0
 11
1421.861047930848
 21
1261.593139723097
 31
0.0
  0
LINE
  5
7AFE
330
19
100
AcDbEntity
  8
1
  6
Continuous
100
AcDbLine
 10
1401.861047930848
 20
1148.593139723097
 30
0.0
 11
1520.961047930848
 21
1148.593139723097
 31
0.0
  0
LINE
  5
7AFF
330
19
100
AcDbEntity
  8
1
  6
Continuous
100
AcDbLine
 10
1401.861047930848
 20
1124.593139723097
 30
0.0
 11
1491.261047930848
 21
1124.593139723097
 31
0.0
  0
LINE
  5
7B00
330
19
100
AcDbEntity
  8
1
  6
Continuous
100
AcDbLine
 10
1366.861047930848
 20
1200.093139723097
 30
0.0
 11
1366.861047930848
 21
1073.093139723097
 31
0.0
  0
LINE
  5
7B01
330
19
100
AcDbEntity
  8
1
  6
Continuous
100
AcDbLine
 10
1366.861047930848
 20
1200.093139723097
 30
0.0
 11
1401.861047930848
 21
1200.093139723097
 31
0.0
  0
LINE
  5
7B02
330
19
100
AcDbEntity
  8
1
  6
Continuous
100
AcDbLine
 10
1366.861047930848
 20
1073.093139723097
 30
0.0
 11
1401.861047930848
 21
1073.093139723097
 31
0.0
  0
LINE
  5
7B03
330
19
100
AcDbEntity
  8
1
  6
Continuous
100
AcDbLine
 10
1401.861047930848
 20
1200.093139723097
 30
0.0
 11
1401.861047930848
 21
1073.093139723097
 31
0.0
  0
LINE
  5
7B05
330
19
100
AcDbEntity
  8
1
  6
Continuous
100
AcDbLine
 10
1587.861047930848
 20
1283.593139723097
 30
0.0
 11
1587.861047930848
 21
881.593139723097
 31
0.0
  0
LINE
  5
7B0C
330
19
100
AcDbEntity
  8
1
  6
Continuous
100
AcDbLine
 10
1678.861047930848
 20
751.5931397230971
 30
0.0
 11
1678.861047930848
 21
721.5931397230971
 31
0.0
  0
LINE
  5
7B0D
330
19
100
AcDbEntity
  8
1
  6
Continuous
100
AcDbLine
 10
1678.861047930848
 20
881.593139723097
 30
0.0
 11
1678.861047930848
 21
821.5931397230971
 31
0.0
  0
LINE
  5
7B16
330
19
100
AcDbEntity
  8
4
  6
Continuous
100
AcDbLine
 10
1850.0
 20
500.0
 30
0.0
 11
1850.0
 21
300.0
 31
0.0
  0
LINE
  5
7B17
330
19
100
AcDbEntity
  8
4
  6
Continuous
100
AcDbLine
 10
1150.0
 20
500.0
 30
0.0
 11
1150.0
 21
300.0
 31
0.0
  0
LINE
  5
7B18
330
19
100
AcDbEntity
  8
4
  6
Continuous
100
AcDbLine
 10
650.0
 20
500.0
 30
0.0
 11
650.0
 21
300.0
 31
0.0
  0
LINE
  5
7B1B
330
19
100
AcDbEntity
  8
4
  6
Continuous
100
AcDbLine
 10
650.0
 20
300.0
 30
0.0
 11
1850.0
 21
300.0
 31
0.0
  0
LINE
  5
7B1C
330
19
100
AcDbEntity
  8
4
  6
Continuous
100
AcDbLine
 10
650.0
 20
400.0
 30
0.0
 11
1850.0
 21
400.0
 31
0.0
  0
TEXT
  5
7B1D
330
19
100
AcDbEntity
  8
4
  6
Continuous
100
AcDbText
 10
688.502081
 20
431.543026
 30
0.0
 40
50.0
  1
機器名称
100
AcDbText
  0
TEXT
  5
7B1E
330
19
100
AcDbEntity
  8
4
  6
Continuous
100
AcDbText
 10
686.258106
 20
321.645157
 30
0.0
 40
50.0
  1
機器型番
100
AcDbText
  0
TEXT
  5
7B1F
330
19
100
AcDbEntity
  8
4
  6
Continuous
100
AcDbText
 10
1177.678745
 20
422.571769
 30
0.0
 40
45.0
  1
ミツヤニューマルチファン
100
AcDbText
  0
TEXT
  5
7B20
330
19
100
AcDbEntity
  8
4
  6
Continuous
100
AcDbText
 10
1186.654496
 20
317.159584
 30
0.0
 40
50.0
  1
NM#1 1/2-1
100
AcDbText
  0
TEXT
  5
7B22
330
19
100
AcDbEntity
  8
4
  6
Continuous
100
AcDbText
 10
730.227282
 20
2383.428841
 30
0.0
 40
54.0
  1
床置防振ベット
100
AcDbText
  0
TEXT
  5
7B23
330
19
100
AcDbEntity
  8
4
  6
Continuous
100
AcDbText
 10
316.167593
 20
2533.880976000001
 30
0.0
 40
72.0
  1
ベルト駆動式片吸込片持多翼ファン
100
AcDbText
  0
LINE
  5
7B24
330
19
100
AcDbEntity
  8
4
  6
Continuous
100
AcDbLine
 10
250.0
 20
2469.408754
 30
0.0
 11
1850.0
 21
2469.408754
 31
0.0
  0
LINE
  5
7B25
330
19
100
AcDbEntity
  8
4
  6
Continuous
100
AcDbLine
 10
250.0
 20
2669.408754
 30
0.0
 11
1850.0
 21
2669.408754
 31
0.0
  0
LINE
  5
7B26
330
19
100
AcDbEntity
  8
4
  6
Continuous
100
AcDbLine
 10
650.0
 20
500.0
 30
0.0
 11
1850.0
 21
500.0
 31
0.0
  0
LINE
  5
7B27
330
19
100
AcDbEntity
  8
4
  6
Continuous
100
AcDbLine
 10
250.0
 20
2669.408754
 30
0.0
 11
250.0
 21
2469.408754
 31
0.0
  0
TEXT
  5
7B28
330
19
100
AcDbEntity
  8
4
  6
Continuous
100
AcDbText
 10
294.36845
 20
2382.319478000001
 30
0.0
 40
54.0
  1
左回転左横向
100
AcDbText
  0
TEXT
  5
7B29
330
19
100
AcDbEntity
  8
4
  6
Continuous
100
AcDbText
 10
1468.969559
 20
2706.061081
 30
0.0
 40
56.0
  1
No.
100
AcDbText
  0
TEXT
  5
7B2A
330
19
100
AcDbEntity
  8
4
  6
Continuous
100
AcDbText
 10
1311.296063
 20
2383.428841
 30
0.0
 40
54.0
  1
縮尺：1/10
100
AcDbText
  0
LINE
  5
7B2B
330
19
100
AcDbEntity
  8
4
  6
Continuous
100
AcDbLine
 10
1850.0
 20
2669.408754
 30
0.0
 11
1850.0
 21
2469.408754
 31
0.0
  0
LINE
  5
7B2D
330
19
100
AcDbEntity
  8
4
  6
Continuous
100
AcDbLine
 10
1440.617422
 20
2681.263583
 30
0.0
 11
1440.617422
 21
2786.652262
 31
0.0
  0
LINE
  5
7B2E
330
19
100
AcDbEntity
  8
4
  6
Continuous
100
AcDbLine
 10
1440.617422
 20
2786.652262
 30
0.0
 11
1850.0
 21
2786.652262
 31
0.0
  0
LINE
  5
7B2F
330
19
100
AcDbEntity
  8
4
  6
Continuous
100
AcDbLine
 10
1850.0
 20
2786.652262
 30
0.0
 11
1850.0
 21
2681.263583
 31
0.0
  0
LINE
  5
7B30
330
19
100
AcDbEntity
  8
4
  6
Continuous
100
AcDbLine
 10
1850.0
 20
2681.263583
 30
0.0
 11
1440.617422
 21
2681.263583
 31
0.0
  0
DIMENSION
  5
7B48
330
19
100
AcDbEntity
  8
3
  6
Continuous
100
AcDbDimension
280
     0
  2
*D1
 10
698.5082240692004
 20
648.038979723097
 30
0.0
 11
592.7971710692003
 21
648.038979723097
 31
0.0
 70
   160
 71
     5
 42
220.0
 73
     0
 74
     0
 75
     0
  3
IGA
100
AcDbAlignedDimension
 13
478.5082240692004
 23
721.5931397230971
 33
0.0
 14
698.5082240692004
 24
721.5931397230971
 34
0.0
100
AcDbRotatedDimension
1001
ACAD
1000
DSTYLE
1002
{
1070
   287
1070
     3
1070
    40
1040
10.0
1070
   143
1040
0.039
1070
   172
1070
     1
1070
   271
1070
     0
1070
   279
1070
     0
1070
   288
1070
     1
1002
}
  0
DIMENSION
  5
7B54
330
19
100
AcDbEntity
  8
3
  6
Continuous
100
AcDbDimension
280
     0
  2
*D2
 10
1248.5082240692
 20
648.038979723097
 30
0.0
 11
973.5082240692005
 21
673.038979723097
 31
0.0
 70
    32
 71
     5
 42
550.0
 73
     0
 74
     0
 75
     0
  3
IGA
100
AcDbAlignedDimension
 13
698.5082240692004
 23
721.5931397230971
 33
0.0
 14
1248.5082240692
 24
721.5931397230971
 34
0.0
100
AcDbRotatedDimension
1001
ACAD
1000
DSTYLE
1002
{
1070
   287
1070
     4
1070
    40
1040
10.0
1070
    75
1070
     1
1070
   143
1040
0.039
1070
   172
1070
     1
1070
   271
1070
     0
1070
   279
1070
     1
1070
   288
1070
     1
1002
}
  0
DIMENSION
  5
7B61
330
19
100
AcDbEntity
  8
3
  6
Continuous
100
AcDbDimension
280
     0
  2
*D3
 10
445.8908660692005
 20
1136.593139723097
 30
0.0
 11
445.8908660692003
 21
1256.828984723097
 31
0.0
 70
   160
 71
     5
 42
-1.0
 73
     0
 74
     0
 75
     0
  3
IGA
100
AcDbAlignedDimension
 13
498.5082240692004
 23
1386.593139723097
 33
0.0
 14
498.5082240692004
 24
1136.593139723097
 34
0.0
 50
90.0
100
AcDbRotatedDimension
1001
ACAD
1000
DSTYLE
1002
{
1070
   287
1070
     3
1070
    40
1040
10.0
1070
   143
1040
0.039
1070
   172
1070
     1
1070
   271
1070
     0
1070
   279
1070
     0
1070
   288
1070
     1
1002
}
  0
DIMENSION
  5
7B7B
330
19
100
AcDbEntity
  8
3
  6
Continuous
100
AcDbDimension
280
     0
  2
*D4
 10
392.646255291158
 20
1136.593139723097
 30
0.0
 11
392.6462552911578
 21
1257.684367723097
 31
0.0
 70
   160
 71
     5
 42
-1.0
 73
     0
 74
     0
 75
     0
  3
IGA
100
AcDbAlignedDimension
 13
518.5082240692004
 23
1396.593139723097
 33
0.0
 14
498.5082240692004
 24
1136.593139723097
 34
0.0
 50
90.0
100
AcDbRotatedDimension
1001
ACAD
1000
DSTYLE
1002
{
1070
   287
1070
     3
1070
    40
1040
10.0
1070
   143
1040
0.039
1070
   172
1070
     1
1070
   271
1070
     0
1070
   279
1070
     0
1070
   288
1070
     1
1002
}
  0
DIMENSION
  5
7B87
330
19
100
AcDbEntity
  8
3
  6
Continuous
100
AcDbDimension
280
     0
  2
*D5
 10
392.6462552911578
 20
821.5931397230971
 30
0.0
 11
367.6462552911577
 21
979.0931397230972
 31
0.0
 70
    32
 71
     5
 42
-1.0
 73
     0
 74
     0
 75
     0
  3
IGA
100
AcDbAlignedDimension
 13
498.5082240692004
 23
1136.593139723097
 33
0.0
 14
508.5082240692003
 24
821.5931397230971
 34
0.0
 50
90.0
100
AcDbRotatedDimension
1001
ACAD
1000
DSTYLE
1002
{
1070
   287
1070
     4
1070
    40
1040
10.0
1070
    75
1070
     1
1070
   143
1040
0.039
1070
   172
1070
     1
1070
   271
1070
     0
1070
   279
1070
     1
1070
   288
1070
     1
1002
}
  0
DIMENSION
  5
7BF3
330
19
100
AcDbEntity
  8
3
  6
Continuous
100
AcDbDimension
280
     0
  2
*D6
 10
698.5082240692004
 20
1452.241577723097
 30
0.0
 11
603.9416310692004
 21
1452.241577723097
 31
0.0
 70
   160
 71
     5
 42
-1.0
 73
     0
 74
     0
 75
     0
  3
IGA
100
AcDbAlignedDimension
 13
498.5082240692004
 23
1407.593139723097
 33
0.0
 14
698.5082240692004
 24
1396.593139723097
 34
0.0
100
AcDbRotatedDimension
1001
ACAD
1000
DSTYLE
1002
{
1070
   287
1070
     3
1070
    40
1040
10.0
1070
   143
1040
0.039
1070
   172
1070
     1
1070
   271
1070
     0
1070
   279
1070
     0
1070
   288
1070
     1
1002
}
  0
DIMENSION
  5
7BFF
330
19
100
AcDbEntity
  8
3
  6
Continuous
100
AcDbDimension
280
     0
  2
*D7
 10
918.4976080692004
 20
1452.241577723097
 30
0.0
 11
808.5029160692004
 21
1477.241577723097
 31
0.0
 70
    32
 71
     5
 42
-1.0
 73
     0
 74
     0
 75
     0
  3
IGA
100
AcDbAlignedDimension
 13
698.5082240692004
 23
1396.593139723097
 33
0.0
 14
918.4976080692004
 24
1136.593139723097
 34
0.0
100
AcDbRotatedDimension
1001
ACAD
1000
DSTYLE
1002
{
1070
   287
1070
     4
1070
    40
1040
10.0
1070
    75
1070
     1
1070
   143
1040
0.039
1070
   172
1070
     1
1070
   271
1070
     0
1070
   279
1070
     1
1070
   288
1070
     1
1002
}
  0
DIMENSION
  5
7C0C
330
19
100
AcDbEntity
  8
3
  6
Continuous
100
AcDbDimension
280
     0
  2
*D8
 10
1248.5082240692
 20
1675.567724159553
 30
0.0
 11
853.0485010692004
 21
1675.567724159553
 31
0.0
 70
   160
 71
     5
 42
-1.0
 73
     0
 74
     0
 75
     0
  3
IGA
100
AcDbAlignedDimension
 13
478.5082240692004
 23
1837.402803159553
 33
0.0
 14
1248.5082240692
 24
1837.402803159553
 34
0.0
100
AcDbRotatedDimension
1001
ACAD
1000
DSTYLE
1002
{
1070
   287
1070
     3
1070
    40
1040
10.0
1070
   143
1040
0.039
1070
   172
1070
     1
1070
   271
1070
     0
1070
   279
1070
     0
1070
   288
1070
     1
1002
}
  0
DIMENSION
  5
7C19
330
19
100
AcDbEntity
  8
3
  6
Continuous
100
AcDbDimension
280
     0
  2
*D9
 10
1343.9019760692
 20
1837.402803159553
 30
0.0
 11
1343.9019760692
 21
1964.016992159553
 31
0.0
 70
   160
 71
     5
 42
-1.0
 73
     0
 74
     0
 75
     0
  3
IGA
100
AcDbAlignedDimension
 13
1248.5082240692
 23
2087.402803159553
 33
0.0
 14
1248.5082240692
 24
1837.402803159553
 34
0.0
 50
90.0
100
AcDbRotatedDimension
1001
ACAD
1000
DSTYLE
1002
{
1070
   287
1070
     3
1070
    40
1040
10.0
1070
   143
1040
0.039
1070
   172
1070
     1
1070
   271
1070
     0
1070
   279
1070
     0
1070
   288
1070
     1
1002
}
  0
LINE
  5
7C1A
330
19
100
AcDbEntity
  8
2
  6
CENTER
100
AcDbLine
 10
939.6029960692004
 20
2095.402803159553
 30
0.0
 11
468.2535990692003
 21
2095.402803159553
 31
0.0
  0
LINE
  5
7C1B
330
19
100
AcDbEntity
  8
2
  6
CENTER
100
AcDbLine
 10
698.5082240692004
 20
1427.188214723097
 30
0.0
 11
698.5082240692003
 21
721.593139723097
 31
0.0
  0
LINE
  5
7C1C
330
19
100
AcDbEntity
  8
2
  6
CENTER
100
AcDbLine
 10
1686.861047930849
 20
1453.261735723097
 30
0.0
 11
1686.861047930849
 21
721.593139723097
 31
0.0
  0
LINE
  5
7C1E
330
19
100
AcDbEntity
  8
2
  6
CENTER
100
AcDbLine
 10
1311.240391930848
 20
1136.593139723097
 30
0.0
 11
1801.153357930848
 21
1136.593139723097
 31
0.0
  0
DIMENSION
  5
7C2B
330
19
100
AcDbEntity
  8
3
  6
Continuous
100
AcDbDimension
280
     0
  2
*D10
 10
1678.861047930848
 20
645.8339837230972
 30
0.0
 11
1552.798559930848
 21
645.8339837230972
 31
0.0
 70
   160
 71
     5
 42
250.0000000000002
 73
     0
 74
     0
 75
     0
  3
IGA
100
AcDbAlignedDimension
 13
1428.861047930848
 23
721.5931397230971
 33
0.0
 14
1678.861047930848
 24
721.5931397230971
 34
0.0
100
AcDbRotatedDimension
1001
ACAD
1000
DSTYLE
1002
{
1070
   287
1070
     3
1070
    40
1040
10.0
1070
   143
1040
0.039
1070
   172
1070
     1
1070
   271
1070
     0
1070
   279
1070
     0
1070
   288
1070
     1
1002
}
  0
LINE
  5
7C7D
330
19
100
AcDbEntity
  8
1
  6
Continuous
100
AcDbLine
 10
1785.861047930848
 20
1283.593139723097
 30
0.0
 11
1785.861047930848
 21
989.593139723097
 31
0.0
  0
LINE
  5
7C7E
330
19
100
AcDbEntity
  8
1
  6
Continuous
100
AcDbLine
 10
1776.861047930848
 20
937.693139723097
 30
0.0
 11
1776.861047930848
 21
1387.593139723097
 31
0.0
  0
LINE
  5
7C7F
330
19
100
AcDbEntity
  8
1
  6
Continuous
100
AcDbLine
 10
1596.861047930848
 20
1387.593139723097
 30
0.0
 11
1596.861047930848
 21
937.693139723097
 31
0.0
  0
LINE
  5
7C80
330
19
100
AcDbEntity
  8
1
  6
Continuous
100
AcDbLine
 10
1607.861047930849
 20
925.6931397230969
 30
0.0
 11
1765.861047930848
 21
925.6931397230969
 31
0.0
  0
LINE
  5
7C81
330
19
100
AcDbEntity
  8
1
  6
Continuous
100
AcDbLine
 10
1596.861047930848
 20
989.593139723097
 30
0.0
 11
1587.861047930848
 21
989.593139723097
 31
0.0
  0
ARC
  5
7C82
330
19
100
AcDbEntity
  8
1
  6
Continuous
100
AcDbCircle
 10
1607.861047930849
 20
937.693139723097
 30
0.0
 40
12.0
100
AcDbArc
 50
180.0
 51
270.0
  0
ARC
  5
7C83
330
19
100
AcDbEntity
  8
1
  6
Continuous
100
AcDbCircle
 10
1608.861047930848
 20
937.693139723097
 30
0.0
 40
12.0
100
AcDbArc
 50
180.0
 51
270.0
  0
LINE
  5
7C84
330
19
100
AcDbEntity
  8
1
  6
Continuous
100
AcDbLine
 10
1776.861047930848
 20
989.593139723097
 30
0.0
 11
1785.861047930848
 21
989.593139723097
 31
0.0
  0
ARC
  5
7C85
330
19
100
AcDbEntity
  8
1
  6
Continuous
100
AcDbCircle
 10
1764.861047930849
 20
937.693139723097
 30
0.0
 40
12.0
100
AcDbArc
 50
270.0
 51
0.0
  0
LINE
  5
7C87
330
19
100
AcDbEntity
  8
1
  6
Continuous
100
AcDbLine
 10
1776.861047930848
 20
1387.593139723097
 30
0.0
 11
1596.861047930848
 21
1387.593139723097
 31
0.0
  0
LINE
  5
7C8A
330
19
100
AcDbEntity
  8
1
  6
Continuous
100
AcDbLine
 10
1596.861047930848
 20
1283.593139723097
 30
0.0
 11
1587.861047930848
 21
1283.593139723097
 31
0.0
  0
LINE
  5
7C8B
330
19
100
AcDbEntity
  8
1
  6
Continuous
100
AcDbLine
 10
1776.861047930848
 20
1283.593139723097
 30
0.0
 11
1785.861047930848
 21
1283.593139723097
 31
0.0
  0
DIMENSION
  5
7C98
330
19
100
AcDbEntity
  8
3
  6
Continuous
100
AcDbDimension
280
     0
  2
*D11
 10
1776.861047930848
 20
1449.170435723097
 30
0.0
 11
1684.312954930848
 21
1449.170435723097
 31
0.0
 70
   160
 71
     5
 42
-1.0
 73
     0
 74
     0
 75
     0
  3
IGA
100
AcDbAlignedDimension
 13
1596.861047930848
 23
1387.593139723097
 33
0.0
 14
1776.861047930848
 24
1387.593139723097
 34
0.0
100
AcDbRotatedDimension
1001
ACAD
1000
DSTYLE
1002
{
1070
   287
1070
     3
1070
    40
1040
10.0
1070
   143
1040
0.039
1070
   172
1070
     1
1070
   271
1070
     0
1070
   279
1070
     0
1070
   288
1070
     1
1002
}
  0
DIMENSION
  5
7CA5
330
19
100
AcDbEntity
  8
3
  6
Continuous
100
AcDbDimension
280
     0
  2
*D12
 10
1686.861047930849
 20
1503.270241723097
 30
0.0
 11
1531.424478930848
 21
1503.270241723097
 31
0.0
 70
   160
  1
(340)
 71
     5
 42
340.0000000000002
 73
     0
 74
     0
 75
     0
  3
IGA
100
AcDbAlignedDimension
 13
1346.861047930848
 23
1261.593139723097
 33
0.0
 14
1686.861047930849
 24
1496.496731723097
 34
0.0
100
AcDbRotatedDimension
1001
ACAD
1000
DSTYLE
1002
{
1070
   287
1070
     3
1070
    40
1040
10.0
1070
   143
1040
0.039
1070
   172
1070
     1
1070
   271
1070
     0
1070
   279
1070
     0
1070
   288
1070
     1
1002
}
  0
DIMENSION
  5
7CB3
330
19
100
AcDbEntity
  8
3
  6
Continuous
100
AcDbDimension
280
     0
  2
*D13
 10
1785.861047930848
 20
1503.270241723097
 30
0.0
 11
1733.911618930848
 21
1503.494725723097
 31
0.0
 70
   160
 71
     5
 42
-1.0
 73
     0
 74
     0
 75
     0
  3
IGA
100
AcDbAlignedDimension
 13
1686.861047930849
 23
1496.496731723097
 33
0.0
 14
1785.861047930848
 24
1283.593139723097
 34
0.0
100
AcDbRotatedDimension
1001
ACAD
1000
DSTYLE
1002
{
1070
   287
1070
     4
1070
    40
1040
10.0
1070
    75
1070
     1
1070
   143
1040
0.039
1070
   172
1070
     1
1070
   271
1070
     0
1070
   279
1070
     1
1070
   288
1070
     1
1002
}
  0
LINE
  5
7CCB
330
19
100
AcDbEntity
  8
3
  6
Continuous
100
AcDbLine
 10
1785.861047930848
 20
1261.593139723097
 30
0.0
 11
1802.776509930848
 21
1261.593139723097
 31
0.0
  0
LINE
  5
7CCD
330
19
100
AcDbEntity
  8
3
  6
Continuous
100
AcDbLine
 10
1785.861047930848
 20
1011.593139723097
 30
0.0
 11
1798.349526930848
 21
1011.593139723097
 31
0.0
  0
DIMENSION
  5
7CDA
330
19
100
AcDbEntity
  8
3
  6
Continuous
100
AcDbDimension
280
     0
  2
*D14
 10
1855.014988930849
 20
1011.593139723097
 30
0.0
 11
1855.014988930848
 21
1141.409386723097
 31
0.0
 70
   160
 71
     5
 42
-1.0
 73
     0
 74
     0
 75
     0
  3
IGA
100
AcDbAlignedDimension
 13
1785.861047930848
 23
1261.593139723097
 33
0.0
 14
1785.861047930848
 24
1011.593139723097
 34
0.0
 50
90.0
100
AcDbRotatedDimension
1001
ACAD
1000
DSTYLE
1002
{
1070
   287
1070
     3
1070
     3
1000
φ<>
1070
    40
1040
10.0
1070
   143
1040
0.039
1070
   172
1070
     1
1070
   271
1070
     0
1070
   279
1070
     0
1070
   288
1070
     1
1002
}
  0
DIMENSION
  5
7D9F
330
19
100
AcDbEntity
  8
3
100
AcDbDimension
280
     0
  2
*D15
 10
1686.861047930849
 20
646.9280388506295
 30
0.0
 11
1746.861047930849
 21
646.9280388506295
 31
0.0
 70
   160
 71
     5
 42
8.0
 73
     0
 74
     0
 75
     0
  3
IGA
100
AcDbAlignedDimension
 13
1678.861047930848
 23
721.5931397230971
 33
0.0
 14
1686.861047930849
 24
721.593139723097
 34
0.0
100
AcDbRotatedDimension
1001
ACAD
1000
DSTYLE
1002
{
1070
   287
1070
     3
1070
    40
1040
10.0
1070
   143
1040
0.039
1070
   172
1070
     1
1070
   271
1070
     0
1070
   279
1070
     0
1070
   288
1070
     1
1002
}
  0
DIMENSION
  5
7DB6
330
19
100
AcDbEntity
  8
3
100
AcDbDimension
280
     0
  2
*D17
 10
392.5010508179621
 20
721.5931397230971
 30
0.0
 11
367.501050817962
 21
647.3074254373829
 31
0.0
 70
    32
 71
     5
 42
30.0
 73
     0
 74
     0
 75
     0
  3
IGA
100
AcDbAlignedDimension
 13
478.5082240692004
 23
751.5931397230971
 33
0.0
 14
478.5082240692004
 24
721.5931397230971
 34
0.0
 50
90.0
100
AcDbRotatedDimension
1001
ACAD
1000
DSTYLE
1002
{
1070
   287
1070
     3
1070
    40
1040
10.0
1070
   143
1040
0.039
1070
   172
1070
     1
1070
   271
1070
     0
1070
   279
1070
     0
1070
     6
1000
DOT
1002
}
  0
DIMENSION
  5
7DC3
330
19
100
AcDbEntity
  8
3
100
AcDbDimension
280
     0
  2
*D18
 10
392.5010508179621
 20
821.5931397230971
 30
0.0
 11
355.7274367081154
 21
791.7760359238136
 31
0.0
 70
   160
 71
     5
 42
70.0
 73
     0
 74
     0
 75
     0
  3
IGA
100
AcDbAlignedDimension
 13
478.5082240692004
 23
751.5931397230971
 33
0.0
 14
508.5082240692003
 24
821.5931397230971
 34
0.0
 50
90.0
100
AcDbRotatedDimension
1001
ACAD
1000
DSTYLE
1002
{
1070
     3
1000
(<>)
1070
    40
1040
10.0
1070
   143
1040
0.039
1070
   172
1070
     1
1070
   271
1070
     0
1070
   343
1005
7DA0
1002
}
  0
DIMENSION
  5
7F81
330
19
100
AcDbEntity
  8
3
100
AcDbDimension
280
     0
  2
*D19
 10
309.8523099883987
 20
1407.593139723097
 30
0.0
 11
276.9951671312556
 21
1064.593139723097
 31
0.0
 70
    32
 71
     5
 42
685.9999999999997
 73
     0
 74
     0
 75
     0
  3
IGA
100
AcDbAlignedDimension
 13
478.5082240692004
 23
721.5931397230971
 33
0.0
 14
498.5082240692004
 24
1407.593139723097
 34
0.0
 50
90.0
100
AcDbRotatedDimension
1001
ACAD
1000
DSTYLE
1002
{
1070
     3
1000
(<>)
1070
    40
1040
10.0
1070
   143
1040
0.039
1070
   172
1070
     1
1070
   271
1070
     0
1070
   341
1005
7DA0
1070
   343
1005
7B35
1002
}
  0
ENDSEC
  0
SECTION
  2
OBJECTS
  0
DICTIONARY
  5
C
330
0
100
AcDbDictionary
281
     1
  3
ACAD_CIP_PREVIOUS_PRODUCT_INFO
350
7EEC
  3
ACAD_COLOR
350
7ECF
  3
ACAD_DETAILVIEWSTYLE
350
7EE8
  3
ACAD_GROUP
350
D
  3
ACAD_LAYOUT
350
7DCC
  3
ACAD_MATERIAL
350
7E9D
  3
ACAD_MLEADERSTYLE
350
7EE4
  3
ACAD_MLINESTYLE
350
E
  3
ACAD_PLOTSETTINGS
350
7DCD
  3
ACAD_PLOTSTYLENAME
350
7DCA
  3
ACAD_SCALELIST
350
7ED2
  3
ACAD_SECTIONVIEWSTYLE
350
7EE6
  3
ACAD_TABLESTYLE
350
7ED0
  3
ACAD_VISUALSTYLE
350
7EB6
  3
ACDB_RECOMPOSE_DATA
350
8097
  3
AcDbVariableDictionary
350
7E94
  0
DICTIONARY
  5
7EEE
330
2
100
AcDbDictionary
280
     1
281
     1
  3
ACAD_LAYERSTATES
360
7EEF
  0
DICTIONARY
  5
7F3B
330
F
100
AcDbDictionary
280
     1
281
     1
  3
ADSK_XREC_LAYER_RECONCILED
360
7F3C
  0
DICTIONARY
  5
7F3D
330
31
100
AcDbDictionary
280
     1
281
     1
  3
ADSK_XREC_LAYER_RECONCILED
360
7F3E
  0
DICTIONARY
  5
7F3F
330
76D0
100
AcDbDictionary
280
     1
281
     1
  3
ADSK_XREC_LAYER_RECONCILED
360
7F40
  0
DICTIONARY
  5
7F41
330
76D1
100
AcDbDictionary
280
     1
281
     1
  3
ADSK_XREC_LAYER_RECONCILED
360
7F42
  0
DICTIONARY
  5
7F43
330
76D2
100
AcDbDictionary
280
     1
281
     1
  3
ADSK_XREC_LAYER_RECONCILED
360
7F44
  0
DICTIONARY
  5
7DF9
330
19
100
AcDbDictionary
280
     1
281
     1
  3
ACAD_LAYOUTSELFREF
360
7DFA
  0
DICTIONARY
  5
7DF7
330
16
100
AcDbDictionary
280
     1
281
     1
  3
ACAD_LAYOUTSELFREF
360
7DF8
  0
XRECORD
  5
7EEC
102
{ACAD_REACTORS
330
C
102
}
330
C
100
AcDbXrecord
280
     1
300
ACDLT
300
2015
300
INVLTS_F_S
  0
DICTIONARY
  5
7ECF
102
{ACAD_REACTORS
330
C
102
}
330
C
100
AcDbDictionary
281
     1
  0
DICTIONARY
  5
7EE8
102
{ACAD_REACTORS
330
C
102
}
330
C
100
AcDbDictionary
281
     1
  3
Imperial24
350
7EE9
  0
DICTIONARY
  5
D
102
{ACAD_REACTORS
330
C
102
}
330
0
100
AcDbDictionary
281
     1
  0
DICTIONARY
  5
7DCC
102
{ACAD_REACTORS
330
C
102
}
330
C
100
AcDbDictionary
281
     1
  3
Model
350
7DCE
  3
ﾚｲｱｳﾄ1
350
7DCF
  0
DICTIONARY
  5
7E9D
102
{ACAD_REACTORS
330
C
102
}
330
C
100
AcDbDictionary
281
     1
  3
ByBlock
350
7EA6
  3
ByLayer
350
7E9E
  3
Global
350
7EAE
  0
DICTIONARY
  5
7EE4
102
{ACAD_REACTORS
330
C
102
}
330
C
100
AcDbDictionary
281
     1
  3
Standard
350
7EE5
  0
DICTIONARY
  5
E
102
{ACAD_REACTORS
330
C
102
}
330
0
100
AcDbDictionary
281
     1
  3
STANDARD
350
1C
  0
DICTIONARY
  5
7DCD
102
{ACAD_REACTORS
330
C
102
}
330
C
100
AcDbDictionary
281
     1
  0
ACDBDICTIONARYWDFLT
  5
7DCA
102
{ACAD_REACTORS
330
C
102
}
330
C
100
AcDbDictionary
281
     1
  3
Normal
350
7DCB
100
AcDbDictionaryWithDefault
340
7DCB
1001
ACAD
1000
TREAT_AS_HARD
1070
     0
  0
DICTIONARY
  5
7ED2
102
{ACAD_REACTORS
330
C
102
}
330
C
100
AcDbDictionary
281
     1
  3
A0
350
7ED3
  3
A1
350
7ED4
  3
A2
350
7ED5
  3
A3
350
7ED6
  3
A4
350
7ED7
  3
A5
350
7ED8
  3
A6
350
7ED9
  3
A7
350
7EDA
  3
A8
350
7EDB
  3
A9
350
7EDC
  3
B0
350
7EDD
  3
B1
350
7EDE
  3
B2
350
7EDF
  3
B3
350
7EE0
  3
B4
350
7EE1
  3
B5
350
7EE2
  3
B6
350
7EE3
  0
DICTIONARY
  5
7EE6
102
{ACAD_REACTORS
330
C
102
}
330
C
100
AcDbDictionary
281
     1
  3
Imperial24
350
7EE7
  0
DICTIONARY
  5
7ED0
102
{ACAD_REACTORS
330
C
102
}
330
C
100
AcDbDictionary
281
     1
  3
Standard
350
7ED1
  0
DICTIONARY
  5
7EB6
102
{ACAD_REACTORS
330
C
102
}
330
C
100
AcDbDictionary
281
     1
  3
2dWireframe
350
7EBC
  3
Basic
350
7EBB
  3
Brighten
350
7EC2
  3
ColorChange
350
7EC6
  3
Conceptual
350
7EBF
  3
Dim
350
7EC1
  3
EdgeColorOff
350
7ECE
  3
Facepattern
350
7EC5
  3
Flat
350
7EB7
  3
FlatWithEdges
350
7EB8
  3
Gouraud
350
7EB9
  3
GouraudWithEdges
350
7EBA
  3
Hidden
350
7EBE
  3
JitterOff
350
7ECC
  3
Linepattern
350
7EC4
  3
OverhangOff
350
7ECD
  3
Realistic
350
7EC0
  3
Shaded
350
7ECB
  3
Shaded with edges
350
7ECA
  3
Shades of Gray
350
7EC7
  3
Sketchy
350
7EC8
  3
Thicken
350
7EC3
  3
Wireframe
350
7EBD
  3
X-Ray
350
7EC9
  0
XRECORD
  5
8097
102
{ACAD_REACTORS
330
C
102
}
330
C
100
AcDbXrecord
280
     1
 90
        1
330
7ED1
330
7EE7
330
7EE9
  0
DICTIONARY
  5
7E94
102
{ACAD_REACTORS
330
C
102
}
330
C
100
AcDbDictionary
281
     1
  3
CANNOSCALE
350
7F56
  3
CMLEADERSTYLE
350
7F52
  3
CTABLESTYLE
350
7F51
  3
CVIEWDETAILSTYLE
350
7F53
  3
CVIEWSECTIONSTYLE
350
7F54
  3
DIMASSOC
350
7E95
  3
LAYEREVAL
350
7F58
  3
LAYERNOTIFY
350
7F59
  3
LIGHTINGUNITS
350
7F57
  3
MSLTSCALE
350
7F55
  0
DICTIONARY
  5
7EEF
102
{ACAD_REACTORS
330
7EEE
102
}
330
7EEE
100
AcDbDictionary
281
     1
  0
XRECORD
  5
7F3C
102
{ACAD_REACTORS
330
7F3B
102
}
330
7F3B
100
AcDbXrecord
280
     1
290
     1
  0
XRECORD
  5
7F3E
102
{ACAD_REACTORS
330
7F3D
102
}
330
7F3D
100
AcDbXrecord
280
     1
290
     1
  0
XRECORD
  5
7F40
102
{ACAD_REACTORS
330
7F3F
102
}
330
7F3F
100
AcDbXrecord
280
     1
290
     1
  0
XRECORD
  5
7F42
102
{ACAD_REACTORS
330
7F41
102
}
330
7F41
100
AcDbXrecord
280
     1
290
     1
  0
XRECORD
  5
7F44
102
{ACAD_REACTORS
330
7F43
102
}
330
7F43
100
AcDbXrecord
280
     1
290
     1
  0
XRECORD
  5
7DFA
102
{ACAD_REACTORS
330
7DF9
102
}
330
7DF9
100
AcDbXrecord
280
     1
340
19
  0
XRECORD
  5
7DF8
102
{ACAD_REACTORS
330
7DF7
102
}
330
7DF7
100
AcDbXrecord
280
     1
340
16
  0
ACDBDETAILVIEWSTYLE
  5
7EE9
102
{ACAD_XDICTIONARY
360
7F4E
102
}
102
{ACAD_REACTORS
330
7EE8
102
}
330
7EE8
100
AcDbModelDocViewStyle
 70
     0
  3
Imperial24
290
     0
100
AcDbDetailViewStyle
 70
     0
 71
     0
 90
        3
 71
     1
340
10
 62
   256
 40
0.24
340
0
 62
   256
 40
0.24
300

 40
0.36
280
     3
 71
     2
340
15
 90
       25
 62
   256
 71
     3
340
10
 62
   256
 40
0.24
 90
        1
 40
0.75
 90
        1
300
%<\AcVar ViewType \f "%tc1">% %<\AcVar ViewDetailId>%\PSCALE %<\AcVar ViewScale \f "%sn">%
 71
     4
340
15
 90
       25
 62
   256
340
15
 90
       25
 62
   256
280
     0
  0
LAYOUT
  5
7DCE
102
{ACAD_REACTORS
330
7DCC
102
}
330
7DCC
100
AcDbPlotSettings
  1

  2
\\Txbo34x8944cqyd\EPSON LP-6100
  4

  6

 40
0.0
 41
0.0
 42
0.0
 43
0.0
 44
0.0
 45
0.0
 46
0.0
 47
0.0
 48
0.0
 49
0.0
140
0.0
141
0.0
142
1.0
143
1.0
 70
  1712
 72
     0
 73
     0
 74
     0
  7
GOD2000TABLE.ctb
 75
     0
147
1.0
 76
     0
 77
     2
 78
   300
148
0.0
149
0.0
100
AcDbLayout
  1
Model
 70
     1
 71
     0
 10
0.0
 20
0.0
 11
12.0
 21
9.0
 12
0.0
 22
0.0
 32
0.0
 14
0.0
 24
0.0
 34
0.0
 15
0.0
 25
0.0
 35
0.0
146
0.0
 13
0.0
 23
0.0
 33
0.0
 16
1.0
 26
0.0
 36
0.0
 17
0.0
 27
1.0
 37
0.0
 76
     0
330
19
331
7E9B
  0
LAYOUT
  5
7DCF
102
{ACAD_REACTORS
330
7DCC
102
}
330
7DCC
100
AcDbPlotSettings
  1

  2
\\Txbo34x8944cqyd\EPSON LP-6100
  4

  6

 40
0.0
 41
0.0
 42
0.0
 43
0.0
 44
0.0
 45
0.0
 46
0.0
 47
0.0
 48
0.0
 49
0.0
140
0.0
141
0.0
142
1.0
143
1.0
 70
   688
 72
     0
 73
     0
 74
     5
  7
GOD2000TABLE.ctb
 75
    16
147
1.0
 76
     0
 77
     2
 78
   300
148
0.0
149
0.0
100
AcDbLayout
  1
ﾚｲｱｳﾄ1
 70
     1
 71
     1
 10
0.0
 20
0.0
 11
12.0
 21
9.0
 12
0.0
 22
0.0
 32
0.0
 14
1.000000000000000E+20
 24
1.000000000000000E+20
 34
1.000000000000000E+20
 15
-1.000000000000000E+20
 25
-1.000000000000000E+20
 35
-1.000000000000000E+20
146
0.0
 13
0.0
 23
0.0
 33
0.0
 16
1.0
 26
0.0
 36
0.0
 17
0.0
 27
1.0
 37
0.0
 76
     0
330
16
  0
MATERIAL
  5
7EA6
102
{ACAD_XDICTIONARY
360
7EA7
102
}
102
{ACAD_REACTORS
330
7E9D
102
}
330
7E9D
100
AcDbMaterial
  1
ByBlock
 72
     0
 43
0.0208333333333333
 43
0.0
 43
0.0
 43
0.0
 43
0.0
 43
0.0208333333333333
 43
0.0
 43
0.0
 43
0.0
 43
0.0
 43
1.0
 43
0.0
 43
0.0
 43
0.0
 43
0.0
 43
1.0
 77
     0
 47
0.0208333333333333
 47
0.0
 47
0.0
 47
0.0
 47
0.0
 47
0.0208333333333333
 47
0.0
 47
0.0
 47
0.0
 47
0.0
 47
1.0
 47
0.0
 47
0.0
 47
0.0
 47
0.0
 47
1.0
171
     0
 49
0.0208333333333333
 49
0.0
 49
0.0
 49
0.0
 49
0.0
 49
0.0208333333333333
 49
0.0
 49
0.0
 49
0.0
 49
0.0
 49
1.0
 49
0.0
 49
0.0
 49
0.0
 49
0.0
 49
1.0
175
     0
142
0.0208333333333333
142
0.0
142
0.0
142
0.0
142
0.0
142
0.0208333333333333
142
0.0
142
0.0
142
0.0
142
0.0
142
1.0
142
0.0
142
0.0
142
0.0
142
0.0
142
1.0
179
     0
144
0.0208333333333333
144
0.0
144
0.0
144
0.0
144
0.0
144
0.0208333333333333
144
0.0
144
0.0
144
0.0
144
0.0
144
1.0
144
0.0
144
0.0
144
0.0
144
0.0
144
1.0
147
0.0208333333333333
147
0.0
147
0.0
147
0.0
147
0.0
147
0.0208333333333333
147
0.0
147
0.0
147
0.0
147
0.0
147
1.0
147
0.0
147
0.0
147
0.0
147
0.0
147
1.0
  0
MATERIAL
  5
7E9E
102
{ACAD_XDICTIONARY
360
7E9F
102
}
102
{ACAD_REACTORS
330
7E9D
102
}
330
7E9D
100
AcDbMaterial
  1
ByLayer
 72
     0
 43
0.0208333333333333
 43
0.0
 43
0.0
 43
0.0
 43
0.0
 43
0.0208333333333333
 43
0.0
 43
0.0
 43
0.0
 43
0.0
 43
1.0
 43
0.0
 43
0.0
 43
0.0
 43
0.0
 43
1.0
 77
     0
 47
0.0208333333333333
 47
0.0
 47
0.0
 47
0.0
 47
0.0
 47
0.0208333333333333
 47
0.0
 47
0.0
 47
0.0
 47
0.0
 47
1.0
 47
0.0
 47
0.0
 47
0.0
 47
0.0
 47
1.0
171
     0
 49
0.0208333333333333
 49
0.0
 49
0.0
 49
0.0
 49
0.0
 49
0.0208333333333333
 49
0.0
 49
0.0
 49
0.0
 49
0.0
 49
1.0
 49
0.0
 49
0.0
 49
0.0
 49
0.0
 49
1.0
175
     0
142
0.0208333333333333
142
0.0
142
0.0
142
0.0
142
0.0
142
0.0208333333333333
142
0.0
142
0.0
142
0.0
142
0.0
142
1.0
142
0.0
142
0.0
142
0.0
142
0.0
142
1.0
179
     0
144
0.0208333333333333
144
0.0
144
0.0
144
0.0
144
0.0
144
0.0208333333333333
144
0.0
144
0.0
144
0.0
144
0.0
144
1.0
144
0.0
144
0.0
144
0.0
144
0.0
144
1.0
147
0.0208333333333333
147
0.0
147
0.0
147
0.0
147
0.0
147
0.0208333333333333
147
0.0
147
0.0
147
0.0
147
0.0
147
1.0
147
0.0
147
0.0
147
0.0
147
0.0
147
1.0
  0
MATERIAL
  5
7EAE
102
{ACAD_XDICTIONARY
360
7EAF
102
}
102
{ACAD_REACTORS
330
7E9D
102
}
330
7E9D
100
AcDbMaterial
  1
Global
 72
     0
 43
0.0208333333333333
 43
0.0
 43
0.0
 43
0.0
 43
0.0
 43
0.0208333333333333
 43
0.0
 43
0.0
 43
0.0
 43
0.0
 43
1.0
 43
0.0
 43
0.0
 43
0.0
 43
0.0
 43
1.0
 77
     0
 47
0.0208333333333333
 47
0.0
 47
0.0
 47
0.0
 47
0.0
 47
0.0208333333333333
 47
0.0
 47
0.0
 47
0.0
 47
0.0
 47
1.0
 47
0.0
 47
0.0
 47
0.0
 47
0.0
 47
1.0
171
     0
 49
0.0208333333333333
 49
0.0
 49
0.0
 49
0.0
 49
0.0
 49
0.0208333333333333
 49
0.0
 49
0.0
 49
0.0
 49
0.0
 49
1.0
 49
0.0
 49
0.0
 49
0.0
 49
0.0
 49
1.0
175
     0
142
0.0208333333333333
142
0.0
142
0.0
142
0.0
142
0.0
142
0.0208333333333333
142
0.0
142
0.0
142
0.0
142
0.0
142
1.0
142
0.0
142
0.0
142
0.0
142
0.0
142
1.0
179
     0
144
0.0208333333333333
144
0.0
144
0.0
144
0.0
144
0.0
144
0.0208333333333333
144
0.0
144
0.0
144
0.0
144
0.0
144
1.0
144
0.0
144
0.0
144
0.0
144
0.0
144
1.0
147
0.0208333333333333
147
0.0
147
0.0
147
0.0
147
0.0
147
0.0208333333333333
147
0.0
147
0.0
147
0.0
147
0.0
147
1.0
147
0.0
147
0.0
147
0.0
147
0.0
147
1.0
  0
MLEADERSTYLE
  5
7EE5
102
{ACAD_REACTORS
330
7EE4
102
}
330
7EE4
100
AcDbMLeaderStyle
179
     2
170
     2
171
     1
172
     0
 90
        2
 40
0.0
 41
0.0
173
     1
 91
-1056964608
340
13
 92
       -2
290
     1
 42
0.09
291
     1
 43
0.36
  3
Standard
 44
0.18
300

342
10
174
     1
178
     6
175
     1
176
     0
 93
-1056964608
 45
0.18
292
     0
297
     0
 46
0.18
 94
-1056964608
 47
1.0
 49
1.0
140
1.0
293
     1
141
0.0
294
     1
177
     0
142
1.0
295
     1
296
     0
143
0.125
271
     0
272
     9
273
     9
298
     1
  0
MLINESTYLE
  5
1C
102
{ACAD_REACTORS
330
E
102
}
330
0
100
AcDbMlineStyle
  2
STANDARD
 70
     0
  3

 62
     0
 51
90.0
 52
90.0
 71
     2
 49
0.5
 62
   256
  6
BYLAYER
 49
-0.5
 62
   256
  6
BYLAYER
  0
ACDBPLACEHOLDER
  5
7DCB
102
{ACAD_REACTORS
330
7DCA
102
}
330
7DCA
  0
SCALE
  5
7ED3
102
{ACAD_REACTORS
330
7ED2
102
}
330
7ED2
100
AcDbScale
 70
     0
300
1:1
140
1.0
141
1.0
290
     1
  0
SCALE
  5
7ED4
102
{ACAD_REACTORS
330
7ED2
102
}
330
7ED2
100
AcDbScale
 70
     0
300
1/128" = 1'-0"
140
0.0078125
141
12.0
290
     0
  0
SCALE
  5
7ED5
102
{ACAD_REACTORS
330
7ED2
102
}
330
7ED2
100
AcDbScale
 70
     0
300
1/64" = 1'-0"
140
0.015625
141
12.0
290
     0
  0
SCALE
  5
7ED6
102
{ACAD_REACTORS
330
7ED2
102
}
330
7ED2
100
AcDbScale
 70
     0
300
1/32" = 1'-0"
140
0.03125
141
12.0
290
     0
  0
SCALE
  5
7ED7
102
{ACAD_REACTORS
330
7ED2
102
}
330
7ED2
100
AcDbScale
 70
     0
300
1/16" = 1'-0"
140
0.0625
141
12.0
290
     0
  0
SCALE
  5
7ED8
102
{ACAD_REACTORS
330
7ED2
102
}
330
7ED2
100
AcDbScale
 70
     0
300
3/32" = 1'-0"
140
0.09375
141
12.0
290
     0
  0
SCALE
  5
7ED9
102
{ACAD_REACTORS
330
7ED2
102
}
330
7ED2
100
AcDbScale
 70
     0
300
1/8" = 1'-0"
140
0.125
141
12.0
290
     0
  0
SCALE
  5
7EDA
102
{ACAD_REACTORS
330
7ED2
102
}
330
7ED2
100
AcDbScale
 70
     0
300
3/16" = 1'-0"
140
0.1875
141
12.0
290
     0
  0
SCALE
  5
7EDB
102
{ACAD_REACTORS
330
7ED2
102
}
330
7ED2
100
AcDbScale
 70
     0
300
1/4" = 1'-0"
140
0.25
141
12.0
290
     0
  0
SCALE
  5
7EDC
102
{ACAD_REACTORS
330
7ED2
102
}
330
7ED2
100
AcDbScale
 70
     0
300
3/8" = 1'-0"
140
0.375
141
12.0
290
     0
  0
SCALE
  5
7EDD
102
{ACAD_REACTORS
330
7ED2
102
}
330
7ED2
100
AcDbScale
 70
     0
300
1/2" = 1'-0"
140
0.5
141
12.0
290
     0
  0
SCALE
  5
7EDE
102
{ACAD_REACTORS
330
7ED2
102
}
330
7ED2
100
AcDbScale
 70
     0
300
3/4" = 1'-0"
140
0.75
141
12.0
290
     0
  0
SCALE
  5
7EDF
102
{ACAD_REACTORS
330
7ED2
102
}
330
7ED2
100
AcDbScale
 70
     0
300
1" = 1'-0"
140
1.0
141
12.0
290
     0
  0
SCALE
  5
7EE0
102
{ACAD_REACTORS
330
7ED2
102
}
330
7ED2
100
AcDbScale
 70
     0
300
1-1/2" = 1'-0"
140
1.5
141
12.0
290
     0
  0
SCALE
  5
7EE1
102
{ACAD_REACTORS
330
7ED2
102
}
330
7ED2
100
AcDbScale
 70
     0
300
3" = 1'-0"
140
3.0
141
12.0
290
     0
  0
SCALE
  5
7EE2
102
{ACAD_REACTORS
330
7ED2
102
}
330
7ED2
100
AcDbScale
 70
     0
300
6" = 1'-0"
140
6.0
141
12.0
290
     0
  0
SCALE
  5
7EE3
102
{ACAD_REACTORS
330
7ED2
102
}
330
7ED2
100
AcDbScale
 70
     0
300
1'-0" = 1'-0"
140
12.0
141
12.0
290
     0
  0
ACDBSECTIONVIEWSTYLE
  5
7EE7
102
{ACAD_XDICTIONARY
360
7F4C
102
}
102
{ACAD_REACTORS
330
7EE6
102
}
330
7EE6
100
AcDbModelDocViewStyle
 70
     0
  3
Imperial24
290
     0
100
AcDbSectionViewStyle
 70
     0
 71
     0
 90
       78
 71
     1
340
10
 62
   256
 40
0.24
340
0
340
0
 62
   256
 40
0.24
300
I, O, Q, S, X, Z
 40
0.48
 90
        3
 40
0.18
 90
        1
 71
     2
340
15
 90
       25
 62
   256
340
15
 90
       50
 62
   256
 40
0.24
 40
0.0
 40
0.24
 71
     3
340
10
 62
   256
 40
0.24
 90
        1
 40
0.75
 90
        1
300
%<\AcVar ViewType \f "%tc1">% %<\AcVar ViewSectionStartId>%-%<\AcVar ViewSectionEndId>%\PSCALE %<\AcVar ViewScale \f "%sn">%
 71
     4
 62
   256
 62
   257
300
ANSI31
 40
1.0
 90
        0
290
     0
290
     0
 90
        6
 40
0.0
 40
1.570796326794896
 40
0.2617993877991494
 40
1.308996938995747
 40
-0.2617993877991494
 40
1.832595714594046
  0
TABLESTYLE
  5
7ED1
102
{ACAD_XDICTIONARY
360
8093
102
}
102
{ACAD_REACTORS
330
7ED0
102
}
330
7ED0
100
AcDbTableStyle
280
     0
  3
Standard
 70
     0
 71
     0
 40
0.06
 41
0.06
280
     0
281
     0
  7
STANDARD
140
0.18
170
     2
 62
     0
 63
     7
283
     0
 90
      512
 91
        0
  1

274
    -2
284
     1
 64
     0
275
    -2
285
     1
 65
     0
276
    -2
286
     1
 66
     0
277
    -2
287
     1
 67
     0
278
    -2
288
     1
 68
     0
279
    -2
289
     1
 69
     0
  7
STANDARD
140
0.25
170
     5
 62
     0
 63
     7
283
     0
 90
      512
 91
        0
  1

274
    -2
284
     1
 64
     0
275
    -2
285
     1
 65
     0
276
    -2
286
     1
 66
     0
277
    -2
287
     1
 67
     0
278
    -2
288
     1
 68
     0
279
    -2
289
     1
 69
     0
  7
STANDARD
140
0.18
170
     5
 62
     0
 63
     7
283
     0
 90
      512
 91
        0
  1

274
    -2
284
     1
 64
     0
275
    -2
285
     1
 65
     0
276
    -2
286
     1
 66
     0
277
    -2
287
     1
 67
     0
278
    -2
288
     1
 68
     0
279
    -2
289
     1
 69
     0
  0
VISUALSTYLE
  5
7EBC
102
{ACAD_REACTORS
330
7EB6
102
}
330
7EB6
100
AcDbVisualStyle
  2
2dWireframe
 70
     4
177
     3
291
     0
 70
    58
 90
        0
176
     1
 90
        2
176
     1
 90
        0
176
     1
 90
        0
176
     1
 40
0.6
176
     1
 40
30.0
176
     1
 62
     7
420
 16777215
176
     1
 90
        1
176
     1
 90
        4
176
     1
 62
     7
176
     1
 62
   257
176
     1
 90
        1
176
     1
 90
        1
176
     1
 40
1.0
176
     1
 90
        0
176
     1
 62
   257
176
     1
 40
1.0
176
     1
 90
        1
176
     1
 90
        6
176
     1
 90
        2
176
     1
 62
     7
176
     1
 90
        5
176
     1
 90
        0
176
     1
 90
        0
176
     1
290
     0
176
     1
 90
        1
176
     1
 40
0.0
176
     1
 90
        0
176
     1
290
     1
176
     1
290
     1
176
     1
290
     0
176
     1
290
     0
176
     1
290
     0
176
     1
290
     0
176
     1
290
     0
176
     1
290
     0
176
     1
290
     0
176
     1
 90
       50
176
     1
 40
0.0
176
     1
 40
1.0
176
     1
 90
        0
176
     1
 62
    18
420
        0
176
     1
 90
       50
176
     1
 90
        3
176
     1
 62
     5
420
      255
176
     1
290
     0
176
     1
 90
       50
176
     1
 90
       50
176
     1
 90
       50
176
     1
290
     0
176
     1
 90
       50
176
     1
 62
   256
176
     0
 40
1.0
176
     0
 90
        2
176
     1
  1
strokes_ogs.tif
176
     1
290
     0
176
     1
 40
1.0
176
     1
 40
1.0
176
     1
  0
VISUALSTYLE
  5
7EBB
102
{ACAD_REACTORS
330
7EB6
102
}
330
7EB6
100
AcDbVisualStyle
  2
Basic
 70
     7
177
     3
291
     1
 70
    58
 90
        1
176
     1
 90
        0
176
     1
 90
        1
176
     1
 90
        0
176
     1
 40
0.6
176
     1
 40
30.0
176
     1
 62
     7
420
 16777215
176
     1
 90
        0
176
     1
 90
        4
176
     1
 62
     7
176
     1
 62
   257
176
     1
 90
        1
176
     1
 90
        1
176
     1
 40
1.0
176
     1
 90
        8
176
     1
 62
     7
176
     1
 40
1.0
176
     1
 90
        1
176
     1
 90
        6
176
     1
 90
        2
176
     1
 62
     7
176
     1
 90
        5
176
     1
 90
        0
176
     1
 90
        0
176
     1
290
     0
176
     1
 90
        1
176
     1
 40
0.0
176
     1
 90
        0
176
     1
290
     0
176
     1
290
     1
176
     1
290
     1
176
     1
290
     0
176
     1
290
     0
176
     1
290
     0
176
     1
290
     0
176
     1
290
     0
176
     1
290
     0
176
     1
 90
       50
176
     1
 40
0.0
176
     1
 40
1.0
176
     1
 90
        0
176
     1
 62
    18
420
        0
176
     1
 90
       50
176
     1
 90
        3
176
     1
 62
     5
420
      255
176
     1
290
     0
176
     1
 90
       50
176
     1
 90
       50
176
     1
 90
       50
176
     1
290
     0
176
     1
 90
       50
176
     1
 62
   256
176
     0
 40
1.0
176
     0
 90
        2
176
     1
  1
strokes_ogs.tif
176
     1
290
     0
176
     1
 40
1.0
176
     1
 40
1.0
176
     1
  0
VISUALSTYLE
  5
7EC2
102
{ACAD_REACTORS
330
7EB6
102
}
330
7EB6
100
AcDbVisualStyle
  2
Brighten
 70
    12
177
     3
291
     1
 70
    58
 90
        2
176
     1
 90
        2
176
     1
 90
        0
176
     1
 90
        0
176
     1
 40
0.6
176
     1
 40
30.0
176
     1
 62
     7
420
 16777215
176
     1
 90
        1
176
     1
 90
        4
176
     1
 62
     7
176
     1
 62
   257
176
     1
 90
        1
176
     1
 90
        1
176
     1
 40
1.0
176
     1
 90
        8
176
     1
 62
     7
176
     1
 40
1.0
176
     1
 90
        1
176
     1
 90
        6
176
     1
 90
        2
176
     1
 62
     7
176
     1
 90
        5
176
     1
 90
        0
176
     1
 90
        0
176
     1
290
     0
176
     1
 90
        1
176
     1
 40
50.0
176
     1
 90
        0
176
     1
290
     0
176
     1
290
     1
176
     1
290
     1
176
     1
290
     0
176
     1
290
     0
176
     1
290
     0
176
     1
290
     0
176
     1
290
     0
176
     1
290
     0
176
     1
 90
       50
176
     1
 40
0.0
176
     1
 40
1.0
176
     1
 90
        0
176
     1
 62
    18
420
        0
176
     1
 90
       50
176
     1
 90
        3
176
     1
 62
     5
420
      255
176
     1
290
     0
176
     1
 90
       50
176
     1
 90
       50
176
     1
 90
       50
176
     1
290
     0
176
     1
 90
       50
176
     1
 62
   256
176
     0
 40
1.0
176
     0
 90
        2
176
     1
  1
strokes_ogs.tif
176
     1
290
     0
176
     1
 40
1.0
176
     1
 40
1.0
176
     1
  0
VISUALSTYLE
  5
7EC6
102
{ACAD_REACTORS
330
7EB6
102
}
330
7EB6
100
AcDbVisualStyle
  2
ColorChange
 70
    16
177
     3
291
     1
 70
    58
 90
        2
176
     1
 90
        2
176
     1
 90
        3
176
     1
 90
        0
176
     1
 40
0.6
176
     1
 40
30.0
176
     1
 62
     8
420
  8421504
176
     1
 90
        1
176
     1
 90
        4
176
     1
 62
     7
176
     1
 62
   257
176
     1
 90
        1
176
     1
 90
        1
176
     1
 40
1.0
176
     1
 90
        8
176
     1
 62
     8
420
  8421504
176
     1
 40
1.0
176
     1
 90
        1
176
     1
 90
        6
176
     1
 90
        2
176
     1
 62
     7
176
     1
 90
        5
176
     1
 90
        0
176
     1
 90
        0
176
     1
290
     0
176
     1
 90
        1
176
     1
 40
0.0
176
     1
 90
        0
176
     1
290
     0
176
     1
290
     1
176
     1
290
     1
176
     1
290
     0
176
     1
290
     0
176
     1
290
     0
176
     1
290
     0
176
     1
290
     0
176
     1
290
     0
176
     1
 90
       50
176
     1
 40
0.0
176
     1
 40
1.0
176
     1
 90
        0
176
     1
 62
    18
420
        0
176
     1
 90
       50
176
     1
 90
        3
176
     1
 62
     5
420
      255
176
     1
290
     0
176
     1
 90
       50
176
     1
 90
       50
176
     1
 90
       50
176
     1
290
     0
176
     1
 90
       50
176
     1
 62
   256
176
     0
 40
1.0
176
     0
 90
        2
176
     1
  1
strokes_ogs.tif
176
     1
290
     0
176
     1
 40
1.0
176
     1
 40
1.0
176
     1
  0
VISUALSTYLE
  5
7EBF
102
{ACAD_REACTORS
330
7EB6
102
}
330
7EB6
100
AcDbVisualStyle
  2
Conceptual
 70
     9
177
     3
291
     0
 70
    58
 90
        3
176
     1
 90
        2
176
     1
 90
        0
176
     1
 90
        0
176
     1
 40
0.6
176
     1
 40
30.0
176
     1
 62
     7
420
 16777215
176
     1
 90
        2
176
     1
 90
        2
176
     1
 62
     7
176
     1
 62
   257
176
     1
 90
        1
176
     1
 90
        1
176
     1
 40
179.0
176
     1
 90
        8
176
     1
 62
     7
176
     1
 40
1.0
176
     1
 90
        1
176
     1
 90
        6
176
     1
 90
        2
176
     1
 62
     7
176
     1
 90
        3
176
     1
 90
        0
176
     1
 90
        0
176
     1
290
     0
176
     1
 90
        1
176
     1
 40
0.0
176
     1
 90
        0
176
     1
290
     0
176
     1
290
     1
176
     1
290
     1
176
     1
290
     0
176
     1
290
     0
176
     1
290
     0
176
     1
290
     0
176
     1
290
     0
176
     1
290
     0
176
     1
 90
       50
176
     1
 40
0.0
176
     1
 40
1.0
176
     1
 90
        0
176
     1
 62
    18
420
        0
176
     1
 90
       50
176
     1
 90
        3
176
     1
 62
     5
420
      255
176
     1
290
     0
176
     1
 90
       50
176
     1
 90
       50
176
     1
 90
       50
176
     1
290
     0
176
     1
 90
       50
176
     1
 62
   256
176
     0
 40
1.0
176
     0
 90
        2
176
     1
  1
strokes_ogs.tif
176
     1
290
     0
176
     1
 40
1.0
176
     1
 40
1.0
176
     1
  0
VISUALSTYLE
  5
7EC1
102
{ACAD_REACTORS
330
7EB6
102
}
330
7EB6
100
AcDbVisualStyle
  2
Dim
 70
    11
177
     3
291
     1
 70
    58
 90
        2
176
     1
 90
        2
176
     1
 90
        0
176
     1
 90
        0
176
     1
 40
0.6
176
     1
 40
30.0
176
     1
 62
     7
420
 16777215
176
     1
 90
        1
176
     1
 90
        4
176
     1
 62
     7
176
     1
 62
   257
176
     1
 90
        1
176
     1
 90
        1
176
     1
 40
1.0
176
     1
 90
        8
176
     1
 62
     7
176
     1
 40
1.0
176
     1
 90
        1
176
     1
 90
        6
176
     1
 90
        2
176
     1
 62
     7
176
     1
 90
        5
176
     1
 90
        0
176
     1
 90
        0
176
     1
290
     0
176
     1
 90
        1
176
     1
 40
-50.0
176
     1
 90
        0
176
     1
290
     0
176
     1
290
     1
176
     1
290
     1
176
     1
290
     0
176
     1
290
     0
176
     1
290
     0
176
     1
290
     0
176
     1
290
     0
176
     1
290
     0
176
     1
 90
       50
176
     1
 40
0.0
176
     1
 40
1.0
176
     1
 90
        0
176
     1
 62
    18
420
        0
176
     1
 90
       50
176
     1
 90
        3
176
     1
 62
     5
420
      255
176
     1
290
     0
176
     1
 90
       50
176
     1
 90
       50
176
     1
 90
       50
176
     1
290
     0
176
     1
 90
       50
176
     1
 62
   256
176
     0
 40
1.0
176
     0
 90
        2
176
     1
  1
strokes_ogs.tif
176
     1
290
     0
176
     1
 40
1.0
176
     1
 40
1.0
176
     1
  0
VISUALSTYLE
  5
7ECE
102
{ACAD_REACTORS
330
7EB6
102
}
330
7EB6
100
AcDbVisualStyle
  2
EdgeColorOff
 70
    22
177
     3
291
     1
 70
    58
 90
        2
176
     0
 90
        2
176
     0
 90
        0
176
     0
 90
        0
176
     0
 40
0.6
176
     0
 40
30.0
176
     0
 62
     7
420
 16777215
176
     0
 90
        1
176
     0
 90
        4
176
     0
 62
     7
176
     0
 62
   257
176
     0
 90
        1
176
     0
 90
        1
176
     0
 40
1.0
176
     0
 90
        8
176
     2
 62
     7
176
     0
 40
1.0
176
     0
 90
        1
176
     0
 90
        6
176
     0
 90
        2
176
     0
 62
     7
176
     0
 90
        5
176
     0
 90
        0
176
     0
 90
        0
176
     0
290
     0
176
     0
 90
        1
176
     0
 40
0.0
176
     0
 90
        0
176
     0
290
     0
176
     0
290
     1
176
     0
290
     1
176
     0
290
     0
176
     0
290
     0
176
     0
290
     0
176
     0
290
     0
176
     0
290
     0
176
     0
290
     0
176
     0
 90
       50
176
     0
 40
0.0
176
     0
 40
1.0
176
     0
 90
        0
176
     0
 62
    18
420
        0
176
     0
 90
       50
176
     0
 90
        3
176
     0
 62
     5
420
      255
176
     0
290
     0
176
     0
 90
       50
176
     0
 90
       50
176
     0
 90
       50
176
     0
290
     0
176
     0
 90
       50
176
     0
 62
   256
176
     0
 40
1.0
176
     0
 90
        2
176
     0
  1
strokes_ogs.tif
176
     0
290
     0
176
     0
 40
1.0
176
     0
 40
1.0
176
     0
  0
VISUALSTYLE
  5
7EC5
102
{ACAD_REACTORS
330
7EB6
102
}
330
7EB6
100
AcDbVisualStyle
  2
Facepattern
 70
    15
177
     3
291
     1
 70
    58
 90
        2
176
     1
 90
        2
176
     1
 90
        0
176
     1
 90
        0
176
     1
 40
0.6
176
     1
 40
30.0
176
     1
 62
     7
420
 16777215
176
     1
 90
        1
176
     1
 90
        4
176
     1
 62
     7
176
     1
 62
   257
176
     1
 90
        1
176
     1
 90
        1
176
     1
 40
1.0
176
     1
 90
        8
176
     1
 62
     7
176
     1
 40
1.0
176
     1
 90
        1
176
     1
 90
        6
176
     1
 90
        2
176
     1
 62
     7
176
     1
 90
        5
176
     1
 90
        0
176
     1
 90
        0
176
     1
290
     0
176
     1
 90
        1
176
     1
 40
0.0
176
     1
 90
        0
176
     1
290
     0
176
     1
290
     1
176
     1
290
     1
176
     1
290
     0
176
     1
290
     0
176
     1
290
     0
176
     1
290
     0
176
     1
290
     0
176
     1
290
     0
176
     1
 90
       50
176
     1
 40
0.0
176
     1
 40
1.0
176
     1
 90
        0
176
     1
 62
    18
420
        0
176
     1
 90
       50
176
     1
 90
        3
176
     1
 62
     5
420
      255
176
     1
290
     0
176
     1
 90
       50
176
     1
 90
       50
176
     1
 90
       50
176
     1
290
     0
176
     1
 90
       50
176
     1
 62
   256
176
     0
 40
1.0
176
     0
 90
        2
176
     1
  1
strokes_ogs.tif
176
     1
290
     0
176
     1
 40
1.0
176
     1
 40
1.0
176
     1
  0
VISUALSTYLE
  5
7EB7
102
{ACAD_REACTORS
330
7EB6
102
}
330
7EB6
100
AcDbVisualStyle
  2
Flat
 70
     0
177
     3
291
     1
 70
    58
 90
        2
176
     1
 90
        1
176
     1
 90
        1
176
     1
 90
        2
176
     1
 40
0.6
176
     1
 40
30.0
176
     1
 62
     7
420
 16777215
176
     1
 90
        0
176
     1
 90
        0
176
     1
 62
     7
176
     1
 62
   257
176
     1
 90
        1
176
     1
 90
        1
176
     1
 40
1.0
176
     1
 90
        8
176
     1
 62
     7
176
     1
 40
1.0
176
     1
 90
        1
176
     1
 90
        6
176
     1
 90
        2
176
     1
 62
     7
176
     1
 90
        5
176
     1
 90
        0
176
     1
 90
        0
176
     1
290
     0
176
     1
 90
       13
176
     1
 40
0.0
176
     1
 90
        0
176
     1
290
     0
176
     1
290
     1
176
     1
290
     1
176
     1
290
     0
176
     1
290
     0
176
     1
290
     0
176
     1
290
     0
176
     1
290
     0
176
     1
290
     0
176
     1
 90
       50
176
     1
 40
0.0
176
     1
 40
1.0
176
     1
 90
        0
176
     1
 62
    18
420
        0
176
     1
 90
       50
176
     1
 90
        3
176
     1
 62
     5
420
      255
176
     1
290
     0
176
     1
 90
       50
176
     1
 90
       50
176
     1
 90
       50
176
     1
290
     0
176
     1
 90
       50
176
     1
 62
   256
176
     0
 40
1.0
176
     0
 90
        2
176
     1
  1
strokes_ogs.tif
176
     1
290
     0
176
     1
 40
1.0
176
     1
 40
1.0
176
     1
  0
VISUALSTYLE
  5
7EB8
102
{ACAD_REACTORS
330
7EB6
102
}
330
7EB6
100
AcDbVisualStyle
  2
FlatWithEdges
 70
     1
177
     3
291
     1
 70
    58
 90
        2
176
     1
 90
        1
176
     1
 90
        1
176
     1
 90
        2
176
     1
 40
0.6
176
     1
 40
30.0
176
     1
 62
     7
420
 16777215
176
     1
 90
        1
176
     1
 90
        0
176
     1
 62
     7
176
     1
 62
   257
176
     1
 90
        1
176
     1
 90
        1
176
     1
 40
1.0
176
     1
 90
        0
176
     1
 62
   257
176
     1
 40
1.0
176
     1
 90
        1
176
     1
 90
        6
176
     1
 90
        2
176
     1
 62
     7
176
     1
 90
        5
176
     1
 90
        0
176
     1
 90
        0
176
     1
290
     0
176
     1
 90
       13
176
     1
 40
0.0
176
     1
 90
        0
176
     1
290
     0
176
     1
290
     1
176
     1
290
     1
176
     1
290
     0
176
     1
290
     0
176
     1
290
     0
176
     1
290
     0
176
     1
290
     0
176
     1
290
     0
176
     1
 90
       50
176
     1
 40
0.0
176
     1
 40
1.0
176
     1
 90
        0
176
     1
 62
    18
420
        0
176
     1
 90
       50
176
     1
 90
        3
176
     1
 62
     5
420
      255
176
     1
290
     0
176
     1
 90
       50
176
     1
 90
       50
176
     1
 90
       50
176
     1
290
     0
176
     1
 90
       50
176
     1
 62
   256
176
     0
 40
1.0
176
     0
 90
        2
176
     1
  1
strokes_ogs.tif
176
     1
290
     0
176
     1
 40
1.0
176
     1
 40
1.0
176
     1
  0
VISUALSTYLE
  5
7EB9
102
{ACAD_REACTORS
330
7EB6
102
}
330
7EB6
100
AcDbVisualStyle
  2
Gouraud
 70
     2
177
     3
291
     1
 70
    58
 90
        2
176
     1
 90
        2
176
     1
 90
        1
176
     1
 90
        2
176
     1
 40
0.6
176
     1
 40
30.0
176
     1
 62
     7
420
 16777215
176
     1
 90
        0
176
     1
 90
        0
176
     1
 62
     7
176
     1
 62
   257
176
     1
 90
        1
176
     1
 90
        1
176
     1
 40
1.0
176
     1
 90
        0
176
     1
 62
     7
176
     1
 40
1.0
176
     1
 90
        1
176
     1
 90
        6
176
     1
 90
        2
176
     1
 62
     7
176
     1
 90
        5
176
     1
 90
        0
176
     1
 90
        0
176
     1
290
     0
176
     1
 90
       13
176
     1
 40
0.0
176
     1
 90
        0
176
     1
290
     0
176
     1
290
     1
176
     1
290
     1
176
     1
290
     0
176
     1
290
     0
176
     1
290
     0
176
     1
290
     0
176
     1
290
     0
176
     1
290
     0
176
     1
 90
       50
176
     1
 40
0.0
176
     1
 40
1.0
176
     1
 90
        0
176
     1
 62
    18
420
        0
176
     1
 90
       50
176
     1
 90
        3
176
     1
 62
     5
420
      255
176
     1
290
     0
176
     1
 90
       50
176
     1
 90
       50
176
     1
 90
       50
176
     1
290
     0
176
     1
 90
       50
176
     1
 62
   256
176
     0
 40
1.0
176
     0
 90
        2
176
     1
  1
strokes_ogs.tif
176
     1
290
     0
176
     1
 40
1.0
176
     1
 40
1.0
176
     1
  0
VISUALSTYLE
  5
7EBA
102
{ACAD_REACTORS
330
7EB6
102
}
330
7EB6
100
AcDbVisualStyle
  2
GouraudWithEdges
 70
     3
177
     3
291
     1
 70
    58
 90
        2
176
     1
 90
        2
176
     1
 90
        1
176
     1
 90
        2
176
     1
 40
0.6
176
     1
 40
30.0
176
     1
 62
     7
420
 16777215
176
     1
 90
        1
176
     1
 90
        0
176
     1
 62
     7
176
     1
 62
   257
176
     1
 90
        1
176
     1
 90
        1
176
     1
 40
1.0
176
     1
 90
        0
176
     1
 62
   257
176
     1
 40
1.0
176
     1
 90
        1
176
     1
 90
        6
176
     1
 90
        2
176
     1
 62
     7
176
     1
 90
        5
176
     1
 90
        0
176
     1
 90
        0
176
     1
290
     0
176
     1
 90
       13
176
     1
 40
0.0
176
     1
 90
        0
176
     1
290
     0
176
     1
290
     1
176
     1
290
     1
176
     1
290
     0
176
     1
290
     0
176
     1
290
     0
176
     1
290
     0
176
     1
290
     0
176
     1
290
     0
176
     1
 90
       50
176
     1
 40
0.0
176
     1
 40
1.0
176
     1
 90
        0
176
     1
 62
    18
420
        0
176
     1
 90
       50
176
     1
 90
        3
176
     1
 62
     5
420
      255
176
     1
290
     0
176
     1
 90
       50
176
     1
 90
       50
176
     1
 90
       50
176
     1
290
     0
176
     1
 90
       50
176
     1
 62
   256
176
     0
 40
1.0
176
     0
 90
        2
176
     1
  1
strokes_ogs.tif
176
     1
290
     0
176
     1
 40
1.0
176
     1
 40
1.0
176
     1
  0
VISUALSTYLE
  5
7EBE
102
{ACAD_REACTORS
330
7EB6
102
}
330
7EB6
100
AcDbVisualStyle
  2
Hidden
 70
     6
177
     3
291
     0
 70
    58
 90
        1
176
     1
 90
        2
176
     1
 90
        2
176
     1
 90
        0
176
     1
 40
0.6
176
     1
 40
30.0
176
     1
 62
     7
420
 16777215
176
     1
 90
        2
176
     1
 90
        2
176
     1
 62
     7
176
     1
 62
   257
176
     1
 90
        2
176
     1
 90
        1
176
     1
 40
40.0
176
     1
 90
        0
176
     1
 62
   257
176
     1
 40
1.0
176
     1
 90
        1
176
     1
 90
        6
176
     1
 90
        2
176
     1
 62
     7
176
     1
 90
        3
176
     1
 90
        0
176
     1
 90
        0
176
     1
290
     0
176
     1
 90
        1
176
     1
 40
0.0
176
     1
 90
        0
176
     1
290
     0
176
     1
290
     1
176
     1
290
     1
176
     1
290
     0
176
     1
290
     0
176
     1
290
     0
176
     1
290
     0
176
     1
290
     0
176
     1
290
     0
176
     1
 90
       50
176
     1
 40
0.0
176
     1
 40
1.0
176
     1
 90
        0
176
     1
 62
    18
420
        0
176
     1
 90
       50
176
     1
 90
        3
176
     1
 62
     5
420
      255
176
     1
290
     0
176
     1
 90
       50
176
     1
 90
       50
176
     1
 90
       50
176
     1
290
     0
176
     1
 90
       50
176
     1
 62
   256
176
     0
 40
1.0
176
     0
 90
        2
176
     1
  1
strokes_ogs.tif
176
     1
290
     0
176
     1
 40
1.0
176
     1
 40
1.0
176
     1
  0
VISUALSTYLE
  5
7ECC
102
{ACAD_REACTORS
330
7EB6
102
}
330
7EB6
100
AcDbVisualStyle
  2
JitterOff
 70
    20
177
     3
291
     1
 70
    58
 90
        2
176
     0
 90
        2
176
     0
 90
        0
176
     0
 90
        0
176
     0
 40
0.6
176
     0
 40
30.0
176
     0
 62
     7
420
 16777215
176
     0
 90
        1
176
     0
 90
        4
176
     0
 62
     7
176
     0
 62
   257
176
     0
 90
        1
176
     0
 90
        1
176
     0
 40
1.0
176
     0
 90
       10
176
     2
 62
     7
176
     0
 40
1.0
176
     0
 90
        1
176
     0
 90
        6
176
     0
 90
        2
176
     0
 62
     7
176
     0
 90
        5
176
     0
 90
        0
176
     0
 90
        0
176
     0
290
     0
176
     0
 90
        1
176
     0
 40
0.0
176
     0
 90
        0
176
     0
290
     0
176
     0
290
     1
176
     0
290
     1
176
     0
290
     0
176
     0
290
     0
176
     0
290
     0
176
     0
290
     0
176
     0
290
     0
176
     0
290
     0
176
     0
 90
       50
176
     0
 40
0.0
176
     0
 40
1.0
176
     0
 90
        0
176
     0
 62
    18
420
        0
176
     0
 90
       50
176
     0
 90
        3
176
     0
 62
     5
420
      255
176
     0
290
     0
176
     0
 90
       50
176
     0
 90
       50
176
     0
 90
       50
176
     0
290
     0
176
     0
 90
       50
176
     0
 62
   256
176
     0
 40
1.0
176
     0
 90
        2
176
     0
  1
strokes_ogs.tif
176
     0
290
     0
176
     0
 40
1.0
176
     0
 40
1.0
176
     0
  0
VISUALSTYLE
  5
7EC4
102
{ACAD_REACTORS
330
7EB6
102
}
330
7EB6
100
AcDbVisualStyle
  2
Linepattern
 70
    14
177
     3
291
     1
 70
    58
 90
        2
176
     1
 90
        2
176
     1
 90
        0
176
     1
 90
        0
176
     1
 40
0.6
176
     1
 40
30.0
176
     1
 62
     7
420
 16777215
176
     1
 90
        1
176
     1
 90
        4
176
     1
 62
     7
176
     1
 62
   257
176
     1
 90
        7
176
     1
 90
        7
176
     1
 40
1.0
176
     1
 90
        8
176
     1
 62
     7
176
     1
 40
1.0
176
     1
 90
        1
176
     1
 90
        6
176
     1
 90
        2
176
     1
 62
     7
176
     1
 90
        5
176
     1
 90
        0
176
     1
 90
        0
176
     1
290
     0
176
     1
 90
        1
176
     1
 40
0.0
176
     1
 90
        0
176
     1
290
     0
176
     1
290
     1
176
     1
290
     1
176
     1
290
     0
176
     1
290
     0
176
     1
290
     0
176
     1
290
     0
176
     1
290
     0
176
     1
290
     0
176
     1
 90
       50
176
     1
 40
0.0
176
     1
 40
1.0
176
     1
 90
        0
176
     1
 62
    18
420
        0
176
     1
 90
       50
176
     1
 90
        3
176
     1
 62
     5
420
      255
176
     1
290
     0
176
     1
 90
       50
176
     1
 90
       50
176
     1
 90
       50
176
     1
290
     0
176
     1
 90
       50
176
     1
 62
   256
176
     0
 40
1.0
176
     0
 90
        2
176
     1
  1
strokes_ogs.tif
176
     1
290
     0
176
     1
 40
1.0
176
     1
 40
1.0
176
     1
  0
VISUALSTYLE
  5
7ECD
102
{ACAD_REACTORS
330
7EB6
102
}
330
7EB6
100
AcDbVisualStyle
  2
OverhangOff
 70
    21
177
     3
291
     1
 70
    58
 90
        2
176
     0
 90
        2
176
     0
 90
        0
176
     0
 90
        0
176
     0
 40
0.6
176
     0
 40
30.0
176
     0
 62
     7
420
 16777215
176
     0
 90
        1
176
     0
 90
        4
176
     0
 62
     7
176
     0
 62
   257
176
     0
 90
        1
176
     0
 90
        1
176
     0
 40
1.0
176
     0
 90
        9
176
     2
 62
     7
176
     0
 40
1.0
176
     0
 90
        1
176
     0
 90
        6
176
     0
 90
        2
176
     0
 62
     7
176
     0
 90
        5
176
     0
 90
        0
176
     0
 90
        0
176
     0
290
     0
176
     0
 90
        1
176
     0
 40
0.0
176
     0
 90
        0
176
     0
290
     0
176
     0
290
     1
176
     0
290
     1
176
     0
290
     0
176
     0
290
     0
176
     0
290
     0
176
     0
290
     0
176
     0
290
     0
176
     0
290
     0
176
     0
 90
       50
176
     0
 40
0.0
176
     0
 40
1.0
176
     0
 90
        0
176
     0
 62
    18
420
        0
176
     0
 90
       50
176
     0
 90
        3
176
     0
 62
     5
420
      255
176
     0
290
     0
176
     0
 90
       50
176
     0
 90
       50
176
     0
 90
       50
176
     0
290
     0
176
     0
 90
       50
176
     0
 62
   256
176
     0
 40
1.0
176
     0
 90
        2
176
     0
  1
strokes_ogs.tif
176
     0
290
     0
176
     0
 40
1.0
176
     0
 40
1.0
176
     0
  0
VISUALSTYLE
  5
7EC0
102
{ACAD_REACTORS
330
7EB6
102
}
330
7EB6
100
AcDbVisualStyle
  2
Realistic
 70
     8
177
     3
291
     0
 70
    58
 90
        2
176
     1
 90
        3
176
     1
 90
        0
176
     1
 90
        2
176
     1
 40
0.6
176
     1
 40
30.0
176
     1
 62
     7
420
 16777215
176
     1
 90
        0
176
     1
 90
        0
176
     1
 62
     7
176
     1
 62
   257
176
     1
 90
        1
176
     1
 90
        1
176
     1
 40
1.0
176
     1
 90
        8
176
     1
 62
   257
176
     1
 40
1.0
176
     1
 90
        1
176
     1
 90
        6
176
     1
 90
        2
176
     1
 62
     7
176
     1
 90
        3
176
     1
 90
        0
176
     1
 90
        0
176
     1
290
     0
176
     1
 90
       13
176
     1
 40
0.0
176
     1
 90
        0
176
     1
290
     0
176
     1
290
     1
176
     1
290
     1
176
     1
290
     0
176
     1
290
     0
176
     1
290
     0
176
     1
290
     0
176
     1
290
     0
176
     1
290
     0
176
     1
 90
       50
176
     1
 40
0.0
176
     1
 40
1.0
176
     1
 90
        0
176
     1
 62
    18
420
        0
176
     1
 90
       50
176
     1
 90
        3
176
     1
 62
     5
420
      255
176
     1
290
     0
176
     1
 90
       50
176
     1
 90
       50
176
     1
 90
       50
176
     1
290
     0
176
     1
 90
       50
176
     1
 62
   256
176
     0
 40
1.0
176
     0
 90
        2
176
     1
  1
strokes_ogs.tif
176
     1
290
     0
176
     1
 40
1.0
176
     1
 40
1.0
176
     1
  0
VISUALSTYLE
  5
7ECB
102
{ACAD_REACTORS
330
7EB6
102
}
330
7EB6
100
AcDbVisualStyle
  2
Shaded
 70
    27
177
     3
291
     0
 70
    58
 90
        2
176
     1
 90
        2
176
     1
 90
        1
176
     1
 90
        2
176
     1
 40
0.6
176
     1
 40
30.0
176
     1
 62
     7
420
 16777215
176
     1
 90
        0
176
     1
 90
        4
176
     1
 62
     7
176
     1
 62
   257
176
     1
 90
        1
176
     1
 90
        1
176
     1
 40
1.0
176
     1
 90
        8
176
     1
 62
   257
176
     1
 40
1.0
176
     1
 90
        1
176
     1
 90
        6
176
     1
 90
        2
176
     1
 62
     8
420
  7895160
176
     1
 90
        3
176
     1
 90
        0
176
     1
 90
        0
176
     1
290
     0
176
     1
 90
        5
176
     1
 40
0.0
176
     1
 90
        0
176
     1
290
     0
176
     1
290
     1
176
     1
290
     1
176
     1
290
     0
176
     1
290
     0
176
     1
290
     0
176
     1
290
     0
176
     1
290
     0
176
     1
290
     0
176
     1
 90
       50
176
     1
 40
0.0
176
     1
 40
1.0
176
     1
 90
        0
176
     1
 62
    18
420
        0
176
     1
 90
       50
176
     1
 90
        3
176
     1
 62
     5
420
      255
176
     1
290
     0
176
     1
 90
       50
176
     1
 90
       50
176
     1
 90
       50
176
     1
290
     0
176
     1
 90
       50
176
     1
 62
   256
176
     0
 40
1.0
176
     0
 90
        2
176
     1
  1
strokes_ogs.tif
176
     1
290
     0
176
     1
 40
1.0
176
     1
 40
1.0
176
     1
  0
VISUALSTYLE
  5
7ECA
102
{ACAD_REACTORS
330
7EB6
102
}
330
7EB6
100
AcDbVisualStyle
  2
Shaded with edges
 70
    26
177
     3
291
     0
 70
    58
 90
        2
176
     1
 90
        2
176
     1
 90
        1
176
     1
 90
        2
176
     1
 40
0.6
176
     1
 40
30.0
176
     1
 62
     7
420
 16777215
176
     1
 90
        1
176
     1
 90
       10
176
     1
 62
     7
176
     1
 62
   257
176
     1
 90
        2
176
     1
 90
        1
176
     1
 40
1.0
176
     1
 90
        8
176
     1
 62
   257
176
     1
 40
1.0
176
     1
 90
        1
176
     1
 90
        6
176
     1
 90
        2
176
     1
 62
     7
176
     1
 90
        3
176
     1
 90
        0
176
     1
 90
        0
176
     1
290
     0
176
     1
 90
        5
176
     1
 40
0.0
176
     1
 90
        0
176
     1
290
     0
176
     1
290
     1
176
     1
290
     1
176
     1
290
     0
176
     1
290
     0
176
     1
290
     0
176
     1
290
     0
176
     1
290
     0
176
     1
290
     0
176
     1
 90
       50
176
     1
 40
0.0
176
     1
 40
1.0
176
     1
 90
        0
176
     1
 62
    18
420
        0
176
     1
 90
       50
176
     1
 90
        3
176
     1
 62
     5
420
      255
176
     1
290
     0
176
     1
 90
       50
176
     1
 90
       50
176
     1
 90
       50
176
     1
290
     0
176
     1
 90
       50
176
     1
 62
   256
176
     0
 40
1.0
176
     0
 90
        2
176
     1
  1
strokes_ogs.tif
176
     1
290
     0
176
     1
 40
1.0
176
     1
 40
1.0
176
     1
  0
VISUALSTYLE
  5
7EC7
102
{ACAD_REACTORS
330
7EB6
102
}
330
7EB6
100
AcDbVisualStyle
  2
Shades of Gray
 70
    23
177
     3
291
     0
 70
    58
 90
        2
176
     1
 90
        2
176
     1
 90
        3
176
     1
 90
        0
176
     1
 40
0.6
176
     1
 40
30.0
176
     1
 62
     7
420
 16777215
176
     1
 90
        2
176
     1
 90
        2
176
     1
 62
     7
176
     1
 62
     7
176
     1
 90
        1
176
     1
 90
        1
176
     1
 40
40.0
176
     1
 90
        8
176
     1
 62
     7
176
     1
 40
1.0
176
     1
 90
        1
176
     1
 90
        6
176
     1
 90
        2
176
     1
 62
     7
176
     1
 90
        3
176
     1
 90
        0
176
     1
 90
        0
176
     1
290
     0
176
     1
 90
        1
176
     1
 40
0.0
176
     1
 90
        0
176
     1
290
     0
176
     1
290
     1
176
     1
290
     1
176
     1
290
     0
176
     1
290
     0
176
     1
290
     0
176
     1
290
     0
176
     1
290
     0
176
     1
290
     0
176
     1
 90
       50
176
     1
 40
0.0
176
     1
 40
1.0
176
     1
 90
        0
176
     1
 62
    18
420
        0
176
     1
 90
       50
176
     1
 90
        3
176
     1
 62
     5
420
      255
176
     1
290
     0
176
     1
 90
       50
176
     1
 90
       50
176
     1
 90
       50
176
     1
290
     0
176
     1
 90
       50
176
     1
 62
   256
176
     0
 40
1.0
176
     0
 90
        2
176
     1
  1
strokes_ogs.tif
176
     1
290
     0
176
     1
 40
1.0
176
     1
 40
1.0
176
     1
  0
VISUALSTYLE
  5
7EC8
102
{ACAD_REACTORS
330
7EB6
102
}
330
7EB6
100
AcDbVisualStyle
  2
Sketchy
 70
    24
177
     3
291
     0
 70
    58
 90
        1
176
     1
 90
        2
176
     1
 90
        2
176
     1
 90
        0
176
     1
 40
0.6
176
     1
 40
30.0
176
     1
 62
     7
420
 16777215
176
     1
 90
        2
176
     1
 90
        2
176
     1
 62
     7
176
     1
 62
     7
176
     1
 90
        1
176
     1
 90
        1
176
     1
 40
40.0
176
     1
 90
       11
176
     1
 62
     7
176
     1
 40
1.0
176
     1
 90
        1
176
     1
 90
        6
176
     1
 90
        2
176
     1
 62
     7
176
     1
 90
        6
176
     1
 90
        0
176
     1
 90
        0
176
     1
290
     0
176
     1
 90
        1
176
     1
 40
0.0
176
     1
 90
        0
176
     1
290
     0
176
     1
290
     1
176
     1
290
     1
176
     1
290
     0
176
     1
290
     0
176
     1
290
     0
176
     1
290
     0
176
     1
290
     0
176
     1
290
     0
176
     1
 90
       50
176
     1
 40
0.0
176
     1
 40
1.0
176
     1
 90
        0
176
     1
 62
    18
420
        0
176
     1
 90
       50
176
     1
 90
        3
176
     1
 62
     5
420
      255
176
     1
290
     0
176
     1
 90
       50
176
     1
 90
       50
176
     1
 90
       50
176
     1
290
     0
176
     1
 90
       50
176
     1
 62
   256
176
     0
 40
1.0
176
     0
 90
        2
176
     1
  1
strokes_ogs.tif
176
     1
290
     0
176
     1
 40
1.0
176
     1
 40
1.0
176
     1
  0
VISUALSTYLE
  5
7EC3
102
{ACAD_REACTORS
330
7EB6
102
}
330
7EB6
100
AcDbVisualStyle
  2
Thicken
 70
    13
177
     3
291
     1
 70
    58
 90
        2
176
     1
 90
        2
176
     1
 90
        0
176
     1
 90
        0
176
     1
 40
0.6
176
     1
 40
30.0
176
     1
 62
     7
420
 16777215
176
     1
 90
        1
176
     1
 90
        4
176
     1
 62
     7
176
     1
 62
   257
176
     1
 90
        1
176
     1
 90
        1
176
     1
 40
1.0
176
     1
 90
       12
176
     1
 62
     7
176
     1
 40
1.0
176
     1
 90
        1
176
     1
 90
        6
176
     1
 90
        2
176
     1
 62
     7
176
     1
 90
        5
176
     1
 90
        0
176
     1
 90
        0
176
     1
290
     0
176
     1
 90
        1
176
     1
 40
0.0
176
     1
 90
        0
176
     1
290
     0
176
     1
290
     1
176
     1
290
     1
176
     1
290
     0
176
     1
290
     0
176
     1
290
     0
176
     1
290
     0
176
     1
290
     0
176
     1
290
     0
176
     1
 90
       50
176
     1
 40
0.0
176
     1
 40
1.0
176
     1
 90
        0
176
     1
 62
    18
420
        0
176
     1
 90
       50
176
     1
 90
        3
176
     1
 62
     5
420
      255
176
     1
290
     0
176
     1
 90
       50
176
     1
 90
       50
176
     1
 90
       50
176
     1
290
     0
176
     1
 90
       50
176
     1
 62
   256
176
     0
 40
1.0
176
     0
 90
        2
176
     1
  1
strokes_ogs.tif
176
     1
290
     0
176
     1
 40
1.0
176
     1
 40
1.0
176
     1
  0
VISUALSTYLE
  5
7EBD
102
{ACAD_REACTORS
330
7EB6
102
}
330
7EB6
100
AcDbVisualStyle
  2
Wireframe
 70
     5
177
     3
291
     0
 70
    58
 90
        0
176
     1
 90
        2
176
     1
 90
        0
176
     1
 90
        0
176
     1
 40
0.6
176
     1
 40
30.0
176
     1
 62
     7
420
 16777215
176
     1
 90
        1
176
     1
 90
        4
176
     1
 62
     7
176
     1
 62
   257
176
     1
 90
        1
176
     1
 90
        1
176
     1
 40
1.0
176
     1
 90
        0
176
     1
 62
   257
176
     1
 40
1.0
176
     1
 90
        1
176
     1
 90
        6
176
     1
 90
        2
176
     1
 62
     7
176
     1
 90
        3
176
     1
 90
        0
176
     1
 90
        0
176
     1
290
     0
176
     1
 90
        1
176
     1
 40
0.0
176
     1
 90
        0
176
     1
290
     0
176
     1
290
     1
176
     1
290
     1
176
     1
290
     0
176
     1
290
     0
176
     1
290
     0
176
     1
290
     0
176
     1
290
     0
176
     1
290
     0
176
     1
 90
       50
176
     1
 40
0.0
176
     1
 40
1.0
176
     1
 90
        0
176
     1
 62
    18
420
        0
176
     1
 90
       50
176
     1
 90
        3
176
     1
 62
     5
420
      255
176
     1
290
     0
176
     1
 90
       50
176
     1
 90
       50
176
     1
 90
       50
176
     1
290
     0
176
     1
 90
       50
176
     1
 62
   256
176
     0
 40
1.0
176
     0
 90
        2
176
     1
  1
strokes_ogs.tif
176
     1
290
     0
176
     1
 40
1.0
176
     1
 40
1.0
176
     1
  0
VISUALSTYLE
  5
7EC9
102
{ACAD_REACTORS
330
7EB6
102
}
330
7EB6
100
AcDbVisualStyle
  2
X-Ray
 70
    25
177
     3
291
     0
 70
    58
 90
        2
176
     1
 90
        2
176
     1
 90
        1
176
     1
 90
        1
176
     1
 40
0.5
176
     1
 40
30.0
176
     1
 62
     7
420
 16777215
176
     1
 90
        1
176
     1
 90
        0
176
     1
 62
     7
176
     1
 62
   257
176
     1
 90
        1
176
     1
 90
        1
176
     1
 40
1.0
176
     1
 90
        8
176
     1
 62
     7
176
     1
 40
1.0
176
     1
 90
        1
176
     1
 90
        6
176
     1
 90
        2
176
     1
 62
     7
176
     1
 90
        3
176
     1
 90
        0
176
     1
 90
        0
176
     1
290
     0
176
     1
 90
       13
176
     1
 40
0.0
176
     1
 90
        0
176
     1
290
     0
176
     1
290
     1
176
     1
290
     1
176
     1
290
     0
176
     1
290
     0
176
     1
290
     0
176
     1
290
     0
176
     1
290
     0
176
     1
290
     0
176
     1
 90
       50
176
     1
 40
0.0
176
     1
 40
1.0
176
     1
 90
        0
176
     1
 62
    18
420
        0
176
     1
 90
       50
176
     1
 90
        3
176
     1
 62
     5
420
      255
176
     1
290
     0
176
     1
 90
       50
176
     1
 90
       50
176
     1
 90
       50
176
     1
290
     0
176
     1
 90
       50
176
     1
 62
   256
176
     0
 40
1.0
176
     0
 90
        2
176
     1
  1
strokes_ogs.tif
176
     1
290
     0
176
     1
 40
1.0
176
     1
 40
1.0
176
     1
  0
DICTIONARYVAR
  5
7F56
102
{ACAD_REACTORS
330
7E94
102
}
330
7E94
100
DictionaryVariables
280
     0
  1
1:1
  0
DICTIONARYVAR
  5
7F52
102
{ACAD_REACTORS
330
7E94
102
}
330
7E94
100
DictionaryVariables
280
     0
  1
STANDARD
  0
DICTIONARYVAR
  5
7F51
102
{ACAD_REACTORS
330
7E94
102
}
330
7E94
100
DictionaryVariables
280
     0
  1
STANDARD
  0
DICTIONARYVAR
  5
7F53
102
{ACAD_REACTORS
330
7E94
102
}
330
7E94
100
DictionaryVariables
280
     0
  1
Imperial24
  0
DICTIONARYVAR
  5
7F54
102
{ACAD_REACTORS
330
7E94
102
}
330
7E94
100
DictionaryVariables
280
     0
  1
Imperial24
  0
DICTIONARYVAR
  5
7E95
102
{ACAD_REACTORS
330
7E94
102
}
330
7E94
100
DictionaryVariables
280
     0
  1
1
  0
DICTIONARYVAR
  5
7F58
102
{ACAD_REACTORS
330
7E94
102
}
330
7E94
100
DictionaryVariables
280
     0
  1
1
  0
DICTIONARYVAR
  5
7F59
102
{ACAD_REACTORS
330
7E94
102
}
330
7E94
100
DictionaryVariables
280
     0
  1
15
  0
DICTIONARYVAR
  5
7F57
102
{ACAD_REACTORS
330
7E94
102
}
330
7E94
100
DictionaryVariables
280
     0
  1
0
  0
DICTIONARYVAR
  5
7F55
102
{ACAD_REACTORS
330
7E94
102
}
330
7E94
100
DictionaryVariables
280
     0
  1
0
  0
DICTIONARY
  5
7F4E
330
7EE9
100
AcDbDictionary
280
     1
281
     1
  3
ACAD_XREC_ROUNDTRIP
360
8096
  0
DICTIONARY
  5
7EA7
330
7EA6
100
AcDbDictionary
280
     1
281
     1
  3
BUMPTILE
360
7EA9
  3
DIFFUSETILE
360
7EA8
  3
OPACITYTILE
360
7EAC
  3
REFLECTIONTILE
360
7EAB
  3
REFRACTIONTILE
360
7EAD
  3
SPECULARTILE
360
7EAA
  0
DICTIONARY
  5
7E9F
330
7E9E
100
AcDbDictionary
280
     1
281
     1
  3
BUMPTILE
360
7EA1
  3
DIFFUSETILE
360
7EA0
  3
OPACITYTILE
360
7EA4
  3
REFLECTIONTILE
360
7EA3
  3
REFRACTIONTILE
360
7EA5
  3
SPECULARTILE
360
7EA2
  0
DICTIONARY
  5
7EAF
330
7EAE
100
AcDbDictionary
280
     1
281
     1
  3
BUMPTILE
360
7EB1
  3
DIFFUSETILE
360
7EB0
  3
OPACITYTILE
360
7EB4
  3
REFLECTIONTILE
360
7EB3
  3
REFRACTIONTILE
360
7EB5
  3
SPECULARTILE
360
7EB2
  0
DICTIONARY
  5
7F4C
330
7EE7
100
AcDbDictionary
280
     1
281
     1
  3
ACAD_XREC_ROUNDTRIP
360
8095
  0
DICTIONARY
  5
8093
330
7ED1
100
AcDbDictionary
280
     1
281
     1
  3
ACAD_ROUNDTRIP_2008_TABLESTYLE_CELLSTYLEMAP
360
8094
  0
XRECORD
  5
8096
102
{ACAD_REACTORS
330
7F4E
102
}
330
7F4E
100
AcDbXrecord
280
     1
102
DISPLAYNAME
  1
Imperial24
102
FLAGS
 90
        0
  0
XRECORD
  5
7EA9
102
{ACAD_REACTORS
330
7EA7
102
}
330
7EA7
100
AcDbXrecord
280
     1
270
     1
271
     1
  0
XRECORD
  5
7EA8
102
{ACAD_REACTORS
330
7EA7
102
}
330
7EA7
100
AcDbXrecord
280
     1
270
     1
271
     1
  0
XRECORD
  5
7EAC
102
{ACAD_REACTORS
330
7EA7
102
}
330
7EA7
100
AcDbXrecord
280
     1
270
     1
271
     1
  0
XRECORD
  5
7EAB
102
{ACAD_REACTORS
330
7EA7
102
}
330
7EA7
100
AcDbXrecord
280
     1
270
     1
271
     1
  0
XRECORD
  5
7EAD
102
{ACAD_REACTORS
330
7EA7
102
}
330
7EA7
100
AcDbXrecord
280
     1
270
     1
271
     1
  0
XRECORD
  5
7EAA
102
{ACAD_REACTORS
330
7EA7
102
}
330
7EA7
100
AcDbXrecord
280
     1
270
     1
271
     1
  0
XRECORD
  5
7EA1
102
{ACAD_REACTORS
330
7E9F
102
}
330
7E9F
100
AcDbXrecord
280
     1
270
     1
271
     1
  0
XRECORD
  5
7EA0
102
{ACAD_REACTORS
330
7E9F
102
}
330
7E9F
100
AcDbXrecord
280
     1
270
     1
271
     1
  0
XRECORD
  5
7EA4
102
{ACAD_REACTORS
330
7E9F
102
}
330
7E9F
100
AcDbXrecord
280
     1
270
     1
271
     1
  0
XRECORD
  5
7EA3
102
{ACAD_REACTORS
330
7E9F
102
}
330
7E9F
100
AcDbXrecord
280
     1
270
     1
271
     1
  0
XRECORD
  5
7EA5
102
{ACAD_REACTORS
330
7E9F
102
}
330
7E9F
100
AcDbXrecord
280
     1
270
     1
271
     1
  0
XRECORD
  5
7EA2
102
{ACAD_REACTORS
330
7E9F
102
}
330
7E9F
100
AcDbXrecord
280
     1
270
     1
271
     1
  0
XRECORD
  5
7EB1
102
{ACAD_REACTORS
330
7EAF
102
}
330
7EAF
100
AcDbXrecord
280
     1
270
     1
271
     1
  0
XRECORD
  5
7EB0
102
{ACAD_REACTORS
330
7EAF
102
}
330
7EAF
100
AcDbXrecord
280
     1
270
     1
271
     1
  0
XRECORD
  5
7EB4
102
{ACAD_REACTORS
330
7EAF
102
}
330
7EAF
100
AcDbXrecord
280
     1
270
     1
271
     1
  0
XRECORD
  5
7EB3
102
{ACAD_REACTORS
330
7EAF
102
}
330
7EAF
100
AcDbXrecord
280
     1
270
     1
271
     1
  0
XRECORD
  5
7EB5
102
{ACAD_REACTORS
330
7EAF
102
}
330
7EAF
100
AcDbXrecord
280
     1
270
     1
271
     1
  0
XRECORD
  5
7EB2
102
{ACAD_REACTORS
330
7EAF
102
}
330
7EAF
100
AcDbXrecord
280
     1
270
     1
271
     1
  0
XRECORD
  5
8095
102
{ACAD_REACTORS
330
7F4C
102
}
330
7F4C
100
AcDbXrecord
280
     1
102
DISPLAYNAME
  1
Imperial24
102
FLAGS
 90
        0
  0
CELLSTYLEMAP
  5
8094
102
{ACAD_REACTORS
330
8093
102
}
330
8093
100
AcDbCellStyleMap
 90
        3
300
CELLSTYLE
  1
TABLEFORMAT_BEGIN
 90
        5
170
     1
 91
        0
 92
    32768
 62
   257
 93
        1
300
CONTENTFORMAT
  1
CONTENTFORMAT_BEGIN
 90
        0
 91
        0
 92
      512
 93
        0
300

 40
0.0
140
1.0
 94
        5
 62
     0
340
10
144
0.25
309
CONTENTFORMAT_END
171
     0
 94
        0
309
TABLEFORMAT_END
  1
CELLSTYLE_BEGIN
 90
        1
 91
        1
300
_TITLE
309
CELLSTYLE_END
300
CELLSTYLE
  1
TABLEFORMAT_BEGIN
 90
        5
170
     1
 91
        0
 92
        0
 62
   257
 93
        1
300
CONTENTFORMAT
  1
CONTENTFORMAT_BEGIN
 90
        0
 91
        0
 92
      512
 93
        0
300

 40
0.0
140
1.0
 94
        5
 62
     0
340
10
144
0.18
309
CONTENTFORMAT_END
171
     0
 94
        0
309
TABLEFORMAT_END
  1
CELLSTYLE_BEGIN
 90
        2
 91
        1
300
_HEADER
309
CELLSTYLE_END
300
CELLSTYLE
  1
TABLEFORMAT_BEGIN
 90
        5
170
     1
 91
        0
 92
        0
 62
   257
 93
        1
300
CONTENTFORMAT
  1
CONTENTFORMAT_BEGIN
 90
        0
 91
        0
 92
      512
 93
        0
300

 40
0.0
140
1.0
 94
        2
 62
     0
340
10
144
0.18
309
CONTENTFORMAT_END
171
     0
 94
        0
309
TABLEFORMAT_END
  1
CELLSTYLE_BEGIN
 90
        3
 91
        2
300
_DATA
309
CELLSTYLE_END
  0
ENDSEC
  0
SECTION
  2
ACDSDATA
 70
     2
 71
     8
  0
ACDSSCHEMA
 90
        0
  1
AcDb_Thumbnail_Schema
  2
AcDbDs::ID
280
    10
 91
        8
  2
Thumbnail_Data
280
    15
 91
        0
101
ACDSRECORD
 95
        0
 90
        1
  2
AcDbDs::TreatedAsObjectData
280
     1
291
     1
101
ACDSRECORD
 95
        0
 90
        2
  2
AcDbDs::Legacy
280
     1
291
     1
101
ACDSRECORD
  1
AcDbDs::ID
 90
        3
  2
AcDs:Indexable
280
     1
291
     1
101
ACDSRECORD
  1
AcDbDs::ID
 90
        4
  2
AcDbDs::HandleAttribute
280
     7
282
     1
  0
ACDSSCHEMA
 90
        1
  1
AcDbDs::TreatedAsObjectDataSchema
  2
AcDbDs::TreatedAsObjectData
280
     1
 91
        0
  0
ACDSSCHEMA
 90
        2
  1
AcDbDs::LegacySchema
  2
AcDbDs::Legacy
280
     1
 91
        0
  0
ACDSSCHEMA
 90
        3
  1
AcDbDs::IndexedPropertySchema
  2
AcDs:Indexable
280
     1
 91
        0
  0
ACDSSCHEMA
 90
        4
  1
AcDbDs::HandleAttributeSchema
  2
AcDbDs::HandleAttribute
280
     7
 91
        1
284
     1
  0
ACDSRECORD
 90
        0
  2
AcDbDs::ID
280
    10
320
7DCE
  2
Thumbnail_Data
280
    15
 94
     1881
310
89504E470D0A1A0A0000000D49484452000001000000007C0803000000B13B9E5A00000300504C5445000000000000C8C8C80000000000000000000000000000000000000000000000000000330000660000990000CC0000FF0033000033330033660033990033CC0033FF0066000066330066660066990066CC0066FF0099
310
000099330099660099990099CC0099FF00CC0000CC3300CC6600CC9900CCCC00CCFF00FF0000FF3300FF6600FF9900FFCC00FFFF3300003300333300663300993300CC3300FF3333003333333333663333993333CC3333FF3366003366333366663366993366CC3366FF3399003399333399663399993399CC3399FF33CC00
310
33CC3333CC6633CC9933CCCC33CCFF33FF0033FF3333FF6633FF9933FFCC33FFFF6600006600336600666600996600CC6600FF6633006633336633666633996633CC6633FF6666006666336666666666996666CC6666FF6699006699336699666699996699CC6699FF66CC0066CC3366CC6666CC9966CCCC66CCFF66FF0066
310
FF3366FF6666FF9966FFCC66FFFF9900009900339900669900999900CC9900FF9933009933339933669933999933CC9933FF9966009966339966669966999966CC9966FF9999009999339999669999999999CC9999FF99CC0099CC3399CC6699CC9999CCCC99CCFF99FF0099FF3399FF6699FF9999FFCC99FFFFCC0000CC00
310
33CC0066CC0099CC00CCCC00FFCC3300CC3333CC3366CC3399CC33CCCC33FFCC6600CC6633CC6666CC6699CC66CCCC66FFCC9900CC9933CC9966CC9999CC99CCCC99FFCCCC00CCCC33CCCC66CCCC99CCCCCCCCCCFFCCFF00CCFF33CCFF66CCFF99CCFFCCCCFFFFFF0000FF0033FF0066FF0099FF00CCFF00FFFF3300FF3333
310
FF3366FF3399FF33CCFF33FFFF6600FF6633FF6666FF6699FF66CCFF66FFFF9900FF9933FF9966FF9999FF99CCFF99FFFFCC00FFCC33FFCC66FFCC99FFCCCCFFCCFFFFFF00FFFF33FFFF66FFFF99FFFFCCFFFFFF0000000D0D0D1A1A1A2828283535354343435050505D5D5D6B6B6B787878868686939393A1A1A1AEAEAEBB
310
BBBBC9C9C9D6D6D6E4E4E4F1F1F1FFFFFF00000000000000000000000000000000000000000000000000000000000008F1915C000003C34944415478DAED9D5B6EE5200C86BD1C5ED8FF66D806EFD303069B5B423B234D7DF9A556499A53D51FB631841480DFA7BC131852BEBCA617405EED350660757A731E3013F01C20D4
310
8DFF9D34B4E26FFA7D0EE0FF00289E5C7AB94CBDDDE762BD0070F476990072C9E740A6B5781E62FB1CF1AC1E100900DB39B78E0DB8CDD8D8FC040FEA27BB5F880E81DC2DE966D603E036C380072323B788119E03BA35AC81A9E50901060BF9401EADF65EC0017825684EE26DDE37E3540F8C19B3F592AD0F90DDF0EF0058EE
310
5F01D4CE411D80F9140BE17126440900E319C0E572B95CAE59C1A6D9D13C809D6C01583DC00138003B99FF244B3970E301B3529121000C02C58435003C1DA80600D6011C0AA11980DE1CD04D8DB034BA0500E0001C8003B801A0B6177000B09F0DB05209A67823C563813496FE4B89A4B9F14700A5148E63707CBE990160DA
310
031E6500C0321A7CBA4B31807ABE4DF786007C5D3006E04EE072B95C2E17751BADCB340EC056FFA8B744189AF46CD1F4937AAB7C00A99B4D47FBD04EB001203F0BDCFB75DA7F4ACF6828BC0C7ED27C1C406E08EC5AD0180082D0A67E024D89BD03A0F962B98E9F4A1D332E90C0B35700B17F40320058013C3D033102A0D866
310
1A4079146C0040EB02E85160A02781F600B45E203E01604F4E180099C5D008A03D042A5FC766654BA7188028B31A1E00E003A0809E60040025C1B62E2E4027B007B00D011D008A2121B6A7A427002C63120099E3A115407D3C8E8920C5270071F000C1007028B0592C9FD625F3F507EDE6AF78C1039100702A23B1C8EE0B24
310
DA192C6F0E51BA94EE01C35C4E043E1A9CD6496D002C4950B00750766F95209EB16CF70E007400F8D8838E1F790430047C118DF06E700150EC0A63EB434F0EBC105201609AD06E6570E815311B1E815A0F480C00F029B13E248CE813CF3940F260880C83D8E6039046BD7A0340E83B860B808F07A039AD20AE75CE1B00100B
310
003880DA0BF075E2B71E201600AC00F848AFCF111D92A0F417CD5F01EC16D0EFBA41100F80AC0CCFCB65D715B54A00D078EF7877DC1C097FC73CB511D1DF0010ED01A4EB1058C220A8F000B8F08083C40300CB00D608780A81A82F04DA18265E3568549C04AF3CA0474B1ADEA503D99A1779A5E7B261B9473A80FAF727D82D
310
789B07F90380BE962E896680167EF38D91C496150A5F24D7014C17CECEB2E725B9120097CBE572B98ACC6FB090E16051BEF9AC6E00EB1604D0FEF93EEDBCA30600EC00E00E5C99B6E36237ABF1809FF8775614029E04CF3900F8466378207AA7A99F24C1BE311BDF6ECB5A2F40FE30A67E2D00E02904FA3E73596B08FCC624
310
F8073BA84E079CBDBAFE0000000049454E44AE42608201B9C99437002F68406CC20A5C293903F027B3C03FA9336FF439999AAD0000000049454E44AE4260823799B206E0050D884D58812B256300FE642FF00F324D711659094B4D0000000049454E44AE426082
  0
ENDSEC
  0
EOF
