  0
SECTION
  2
HEADER
  9
$ACADVER
  1
AC1009
  9
$INSBASE
 10
0.0
 20
0.0
 30
0.0
  9
$EXTMIN
 10
250.0
 20
300.0
 30
0.0
  9
$EXTMAX
 10
1861.09698477809
 20
2786.6522620000001
 30
0.0
  9
$LIMMIN
 10
0.0
 20
0.0
  9
$LIMMAX
 10
297.0
 20
210.0
  9
$ORTHOMODE
 70
     0
  9
$REGENMODE
 70
     1
  9
$FILLMODE
 70
     0
  9
$QTEXTMODE
 70
     0
  9
$MIRRTEXT
 70
     1
  9
$DRAGMODE
 70
     2
  9
$LTSCALE
 40
100.0
  9
$OSMODE
 70
    37
  9
$ATTMODE
 70
     1
  9
$TEXTSIZE
 40
180.0
  9
$TRACEWID
 40
0.05
  9
$TEXTSTYLE
  7
STANDARD
  9
$CLAYER
  8
3
  9
$CELTYPE
  6
BYLAYER
  9
$CECOLOR
 62
   256
  9
$DIMSCALE
 40
10.0
  9
$DIMASZ
 40
2.0
  9
$DIMEXO
 40
0.5
  9
$DIMDLI
 40
10.0
  9
$DIMRND
 40
0.0
  9
$DIMDLE
 40
0.0
  9
$DIMEXE
 40
1.0
  9
$DIMTP
 40
1.0
  9
$DIMTM
 40
1.0
  9
$DIMTXT
 40
3.0
  9
$DIMCEN
 40
0.0
  9
$DIMTSZ
 40
0.0
  9
$DIMTOL
 70
     0
  9
$DIMLIM
 70
     0
  9
$DIMTIH
 70
     0
  9
$DIMTOH
 70
     0
  9
$DIMSE1
 70
     0
  9
$DIMSE2
 70
     0
  9
$DIMTAD
 70
     1
  9
$DIMZIN
 70
     8
  9
$DIMBLK
  1

  9
$DIMASO
 70
     1
  9
$DIMSHO
 70
     1
  9
$DIMPOST
  1

  9
$DIMAPOST
  1

  9
$DIMALT
 70
     0
  9
$DIMALTD
 70
     2
  9
$DIMALTF
 40
0.039
  9
$DIMLFAC
 40
1.0
  9
$DIMTOFL
 70
     1
  9
$DIMTVP
 40
0.0
  9
$DIMTIX
 70
     0
  9
$DIMSOXD
 70
     0
  9
$DIMSAH
 70
     1
  9
$DIMBLK1
  1
OPEN
  9
$DIMBLK2
  1
OPEN
  9
$DIMSTYLE
  2
IGA
  9
$DIMCLRD
 70
     0
  9
$DIMCLRE
 70
     0
  9
$DIMCLRT
 70
     0
  9
$DIMTFAC
 40
10.0
  9
$DIMGAP
 40
1.0
  9
$LUNITS
 70
     2
  9
$LUPREC
 70
     3
  9
$SKETCHINC
 40
0.1
  9
$FILLETRAD
 40
50.0
  9
$AUNITS
 70
     0
  9
$AUPREC
 70
     0
  9
$MENU
  1
acad
  9
$ELEVATION
 40
0.0
  9
$PELEVATION
 40
0.0
  9
$THICKNESS
 40
0.0
  9
$LIMCHECK
 70
     0
  9
$BLIPMODE
 70
     0
  9
$CHAMFERA
 40
0.5
  9
$CHAMFERB
 40
0.5
  9
$SKPOLY
 70
     0
  9
$TDCREATE
 40
2450740.5949784722
  9
$TDUPDATE
 40
2454953.8642999772
  9
$TDINDWG
 40
0.0048294792
  9
$TDUSRTIMER
 40
0.0048294792
  9
$USRTIMER
 70
     1
  9
$ANGBASE
 50
0.0
  9
$ANGDIR
 70
     0
  9
$PDMODE
 70
     0
  9
$PDSIZE
 40
0.0
  9
$PLINEWID
 40
0.0
  9
$COORDS
 70
     1
  9
$SPLFRAME
 70
     0
  9
$SPLINETYPE
 70
     6
  9
$SPLINESEGS
 70
     8
  9
$ATTDIA
 70
     0
  9
$ATTREQ
 70
     1
  9
$HANDLING
 70
 10241
  9
$HANDSEED
  5
7EC8
  9
$SURFTAB1
 70
     6
  9
$SURFTAB2
 70
     6
  9
$SURFTYPE
 70
     6
  9
$SURFU
 70
     6
  9
$SURFV
 70
     6
  9
$UCSNAME
  2

  9
$UCSORG
 10
0.0
 20
0.0
 30
0.0
  9
$UCSXDIR
 10
1.0
 20
0.0
 30
0.0
  9
$UCSYDIR
 10
0.0
 20
1.0
 30
0.0
  9
$PUCSNAME
  2

  9
$PUCSORG
 10
0.0
 20
0.0
 30
0.0
  9
$PUCSXDIR
 10
1.0
 20
0.0
 30
0.0
  9
$PUCSYDIR
 10
0.0
 20
1.0
 30
0.0
  9
$USERI1
 70
     0
  9
$USERI2
 70
     0
  9
$USERI3
 70
     0
  9
$USERI4
 70
     0
  9
$USERI5
 70
     0
  9
$USERR1
 40
0.0
  9
$USERR2
 40
0.0
  9
$USERR3
 40
0.0
  9
$USERR4
 40
0.0
  9
$USERR5
 40
0.0
  9
$WORLDVIEW
 70
     1
  9
$SHADEDGE
 70
     3
  9
$SHADEDIF
 70
    70
  9
$TILEMODE
 70
     1
  9
$MAXACTVP
 70
    16
  9
$PLIMCHECK
 70
     0
  9
$PEXTMIN
 10
1.0000000000000000E+020
 20
1.0000000000000000E+020
 30
1.0000000000000000E+020
  9
$PEXTMAX
 10
-1.0000000000000000E+020
 20
-1.0000000000000000E+020
 30
-1.0000000000000000E+020
  9
$PLIMMIN
 10
0.0
 20
0.0
  9
$PLIMMAX
 10
12.0
 20
9.0
  9
$UNITMODE
 70
     0
  9
$VISRETAIN
 70
     0
  9
$PLINEGEN
 70
     0
  9
$PSLTSCALE
 70
     1
  0
ENDSEC
  0
SECTION
  2
TABLES
  0
TABLE
  2
VPORT
 70
     2
  0
VPORT
  2
*ACTIVE
 70
     0
 10
0.0
 20
0.0
 11
1.0
 21
1.0
 12
2920.3865386985012
 22
1946.0508646965791
 13
0.0
 23
0.0
 14
10.0
 24
10.0
 15
10.0
 25
10.0
 16
0.0
 26
0.0
 36
1.0
 17
0.0
 27
0.0
 37
0.0
 40
3860.4308917189128
 41
1.5051150895140659
 42
50.0
 43
0.0
 44
0.0
 50
0.0
 51
0.0
 71
     0
 72
   100
 73
     1
 74
     0
 75
     0
 76
     0
 77
     0
 78
     0
  0
ENDTAB
  0
TABLE
  2
LTYPE
 70
     2
  0
LTYPE
  2
CONTINUOUS
 70
     0
  3
Solid line
 72
    65
 73
     0
 40
0.0
  0
LTYPE
  2
CENTER
 70
     0
  3
____ _ ____ _ ____ _ ____ _ ____ _ ____ _ ____ 
 72
    65
 73
     4
 40
2.0
 49
1.25
 49
-0.25
 49
0.25
 49
-0.25
  0
ENDTAB
  0
TABLE
  2
LAYER
 70
     6
  0
LAYER
  2
0
 70
     0
 62
     7
  6
CONTINUOUS
  0
LAYER
  2
3
 70
     0
 62
     2
  6
CONTINUOUS
  0
LAYER
  2
2
 70
     0
 62
     3
  6
CENTER
  0
LAYER
  2
1
 70
     0
 62
     4
  6
CONTINUOUS
  0
LAYER
  2
4
 70
     0
 62
     7
  6
CONTINUOUS
  0
LAYER
  2
DEFPOINTS
 70
     0
 62
     7
  6
CONTINUOUS
  0
ENDTAB
  0
TABLE
  2
STYLE
 70
     1
  0
STYLE
  2
STANDARD
 70
     0
 40
0.0
 41
1.0
 50
0.0
 71
     0
 42
180.0
  3
simplex.shx
  4
extfont.shx
  0
ENDTAB
  0
TABLE
  2
VIEW
 70
     0
  0
ENDTAB
  0
TABLE
  2
UCS
 70
     0
  0
ENDTAB
  0
TABLE
  2
APPID
 70
     1
  0
APPID
  2
ACAD
 70
     0
  0
ENDTAB
  0
TABLE
  2
DIMSTYLE
 70
     1
  0
DIMSTYLE
  2
IGA
 70
     0
  3

  4

  5

  6
OPEN
  7
OPEN
 40
2.0
 41
2.0
 42
0.5
 43
10.0
 44
1.0
 45
0.0
 46
0.0
 47
1.0
 48
1.0
140
3.0
141
0.0
142
0.0
143
0.03937
144
1.0
145
0.0
146
10.0
147
1.0
 71
     0
 72
     0
 73
     0
 74
     0
 75
     0
 76
     0
 77
     1
 78
     8
170
     0
171
     2
172
     0
173
     1
174
     0
175
     0
176
     0
177
     0
178
     0
  0
ENDTAB
  0
ENDSEC
  0
SECTION
  2
BLOCKS
  0
BLOCK
  8
0
  2
$MODEL_SPACE
 70
     0
 10
0.0
 20
0.0
 30
0.0
  3
$MODEL_SPACE
  1

  0
ENDBLK
  5
1B
  8
0
  0
BLOCK
 67
     1
  8
0
  2
$PAPER_SPACE
 70
     0
 10
0.0
 20
0.0
 30
0.0
  3
$PAPER_SPACE
  1

  0
ENDBLK
  5
18
 67
     1
  8
0
  0
BLOCK
  8
0
  2
_OPEN
 70
     0
 10
0.0
 20
0.0
 30
0.0
  3
_OPEN
  1

  0
LINE
  5
7B41
  8
0
  6
BYBLOCK
 62
     0
 10
-1.0
 20
0.166667
 30
0.0
 11
0.0
 21
0.0
 31
0.0
  0
LINE
  5
7B42
  8
0
  6
BYBLOCK
 62
     0
 10
0.0
 20
0.0
 30
0.0
 11
-1.0
 21
-0.166667
 31
0.0
  0
LINE
  5
7B43
  8
0
  6
BYBLOCK
 62
     0
 10
0.0
 20
0.0
 30
0.0
 11
-1.0
 21
0.0
 31
0.0
  0
ENDBLK
  5
7B44
  8
0
  0
BLOCK
  8
0
  2
*D1
 70
     1
 10
0.0
 20
0.0
 30
0.0
  3
*D1
  1

  0
LINE
  5
7E09
  8
3
  6
CONTINUOUS
 62
     0
 10
546.78139699999986
 20
773.50268800000003
 30
0.0
 11
546.78139699999986
 21
692.29820099999995
 31
0.0
  0
LINE
  5
7E0A
  8
3
  6
CONTINUOUS
 62
     0
 10
766.78139699999997
 20
773.50268800000003
 30
0.0
 11
766.78139699999997
 21
692.29820099999995
 31
0.0
  0
LINE
  5
7E0B
  8
3
  6
CONTINUOUS
 62
     0
 10
566.78139699999997
 20
702.29820099999995
 30
0.0
 11
746.78139699999986
 21
702.29820099999995
 31
0.0
  0
INSERT
  5
7E0C
  8
3
  6
CONTINUOUS
 62
     0
  2
_OPEN
 10
546.78139699999986
 20
702.29820099999995
 30
0.0
 41
20.0
 42
20.0
 43
20.0
 50
180.0
  0
INSERT
  5
7E0D
  8
3
  6
CONTINUOUS
 62
     0
  2
_OPEN
 10
766.78139699999997
 20
702.29820099999995
 30
0.0
 41
20.0
 42
20.0
 43
20.0
  0
TEXT
  8
3
  40
30
  5
7EB4
  62
0
  72
0
  71
0
 10
603.077
 20
674.198
 30
0.000000
  1
220
  0
POINT
  5
7E0F
  8
DEFPOINTS
  6
CONTINUOUS
 62
     0
 10
546.78139699999986
 20
778.50268800000003
 30
0.0
  0
POINT
  5
7E10
  8
DEFPOINTS
  6
CONTINUOUS
 62
     0
 10
766.78139699999997
 20
778.50268800000003
 30
0.0
  0
POINT
  5
7E11
  8
DEFPOINTS
  6
CONTINUOUS
 62
     0
 10
766.78139699999997
 20
702.29820099999995
 30
0.0
  0
ENDBLK
  5
7B51
  8
0
  0
BLOCK
  8
0
  2
*D2
 70
     1
 10
0.0
 20
0.0
 30
0.0
  3
*D2
  1

  0
LINE
  5
7E12
  8
3
  6
CONTINUOUS
 62
     0
 10
1316.7813969999991
 20
773.50268800000003
 30
0.0
 11
1316.7813969999991
 21
692.29820099999995
 31
0.0
  0
LINE
  5
7E13
  8
3
  6
CONTINUOUS
 62
     0
 10
786.78139699999997
 20
702.29820099999995
 30
0.0
 11
1296.781397
 21
702.29820099999995
 31
0.0
  0
INSERT
  5
7E14
  8
3
  6
CONTINUOUS
 62
     0
  2
_OPEN
 10
766.78139699999997
 20
702.29820099999995
 30
0.0
 41
20.0
 42
20.0
 43
20.0
 50
180.0
  0
INSERT
  5
7E15
  8
3
  6
CONTINUOUS
 62
     0
  2
_OPEN
 10
1316.7813969999991
 20
702.29820099999995
 30
0.0
 41
20.0
 42
20.0
 43
20.0
  0
TEXT
  8
3
  40
30
  5
7EB5
  62
0
  72
0
  71
0
 10
981.781
 20
674.198
 30
0.000000
  1
550
  0
POINT
  5
7E17
  8
DEFPOINTS
  6
CONTINUOUS
 62
     0
 10
766.78139699999997
 20
778.50268800000003
 30
0.0
  0
POINT
  5
7E18
  8
DEFPOINTS
  6
CONTINUOUS
 62
     0
 10
1316.7813969999991
 20
778.50268800000003
 30
0.0
  0
POINT
  5
7E19
  8
DEFPOINTS
  6
CONTINUOUS
 62
     0
 10
1316.7813969999991
 20
702.29820099999995
 30
0.0
  0
ENDBLK
  5
7B5D
  8
0
  0
BLOCK
  8
0
  2
*D3
 70
     1
 10
0.0
 20
0.0
 30
0.0
  3
*D3
  1

  0
LINE
  5
7E1A
  8
3
  6
CONTINUOUS
 62
     0
 10
561.78139699999986
 20
1145.502688
 30
0.0
 11
485.38243900000009
 21
1145.502688
 31
0.0
  0
LINE
  5
7E1B
  8
3
  6
CONTINUOUS
 62
     0
 10
561.78139699999986
 20
895.50268800000003
 30
0.0
 11
485.38243899999998
 21
895.50268800000003
 31
0.0
  0
LINE
  5
7E1C
  8
3
  6
CONTINUOUS
 62
     0
 10
495.38243900000009
 20
1125.502688
 30
0.0
 11
495.38243900000009
 21
915.50268800000015
 31
0.0
  0
INSERT
  5
7E1D
  8
3
  6
CONTINUOUS
 62
     0
  2
_OPEN
 10
495.38243900000009
 20
1145.502688
 30
0.0
 41
20.0
 42
20.0
 43
20.0
 50
90.0
  0
INSERT
  5
7E1E
  8
3
  6
CONTINUOUS
 62
     0
  2
_OPEN
 10
495.38243900000009
 20
895.50268800000003
 30
0.0
 41
20.0
 42
20.0
 43
20.0
 50
270.0
  0
TEXT
  8
3
  40
30
  5
7EB6
  62
0
  72
0
  71
0
 10
410.382
 20
958.765
 30
0.000000
  1
250
  0
POINT
  5
7E20
  8
DEFPOINTS
  6
CONTINUOUS
 62
     0
 10
566.78139699999997
 20
1145.502688
 30
0.0
  0
POINT
  5
7E21
  8
DEFPOINTS
  6
CONTINUOUS
 62
     0
 10
566.78139699999997
 20
895.50268800000003
 30
0.0
  0
POINT
  5
7E22
  8
DEFPOINTS
  6
CONTINUOUS
 62
     0
 10
495.38243900000009
 20
895.50268800000003
 30
0.0
  0
ENDBLK
  5
7B6A
  8
0
  0
BLOCK
  8
0
  2
*D4
 70
     1
 10
0.0
 20
0.0
 30
0.0
  3
*D4
  1

  0
LINE
  5
7E23
  8
3
  6
CONTINUOUS
 62
     0
 10
761.78139699999997
 20
1331.492072
 30
0.0
 11
372.90381300000018
 21
1331.492072
 31
0.0
  0
LINE
  5
7E24
  8
3
  6
CONTINUOUS
 62
     0
 10
561.78139699999986
 20
1145.502688
 30
0.0
 11
372.90381300000013
 21
1145.502688
 31
0.0
  0
LINE
  5
7E25
  8
3
  6
CONTINUOUS
 62
     0
 10
382.90381300000018
 20
1311.492072
 30
0.0
 11
382.90381300000018
 21
1165.502688
 31
0.0
  0
INSERT
  5
7E26
  8
3
  6
CONTINUOUS
 62
     0
  2
_OPEN
 10
382.90381300000018
 20
1331.492072
 30
0.0
 41
20.0
 42
20.0
 43
20.0
 50
90.0
  0
INSERT
  5
7E27
  8
3
  6
CONTINUOUS
 62
     0
  2
_OPEN
 10
382.90381300000018
 20
1145.502688
 30
0.0
 41
20.0
 42
20.0
 43
20.0
 50
270.0
  0
TEXT
  8
3
  40
30
  5
7EB7
  62
0
  72
0
  71
0
 10
297.904
 20
1182.34
 30
0.000000
  1
186
  0
POINT
  5
7E29
  8
DEFPOINTS
  6
CONTINUOUS
 62
     0
 10
766.78139699999997
 20
1331.492072
 30
0.0
  0
POINT
  5
7E2A
  8
DEFPOINTS
  6
CONTINUOUS
 62
     0
 10
566.78139699999997
 20
1145.502688
 30
0.0
  0
POINT
  5
7E2B
  8
DEFPOINTS
  6
CONTINUOUS
 62
     0
 10
382.90381300000018
 20
1145.502688
 30
0.0
  0
ENDBLK
  5
7C80
  8
0
  0
BLOCK
  8
0
  2
*D5
 70
     1
 10
0.0
 20
0.0
 30
0.0
  3
*D5
  1

  0
LINE
  5
7E2C
  8
3
  6
CONTINUOUS
 62
     0
 10
571.78139699999986
 20
830.50268799999992
 30
0.0
 11
372.90381300000001
 21
830.50268799999992
 31
0.0
  0
LINE
  5
7E2D
  8
3
  6
CONTINUOUS
 62
     0
 10
382.90381300000001
 20
1125.502688
 30
0.0
 11
382.90381300000001
 21
850.50268800000003
 31
0.0
  0
INSERT
  5
7E2E
  8
3
  6
CONTINUOUS
 62
     0
  2
_OPEN
 10
382.90381300000001
 20
1145.502688
 30
0.0
 41
20.0
 42
20.0
 43
20.0
 50
90.0
  0
INSERT
  5
7E2F
  8
3
  6
CONTINUOUS
 62
     0
  2
_OPEN
 10
382.90381300000001
 20
830.50268799999992
 30
0.0
 41
20.0
 42
20.0
 43
20.0
 50
270.0
  0
TEXT
  8
3
  40
30
  5
7EB8
  62
0
  72
0
  71
0
 10
297.904
 20
934.903
 30
0.000000
  1
315
  0
POINT
  5
7E31
  8
DEFPOINTS
  6
CONTINUOUS
 62
     0
 10
566.78139699999997
 20
1145.502688
 30
0.0
  0
POINT
  5
7E32
  8
DEFPOINTS
  6
CONTINUOUS
 62
     0
 10
576.78139699999986
 20
830.50268799999992
 30
0.0
  0
POINT
  5
7E33
  8
DEFPOINTS
  6
CONTINUOUS
 62
     0
 10
382.90381300000001
 20
830.50268799999992
 30
0.0
  0
ENDBLK
  5
7C75
  8
0
  0
BLOCK
  8
0
  2
*D6
 70
     1
 10
0.0
 20
0.0
 30
0.0
  3
*D6
  1

  0
LINE
  5
7E34
  8
3
  6
CONTINUOUS
 62
     0
 10
571.78139699999986
 20
830.50268799999992
 30
0.0
 11
372.90381300000013
 21
830.50268799999992
 31
0.0
  0
LINE
  5
7E35
  8
3
  6
CONTINUOUS
 62
     0
 10
541.78139699999997
 20
778.50268800000003
 30
0.0
 11
372.90381300000013
 21
778.50268800000003
 31
0.0
  0
LINE
  5
7E36
  8
3
  6
CONTINUOUS
 62
     0
 10
382.90381300000013
 20
850.50268800000003
 30
0.0
 11
382.90381300000013
 21
870.50268800000003
 31
0.0
  0
LINE
  5
7E37
  8
3
  6
CONTINUOUS
 62
     0
 10
382.90381300000013
 20
758.50268800000003
 30
0.0
 11
382.90381300000013
 21
669.93125942857137
 31
0.0
  0
LINE
  5
7E38
  8
3
  6
CONTINUOUS
 62
     0
 10
382.90381300000013
 20
830.50268799999992
 30
0.0
 11
382.90381300000013
 21
778.50268800000003
 31
0.0
  0
INSERT
  5
7E39
  8
3
  6
CONTINUOUS
 62
     0
  2
_OPEN
 10
382.90381300000013
 20
830.50268799999992
 30
0.0
 41
20.0
 42
20.0
 43
20.0
 50
270.0
  0
INSERT
  5
7E3A
  8
3
  6
CONTINUOUS
 62
     0
  2
_OPEN
 10
382.90381300000013
 20
778.50268800000003
 30
0.0
 41
20.0
 42
20.0
 43
20.0
 50
90.0
  0
TEXT
  8
3
  40
30
  5
7EB9
  62
0
  72
0
  71
0
 10
297.904
 20
651.117
 30
0.000000
  1
52
  0
POINT
  5
7E3C
  8
DEFPOINTS
  6
CONTINUOUS
 62
     0
 10
576.78139699999986
 20
830.50268799999992
 30
0.0
  0
POINT
  5
7E3D
  8
DEFPOINTS
  6
CONTINUOUS
 62
     0
 10
546.78139699999986
 20
778.50268800000003
 30
0.0
  0
POINT
  5
7E3E
  8
DEFPOINTS
  6
CONTINUOUS
 62
     0
 10
382.90381300000013
 20
778.50268800000003
 30
0.0
  0
ENDBLK
  5
7CE4
  8
0
  0
BLOCK
  8
0
  2
*D7
 70
     1
 10
0.0
 20
0.0
 30
0.0
  3
*D7
  1

  0
LINE
  5
7E3F
  8
3
  6
CONTINUOUS
 62
     0
 10
761.78139699999997
 20
1331.492072
 30
0.0
 11
313.48998000000017
 21
1331.492072
 31
0.0
  0
LINE
  5
7E40
  8
3
  6
CONTINUOUS
 62
     0
 10
541.78139699999997
 20
778.50268800000003
 30
0.0
 11
313.48998000000012
 21
778.50268800000003
 31
0.0
  0
LINE
  5
7E41
  8
3
  6
CONTINUOUS
 62
     0
 10
323.48998000000017
 20
1311.492072
 30
0.0
 11
323.48998000000012
 21
798.50268800000003
 31
0.0
  0
INSERT
  5
7E42
  8
3
  6
CONTINUOUS
 62
     0
  2
_OPEN
 10
323.48998000000017
 20
1331.492072
 30
0.0
 41
20.0
 42
20.0
 43
20.0
 50
90.0
  0
INSERT
  5
7E43
  8
3
  6
CONTINUOUS
 62
     0
  2
_OPEN
 10
323.48998000000012
 20
778.50268800000003
 30
0.0
 41
20.0
 42
20.0
 43
20.0
 50
270.0
  0
TEXT
  8
3
  40
30
  5
7EBA
  62
0
  72
0
  71
0
 10
238.490
 20
984.022
 30
0.000000
  1
553
  0
POINT
  5
7E45
  8
DEFPOINTS
  6
CONTINUOUS
 62
     0
 10
766.78139699999997
 20
1331.492072
 30
0.0
  0
POINT
  5
7E46
  8
DEFPOINTS
  6
CONTINUOUS
 62
     0
 10
546.78139699999986
 20
778.50268800000003
 30
0.0
  0
POINT
  5
7E47
  8
DEFPOINTS
  6
CONTINUOUS
 62
     0
 10
323.48998000000012
 20
778.50268800000003
 30
0.0
  0
ENDBLK
  5
7C98
  8
0
  0
BLOCK
  8
0
  2
*D8
 70
     1
 10
0.0
 20
0.0
 30
0.0
  3
*D8
  1

  0
LINE
  5
7E48
  8
3
  6
CONTINUOUS
 62
     0
 10
566.78139699999997
 20
1171.502688
 30
0.0
 11
566.78139699999997
 21
1382.8405330000001
 31
0.0
  0
LINE
  5
7E49
  8
3
  6
CONTINUOUS
 62
     0
 10
766.78139699999997
 20
1336.492072
 30
0.0
 11
766.78139699999997
 21
1382.8405330000001
 31
0.0
  0
LINE
  5
7E4A
  8
3
  6
CONTINUOUS
 62
     0
 10
586.78139699999986
 20
1372.8405330000001
 30
0.0
 11
746.78139699999986
 21
1372.8405330000001
 31
0.0
  0
INSERT
  5
7E4B
  8
3
  6
CONTINUOUS
 62
     0
  2
_OPEN
 10
566.78139699999997
 20
1372.8405330000001
 30
0.0
 41
20.0
 42
20.0
 43
20.0
 50
180.0
  0
INSERT
  5
7E4C
  8
3
  6
CONTINUOUS
 62
     0
  2
_OPEN
 10
766.78139699999997
 20
1372.8405330000001
 30
0.0
 41
20.0
 42
20.0
 43
20.0
  0
TEXT
  8
3
  40
30
  5
7EBB
  62
0
  72
0
  71
0
 10
607.688
 20
1344.74
 30
0.000000
  1
200
  0
POINT
  5
7E4E
  8
DEFPOINTS
  6
CONTINUOUS
 62
     0
 10
566.78139699999997
 20
1166.502688
 30
0.0
  0
POINT
  5
7E4F
  8
DEFPOINTS
  6
CONTINUOUS
 62
     0
 10
766.78139699999997
 20
1331.492072
 30
0.0
  0
POINT
  5
7E50
  8
DEFPOINTS
  6
CONTINUOUS
 62
     0
 10
766.78139699999997
 20
1372.8405330000001
 30
0.0
  0
ENDBLK
  5
7BC7
  8
0
  0
BLOCK
  8
0
  2
*D9
 70
     1
 10
0.0
 20
0.0
 30
0.0
  3
*D9
  1

  0
LINE
  5
7E51
  8
3
  6
CONTINUOUS
 62
     0
 10
986.77078100000006
 20
1150.502688
 30
0.0
 11
986.77078100000006
 21
1382.8405330000001
 31
0.0
  0
LINE
  5
7E52
  8
3
  6
CONTINUOUS
 62
     0
 10
786.78139699999997
 20
1372.8405330000001
 30
0.0
 11
966.77078100000006
 21
1372.8405330000001
 31
0.0
  0
INSERT
  5
7E53
  8
3
  6
CONTINUOUS
 62
     0
  2
_OPEN
 10
766.78139699999997
 20
1372.8405330000001
 30
0.0
 41
20.0
 42
20.0
 43
20.0
 50
180.0
  0
INSERT
  5
7E54
  8
3
  6
CONTINUOUS
 62
     0
  2
_OPEN
 10
986.77078100000006
 20
1372.8405330000001
 30
0.0
 41
20.0
 42
20.0
 43
20.0
  0
TEXT
  8
3
  40
30
  5
7EBC
  62
0
  72
0
  71
0
 10
816.776
 20
1344.74
 30
0.000000
  1
220
  0
POINT
  5
7E56
  8
DEFPOINTS
  6
CONTINUOUS
 62
     0
 10
766.78139699999997
 20
1331.492072
 30
0.0
  0
POINT
  5
7E57
  8
DEFPOINTS
  6
CONTINUOUS
 62
     0
 10
986.77078100000006
 20
1145.502688
 30
0.0
  0
POINT
  5
7E58
  8
DEFPOINTS
  6
CONTINUOUS
 62
     0
 10
986.77078100000006
 20
1372.8405330000001
 30
0.0
  0
ENDBLK
  5
7BD3
  8
0
  0
BLOCK
  8
0
  2
*D10
 70
     1
 10
0.0
 20
0.0
 30
0.0
  3
*D10
  1

  0
LINE
  5
7E59
  8
3
  6
CONTINUOUS
 62
     0
 10
546.78139699999986
 20
1764.63097227311
 30
0.0
 11
546.78139699999986
 21
1594.57537127311
 31
0.0
  0
LINE
  5
7E5A
  8
3
  6
CONTINUOUS
 62
     0
 10
1316.7813969999991
 20
1764.63097227311
 30
0.0
 11
1316.7813969999991
 21
1594.57537127311
 31
0.0
  0
LINE
  5
7E5B
  8
3
  6
CONTINUOUS
 62
     0
 10
566.78139699999997
 20
1604.57537127311
 30
0.0
 11
1296.781397
 21
1604.57537127311
 31
0.0
  0
INSERT
  5
7E5C
  8
3
  6
CONTINUOUS
 62
     0
  2
_OPEN
 10
546.78139699999986
 20
1604.57537127311
 30
0.0
 41
20.0
 42
20.0
 43
20.0
 50
180.0
  0
INSERT
  5
7E5D
  8
3
  6
CONTINUOUS
 62
     0
  2
_OPEN
 10
1316.7813969999991
 20
1604.57537127311
 30
0.0
 41
20.0
 42
20.0
 43
20.0
  0
TEXT
  8
3
  40
30
  5
7EBD
  62
0
  72
0
  71
0
 10
878.399
 20
1576.48
 30
0.000000
  1
770
  0
POINT
  5
7E5F
  8
DEFPOINTS
  6
CONTINUOUS
 62
     0
 10
546.78139699999986
 20
1769.6309722731089
 30
0.0
  0
POINT
  5
7E60
  8
DEFPOINTS
  6
CONTINUOUS
 62
     0
 10
1316.7813969999991
 20
1769.6309722731089
 30
0.0
  0
POINT
  5
7E61
  8
DEFPOINTS
  6
CONTINUOUS
 62
     0
 10
1316.7813969999991
 20
1604.57537127311
 30
0.0
  0
ENDBLK
  5
7BE0
  8
0
  0
BLOCK
  8
0
  2
*D11
 70
     1
 10
0.0
 20
0.0
 30
0.0
  3
*D11
  1

  0
LINE
  5
7E62
  8
3
  6
CONTINUOUS
 62
     0
 10
1321.781397
 20
2019.6309722731089
 30
0.0
 11
1440.0336870000001
 21
2019.6309722731089
 31
0.0
  0
LINE
  5
7E63
  8
3
  6
CONTINUOUS
 62
     0
 10
1321.781397
 20
1769.6309722731089
 30
0.0
 11
1440.0336870000001
 21
1769.6309722731089
 31
0.0
  0
LINE
  5
7E64
  8
3
  6
CONTINUOUS
 62
     0
 10
1430.0336870000001
 20
1999.6309722731089
 30
0.0
 11
1430.0336870000001
 21
1789.63097227311
 31
0.0
  0
INSERT
  5
7E65
  8
3
  6
CONTINUOUS
 62
     0
  2
_OPEN
 10
1430.0336870000001
 20
2019.6309722731089
 30
0.0
 41
20.0
 42
20.0
 43
20.0
 50
90.0
  0
INSERT
  5
7E66
  8
3
  6
CONTINUOUS
 62
     0
  2
_OPEN
 10
1430.0336870000001
 20
1769.6309722731089
 30
0.0
 41
20.0
 42
20.0
 43
20.0
 50
270.0
  0
TEXT
  8
3
  40
30
  5
7EBE
  62
0
  72
0
  71
0
 10
1345.03
 20
1837.46
 30
0.000000
  1
250
  0
POINT
  5
7E68
  8
DEFPOINTS
  6
CONTINUOUS
 62
     0
 10
1316.7813969999991
 20
2019.6309722731089
 30
0.0
  0
POINT
  5
7E69
  8
DEFPOINTS
  6
CONTINUOUS
 62
     0
 10
1316.7813969999991
 20
1769.6309722731089
 30
0.0
  0
POINT
  5
7E6A
  8
DEFPOINTS
  6
CONTINUOUS
 62
     0
 10
1430.0336870000001
 20
1769.6309722731089
 30
0.0
  0
ENDBLK
  5
7BED
  8
0
  0
BLOCK
  8
0
  2
*D12
 70
     1
 10
0.0
 20
0.0
 30
0.0
  3
*D12
  1

  0
LINE
  5
7E6B
  8
3
  6
CONTINUOUS
 62
     0
 10
1421.12015077809
 20
773.50268800000003
 30
0.0
 11
1421.12015077809
 21
686.58277499999997
 31
0.0
  0
LINE
  5
7E6C
  8
3
  6
CONTINUOUS
 62
     0
 10
1671.12015077809
 20
773.50268800000003
 30
0.0
 11
1671.12015077809
 21
686.58277499999997
 31
0.0
  0
LINE
  5
7E6D
  8
3
  6
CONTINUOUS
 62
     0
 10
1441.12015077809
 20
696.58277499999986
 30
0.0
 11
1651.12015077809
 21
696.58277499999986
 31
0.0
  0
INSERT
  5
7E6E
  8
3
  6
CONTINUOUS
 62
     0
  2
_OPEN
 10
1421.12015077809
 20
696.58277499999986
 30
0.0
 41
20.0
 42
20.0
 43
20.0
 50
180.0
  0
INSERT
  5
7E6F
  8
3
  6
CONTINUOUS
 62
     0
  2
_OPEN
 10
1671.12015077809
 20
696.58277499999986
 30
0.0
 41
20.0
 42
20.0
 43
20.0
  0
TEXT
  8
3
  40
30
  5
7EBF
  62
0
  72
0
  71
0
 10
1486.11
 20
668.483
 30
0.000000
  1
250
  0
POINT
  5
7E71
  8
DEFPOINTS
  6
CONTINUOUS
 62
     0
 10
1421.12015077809
 20
778.50268800000003
 30
0.0
  0
POINT
  5
7E72
  8
DEFPOINTS
  6
CONTINUOUS
 62
     0
 10
1671.12015077809
 20
778.50268800000003
 30
0.0
  0
POINT
  5
7E73
  8
DEFPOINTS
  6
CONTINUOUS
 62
     0
 10
1671.12015077809
 20
696.58277499999986
 30
0.0
  0
ENDBLK
  5
7BFF
  8
0
  0
BLOCK
  8
0
  2
*D13
 70
     1
 10
0.0
 20
0.0
 30
0.0
  3
*D13
  1

  0
LINE
  5
7E74
  8
3
  6
CONTINUOUS
 62
     0
 10
1589.12015077809
 20
1349.4026879999999
 30
0.0
 11
1589.12015077809
 21
1399.2441899999999
 31
0.0
  0
LINE
  5
7E75
  8
3
  6
CONTINUOUS
 62
     0
 10
1769.12015077809
 20
1349.4026879999999
 30
0.0
 11
1769.12015077809
 21
1399.2441899999999
 31
0.0
  0
LINE
  5
7E76
  8
3
  6
CONTINUOUS
 62
     0
 10
1609.12015077809
 20
1389.2441899999999
 30
0.0
 11
1749.12015077809
 21
1389.2441899999999
 31
0.0
  0
INSERT
  5
7E77
  8
3
  6
CONTINUOUS
 62
     0
  2
_OPEN
 10
1589.12015077809
 20
1389.2441899999999
 30
0.0
 41
20.0
 42
20.0
 43
20.0
 50
180.0
  0
INSERT
  5
7E78
  8
3
  6
CONTINUOUS
 62
     0
  2
_OPEN
 10
1769.12015077809
 20
1389.2441899999999
 30
0.0
 41
20.0
 42
20.0
 43
20.0
  0
TEXT
  8
3
  40
30
  5
7EC0
  62
0
  72
0
  71
0
 10
1611.65
 20
1361.14
 30
0.000000
  1
180
  0
POINT
  5
7E7A
  8
DEFPOINTS
  6
CONTINUOUS
 62
     0
 10
1589.12015077809
 20
1344.4026879999999
 30
0.0
  0
POINT
  5
7E7B
  8
DEFPOINTS
  6
CONTINUOUS
 62
     0
 10
1769.12015077809
 20
1344.4026879999999
 30
0.0
  0
POINT
  5
7E7C
  8
DEFPOINTS
  6
CONTINUOUS
 62
     0
 10
1769.12015077809
 20
1389.2441899999999
 30
0.0
  0
ENDBLK
  5
7C0C
  8
0
  0
BLOCK
  8
0
  2
*D14
 70
     1
 10
0.0
 20
0.0
 30
0.0
  3
*D14
  1

  0
LINE
  5
7E7D
  8
3
  6
CONTINUOUS
 62
     0
 10
1339.12015077809
 20
1275.502688
 30
0.0
 11
1339.12015077809
 21
1459.707273
 31
0.0
  0
LINE
  5
7E7E
  8
3
  6
CONTINUOUS
 62
     0
 10
1679.12015077809
 20
1439.3886509999991
 30
0.0
 11
1679.12015077809
 21
1459.707273
 31
0.0
  0
LINE
  5
7E7F
  8
3
  6
CONTINUOUS
 62
     0
 10
1359.12015077809
 20
1449.707273
 30
0.0
 11
1659.12015077809
 21
1449.707273
 31
0.0
  0
INSERT
  5
7E80
  8
3
  6
CONTINUOUS
 62
     0
  2
_OPEN
 10
1339.12015077809
 20
1449.707273
 30
0.0
 41
20.0
 42
20.0
 43
20.0
 50
180.0
  0
INSERT
  5
7E81
  8
3
  6
CONTINUOUS
 62
     0
  2
_OPEN
 10
1679.12015077809
 20
1449.707273
 30
0.0
 41
20.0
 42
20.0
 43
20.0
  0
TEXT
  8
3
  40
30
  5
7EC1
  62
0
  72
0
  71
0
 10
1442.65
 20
1446.61
 30
0.000000
  1
MAX
  0
TEXT
  8
3
  40
30
  5
7EC2
  62
0
  72
0
  71
0
 10
1442.65
 20
1407.61
 30
0.000000
  1
340
  0
POINT
  5
7E83
  8
DEFPOINTS
  6
CONTINUOUS
 62
     0
 10
1339.12015077809
 20
1270.502688
 30
0.0
  0
POINT
  5
7E84
  8
DEFPOINTS
  6
CONTINUOUS
 62
     0
 10
1679.12015077809
 20
1434.388651
 30
0.0
  0
POINT
  5
7E85
  8
DEFPOINTS
  6
CONTINUOUS
 62
     0
 10
1679.12015077809
 20
1449.707273
 30
0.0
  0
ENDBLK
  5
7CCC
  8
0
  0
BLOCK
  8
0
  2
*D15
 70
     1
 10
0.0
 20
0.0
 30
0.0
  3
*D15
  1

  0
LINE
  5
7E86
  8
3
  6
CONTINUOUS
 62
     0
 10
1778.12015077809
 20
1297.502688
 30
0.0
 11
1778.12015077809
 21
1459.707273
 31
0.0
  0
LINE
  5
7E87
  8
3
  6
CONTINUOUS
 62
     0
 10
1699.12015077809
 20
1449.707273
 30
0.0
 11
1758.12015077809
 21
1449.707273
 31
0.0
  0
TEXT
  8
3
  40
30
  5
7EC3
  62
0
  72
0
  71
0
 10
1669.59
 20
1420.00
 30
0.000000
  1
99
  0
INSERT
  5
7E89
  8
3
  6
CONTINUOUS
 62
     0
  2
_OPEN
 10
1679.12015077809
 20
1449.707273
 30
0.0
 41
20.0
 42
20.0
 43
20.0
 50
180.0
  0
INSERT
  5
7E8A
  8
3
  6
CONTINUOUS
 62
     0
  2
_OPEN
 10
1778.12015077809
 20
1449.707273
 30
0.0
 41
20.0
 42
20.0
 43
20.0
  0
POINT
  5
7E8B
  8
DEFPOINTS
  6
CONTINUOUS
 62
     0
 10
1679.12015077809
 20
1434.388651
 30
0.0
  0
POINT
  5
7E8C
  8
DEFPOINTS
  6
CONTINUOUS
 62
     0
 10
1778.12015077809
 20
1292.502688
 30
0.0
  0
POINT
  5
7E8D
  8
DEFPOINTS
  6
CONTINUOUS
 62
     0
 10
1778.12015077809
 20
1449.707273
 30
0.0
  0
ENDBLK
  5
7CA7
  8
0
  0
BLOCK
  8
0
  2
*D16
 70
     1
 10
0.0
 20
0.0
 30
0.0
  3
*D16
  1

  0
LINE
  5
7E8E
  8
3
  6
CONTINUOUS
 62
     0
 10
1783.12015077809
 20
1270.502688
 30
0.0
 11
1861.09698477809
 21
1270.502688
 31
0.0
  0
LINE
  5
7E8F
  8
3
  6
CONTINUOUS
 62
     0
 10
1783.12015077809
 20
1020.502688
 30
0.0
 11
1861.09698477809
 21
1020.502688
 31
0.0
  0
LINE
  5
7E90
  8
3
  6
CONTINUOUS
 62
     0
 10
1851.09698477809
 20
1250.502688
 30
0.0
 11
1851.09698477809
 21
1040.502688
 31
0.0
  0
INSERT
  5
7E91
  8
3
  6
CONTINUOUS
 62
     0
  2
_OPEN
 10
1851.09698477809
 20
1270.502688
 30
0.0
 41
20.0
 42
20.0
 43
20.0
 50
90.0
  0
INSERT
  5
7E92
  8
3
  6
CONTINUOUS
 62
     0
  2
_OPEN
 10
1851.09698477809
 20
1020.502688
 30
0.0
 41
20.0
 42
20.0
 43
20.0
 50
270.0
  0
TEXT
  8
3
  40
30
  5
7EC4
  62
0
  72
0
  71
0
 10
1766.10
 20
1086.64
 30
0.000000
  1
φ250
  0
POINT
  5
7E94
  8
DEFPOINTS
  6
CONTINUOUS
 62
     0
 10
1778.12015077809
 20
1270.502688
 30
0.0
  0
POINT
  5
7E95
  8
DEFPOINTS
  6
CONTINUOUS
 62
     0
 10
1778.12015077809
 20
1020.502688
 30
0.0
  0
POINT
  5
7E96
  8
DEFPOINTS
  6
CONTINUOUS
 62
     0
 10
1851.09698477809
 20
1020.502688
 30
0.0
  0
ENDBLK
  5
7CD7
  8
0
  0
BLOCK
  8
0
  2
*D17
 70
     1
 10
0.0
 20
0.0
 30
0.0
  3
*D17
  1

  0
LINE
  5
7E97
  8
3
  6
CONTINUOUS
 62
     0
 10
561.78139699999986
 20
1145.502688
 30
0.0
 11
434.14286400000009
 21
1145.502688
 31
0.0
  0
LINE
  5
7E98
  8
3
  6
CONTINUOUS
 62
     0
 10
581.78139699999986
 20
885.50268800000003
 30
0.0
 11
434.14286400000009
 21
885.50268800000003
 31
0.0
  0
LINE
  5
7E99
  8
3
  6
CONTINUOUS
 62
     0
 10
444.14286400000009
 20
1125.502688
 30
0.0
 11
444.14286400000009
 21
905.50268799999992
 31
0.0
  0
INSERT
  5
7E9A
  8
3
  6
CONTINUOUS
 62
     0
  2
_OPEN
 10
444.14286400000009
 20
1145.502688
 30
0.0
 41
20.0
 42
20.0
 43
20.0
 50
90.0
  0
INSERT
  5
7E9B
  8
3
  6
CONTINUOUS
 62
     0
  2
_OPEN
 10
444.14286399999997
 20
885.50268800000003
 30
0.0
 41
20.0
 42
20.0
 43
20.0
 50
270.0
  0
TEXT
  8
3
  40
30
  5
7EC5
  62
0
  72
0
  71
0
 10
359.143
 20
957.015
 30
0.000000
  1
260
  0
POINT
  5
7E9D
  8
DEFPOINTS
  6
CONTINUOUS
 62
     0
 10
566.78139699999997
 20
1145.502688
 30
0.0
  0
POINT
  5
7E9E
  8
DEFPOINTS
  6
CONTINUOUS
 62
     0
 10
586.78139699999986
 20
885.50268800000003
 30
0.0
  0
POINT
  5
7E9F
  8
DEFPOINTS
  6
CONTINUOUS
 62
     0
 10
444.14286399999997
 20
885.50268800000003
 30
0.0
  0
ENDBLK
  5
7C8C
  8
0
  0
BLOCK
  8
0
  2
*D18
 70
     1
 10
0.0
 20
0.0
 30
0.0
  3
*D18
  1

  0
LINE
  5
7EA0
  8
3
 62
     0
 10
566.78139699999997
 20
1171.502688
 30
0.0
 11
566.78139699999997
 21
1445.8816784420901
 31
0.0
  0
LINE
  5
7EA1
  8
3
 62
     0
 10
1316.7813969999991
 20
813.50268799999992
 30
0.0
 11
1316.7813969999991
 21
1445.8816784420901
 31
0.0
  0
LINE
  5
7EA2
  8
3
 62
     0
 10
586.78139699999986
 20
1435.8816784420901
 30
0.0
 11
1296.781397
 21
1435.8816784420901
 31
0.0
  0
INSERT
  5
7EA3
  8
3
 62
     0
  2
_OPEN
 10
566.78139699999997
 20
1435.8816784420901
 30
0.0
 41
20.0
 42
20.0
 43
20.0
 50
180.0
  0
INSERT
  5
7EA4
  8
3
 62
     0
  2
_OPEN
 10
1316.7813969999991
 20
1435.8816784420901
 30
0.0
 41
20.0
 42
20.0
 43
20.0
  0
TEXT
  8
3
  40
30
  5
7EC6
  62
0
  72
0
  71
0
 10
874.260
 20
1407.78
 30
0.000000
  1
750
  0
POINT
  5
7EA6
  8
DEFPOINTS
 62
     0
 10
566.78139699999997
 20
1166.502688
 30
0.0
  0
POINT
  5
7EA7
  8
DEFPOINTS
 62
     0
 10
1316.7813969999991
 20
808.50268800000003
 30
0.0
  0
POINT
  5
7EA8
  8
DEFPOINTS
 62
     0
 10
1316.7813969999991
 20
1435.8816784420901
 30
0.0
  0
ENDBLK
  5
7CF0
  8
0
  0
BLOCK
  8
0
  2
*D19
 70
     1
 10
0.0
 20
0.0
 30
0.0
  3
*D19
  1

  0
LINE
  5
7EA9
  8
3
 62
     0
 10
1671.12015077809
 20
773.50268800000003
 30
0.0
 11
1671.12015077809
 21
686.58277499999997
 31
0.0
  0
LINE
  5
7EAA
  8
3
 62
     0
 10
1679.12015077809
 20
768.54316700000004
 30
0.0
 11
1679.12015077809
 21
686.58277499999997
 31
0.0
  0
LINE
  5
7EAB
  8
3
 62
     0
 10
1651.12015077809
 20
696.58277499999986
 30
0.0
 11
1631.12015077809
 21
696.58277499999986
 31
0.0
  0
LINE
  5
7EAC
  8
3
 62
     0
 10
1699.12015077809
 20
696.58277499999986
 30
0.0
 11
1759.12015077809
 21
696.58277499999986
 31
0.0
  0
LINE
  5
7EAD
  8
3
 62
     0
 10
1671.12015077809
 20
696.58277499999986
 30
0.0
 11
1679.12015077809
 21
696.58277499999986
 31
0.0
  0
INSERT
  5
7EAE
  8
3
 62
     0
  2
_OPEN
 10
1671.12015077809
 20
696.58277499999986
 30
0.0
 41
20.0
 42
20.0
 43
20.0
  0
INSERT
  5
7EAF
  8
3
 62
     0
  2
_OPEN
 10
1679.12015077809
 20
696.58277499999986
 30
0.0
 41
20.0
 42
20.0
 43
20.0
 50
180.0
  0
TEXT
  8
3
  40
30
  5
7EC7
  62
0
  72
0
  71
0
 10
1679.12
 20
668.483
 30
0.000000
  1
8
  0
POINT
  5
7EB1
  8
DEFPOINTS
 62
     0
 10
1671.12015077809
 20
778.50268800000003
 30
0.0
  0
POINT
  5
7EB2
  8
DEFPOINTS
 62
     0
 10
1679.12015077809
 20
773.54316700000004
 30
0.0
  0
POINT
  5
7EB3
  8
DEFPOINTS
 62
     0
 10
1679.12015077809
 20
696.58277499999986
 30
0.0
  0
ENDBLK
  5
7D0E
  8
0
  0
ENDSEC
  0
SECTION
  2
ENTITIES
  0
LINE
  5
7A90
  8
1
  6
CONTINUOUS
 10
1141.481397
 20
1769.6309722731089
 30
0.0
 11
1316.7813969999991
 21
1769.6309722731089
 31
0.0
  0
LINE
  5
7A91
  8
1
  6
CONTINUOUS
 10
1286.781397
 20
890.50268800000015
 30
0.0
 11
576.78139699999986
 21
890.50268800000015
 31
0.0
  0
LINE
  5
7A92
  8
1
  6
CONTINUOUS
 10
1032.0813969999999
 20
910.50268800000003
 30
0.0
 11
1286.781397
 21
910.50268800000003
 31
0.0
  0
LINE
  5
7A93
  8
1
  6
CONTINUOUS
 10
1286.781397
 20
830.50268799999992
 30
0.0
 11
576.78139699999986
 21
830.50268799999992
 31
0.0
  0
LINE
  5
7A94
  8
1
  6
CONTINUOUS
 10
1316.7813969999991
 20
778.50268800000003
 30
0.0
 11
546.78139699999986
 21
778.50268800000003
 31
0.0
  0
LINE
  5
7A95
  8
1
  6
CONTINUOUS
 10
1316.7813969999991
 20
808.50268800000003
 30
0.0
 11
546.78139699999986
 21
808.50268800000003
 31
0.0
  0
LINE
  5
7A96
  8
1
  6
CONTINUOUS
 10
977.68139699999995
 20
2019.6309722731089
 30
0.0
 11
1316.7813969999991
 21
2019.6309722731089
 31
0.0
  0
CIRCLE
  5
7A97
  8
1
  6
CONTINUOUS
 10
766.78139699999997
 20
1145.502688
 30
0.0
 40
145.0
  0
CIRCLE
  5
7A98
  8
1
  6
CONTINUOUS
 10
766.78139699999997
 20
1145.502688
 30
0.0
 40
125.0
  0
CIRCLE
  5
7A99
  8
1
  6
CONTINUOUS
 10
766.78139699999997
 20
1145.502688
 30
0.0
 40
63.5
  0
LINE
  5
7A9A
  8
1
  6
CONTINUOUS
 10
766.58139699999992
 20
1270.502688
 30
0.0
 11
1221.7813969999991
 21
1070.502688
 31
0.0
  0
LINE
  5
7A9B
  8
1
  6
CONTINUOUS
 10
1108.481397
 20
929.3026880000001
 30
0.0
 11
741.68139699999995
 21
1087.2026880000001
 31
0.0
  0
LINE
  5
7A9C
  8
1
  6
CONTINUOUS
 10
1152.8813970000001
 20
1025.502688
 30
0.0
 11
794.88139699999988
 21
1202.4026879999999
 31
0.0
  0
LINE
  5
7A9D
  8
1
  6
CONTINUOUS
 10
926.78139699999997
 20
830.50268799999992
 30
0.0
 11
606.78139699999986
 21
830.50268799999992
 31
0.0
  0
LINE
  5
7A9E
  8
1
  6
CONTINUOUS
 10
705.18139699999995
 20
1295.502688
 30
0.0
 11
828.38139699999999
 21
1295.502688
 31
0.0
  0
LINE
  5
7A9F
  8
2
  6
CENTER
 10
547.77174699999989
 20
1145.502688
 30
0.0
 11
1113.2703959999999
 21
1145.502688
 31
0.0
  0
ARC
  5
7AA0
  8
1
  6
CONTINUOUS
 10
783.78139699999997
 20
1128.5026879999989
 30
0.0
 40
203.6999999999999
 50
4.5999999999999996
 51
95.5
  0
ARC
  5
7AA1
  8
1
  6
CONTINUOUS
 10
746.78139699999986
 20
1125.502688
 30
0.0
 40
240.90000000000001
 50
274.89999999999992
 51
4.5999999999999996
  0
LINE
  5
7AA2
  8
1
  6
CONTINUOUS
 10
641.78139699999997
 20
890.50268800000015
 30
0.0
 11
641.78139699999997
 21
1200.502688
 31
0.0
  0
LINE
  5
7AA3
  8
1
  6
CONTINUOUS
 10
606.78139699999986
 20
890.50268800000015
 30
0.0
 11
606.78139699999986
 21
1211.6026879999999
 31
0.0
  0
LINE
  5
7AA4
  8
1
  6
CONTINUOUS
 10
566.78139699999997
 20
1166.502688
 30
0.0
 11
566.78139699999997
 21
874.50268800000015
 31
0.0
  0
LINE
  5
7AA5
  8
1
  6
CONTINUOUS
 10
586.78139699999986
 20
915.50268800000015
 30
0.0
 11
586.78139699999986
 21
1125.502688
 31
0.0
  0
LINE
  5
7AA6
  8
1
  6
CONTINUOUS
 10
566.78139699999997
 20
895.50268800000003
 30
0.0
 11
586.78139699999986
 21
895.50268800000003
 31
0.0
  0
LINE
  5
7AA7
  8
1
  6
CONTINUOUS
 10
566.78139699999997
 20
895.50268800000003
 30
0.0
 11
586.78139699999986
 21
915.50268800000015
 31
0.0
  0
LINE
  5
7AA8
  8
1
  6
CONTINUOUS
 10
576.78139699999986
 20
890.50268800000015
 30
0.0
 11
576.78139699999986
 21
830.50268799999992
 31
0.0
  0
LINE
  5
7AA9
  8
1
  6
CONTINUOUS
 10
546.78139699999986
 20
808.50268800000003
 30
0.0
 11
546.78139699999986
 21
778.50268800000003
 31
0.0
  0
LINE
  5
7AAA
  8
1
  6
CONTINUOUS
 10
586.78139699999986
 20
885.50268800000003
 30
0.0
 11
767.18139699999995
 21
885.50268800000003
 31
0.0
  0
LINE
  5
7AAB
  8
1
  6
CONTINUOUS
 10
586.78139699999986
 20
885.50268800000003
 30
0.0
 11
586.78139699999986
 21
895.50268800000003
 31
0.0
  0
LINE
  5
7AAC
  8
1
  6
CONTINUOUS
 10
566.78139699999997
 20
1145.502688
 30
0.0
 11
586.78139699999986
 21
1145.502688
 31
0.0
  0
ARC
  5
7AAD
  8
1
  6
CONTINUOUS
 10
780.78139699999986
 20
1159.502688
 30
0.0
 40
172.59999999999991
 50
95.5
 51
181.2999999999999
  0
LINE
  5
7AAE
  8
1
  6
CONTINUOUS
 10
566.78139699999997
 20
1145.502688
 30
0.0
 11
586.78139699999986
 21
1125.502688
 31
0.0
  0
LINE
  5
7AAF
  8
1
  6
CONTINUOUS
 10
641.78139699999997
 20
1200.502688
 30
0.0
 11
766.58139699999992
 21
1270.502688
 31
0.0
  0
LINE
  5
7AB0
  8
1
  6
CONTINUOUS
 10
705.18139699999995
 20
1295.502688
 30
0.0
 11
606.78139699999986
 21
1211.6026879999999
 31
0.0
  0
LINE
  5
7AB1
  8
1
  6
CONTINUOUS
 10
586.78139699999986
 20
1145.502688
 30
0.0
 11
586.78139699999986
 21
1155.502688
 31
0.0
  0
LINE
  5
7AB2
  8
1
  6
CONTINUOUS
 10
586.78139699999986
 20
1155.502688
 30
0.0
 11
608.18139699999995
 21
1155.502688
 31
0.0
  0
LINE
  5
7AB3
  8
2
  6
CENTER
 10
766.78139699999997
 20
760.272064
 30
0.0
 11
766.78139699999997
 21
1356.0622679999999
 31
0.0
  0
LINE
  5
7AB4
  8
1
  6
CONTINUOUS
 10
1221.7813969999991
 20
890.50268800000015
 30
0.0
 11
1221.7813969999991
 21
1070.502688
 31
0.0
  0
LINE
  5
7AB5
  8
1
  6
CONTINUOUS
 10
926.78139699999997
 20
1211.6026879999999
 30
0.0
 11
926.78139699999997
 21
890.50268800000015
 31
0.0
  0
ARC
  5
7AB6
  8
1
  6
CONTINUOUS
 10
1129.3813970000001
 20
978.00268800000015
 30
0.0
 40
75.799999999999997
 50
322.89999999999992
 51
217.09999999999991
  0
CIRCLE
  5
7AB7
  8
1
  6
CONTINUOUS
 10
1129.3813970000001
 20
978.00268800000015
 30
0.0
 40
53.0
  0
LINE
  5
7AB8
  8
2
  6
CENTER
 10
1182.3813970000001
 20
978.00268800000015
 30
0.0
 11
1076.3813970000001
 21
978.00268800000015
 31
0.0
  0
POINT
  5
7AB9
  8
1
  6
CONTINUOUS
 10
1058.9813969999991
 20
978.00268800000015
 30
0.0
  0
LINE
  5
7ABA
  8
1
  6
CONTINUOUS
 10
1063.3813970000001
 20
918.00268799999992
 30
0.0
 11
1068.981397
 21
932.30268799999999
 31
0.0
  0
LINE
  5
7ABB
  8
1
  6
CONTINUOUS
 10
1063.3813970000001
 20
910.50268800000003
 30
0.0
 11
1063.3813970000001
 21
918.00268799999992
 31
0.0
  0
LINE
  5
7ABC
  8
1
  6
CONTINUOUS
 10
1032.0813969999999
 20
890.50268800000015
 30
0.0
 11
1032.0813969999999
 21
910.50268800000003
 31
0.0
  0
LINE
  5
7ABD
  8
1
  6
CONTINUOUS
 10
1195.3813970000001
 20
910.50268800000003
 30
0.0
 11
1195.3813970000001
 21
918.00268799999992
 31
0.0
  0
LINE
  5
7ABE
  8
1
  6
CONTINUOUS
 10
1195.3813970000001
 20
918.00268799999992
 30
0.0
 11
1189.8813970000001
 21
932.30268799999999
 31
0.0
  0
LINE
  5
7ABF
  8
2
  6
CENTER
 10
1129.3813970000001
 20
925.00268800000003
 30
0.0
 11
1129.3813970000001
 21
1031.002688
 31
0.0
  0
LINE
  5
7AC0
  8
1
  6
CONTINUOUS
 10
828.38139699999999
 20
1295.502688
 30
0.0
 11
926.78139699999997
 21
1211.6026879999999
 31
0.0
  0
LINE
  5
7AC1
  8
1
  6
CONTINUOUS
 10
913.78139700000008
 20
2126.6309722731098
 30
0.0
 11
619.78139699999986
 21
2126.6309722731098
 31
0.0
  0
LINE
  5
7AC2
  8
1
  6
CONTINUOUS
 10
965.68139699999995
 20
1937.830972273109
 30
0.0
 11
766.78139699999997
 21
1937.830972273109
 31
0.0
  0
LINE
  5
7AC3
  8
1
  6
CONTINUOUS
 10
566.78139699999997
 20
2117.4309722731091
 30
0.0
 11
965.68139699999995
 21
2117.4309722731091
 31
0.0
  0
LINE
  5
7AC4
  8
1
  6
CONTINUOUS
 10
778.78139699999997
 20
1769.6309722731089
 30
0.0
 11
1117.481397
 21
1769.6309722731089
 31
0.0
  0
LINE
  5
7AC5
  8
1
  6
CONTINUOUS
 10
778.78139699999997
 20
1799.6309722731089
 30
0.0
 11
926.78139699999997
 21
1799.6309722731089
 31
0.0
  0
LINE
  5
7AC6
  8
1
  6
CONTINUOUS
 10
641.78139699999997
 20
1687.6309722731089
 30
0.0
 11
1221.7813969999991
 21
1687.6309722731089
 31
0.0
  0
LINE
  5
7AC7
  8
1
  6
CONTINUOUS
 10
641.78139699999997
 20
1762.6309722731089
 30
0.0
 11
1221.7813969999991
 21
1762.6309722731089
 31
0.0
  0
LINE
  5
7AC8
  8
1
  6
CONTINUOUS
 10
703.28139699999986
 20
1742.6309722731089
 30
0.0
 11
830.28139699999986
 21
1742.6309722731089
 31
0.0
  0
LINE
  5
7AC9
  8
1
  6
CONTINUOUS
 10
703.28139699999986
 20
1707.63097227311
 30
0.0
 11
830.28139699999986
 21
1707.63097227311
 31
0.0
  0
LINE
  5
7ACA
  8
1
  6
CONTINUOUS
 10
926.78139699999997
 20
1928.6309722731089
 30
0.0
 11
606.78139699999986
 21
1928.6309722731089
 31
0.0
  0
LINE
  5
7ACB
  8
1
  6
CONTINUOUS
 10
566.78139699999997
 20
2138.6309722731098
 30
0.0
 11
566.78139699999997
 21
1916.6309722731089
 31
0.0
  0
LINE
  5
7ACC
  8
1
  6
CONTINUOUS
 10
586.78139699999986
 20
2088.4309722731091
 30
0.0
 11
586.78139699999986
 21
1966.830972273109
 31
0.0
  0
LINE
  5
7ACD
  8
1
  6
CONTINUOUS
 10
546.78139699999986
 20
2019.6309722731089
 30
0.0
 11
546.78139699999986
 21
1769.6309722731089
 31
0.0
  0
LINE
  5
7ACE
  8
1
  6
CONTINUOUS
 10
566.78139699999997
 20
1946.830972273109
 30
0.0
 11
586.78139699999986
 21
1966.830972273109
 31
0.0
  0
LINE
  5
7ACF
  8
1
  6
CONTINUOUS
 10
566.78139699999997
 20
1937.830972273109
 30
0.0
 11
766.78139699999997
 21
1937.830972273109
 31
0.0
  0
LINE
  5
7AD0
  8
1
  6
CONTINUOUS
 10
546.78139699999986
 20
1769.6309722731089
 30
0.0
 11
754.78139699999986
 21
1769.6309722731089
 31
0.0
  0
LINE
  5
7AD1
  8
1
  6
CONTINUOUS
 10
641.78139699999997
 20
1687.6309722731089
 30
0.0
 11
641.78139699999997
 21
1762.6309722731089
 31
0.0
  0
LINE
  5
7AD2
  8
1
  6
CONTINUOUS
 10
606.78139699999986
 20
1799.6309722731089
 30
0.0
 11
754.78139699999986
 21
1799.6309722731089
 31
0.0
  0
LINE
  5
7AD3
  8
1
  6
CONTINUOUS
 10
619.78139699999986
 20
1937.830972273109
 30
0.0
 11
619.78139699999986
 21
1928.6309722731089
 31
0.0
  0
LINE
  5
7AD4
  8
1
  6
CONTINUOUS
 10
606.78139699999986
 20
1799.6309722731089
 30
0.0
 11
606.78139699999986
 21
1928.6309722731089
 31
0.0
  0
LINE
  5
7AD5
  8
1
  6
CONTINUOUS
 10
703.28139699999986
 20
1707.63097227311
 30
0.0
 11
703.28139699999986
 21
1742.6309722731089
 31
0.0
  0
LINE
  5
7AD6
  8
1
  6
CONTINUOUS
 10
778.78139699999997
 20
1742.6309722731089
 30
0.0
 11
778.78139699999997
 21
1928.6309722731089
 31
0.0
  0
LINE
  5
7AD7
  8
1
  6
CONTINUOUS
 10
754.78139699999986
 20
1742.6309722731089
 30
0.0
 11
754.78139699999986
 21
1928.6309722731089
 31
0.0
  0
LINE
  5
7AD8
  8
1
  6
CONTINUOUS
 10
566.78139699999997
 20
2108.4309722731091
 30
0.0
 11
586.78139699999986
 21
2088.4309722731091
 31
0.0
  0
LINE
  5
7AD9
  8
1
  6
CONTINUOUS
 10
546.78139699999986
 20
2019.6309722731089
 30
0.0
 11
566.78139699999997
 21
2019.6309722731089
 31
0.0
  0
LINE
  5
7ADA
  8
1
  6
CONTINUOUS
 10
619.78139699999986
 20
2117.4309722731091
 30
0.0
 11
619.78139699999986
 21
2126.6309722731098
 31
0.0
  0
LINE
  5
7ADB
  8
1
  6
CONTINUOUS
 10
977.68139699999995
 20
2105.4309722731091
 30
0.0
 11
977.68139699999995
 21
1949.830972273109
 31
0.0
  0
LINE
  5
7ADC
  8
1
  6
CONTINUOUS
 10
830.28139699999986
 20
1707.63097227311
 30
0.0
 11
830.28139699999986
 21
1742.6309722731089
 31
0.0
  0
LINE
  5
7ADD
  8
1
  6
CONTINUOUS
 10
913.78139700000008
 20
1937.830972273109
 30
0.0
 11
913.78139700000008
 21
1928.6309722731089
 31
0.0
  0
ARC
  5
7ADE
  8
1
  6
CONTINUOUS
 10
965.68139699999995
 20
1949.830972273109
 30
0.0
 40
12.0
 50
270.0
 51
0.0
  0
LINE
  5
7ADF
  8
1
  6
CONTINUOUS
 10
926.78139699999997
 20
1928.6309722731089
 30
0.0
 11
926.78139699999997
 21
1799.6309722731089
 31
0.0
  0
LINE
  5
7AE0
  8
1
  6
CONTINUOUS
 10
1221.7813969999991
 20
1687.6309722731089
 30
0.0
 11
1221.7813969999991
 21
1762.6309722731089
 31
0.0
  0
LINE
  5
7AE1
  8
1
  6
CONTINUOUS
 10
1052.781397
 20
1793.93097227311
 30
0.0
 11
1204.2813969999991
 21
1793.93097227311
 31
0.0
  0
LINE
  5
7AE2
  8
1
  6
CONTINUOUS
 10
1052.781397
 20
1997.9309722731091
 30
0.0
 11
1204.2813969999991
 21
1997.9309722731091
 31
0.0
  0
LINE
  5
7AE3
  8
1
  6
CONTINUOUS
 10
1076.481397
 20
1742.6309722731089
 30
0.0
 11
1182.481397
 21
1742.6309722731089
 31
0.0
  0
LINE
  5
7AE4
  8
1
  6
CONTINUOUS
 10
1076.481397
 20
1707.63097227311
 30
0.0
 11
1182.481397
 21
1707.63097227311
 31
0.0
  0
LINE
  5
7AE5
  8
1
  6
CONTINUOUS
 10
1052.781397
 20
1793.93097227311
 30
0.0
 11
1052.781397
 21
1997.9309722731091
 31
0.0
  0
LINE
  5
7AE6
  8
1
  6
CONTINUOUS
 10
1117.481397
 20
1742.6309722731089
 30
0.0
 11
1117.481397
 21
1793.93097227311
 31
0.0
  0
LINE
  5
7AE7
  8
1
  6
CONTINUOUS
 10
1076.481397
 20
1707.63097227311
 30
0.0
 11
1076.481397
 21
1742.6309722731089
 31
0.0
  0
LINE
  5
7AE8
  8
1
  6
CONTINUOUS
 10
1204.2813969999991
 20
1793.93097227311
 30
0.0
 11
1204.2813969999991
 21
1997.9309722731091
 31
0.0
  0
LINE
  5
7AE9
  8
1
  6
CONTINUOUS
 10
1141.481397
 20
1742.6309722731089
 30
0.0
 11
1141.481397
 21
1793.93097227311
 31
0.0
  0
LINE
  5
7AEA
  8
1
  6
CONTINUOUS
 10
1182.481397
 20
1707.63097227311
 30
0.0
 11
1182.481397
 21
1742.6309722731089
 31
0.0
  0
LINE
  5
7AEB
  8
1
  6
CONTINUOUS
 10
913.78139700000008
 20
2117.4309722731091
 30
0.0
 11
913.78139700000008
 21
2126.6309722731098
 31
0.0
  0
ARC
  5
7AEC
  8
1
  6
CONTINUOUS
 10
965.68139699999995
 20
2105.4309722731091
 30
0.0
 40
12.0
 50
0.0
 51
90.0
  0
LINE
  5
7AED
  8
1
  6
CONTINUOUS
 10
1286.781397
 20
910.50268800000003
 30
0.0
 11
1286.781397
 21
890.50268800000015
 31
0.0
  0
LINE
  5
7AEE
  8
1
  6
CONTINUOUS
 10
1286.781397
 20
890.50268800000015
 30
0.0
 11
1286.781397
 21
830.50268799999992
 31
0.0
  0
LINE
  5
7AEF
  8
1
  6
CONTINUOUS
 10
1316.7813969999991
 20
808.50268800000003
 30
0.0
 11
1316.7813969999991
 21
778.50268800000003
 31
0.0
  0
LINE
  5
7AF0
  8
1
  6
CONTINUOUS
 10
1316.7813969999991
 20
2019.6309722731089
 30
0.0
 11
1316.7813969999991
 21
1769.6309722731089
 31
0.0
  0
LINE
  5
7AF1
  8
1
  6
CONTINUOUS
 10
1589.12015077809
 20
1146.5026879999989
 30
0.0
 11
1769.12015077809
 21
1146.5026879999989
 31
0.0
  0
LINE
  5
7AF2
  8
1
  6
CONTINUOUS
 10
1601.12015077809
 20
1356.4026879999999
 30
0.0
 11
1757.12015077809
 21
1356.4026879999999
 31
0.0
  0
LINE
  5
7AF3
  8
1
  6
CONTINUOUS
 10
1589.12015077809
 20
1146.5026879999989
 30
0.0
 11
1769.12015077809
 21
894.50268800000003
 31
0.0
  0
LINE
  5
7AF4
  8
1
  6
CONTINUOUS
 10
1769.12015077809
 20
1146.5026879999989
 30
0.0
 11
1589.12015077809
 21
894.50268800000003
 31
0.0
  0
LINE
  5
7AF5
  8
1
  6
CONTINUOUS
 10
1769.12015077809
 20
894.50268800000003
 30
0.0
 11
1589.12015077809
 21
894.50268800000003
 31
0.0
  0
LINE
  5
7AFA
  8
1
  6
CONTINUOUS
 10
1589.12015077809
 20
894.50268800000003
 30
0.0
 11
1589.12015077809
 21
1344.4026879999999
 31
0.0
  0
LINE
  5
7AFB
  8
1
  6
CONTINUOUS
 10
1580.12015077809
 20
998.50268800000015
 30
0.0
 11
1580.12015077809
 21
1145.502688
 31
0.0
  0
LINE
  5
7AFC
  8
1
  6
CONTINUOUS
 10
1580.12015077809
 20
1292.502688
 30
0.0
 11
1580.12015077809
 21
890.50268800000015
 31
0.0
  0
LINE
  5
7AFD
  8
1
  6
CONTINUOUS
 10
1414.12015077809
 20
890.50268800000015
 30
0.0
 11
1414.12015077809
 21
1270.502688
 31
0.0
  0
LINE
  5
7AFE
  8
1
  6
CONTINUOUS
 10
1339.12015077809
 20
890.50268800000015
 30
0.0
 11
1339.12015077809
 21
1270.502688
 31
0.0
  0
LINE
  5
7AFF
  8
1
  6
CONTINUOUS
 10
1451.12015077809
 20
890.50268800000015
 30
0.0
 11
1451.12015077809
 21
1107.302688
 31
0.0
  0
LINE
  5
7B00
  8
1
  6
CONTINUOUS
 10
1421.12015077809
 20
778.50268800000003
 30
0.0
 11
1671.12015077809
 21
778.50268800000003
 31
0.0
  0
LINE
  5
7B01
  8
1
  6
CONTINUOUS
 10
1421.12015077809
 20
808.50268800000003
 30
0.0
 11
1671.12015077809
 21
808.50268800000003
 31
0.0
  0
LINE
  5
7B02
  8
1
  6
CONTINUOUS
 10
1421.12015077809
 20
830.50268799999992
 30
0.0
 11
1671.12015077809
 21
830.50268799999992
 31
0.0
  0
LINE
  5
7B03
  8
1
  6
CONTINUOUS
 10
1339.12015077809
 20
890.50268800000015
 30
0.0
 11
1671.12015077809
 21
890.50268800000015
 31
0.0
  0
LINE
  5
7B04
  8
1
  6
CONTINUOUS
 10
1394.12015077809
 20
990.00268800000003
 30
0.0
 11
1451.12015077809
 21
990.00268800000003
 31
0.0
  0
LINE
  5
7B05
  8
1
  6
CONTINUOUS
 10
1394.12015077809
 20
966.00268800000003
 30
0.0
 11
1451.12015077809
 21
966.00268800000003
 31
0.0
  0
LINE
  5
7B06
  8
1
  6
CONTINUOUS
 10
1421.12015077809
 20
808.50268800000003
 30
0.0
 11
1421.12015077809
 21
778.50268800000003
 31
0.0
  0
LINE
  5
7B07
  8
1
  6
CONTINUOUS
 10
1421.12015077809
 20
890.50268800000015
 30
0.0
 11
1421.12015077809
 21
830.50268799999992
 31
0.0
  0
LINE
  5
7B08
  8
1
  6
CONTINUOUS
 10
1394.12015077809
 20
1031.002688
 30
0.0
 11
1394.12015077809
 21
925.00268800000003
 31
0.0
  0
LINE
  5
7B09
  8
1
  6
CONTINUOUS
 10
1359.12015077809
 20
925.00268800000003
 30
0.0
 11
1394.12015077809
 21
925.00268800000003
 31
0.0
  0
LINE
  5
7B0A
  8
1
  6
CONTINUOUS
 10
1359.12015077809
 20
1031.002688
 30
0.0
 11
1359.12015077809
 21
925.00268800000003
 31
0.0
  0
LINE
  5
7B0B
  8
1
  6
CONTINUOUS
 10
1359.12015077809
 20
1031.002688
 30
0.0
 11
1394.12015077809
 21
1031.002688
 31
0.0
  0
LINE
  5
7B0C
  8
1
  6
CONTINUOUS
 10
1589.12015077809
 20
998.50268800000015
 30
0.0
 11
1580.12015077809
 21
998.50268800000015
 31
0.0
  0
LINE
  5
7B0D
  8
1
  6
CONTINUOUS
 10
1589.12015077809
 20
894.50268800000003
 30
0.0
 11
1589.12015077809
 21
916.48297300000013
 31
0.0
  0
LINE
  5
7B0E
  8
1
  6
CONTINUOUS
 10
1671.12015077809
 20
808.50268800000003
 30
0.0
 11
1671.12015077809
 21
778.50268800000003
 31
0.0
  0
LINE
  5
7B0F
  8
1
  6
CONTINUOUS
 10
1671.12015077809
 20
890.50268800000015
 30
0.0
 11
1671.12015077809
 21
830.50268799999992
 31
0.0
  0
LINE
  5
7B10
  8
1
  6
CONTINUOUS
 10
1451.12015077809
 20
1107.302688
 30
0.0
 11
1580.12015077809
 21
1211.6026879999999
 31
0.0
  0
LINE
  5
7B11
  8
1
  6
CONTINUOUS
 10
1394.12015077809
 20
1133.502688
 30
0.0
 11
1483.5201507780901
 21
1133.502688
 31
0.0
  0
LINE
  5
7B12
  8
1
  6
CONTINUOUS
 10
1394.12015077809
 20
1157.502688
 30
0.0
 11
1513.2201507780901
 21
1157.502688
 31
0.0
  0
LINE
  5
7B13
  8
1
  6
CONTINUOUS
 10
1394.12015077809
 20
1209.0026879999989
 30
0.0
 11
1394.12015077809
 21
1082.0026879999989
 31
0.0
  0
LINE
  5
7B14
  8
1
  6
CONTINUOUS
 10
1359.12015077809
 20
1082.0026879999989
 30
0.0
 11
1394.12015077809
 21
1082.0026879999989
 31
0.0
  0
LINE
  5
7B15
  8
1
  6
CONTINUOUS
 10
1359.12015077809
 20
1209.0026879999989
 30
0.0
 11
1394.12015077809
 21
1209.0026879999989
 31
0.0
  0
LINE
  5
7B16
  8
1
  6
CONTINUOUS
 10
1359.12015077809
 20
1209.0026879999989
 30
0.0
 11
1359.12015077809
 21
1082.0026879999989
 31
0.0
  0
LINE
  5
7B17
  8
1
  6
CONTINUOUS
 10
1339.12015077809
 20
1270.502688
 30
0.0
 11
1414.12015077809
 21
1270.502688
 31
0.0
  0
ARC
  5
7B18
  8
1
  6
CONTINUOUS
 10
1601.12015077809
 20
1344.4026879999999
 30
0.0
 40
12.0
 50
90.0
 51
180.0
  0
LINE
  5
7B19
  8
1
  6
CONTINUOUS
 10
1580.12015077809
 20
1292.502688
 30
0.0
 11
1580.12015077809
 21
1145.502688
 31
0.0
  0
LINE
  5
7B1A
  8
1
  6
CONTINUOUS
 10
1589.12015077809
 20
1292.502688
 30
0.0
 11
1580.12015077809
 21
1292.502688
 31
0.0
  0
LINE
  5
7B1B
  8
1
  6
CONTINUOUS
 10
1769.12015077809
 20
1344.4026879999999
 30
0.0
 11
1769.12015077809
 21
894.50268800000003
 31
0.0
  0
LINE
  5
7B1C
  8
1
  6
CONTINUOUS
 10
1778.12015077809
 20
998.50268800000015
 30
0.0
 11
1778.12015077809
 21
1292.502688
 31
0.0
  0
LINE
  5
7B1D
  8
1
  6
CONTINUOUS
 10
1769.12015077809
 20
998.50268800000015
 30
0.0
 11
1778.12015077809
 21
998.50268800000015
 31
0.0
  0
ARC
  5
7B1E
  8
1
  6
CONTINUOUS
 10
1757.12015077809
 20
1344.4026879999999
 30
0.0
 40
12.0
 50
0.0
 51
90.0
  0
LINE
  5
7B1F
  8
1
  6
CONTINUOUS
 10
1769.12015077809
 20
1292.502688
 30
0.0
 11
1778.12015077809
 21
1292.502688
 31
0.0
  0
LINE
  5
7B20
  8
4
  6
CONTINUOUS
 10
1850.0
 20
500.0
 30
0.0
 11
1850.0
 21
300.0
 31
0.0
  0
LINE
  5
7B21
  8
4
  6
CONTINUOUS
 10
1150.0
 20
500.0
 30
0.0
 11
1150.0
 21
300.0
 31
0.0
  0
LINE
  5
7B22
  8
4
  6
CONTINUOUS
 10
650.0
 20
500.0
 30
0.0
 11
650.0
 21
300.0
 31
0.0
  0
LINE
  5
7B25
  8
4
  6
CONTINUOUS
 10
650.0
 20
300.0
 30
0.0
 11
1850.0
 21
300.0
 31
0.0
  0
LINE
  5
7B26
  8
4
  6
CONTINUOUS
 10
650.0
 20
400.0
 30
0.0
 11
1850.0
 21
400.0
 31
0.0
  0
TEXT
  5
7B27
  8
4
  6
CONTINUOUS
 10
688.50208099999998
 20
431.543026
 30
0.0
 40
50.0
  1
機器名称
  0
TEXT
  5
7B28
  8
4
  6
CONTINUOUS
 10
686.258106
 20
321.64515699999993
 30
0.0
 40
50.0
  1
機器型番
  0
TEXT
  5
7B29
  8
4
  6
CONTINUOUS
 10
1177.678744999999
 20
422.57176900000002
 30
0.0
 40
45.0
  1
ミツヤニューマルチファン
  0
TEXT
  5
7B2A
  8
4
  6
CONTINUOUS
 10
1186.6544960000001
 20
317.159584
 30
0.0
 40
50.0
  1
NM#1 1/2-1
  0
TEXT
  5
7B2C
  8
4
  6
CONTINUOUS
 10
730.22728199999995
 20
2383.4288409999999
 30
0.0
 40
54.0
  1
床置防振ベット
  0
TEXT
  5
7B2D
  8
4
  6
CONTINUOUS
 10
316.16759300000001
 20
2533.8809759999999
 30
0.0
 40
72.0
  1
ベルト駆動式片吸込片持多翼ファン
  0
LINE
  5
7B2E
  8
4
  6
CONTINUOUS
 10
250.0
 20
2469.408754
 30
0.0
 11
1850.0
 21
2469.408754
 31
0.0
  0
LINE
  5
7B2F
  8
4
  6
CONTINUOUS
 10
250.0
 20
2669.408754
 30
0.0
 11
1850.0
 21
2669.408754
 31
0.0
  0
LINE
  5
7B30
  8
4
  6
CONTINUOUS
 10
650.0
 20
500.0
 30
0.0
 11
1850.0
 21
500.0
 31
0.0
  0
LINE
  5
7B31
  8
4
  6
CONTINUOUS
 10
250.0
 20
2669.408754
 30
0.0
 11
250.0
 21
2469.408754
 31
0.0
  0
TEXT
  5
7B32
  8
4
  6
CONTINUOUS
 10
294.36844999999988
 20
2382.3194779999999
 30
0.0
 40
54.0
  1
右回転左横向
  0
TEXT
  5
7B33
  8
4
  6
CONTINUOUS
 10
1468.9695589999999
 20
2706.0610809999998
 30
0.0
 40
56.0
  1
No.
  0
TEXT
  5
7B34
  8
4
  6
CONTINUOUS
 10
1311.296063
 20
2383.4288409999999
 30
0.0
 40
54.0
  1
縮尺：1/10
  0
LINE
  5
7B35
  8
4
  6
CONTINUOUS
 10
1850.0
 20
2669.408754
 30
0.0
 11
1850.0
 21
2469.408754
 31
0.0
  0
LINE
  5
7B37
  8
4
  6
CONTINUOUS
 10
1440.617422
 20
2681.2635829999999
 30
0.0
 11
1440.617422
 21
2786.6522620000001
 31
0.0
  0
LINE
  5
7B38
  8
4
  6
CONTINUOUS
 10
1440.617422
 20
2786.6522620000001
 30
0.0
 11
1850.0
 21
2786.6522620000001
 31
0.0
  0
LINE
  5
7B39
  8
4
  6
CONTINUOUS
 10
1850.0
 20
2786.6522620000001
 30
0.0
 11
1850.0
 21
2681.2635829999999
 31
0.0
  0
LINE
  5
7B3A
  8
4
  6
CONTINUOUS
 10
1850.0
 20
2681.2635829999999
 30
0.0
 11
1440.617422
 21
2681.2635829999999
 31
0.0
  0
DIMENSION
  5
7B52
  8
3
  6
CONTINUOUS
  2
*D1
 10
766.78139699999997
 20
702.29820099999995
 30
0.0
 11
663.07728899999995
 21
702.29820099999995
 31
0.0
 70
   128
 13
546.78139699999986
 23
778.50268800000003
 33
0.0
 14
766.78139699999997
 24
778.50268800000003
 34
0.0
1001
ACAD
1000
DSTYLE
1002
{
1070
   287
1070
     3
1070
   287
1070
     3
1070
    40
1040
10.0
1070
   143
1040
0.039
1070
   172
1070
     1
1070
   271
1070
     0
1070
   279
1070
     0
1070
   288
1070
     1
1002
}
  0
DIMENSION
  5
7B5E
  8
3
  6
CONTINUOUS
  2
*D2
 10
1316.7813969999991
 20
702.29820099999995
 30
0.0
 11
1041.781397
 21
727.29820099999995
 31
0.0
 70
     0
 13
766.78139699999997
 23
778.50268800000003
 33
0.0
 14
1316.7813969999991
 24
778.50268800000003
 34
0.0
1001
ACAD
1000
DSTYLE
1002
{
1070
   287
1070
     4
1070
   287
1070
     4
1070
    40
1040
10.0
1070
    75
1070
     1
1070
   143
1040
0.039
1070
   172
1070
     1
1070
   271
1070
     0
1070
   279
1070
     1
1070
   288
1070
     1
1002
}
  0
DIMENSION
  5
7B6B
  8
3
  6
CONTINUOUS
  2
*D3
 10
495.38243900000009
 20
895.50268800000003
 30
0.0
 11
495.38243899999998
 21
1011.865001
 31
0.0
 70
   128
 13
566.78139699999997
 23
1145.502688
 33
0.0
 14
566.78139699999997
 24
895.50268800000003
 34
0.0
 50
90.0
1001
ACAD
1000
DSTYLE
1002
{
1070
   287
1070
     3
1070
   287
1070
     3
1070
    40
1040
10.0
1070
   143
1040
0.039
1070
   172
1070
     1
1070
   271
1070
     0
1070
   279
1070
     0
1070
   288
1070
     1
1002
}
  0
DIMENSION
  5
7B78
  8
3
  6
CONTINUOUS
  2
*D4
 10
382.90381300000018
 20
1145.502688
 30
0.0
 11
382.90381300000001
 21
1235.44254
 31
0.0
 70
   128
 13
766.78139699999997
 23
1331.492072
 33
0.0
 14
566.78139699999997
 24
1145.502688
 34
0.0
 50
90.0
1001
ACAD
1000
DSTYLE
1002
{
1070
   287
1070
     3
1070
   287
1070
     3
1070
    40
1040
10.0
1070
   143
1040
0.039
1070
   172
1070
     1
1070
   271
1070
     0
1070
   279
1070
     0
1070
   288
1070
     1
1002
}
  0
DIMENSION
  5
7B84
  8
3
  6
CONTINUOUS
  2
*D5
 10
382.90381300000001
 20
830.50268799999992
 30
0.0
 11
357.90381299999979
 21
988.00268800000015
 31
0.0
 70
     0
 13
566.78139699999997
 23
1145.502688
 33
0.0
 14
576.78139699999986
 24
830.50268799999992
 34
0.0
 50
90.0
1001
ACAD
1000
DSTYLE
1002
{
1070
   287
1070
     4
1070
   287
1070
     4
1070
    40
1040
10.0
1070
    75
1070
     1
1070
   143
1040
0.039
1070
   172
1070
     1
1070
   271
1070
     0
1070
   279
1070
     1
1070
   288
1070
     1
1002
}
  0
DIMENSION
  5
7B94
  8
3
  6
CONTINUOUS
  2
*D6
 10
382.90381300000013
 20
778.50268800000003
 30
0.0
 11
382.90381300000001
 21
704.21697371428581
 31
0.0
 70
   128
 13
576.78139699999986
 23
830.50268799999992
 33
0.0
 14
546.78139699999986
 24
778.50268800000003
 34
0.0
 50
90.0
1001
ACAD
1000
DSTYLE
1002
{
1070
   287
1070
     3
1070
   287
1070
     3
1070
    40
1040
10.0
1070
   143
1040
0.039
1070
   172
1070
     1
1070
   271
1070
     0
1070
   279
1070
     0
1070
   288
1070
     1
1002
}
  0
DIMENSION
  5
7BBB
  8
3
  6
CONTINUOUS
  2
*D7
 10
323.48998000000012
 20
778.50268800000003
 30
0.0
 11
323.48997999999989
 21
1037.1216229999991
 31
0.0
 70
   128
 13
766.78139699999997
 23
1331.492072
 33
0.0
 14
546.78139699999986
 24
778.50268800000003
 34
0.0
 50
90.0
1001
ACAD
1000
DSTYLE
1002
{
1070
   287
1070
     3
1070
   287
1070
     3
1070
    40
1040
10.0
1070
   143
1040
0.039
1070
   172
1070
     1
1070
   271
1070
     0
1070
   279
1070
     0
1070
   288
1070
     1
1002
}
  0
DIMENSION
  5
7BC8
  8
3
  6
CONTINUOUS
  2
*D8
 10
766.78139699999997
 20
1372.8405330000001
 30
0.0
 11
667.68811200000005
 21
1372.8405330000001
 31
0.0
 70
   128
 13
566.78139699999997
 23
1166.502688
 33
0.0
 14
766.78139699999997
 24
1331.492072
 34
0.0
1001
ACAD
1000
DSTYLE
1002
{
1070
   287
1070
     3
1070
   287
1070
     3
1070
    40
1040
10.0
1070
   143
1040
0.039
1070
   172
1070
     1
1070
   271
1070
     0
1070
   279
1070
     0
1070
   288
1070
     1
1002
}
  0
DIMENSION
  5
7BD4
  8
3
  6
CONTINUOUS
  2
*D9
 10
986.77078100000006
 20
1372.8405330000001
 30
0.0
 11
876.77608899999996
 21
1397.8405330000001
 31
0.0
 70
     0
 13
766.78139699999997
 23
1331.492072
 33
0.0
 14
986.77078100000006
 24
1145.502688
 34
0.0
1001
ACAD
1000
DSTYLE
1002
{
1070
   287
1070
     4
1070
   287
1070
     4
1070
    40
1040
10.0
1070
    75
1070
     1
1070
   143
1040
0.039
1070
   172
1070
     1
1070
   271
1070
     0
1070
   279
1070
     1
1070
   288
1070
     1
1002
}
  0
DIMENSION
  5
7BE1
  8
3
  6
CONTINUOUS
  2
*D10
 10
1316.7813969999991
 20
1604.57537127311
 30
0.0
 11
938.39858100000004
 21
1604.57537127311
 31
0.0
 70
   128
 13
546.78139699999986
 23
1769.6309722731089
 33
0.0
 14
1316.7813969999991
 24
1769.6309722731089
 34
0.0
1001
ACAD
1000
DSTYLE
1002
{
1070
   287
1070
     3
1070
   287
1070
     3
1070
    40
1040
10.0
1070
   143
1040
0.039
1070
   172
1070
     1
1070
   271
1070
     0
1070
   279
1070
     0
1070
   288
1070
     1
1002
}
  0
DIMENSION
  5
7BEE
  8
3
  6
CONTINUOUS
  2
*D11
 10
1430.0336870000001
 20
1769.6309722731089
 30
0.0
 11
1430.033686999999
 21
1890.5581452731089
 31
0.0
 70
   128
 13
1316.7813969999991
 23
2019.6309722731089
 33
0.0
 14
1316.7813969999991
 24
1769.6309722731089
 34
0.0
 50
90.0
1001
ACAD
1000
DSTYLE
1002
{
1070
   287
1070
     3
1070
   287
1070
     3
1070
    40
1040
10.0
1070
   143
1040
0.039
1070
   172
1070
     1
1070
   271
1070
     0
1070
   279
1070
     0
1070
   288
1070
     1
1002
}
  0
LINE
  5
7BEF
  8
2
  6
CENTER
 10
1015.020774
 20
2027.6309722731089
 30
0.0
 11
533.88869599999987
 21
2027.6309722731089
 31
0.0
  0
LINE
  5
7BF0
  8
2
  6
CENTER
 10
766.78139699999997
 20
1663.023015273109
 30
0.0
 11
766.78139699999997
 21
2141.5798922731101
 31
0.0
  0
LINE
  5
7BF1
  8
2
  6
CENTER
 10
1679.12015077809
 20
1394.5280540000001
 30
0.0
 11
1679.12015077809
 21
773.54316700000004
 31
0.0
  0
LINE
  5
7BF2
  8
2
  6
CENTER
 10
1328.3215129654229
 20
1145.502688
 30
0.0
 11
1798.3447033299981
 21
1145.502688
 31
0.0
  0
DIMENSION
  5
7C00
  8
3
  6
CONTINUOUS
  2
*D12
 10
1671.12015077809
 20
696.58277499999986
 30
0.0
 11
1546.1090907780899
 21
696.58277499999986
 31
0.0
 70
   128
 13
1421.12015077809
 23
778.50268800000003
 33
0.0
 14
1671.12015077809
 24
778.50268800000003
 34
0.0
1001
ACAD
1000
DSTYLE
1002
{
1070
   287
1070
     3
1070
   287
1070
     3
1070
    40
1040
10.0
1070
   143
1040
0.039
1070
   172
1070
     1
1070
   271
1070
     0
1070
   279
1070
     0
1070
   288
1070
     1
1002
}
  0
DIMENSION
  5
7C0D
  8
3
  6
CONTINUOUS
  2
*D13
 10
1769.12015077809
 20
1389.2441899999999
 30
0.0
 11
1671.6466377780901
 21
1389.2441899999999
 31
0.0
 70
   128
 13
1589.12015077809
 23
1344.4026879999999
 33
0.0
 14
1769.12015077809
 24
1344.4026879999999
 34
0.0
1001
ACAD
1000
DSTYLE
1002
{
1070
   287
1070
     3
1070
   287
1070
     3
1070
    40
1040
10.0
1070
   143
1040
0.039
1070
   172
1070
     1
1070
   271
1070
     0
1070
   279
1070
     0
1070
   288
1070
     1
1002
}
  0
DIMENSION
  5
7C1A
  8
3
  6
CONTINUOUS
  2
*D14
 10
1679.12015077809
 20
1449.707273
 30
0.0
 11
1502.6537787780901
 21
1449.707273
 31
0.0
 70
   128
  1
MAX\P340
 13
1339.12015077809
 23
1270.502688
 33
0.0
 14
1679.12015077809
 24
1434.388651
 34
0.0
1001
ACAD
1000
DSTYLE
1002
{
1070
   287
1070
     3
1070
   287
1070
     3
1070
    40
1040
10.0
1070
   143
1040
0.039
1070
   172
1070
     1
1070
   271
1070
     0
1070
   279
1070
     0
1070
   288
1070
     1
1002
}
  0
DIMENSION
  5
7C28
  8
3
  6
CONTINUOUS
  2
*D15
 10
1778.12015077809
 20
1449.707273
 30
0.0
 11
1729.5870467780901
 21
1448.0994179999991
 31
0.0
 70
   128
 13
1679.12015077809
 23
1434.388651
 33
0.0
 14
1778.12015077809
 24
1292.502688
 34
0.0
1001
ACAD
1000
DSTYLE
1002
{
1070
   287
1070
     4
1070
   287
1070
     4
1070
    40
1040
10.0
1070
    75
1070
     1
1070
   143
1040
0.039
1070
   172
1070
     1
1070
   271
1070
     0
1070
   279
1070
     1
1070
   288
1070
     1
1002
}
  0
LINE
  5
7C40
  8
3
  6
CONTINUOUS
 10
1778.12015077809
 20
1270.502688
 30
0.0
 11
1790.4450867780899
 21
1270.502688
 31
0.0
  0
LINE
  5
7C42
  8
3
  6
CONTINUOUS
 10
1778.12015077809
 20
1020.502688
 30
0.0
 11
1788.82769377809
 21
1020.502688
 31
0.0
  0
DIMENSION
  5
7C4F
  8
3
  6
CONTINUOUS
  2
*D16
 10
1851.09698477809
 20
1020.502688
 30
0.0
 11
1851.09698477809
 21
1139.7408780000001
 31
0.0
 70
   128
 13
1778.12015077809
 23
1270.502688
 33
0.0
 14
1778.12015077809
 24
1020.502688
 34
0.0
 50
90.0
1001
ACAD
1000
DSTYLE
1002
{
1070
   287
1070
     3
1070
   287
1070
     3
1070
     3
1000
φ<>
1070
    40
1040
10.0
1070
   143
1040
0.039
1070
   172
1070
     1
1070
   271
1070
     0
1070
   279
1070
     0
1070
   288
1070
     1
1002
}
  0
DIMENSION
  5
7C8D
  8
3
  6
CONTINUOUS
  2
*D17
 10
444.14286399999997
 20
885.50268800000003
 30
0.0
 11
444.14286399999992
 21
1010.115023
 31
0.0
 70
   128
 13
566.78139699999997
 23
1145.502688
 33
0.0
 14
586.78139699999986
 24
885.50268800000003
 34
0.0
 50
90.0
1001
ACAD
1000
DSTYLE
1002
{
1070
   287
1070
     3
1070
   287
1070
     3
1070
    40
1040
10.0
1070
   143
1040
0.039
1070
   172
1070
     1
1070
   271
1070
     0
1070
   279
1070
     0
1070
   288
1070
     1
1002
}
  0
DIMENSION
  5
7CF1
  8
3
  2
*D18
 10
1316.7813969999991
 20
1435.8816784420901
 30
0.0
 11
934.26027636651645
 21
1435.8816784420901
 31
0.0
 70
   128
 13
566.78139699999997
 23
1166.502688
 33
0.0
 14
1316.7813969999991
 24
808.50268800000003
 34
0.0
1001
ACAD
1000
DSTYLE
1002
{
1070
   287
1070
     3
1070
   287
1070
     3
1070
    40
1040
10.0
1070
   143
1040
0.039
1070
   172
1070
     1
1070
   271
1070
     0
1070
   279
1070
     0
1070
   288
1070
     1
1002
}
  0
DIMENSION
  5
7D01
  8
3
  2
*D19
 10
1679.12015077809
 20
696.58277499999986
 30
0.0
 11
1739.12015077809
 21
721.58277499999986
 31
0.0
 70
     0
 13
1671.12015077809
 23
778.50268800000003
 33
0.0
 14
1679.12015077809
 24
773.54316700000004
 34
0.0
1001
ACAD
1000
DSTYLE
1002
{
1070
   287
1070
     3
1070
   287
1070
     3
1070
    40
1040
10.0
1070
   143
1040
0.039
1070
   172
1070
     1
1070
   271
1070
     0
1070
   279
1070
     0
1070
   288
1070
     1
1002
}
  0
ENDSEC
  0
EOF
