  0
SECTION
  2
HEADER
  9
$ACADVER
  1
AC1009
  9
$INSBASE
 10
0.0
 20
0.0
 30
0.0
  9
$EXTMIN
 10
181.40589271620951
 20
300.0
 30
0.0
  9
$EXTMAX
 10
1850.0
 20
2786.6522620000001
 30
0.0
  9
$LIMMIN
 10
0.0
 20
0.0
  9
$LIMMAX
 10
297.0
 20
210.0
  9
$ORTHOMODE
 70
     0
  9
$REGENMODE
 70
     1
  9
$FILLMODE
 70
     0
  9
$QTEXTMODE
 70
     0
  9
$MIRRTEXT
 70
     1
  9
$DRAGMODE
 70
     2
  9
$LTSCALE
 40
100.0
  9
$OSMODE
 70
    37
  9
$ATTMODE
 70
     1
  9
$TEXTSIZE
 40
180.0
  9
$TRACEWID
 40
0.05
  9
$TEXTSTYLE
  7
STANDARD
  9
$CLAYER
  8
3
  9
$CELTYPE
  6
BYLAYER
  9
$CECOLOR
 62
   256
  9
$DIMSCALE
 40
10.0
  9
$DIMASZ
 40
2.0
  9
$DIMEXO
 40
0.5
  9
$DIMDLI
 40
10.0
  9
$DIMRND
 40
0.0
  9
$DIMDLE
 40
0.0
  9
$DIMEXE
 40
1.0
  9
$DIMTP
 40
1.0
  9
$DIMTM
 40
1.0
  9
$DIMTXT
 40
3.0
  9
$DIMCEN
 40
0.0
  9
$DIMTSZ
 40
0.0
  9
$DIMTOL
 70
     0
  9
$DIMLIM
 70
     0
  9
$DIMTIH
 70
     0
  9
$DIMTOH
 70
     0
  9
$DIMSE1
 70
     0
  9
$DIMSE2
 70
     0
  9
$DIMTAD
 70
     1
  9
$DIMZIN
 70
     8
  9
$DIMBLK
  1

  9
$DIMASO
 70
     1
  9
$DIMSHO
 70
     1
  9
$DIMPOST
  1

  9
$DIMAPOST
  1

  9
$DIMALT
 70
     0
  9
$DIMALTD
 70
     2
  9
$DIMALTF
 40
0.039
  9
$DIMLFAC
 40
1.0
  9
$DIMTOFL
 70
     1
  9
$DIMTVP
 40
0.0
  9
$DIMTIX
 70
     0
  9
$DIMSOXD
 70
     0
  9
$DIMSAH
 70
     1
  9
$DIMBLK1
  1
OPEN
  9
$DIMBLK2
  1
OPEN
  9
$DIMSTYLE
  2
IGA
  9
$DIMCLRD
 70
     0
  9
$DIMCLRE
 70
     0
  9
$DIMCLRT
 70
     0
  9
$DIMTFAC
 40
10.0
  9
$DIMGAP
 40
1.0
  9
$LUNITS
 70
     2
  9
$LUPREC
 70
     3
  9
$SKETCHINC
 40
0.1
  9
$FILLETRAD
 40
50.0
  9
$AUNITS
 70
     0
  9
$AUPREC
 70
     0
  9
$MENU
  1
acad
  9
$ELEVATION
 40
0.0
  9
$PELEVATION
 40
0.0
  9
$THICKNESS
 40
0.0
  9
$LIMCHECK
 70
     0
  9
$BLIPMODE
 70
     0
  9
$CHAMFERA
 40
0.5
  9
$CHAMFERB
 40
0.5
  9
$SKPOLY
 70
     0
  9
$TDCREATE
 40
2450740.5711405091
  9
$TDUPDATE
 40
2454953.8642407171
  9
$TDINDWG
 40
0.0037061227
  9
$TDUSRTIMER
 40
0.0037061227
  9
$USRTIMER
 70
     1
  9
$ANGBASE
 50
0.0
  9
$ANGDIR
 70
     0
  9
$PDMODE
 70
     0
  9
$PDSIZE
 40
0.0
  9
$PLINEWID
 40
0.0
  9
$COORDS
 70
     1
  9
$SPLFRAME
 70
     0
  9
$SPLINETYPE
 70
     6
  9
$SPLINESEGS
 70
     8
  9
$ATTDIA
 70
     0
  9
$ATTREQ
 70
     1
  9
$HANDLING
 70
 10241
  9
$HANDSEED
  5
7EB5
  9
$SURFTAB1
 70
     6
  9
$SURFTAB2
 70
     6
  9
$SURFTYPE
 70
     6
  9
$SURFU
 70
     6
  9
$SURFV
 70
     6
  9
$UCSNAME
  2

  9
$UCSORG
 10
0.0
 20
0.0
 30
0.0
  9
$UCSXDIR
 10
1.0
 20
0.0
 30
0.0
  9
$UCSYDIR
 10
0.0
 20
1.0
 30
0.0
  9
$PUCSNAME
  2

  9
$PUCSORG
 10
0.0
 20
0.0
 30
0.0
  9
$PUCSXDIR
 10
1.0
 20
0.0
 30
0.0
  9
$PUCSYDIR
 10
0.0
 20
1.0
 30
0.0
  9
$USERI1
 70
     0
  9
$USERI2
 70
     0
  9
$USERI3
 70
     0
  9
$USERI4
 70
     0
  9
$USERI5
 70
     0
  9
$USERR1
 40
0.0
  9
$USERR2
 40
0.0
  9
$USERR3
 40
0.0
  9
$USERR4
 40
0.0
  9
$USERR5
 40
0.0
  9
$WORLDVIEW
 70
     1
  9
$SHADEDGE
 70
     3
  9
$SHADEDIF
 70
    70
  9
$TILEMODE
 70
     1
  9
$MAXACTVP
 70
    16
  9
$PLIMCHECK
 70
     0
  9
$PEXTMIN
 10
1.0000000000000000E+020
 20
1.0000000000000000E+020
 30
1.0000000000000000E+020
  9
$PEXTMAX
 10
-1.0000000000000000E+020
 20
-1.0000000000000000E+020
 30
-1.0000000000000000E+020
  9
$PLIMMIN
 10
0.0
 20
0.0
  9
$PLIMMAX
 10
12.0
 20
9.0
  9
$UNITMODE
 70
     0
  9
$VISRETAIN
 70
     0
  9
$PLINEGEN
 70
     0
  9
$PSLTSCALE
 70
     1
  0
ENDSEC
  0
SECTION
  2
TABLES
  0
TABLE
  2
VPORT
 70
     2
  0
VPORT
  2
*ACTIVE
 70
     0
 10
0.0
 20
0.0
 11
1.0
 21
1.0
 12
2484.8541817341229
 22
1982.8837805704859
 13
0.0
 23
0.0
 14
10.0
 24
10.0
 15
10.0
 25
10.0
 16
0.0
 26
0.0
 36
1.0
 17
0.0
 27
0.0
 37
0.0
 40
3860.4308905936659
 41
1.5051150895140659
 42
50.0
 43
0.0
 44
0.0
 50
0.0
 51
0.0
 71
     0
 72
   100
 73
     1
 74
     0
 75
     0
 76
     0
 77
     0
 78
     0
  0
ENDTAB
  0
TABLE
  2
LTYPE
 70
     2
  0
LTYPE
  2
CONTINUOUS
 70
     0
  3
Solid line
 72
    65
 73
     0
 40
0.0
  0
LTYPE
  2
CENTER
 70
     0
  3
____ _ ____ _ ____ _ ____ _ ____ _ ____ _ ____ 
 72
    65
 73
     4
 40
2.0
 49
1.25
 49
-0.25
 49
0.25
 49
-0.25
  0
ENDTAB
  0
TABLE
  2
LAYER
 70
     6
  0
LAYER
  2
0
 70
     0
 62
     7
  6
CONTINUOUS
  0
LAYER
  2
3
 70
     0
 62
     2
  6
CONTINUOUS
  0
LAYER
  2
2
 70
     0
 62
     3
  6
CENTER
  0
LAYER
  2
1
 70
     0
 62
     4
  6
CONTINUOUS
  0
LAYER
  2
4
 70
     0
 62
     7
  6
CONTINUOUS
  0
LAYER
  2
DEFPOINTS
 70
     0
 62
     7
  6
CONTINUOUS
  0
ENDTAB
  0
TABLE
  2
STYLE
 70
     1
  0
STYLE
  2
STANDARD
 70
     0
 40
0.0
 41
1.0
 50
0.0
 71
     0
 42
180.0
  3
simplex.shx
  4
extfont.shx
  0
ENDTAB
  0
TABLE
  2
VIEW
 70
     0
  0
ENDTAB
  0
TABLE
  2
UCS
 70
     0
  0
ENDTAB
  0
TABLE
  2
APPID
 70
     1
  0
APPID
  2
ACAD
 70
     0
  0
ENDTAB
  0
TABLE
  2
DIMSTYLE
 70
     1
  0
DIMSTYLE
  2
IGA
 70
     0
  3

  4

  5

  6
OPEN
  7
OPEN
 40
2.0
 41
2.0
 42
0.5
 43
10.0
 44
1.0
 45
0.0
 46
0.0
 47
1.0
 48
1.0
140
3.0
141
0.0
142
0.0
143
0.03937
144
1.0
145
0.0
146
10.0
147
1.0
 71
     0
 72
     0
 73
     0
 74
     0
 75
     0
 76
     0
 77
     1
 78
     8
170
     0
171
     2
172
     0
173
     1
174
     0
175
     0
176
     0
177
     0
178
     0
  0
ENDTAB
  0
ENDSEC
  0
SECTION
  2
BLOCKS
  0
BLOCK
  8
0
  2
$MODEL_SPACE
 70
     0
 10
0.0
 20
0.0
 30
0.0
  3
$MODEL_SPACE
  1

  0
ENDBLK
  5
1B
  8
0
  0
BLOCK
 67
     1
  8
0
  2
$PAPER_SPACE
 70
     0
 10
0.0
 20
0.0
 30
0.0
  3
$PAPER_SPACE
  1

  0
ENDBLK
  5
18
 67
     1
  8
0
  0
BLOCK
  8
0
  2
_OPEN
 70
     0
 10
0.0
 20
0.0
 30
0.0
  3
_OPEN
  1

  0
LINE
  5
7B3B
  8
0
  6
BYBLOCK
 62
     0
 10
-1.0
 20
0.166667
 30
0.0
 11
0.0
 21
0.0
 31
0.0
  0
LINE
  5
7B3C
  8
0
  6
BYBLOCK
 62
     0
 10
0.0
 20
0.0
 30
0.0
 11
-1.0
 21
-0.166667
 31
0.0
  0
LINE
  5
7B3D
  8
0
  6
BYBLOCK
 62
     0
 10
0.0
 20
0.0
 30
0.0
 11
-1.0
 21
0.0
 31
0.0
  0
ENDBLK
  5
7B3E
  8
0
  0
BLOCK
  8
0
  2
*D1
 70
     1
 10
0.0
 20
0.0
 30
0.0
  3
*D1
  1

  0
LINE
  5
7E00
  8
3
  6
CONTINUOUS
 62
     0
 10
272.38250322195648
 20
791.84426883665401
 30
0.0
 11
272.38250322195648
 21
689.54682983665396
 31
0.0
  0
LINE
  5
7E01
  8
3
  6
CONTINUOUS
 62
     0
 10
822.38250322195654
 20
791.84426883665401
 30
0.0
 11
822.38250322195654
 21
689.54682983665396
 31
0.0
  0
LINE
  5
7E02
  8
3
  6
CONTINUOUS
 62
     0
 10
292.38250322195648
 20
699.54682983665396
 30
0.0
 11
802.38250322195665
 21
699.54682983665396
 31
0.0
  0
INSERT
  5
7E03
  8
3
  6
CONTINUOUS
 62
     0
  2
_OPEN
 10
272.38250322195648
 20
699.54682983665396
 30
0.0
 41
20.0
 42
20.0
 43
20.0
 50
180.0
  0
INSERT
  5
7E04
  8
3
  6
CONTINUOUS
 62
     0
  2
_OPEN
 10
822.38250322195654
 20
699.54682983665396
 30
0.0
 41
20.0
 42
20.0
 43
20.0
  0
TEXT
  8
3
  40
30
  5
7EA2
  62
0
  72
0
  71
0
 10
491.184
 20
671.447
 30
0.000000
  1
550
  0
POINT
  5
7E06
  8
DEFPOINTS
  6
CONTINUOUS
 62
     0
 10
272.38250322195648
 20
796.84426883665401
 30
0.0
  0
POINT
  5
7E07
  8
DEFPOINTS
  6
CONTINUOUS
 62
     0
 10
822.38250322195654
 20
796.84426883665401
 30
0.0
  0
POINT
  5
7E08
  8
DEFPOINTS
  6
CONTINUOUS
 62
     0
 10
822.38250322195654
 20
699.54682983665396
 30
0.0
  0
ENDBLK
  5
7B4B
  8
0
  0
BLOCK
  8
0
  2
*D2
 70
     1
 10
0.0
 20
0.0
 30
0.0
  3
*D2
  1

  0
LINE
  5
7E09
  8
3
  6
CONTINUOUS
 62
     0
 10
1042.3825032219561
 20
791.84426883665401
 30
0.0
 11
1042.3825032219561
 21
689.54682983665396
 31
0.0
  0
LINE
  5
7E0A
  8
3
  6
CONTINUOUS
 62
     0
 10
842.38250322195643
 20
699.54682983665396
 30
0.0
 11
1022.382503221956
 21
699.54682983665396
 31
0.0
  0
INSERT
  5
7E0B
  8
3
  6
CONTINUOUS
 62
     0
  2
_OPEN
 10
822.38250322195654
 20
699.54682983665396
 30
0.0
 41
20.0
 42
20.0
 43
20.0
 50
180.0
  0
INSERT
  5
7E0C
  8
3
  6
CONTINUOUS
 62
     0
  2
_OPEN
 10
1042.3825032219561
 20
699.54682983665396
 30
0.0
 41
20.0
 42
20.0
 43
20.0
  0
TEXT
  8
3
  40
30
  5
7EA3
  62
0
  72
0
  71
0
 10
872.383
 20
671.447
 30
0.000000
  1
220
  0
POINT
  5
7E0E
  8
DEFPOINTS
  6
CONTINUOUS
 62
     0
 10
822.38250322195654
 20
796.84426883665401
 30
0.0
  0
POINT
  5
7E0F
  8
DEFPOINTS
  6
CONTINUOUS
 62
     0
 10
1042.3825032219561
 20
796.84426883665401
 30
0.0
  0
POINT
  5
7E10
  8
DEFPOINTS
  6
CONTINUOUS
 62
     0
 10
1042.3825032219561
 20
699.54682983665396
 30
0.0
  0
ENDBLK
  5
7B57
  8
0
  0
BLOCK
  8
0
  2
*D3
 70
     1
 10
0.0
 20
0.0
 30
0.0
  3
*D3
  1

  0
LINE
  5
7E11
  8
3
  6
CONTINUOUS
 62
     0
 10
572.38250322195654
 20
1368.844268836654
 30
0.0
 11
572.38250322195654
 21
1428.929767836654
 31
0.0
  0
LINE
  5
7E12
  8
3
  6
CONTINUOUS
 62
     0
 10
822.38250322195654
 20
1368.844268836654
 30
0.0
 11
822.38250322195654
 21
1428.929767836654
 31
0.0
  0
LINE
  5
7E13
  8
3
  6
CONTINUOUS
 62
     0
 10
592.38250322195654
 20
1418.929767836654
 30
0.0
 11
802.38250322195665
 21
1418.929767836654
 31
0.0
  0
INSERT
  5
7E14
  8
3
  6
CONTINUOUS
 62
     0
  2
_OPEN
 10
572.38250322195654
 20
1418.929767836654
 30
0.0
 41
20.0
 42
20.0
 43
20.0
 50
180.0
  0
INSERT
  5
7E15
  8
3
  6
CONTINUOUS
 62
     0
  2
_OPEN
 10
822.38250322195654
 20
1418.929767836654
 30
0.0
 41
20.0
 42
20.0
 43
20.0
  0
TEXT
  8
3
  40
30
  5
7EA4
  62
0
  72
0
  71
0
 10
623.470
 20
1390.83
 30
0.000000
  1
250
  0
POINT
  5
7E17
  8
DEFPOINTS
  6
CONTINUOUS
 62
     0
 10
572.38250322195654
 20
1363.844268836654
 30
0.0
  0
POINT
  5
7E18
  8
DEFPOINTS
  6
CONTINUOUS
 62
     0
 10
822.38250322195654
 20
1363.844268836654
 30
0.0
  0
POINT
  5
7E19
  8
DEFPOINTS
  6
CONTINUOUS
 62
     0
 10
822.38250322195654
 20
1418.929767836654
 30
0.0
  0
ENDBLK
  5
7B64
  8
0
  0
BLOCK
  8
0
  2
*D4
 70
     1
 10
0.0
 20
0.0
 30
0.0
  3
*D4
  1

  0
LINE
  5
7E1A
  8
3
  6
CONTINUOUS
 62
     0
 10
562.38250322195654
 20
1348.8442688366531
 30
0.0
 11
562.38250322195654
 21
1487.398739836653
 31
0.0
  0
LINE
  5
7E1B
  8
3
  6
CONTINUOUS
 62
     0
 10
822.38250322195654
 20
1368.844268836654
 30
0.0
 11
822.38250322195654
 21
1487.398739836653
 31
0.0
  0
LINE
  5
7E1C
  8
3
  6
CONTINUOUS
 62
     0
 10
582.38250322195654
 20
1477.3987398366539
 30
0.0
 11
802.38250322195665
 21
1477.3987398366539
 31
0.0
  0
INSERT
  5
7E1D
  8
3
  6
CONTINUOUS
 62
     0
  2
_OPEN
 10
562.38250322195654
 20
1477.3987398366539
 30
0.0
 41
20.0
 42
20.0
 43
20.0
 50
180.0
  0
INSERT
  5
7E1E
  8
3
  6
CONTINUOUS
 62
     0
  2
_OPEN
 10
822.38250322195654
 20
1477.3987398366539
 30
0.0
 41
20.0
 42
20.0
 43
20.0
  0
TEXT
  8
3
  40
30
  5
7EA5
  62
0
  72
0
  71
0
 10
641.106
 20
1449.30
 30
0.000000
  1
260
  0
POINT
  5
7E20
  8
DEFPOINTS
  6
CONTINUOUS
 62
     0
 10
562.38250322195654
 20
1343.844268836654
 30
0.0
  0
POINT
  5
7E21
  8
DEFPOINTS
  6
CONTINUOUS
 62
     0
 10
822.38250322195654
 20
1363.844268836654
 30
0.0
  0
POINT
  5
7E22
  8
DEFPOINTS
  6
CONTINUOUS
 62
     0
 10
822.38250322195654
 20
1477.3987398366539
 30
0.0
  0
ENDBLK
  5
7B71
  8
0
  0
BLOCK
  8
0
  2
*D5
 70
     1
 10
0.0
 20
0.0
 30
0.0
  3
*D5
  1

  0
LINE
  5
7E23
  8
3
  6
CONTINUOUS
 62
     0
 10
1008.3718872219559
 20
1168.844268836654
 30
0.0
 11
1008.3718872219559
 21
1487.398739836653
 31
0.0
  0
LINE
  5
7E24
  8
3
  6
CONTINUOUS
 62
     0
 10
842.38250322195643
 20
1477.3987398366539
 30
0.0
 11
988.37188722195651
 21
1477.3987398366539
 31
0.0
  0
INSERT
  5
7E25
  8
3
  6
CONTINUOUS
 62
     0
  2
_OPEN
 10
822.38250322195654
 20
1477.3987398366539
 30
0.0
 41
20.0
 42
20.0
 43
20.0
 50
180.0
  0
INSERT
  5
7E26
  8
3
  6
CONTINUOUS
 62
     0
  2
_OPEN
 10
1008.3718872219559
 20
1477.3987398366539
 30
0.0
 41
20.0
 42
20.0
 43
20.0
  0
TEXT
  8
3
  40
30
  5
7EA6
  62
0
  72
0
  71
0
 10
855.377
 20
1449.30
 30
0.000000
  1
186
  0
POINT
  5
7E28
  8
DEFPOINTS
  6
CONTINUOUS
 62
     0
 10
822.38250322195654
 20
1363.844268836654
 30
0.0
  0
POINT
  5
7E29
  8
DEFPOINTS
  6
CONTINUOUS
 62
     0
 10
1008.3718872219559
 20
1163.844268836654
 30
0.0
  0
POINT
  5
7E2A
  8
DEFPOINTS
  6
CONTINUOUS
 62
     0
 10
1008.3718872219559
 20
1477.3987398366539
 30
0.0
  0
ENDBLK
  5
7B7D
  8
0
  0
BLOCK
  8
0
  2
*D6
 70
     1
 10
0.0
 20
0.0
 30
0.0
  3
*D6
  1

  0
LINE
  5
7E2B
  8
3
  6
CONTINUOUS
 62
     0
 10
848.38250322195654
 20
1363.844268836654
 30
0.0
 11
1128.981320105773
 21
1363.844268836654
 31
0.0
  0
LINE
  5
7E2C
  8
3
  6
CONTINUOUS
 62
     0
 10
1013.3718872219559
 20
1163.844268836654
 30
0.0
 11
1128.981320105773
 21
1163.844268836654
 31
0.0
  0
LINE
  5
7E2D
  8
3
  6
CONTINUOUS
 62
     0
 10
1118.981320105773
 20
1343.844268836654
 30
0.0
 11
1118.981320105773
 21
1183.8442688366531
 31
0.0
  0
INSERT
  5
7E2E
  8
3
  6
CONTINUOUS
 62
     0
  2
_OPEN
 10
1118.981320105773
 20
1363.844268836654
 30
0.0
 41
20.0
 42
20.0
 43
20.0
 50
90.0
  0
INSERT
  5
7E2F
  8
3
  6
CONTINUOUS
 62
     0
  2
_OPEN
 10
1118.981320105773
 20
1163.844268836654
 30
0.0
 41
20.0
 42
20.0
 43
20.0
 50
270.0
  0
TEXT
  8
3
  40
30
  5
7EA7
  62
0
  72
0
  71
0
 10
1033.98
 20
1214.98
 30
0.000000
  1
200
  0
POINT
  5
7E31
  8
DEFPOINTS
  6
CONTINUOUS
 62
     0
 10
843.38250322195665
 20
1363.844268836654
 30
0.0
  0
POINT
  5
7E32
  8
DEFPOINTS
  6
CONTINUOUS
 62
     0
 10
1008.3718872219559
 20
1163.844268836654
 30
0.0
  0
POINT
  5
7E33
  8
DEFPOINTS
  6
CONTINUOUS
 62
     0
 10
1118.981320105773
 20
1163.844268836654
 30
0.0
  0
ENDBLK
  5
7CF7
  8
0
  0
BLOCK
  8
0
  2
*D7
 70
     1
 10
0.0
 20
0.0
 30
0.0
  3
*D7
  1

  0
LINE
  5
7E34
  8
3
  6
CONTINUOUS
 62
     0
 10
1017.382503221956
 20
848.8442688366539
 30
0.0
 11
1128.981320105773
 21
848.8442688366539
 31
0.0
  0
LINE
  5
7E35
  8
3
  6
CONTINUOUS
 62
     0
 10
1118.981320105773
 20
1143.844268836654
 30
0.0
 11
1118.981320105773
 21
868.84426883665401
 31
0.0
  0
INSERT
  5
7E36
  8
3
  6
CONTINUOUS
 62
     0
  2
_OPEN
 10
1118.981320105773
 20
1163.844268836654
 30
0.0
 41
20.0
 42
20.0
 43
20.0
 50
90.0
  0
INSERT
  5
7E37
  8
3
  6
CONTINUOUS
 62
     0
  2
_OPEN
 10
1118.981320105773
 20
848.8442688366539
 30
0.0
 41
20.0
 42
20.0
 43
20.0
 50
270.0
  0
TEXT
  8
3
  40
30
  5
7EA8
  62
0
  72
0
  71
0
 10
1033.98
 20
953.244
 30
0.000000
  1
315
  0
POINT
  5
7E39
  8
DEFPOINTS
  6
CONTINUOUS
 62
     0
 10
1008.3718872219559
 20
1163.844268836654
 30
0.0
  0
POINT
  5
7E3A
  8
DEFPOINTS
  6
CONTINUOUS
 62
     0
 10
1012.382503221956
 20
848.8442688366539
 30
0.0
  0
POINT
  5
7E3B
  8
DEFPOINTS
  6
CONTINUOUS
 62
     0
 10
1118.981320105773
 20
848.8442688366539
 30
0.0
  0
ENDBLK
  5
7D01
  8
0
  0
BLOCK
  8
0
  2
*D8
 70
     1
 10
0.0
 20
0.0
 30
0.0
  3
*D8
  1

  0
LINE
  5
7E3C
  8
3
  6
CONTINUOUS
 62
     0
 10
1017.382503221956
 20
848.8442688366539
 30
0.0
 11
1128.981320105773
 21
848.8442688366539
 31
0.0
  0
LINE
  5
7E3D
  8
3
  6
CONTINUOUS
 62
     0
 10
1047.3825032219561
 20
796.84426883665401
 30
0.0
 11
1128.981320105773
 21
796.84426883665401
 31
0.0
  0
LINE
  5
7E3E
  8
3
  6
CONTINUOUS
 62
     0
 10
1118.981320105773
 20
868.84426883665401
 30
0.0
 11
1118.981320105773
 21
888.84426883665401
 31
0.0
  0
LINE
  5
7E3F
  8
3
  6
CONTINUOUS
 62
     0
 10
1118.981320105773
 20
776.84426883665401
 30
0.0
 11
1118.981320105773
 21
688.27284026522545
 31
0.0
  0
LINE
  5
7E40
  8
3
  6
CONTINUOUS
 62
     0
 10
1118.981320105773
 20
848.8442688366539
 30
0.0
 11
1118.981320105773
 21
796.84426883665401
 31
0.0
  0
INSERT
  5
7E41
  8
3
  6
CONTINUOUS
 62
     0
  2
_OPEN
 10
1118.981320105773
 20
848.8442688366539
 30
0.0
 41
20.0
 42
20.0
 43
20.0
 50
270.0
  0
INSERT
  5
7E42
  8
3
  6
CONTINUOUS
 62
     0
  2
_OPEN
 10
1118.981320105773
 20
796.84426883665401
 30
0.0
 41
20.0
 42
20.0
 43
20.0
 50
90.0
  0
TEXT
  8
3
  40
30
  5
7EA9
  62
0
  72
0
  71
0
 10
1033.98
 20
669.459
 30
0.000000
  1
52
  0
POINT
  5
7E44
  8
DEFPOINTS
  6
CONTINUOUS
 62
     0
 10
1012.382503221956
 20
848.8442688366539
 30
0.0
  0
POINT
  5
7E45
  8
DEFPOINTS
  6
CONTINUOUS
 62
     0
 10
1042.3825032219561
 20
796.84426883665401
 30
0.0
  0
POINT
  5
7E46
  8
DEFPOINTS
  6
CONTINUOUS
 62
     0
 10
1118.981320105773
 20
796.84426883665401
 30
0.0
  0
ENDBLK
  5
7D0E
  8
0
  0
BLOCK
  8
0
  2
*D9
 70
     1
 10
0.0
 20
0.0
 30
0.0
  3
*D9
  1

  0
LINE
  5
7E47
  8
3
  6
CONTINUOUS
 62
     0
 10
848.38250322195654
 20
1363.844268836654
 30
0.0
 11
1207.7016062219559
 21
1363.844268836654
 31
0.0
  0
LINE
  5
7E48
  8
3
  6
CONTINUOUS
 62
     0
 10
1047.3825032219561
 20
796.84426883665401
 30
0.0
 11
1207.7016062219559
 21
796.84426883665401
 31
0.0
  0
LINE
  5
7E49
  8
3
  6
CONTINUOUS
 62
     0
 10
1197.7016062219559
 20
1343.844268836654
 30
0.0
 11
1197.7016062219559
 21
816.8442688366539
 31
0.0
  0
INSERT
  5
7E4A
  8
3
  6
CONTINUOUS
 62
     0
  2
_OPEN
 10
1197.7016062219559
 20
1363.844268836654
 30
0.0
 41
20.0
 42
20.0
 43
20.0
 50
90.0
  0
INSERT
  5
7E4B
  8
3
  6
CONTINUOUS
 62
     0
  2
_OPEN
 10
1197.7016062219559
 20
796.84426883665401
 30
0.0
 41
20.0
 42
20.0
 43
20.0
 50
270.0
  0
TEXT
  8
3
  40
30
  5
7EAA
  62
0
  72
0
  71
0
 10
1112.70
 20
1024.90
 30
0.000000
  1
567
  0
POINT
  5
7E4D
  8
DEFPOINTS
  6
CONTINUOUS
 62
     0
 10
843.38250322195665
 20
1363.844268836654
 30
0.0
  0
POINT
  5
7E4E
  8
DEFPOINTS
  6
CONTINUOUS
 62
     0
 10
1042.3825032219561
 20
796.84426883665401
 30
0.0
  0
POINT
  5
7E4F
  8
DEFPOINTS
  6
CONTINUOUS
 62
     0
 10
1197.7016062219559
 20
796.84426883665401
 30
0.0
  0
ENDBLK
  5
7BCD
  8
0
  0
BLOCK
  8
0
  2
*D10
 70
     1
 10
0.0
 20
0.0
 30
0.0
  3
*D10
  1

  0
LINE
  5
7E50
  8
3
  6
CONTINUOUS
 62
     0
 10
272.38250322195648
 20
1834.9162027294881
 30
0.0
 11
272.38250322195648
 21
1664.685025729488
 31
0.0
  0
LINE
  5
7E51
  8
3
  6
CONTINUOUS
 62
     0
 10
1042.3825032219561
 20
1834.9162027294881
 30
0.0
 11
1042.3825032219561
 21
1664.685025729488
 31
0.0
  0
LINE
  5
7E52
  8
3
  6
CONTINUOUS
 62
     0
 10
292.38250322195648
 20
1674.685025729488
 30
0.0
 11
1022.382503221956
 21
1674.685025729488
 31
0.0
  0
INSERT
  5
7E53
  8
3
  6
CONTINUOUS
 62
     0
  2
_OPEN
 10
272.38250322195648
 20
1674.685025729488
 30
0.0
 41
20.0
 42
20.0
 43
20.0
 50
180.0
  0
INSERT
  5
7E54
  8
3
  6
CONTINUOUS
 62
     0
  2
_OPEN
 10
1042.3825032219561
 20
1674.685025729488
 30
0.0
 41
20.0
 42
20.0
 43
20.0
  0
TEXT
  8
3
  40
30
  5
7EAB
  62
0
  72
0
  71
0
 10
615.382
 20
1646.59
 30
0.000000
  1
770
  0
POINT
  5
7E56
  8
DEFPOINTS
  6
CONTINUOUS
 62
     0
 10
272.38250322195648
 20
1839.9162027294881
 30
0.0
  0
POINT
  5
7E57
  8
DEFPOINTS
  6
CONTINUOUS
 62
     0
 10
1042.3825032219561
 20
1839.9162027294881
 30
0.0
  0
POINT
  5
7E58
  8
DEFPOINTS
  6
CONTINUOUS
 62
     0
 10
1042.3825032219561
 20
1674.685025729488
 30
0.0
  0
ENDBLK
  5
7BDB
  8
0
  0
BLOCK
  8
0
  2
*D11
 70
     1
 10
0.0
 20
0.0
 30
0.0
  3
*D11
  1

  0
LINE
  5
7E59
  8
3
  6
CONTINUOUS
 62
     0
 10
1380.7532300000489
 20
791.84426883665401
 30
0.0
 11
1380.7532300000489
 21
700.24417483665377
 31
0.0
  0
LINE
  5
7E5A
  8
3
  6
CONTINUOUS
 62
     0
 10
1630.7532300000501
 20
791.84426883665401
 30
0.0
 11
1630.7532300000501
 21
700.24417483665377
 31
0.0
  0
LINE
  5
7E5B
  8
3
  6
CONTINUOUS
 62
     0
 10
1400.7532300000489
 20
710.24417483665388
 30
0.0
 11
1610.7532300000489
 21
710.24417483665388
 31
0.0
  0
INSERT
  5
7E5C
  8
3
  6
CONTINUOUS
 62
     0
  2
_OPEN
 10
1380.7532300000489
 20
710.24417483665388
 30
0.0
 41
20.0
 42
20.0
 43
20.0
 50
180.0
  0
INSERT
  5
7E5D
  8
3
  6
CONTINUOUS
 62
     0
  2
_OPEN
 10
1630.7532300000501
 20
710.24417483665388
 30
0.0
 41
20.0
 42
20.0
 43
20.0
  0
TEXT
  8
3
  40
30
  5
7EAC
  62
0
  72
0
  71
0
 10
1450.25
 20
682.144
 30
0.000000
  1
250
  0
POINT
  5
7E5F
  8
DEFPOINTS
  6
CONTINUOUS
 62
     0
 10
1380.7532300000489
 20
796.84426883665401
 30
0.0
  0
POINT
  5
7E60
  8
DEFPOINTS
  6
CONTINUOUS
 62
     0
 10
1630.7532300000501
 20
796.84426883665401
 30
0.0
  0
POINT
  5
7E61
  8
DEFPOINTS
  6
CONTINUOUS
 62
     0
 10
1630.7532300000501
 20
710.24417483665388
 30
0.0
  0
ENDBLK
  5
7BF8
  8
0
  0
BLOCK
  8
0
  2
*D12
 70
     1
 10
0.0
 20
0.0
 30
0.0
  3
*D12
  1

  0
LINE
  5
7E62
  8
3
  6
CONTINUOUS
 62
     0
 10
1548.953230000049
 20
1368.844268836654
 30
0.0
 11
1548.953230000049
 21
1413.651914836654
 31
0.0
  0
LINE
  5
7E63
  8
3
  6
CONTINUOUS
 62
     0
 10
1728.5532300000491
 20
1368.844268836654
 30
0.0
 11
1728.5532300000491
 21
1413.651914836654
 31
0.0
  0
LINE
  5
7E64
  8
3
  6
CONTINUOUS
 62
     0
 10
1568.953230000049
 20
1403.6519148366531
 30
0.0
 11
1708.5532300000491
 21
1403.6519148366531
 31
0.0
  0
INSERT
  5
7E65
  8
3
  6
CONTINUOUS
 62
     0
  2
_OPEN
 10
1548.953230000049
 20
1403.6519148366531
 30
0.0
 41
20.0
 42
20.0
 43
20.0
 50
180.0
  0
INSERT
  5
7E66
  8
3
  6
CONTINUOUS
 62
     0
  2
_OPEN
 10
1728.5532300000491
 20
1403.6519148366531
 30
0.0
 41
20.0
 42
20.0
 43
20.0
  0
TEXT
  8
3
  40
30
  5
7EAD
  62
0
  72
0
  71
0
 10
1568.84
 20
1375.55
 30
0.000000
  1
180
  0
POINT
  5
7E68
  8
DEFPOINTS
  6
CONTINUOUS
 62
     0
 10
1548.953230000049
 20
1363.844268836654
 30
0.0
  0
POINT
  5
7E69
  8
DEFPOINTS
  6
CONTINUOUS
 62
     0
 10
1728.5532300000491
 20
1363.844268836654
 30
0.0
  0
POINT
  5
7E6A
  8
DEFPOINTS
  6
CONTINUOUS
 62
     0
 10
1728.5532300000491
 20
1403.6519148366531
 30
0.0
  0
ENDBLK
  5
7C05
  8
0
  0
BLOCK
  8
0
  2
*D13
 70
     1
 10
0.0
 20
0.0
 30
0.0
  3
*D13
  1

  0
LINE
  5
7E6B
  8
3
  6
CONTINUOUS
 62
     0
 10
1298.7532300000489
 20
1293.844268836654
 30
0.0
 11
1298.7532300000489
 21
1492.0101388366529
 31
0.0
  0
LINE
  5
7E6C
  8
3
  6
CONTINUOUS
 62
     0
 10
1638.7532300000489
 20
1457.0970758366541
 30
0.0
 11
1638.7532300000489
 21
1492.0101388366529
 31
0.0
  0
LINE
  5
7E6D
  8
3
  6
CONTINUOUS
 62
     0
 10
1318.7532300000489
 20
1482.0101388366541
 30
0.0
 11
1618.7532300000501
 21
1482.0101388366541
 31
0.0
  0
INSERT
  5
7E6E
  8
3
  6
CONTINUOUS
 62
     0
  2
_OPEN
 10
1298.7532300000489
 20
1482.0101388366541
 30
0.0
 41
20.0
 42
20.0
 43
20.0
 50
180.0
  0
INSERT
  5
7E6F
  8
3
  6
CONTINUOUS
 62
     0
  2
_OPEN
 10
1638.7532300000489
 20
1482.0101388366541
 30
0.0
 41
20.0
 42
20.0
 43
20.0
  0
TEXT
  8
3
  40
30
  5
7EAE
  62
0
  72
0
  71
0
 10
1413.38
 20
1478.91
 30
0.000000
  1
MAX
  0
TEXT
  8
3
  40
30
  5
7EAF
  62
0
  72
0
  71
0
 10
1413.38
 20
1439.91
 30
0.000000
  1
340
  0
POINT
  5
7E71
  8
DEFPOINTS
  6
CONTINUOUS
 62
     0
 10
1298.7532300000489
 20
1288.844268836654
 30
0.0
  0
POINT
  5
7E72
  8
DEFPOINTS
  6
CONTINUOUS
 62
     0
 10
1638.7532300000489
 20
1452.0970758366541
 30
0.0
  0
POINT
  5
7E73
  8
DEFPOINTS
  6
CONTINUOUS
 62
     0
 10
1638.7532300000489
 20
1482.0101388366541
 30
0.0
  0
ENDBLK
  5
7CC5
  8
0
  0
BLOCK
  8
0
  2
*D14
 70
     1
 10
0.0
 20
0.0
 30
0.0
  3
*D14
  1

  0
LINE
  5
7E74
  8
3
  6
CONTINUOUS
 62
     0
 10
1737.7532300000489
 20
1315.844268836654
 30
0.0
 11
1737.7532300000489
 21
1492.0101388366529
 31
0.0
  0
LINE
  5
7E75
  8
3
  6
CONTINUOUS
 62
     0
 10
1658.7532300000489
 20
1482.0101388366541
 30
0.0
 11
1717.7532300000501
 21
1482.0101388366541
 31
0.0
  0
TEXT
  8
3
  40
30
  5
7EB0
  62
0
  72
0
  71
0
 10
1625.70
 20
1453.91
 30
0.000000
  1
99
  0
INSERT
  5
7E77
  8
3
  6
CONTINUOUS
 62
     0
  2
_OPEN
 10
1638.7532300000489
 20
1482.0101388366541
 30
0.0
 41
20.0
 42
20.0
 43
20.0
 50
180.0
  0
INSERT
  5
7E78
  8
3
  6
CONTINUOUS
 62
     0
  2
_OPEN
 10
1737.7532300000489
 20
1482.0101388366541
 30
0.0
 41
20.0
 42
20.0
 43
20.0
  0
POINT
  5
7E79
  8
DEFPOINTS
  6
CONTINUOUS
 62
     0
 10
1638.7532300000489
 20
1452.0970758366541
 30
0.0
  0
POINT
  5
7E7A
  8
DEFPOINTS
  6
CONTINUOUS
 62
     0
 10
1737.7532300000489
 20
1310.844268836654
 30
0.0
  0
POINT
  5
7E7B
  8
DEFPOINTS
  6
CONTINUOUS
 62
     0
 10
1737.7532300000489
 20
1482.0101388366541
 30
0.0
  0
ENDBLK
  5
7C6F
  8
0
  0
BLOCK
  8
0
  2
*D15
 70
     1
 10
0.0
 20
0.0
 30
0.0
  3
*D15
  1

  0
LINE
  5
7E7C
  8
3
  6
CONTINUOUS
 62
     0
 10
1742.7532300000501
 20
1288.844268836654
 30
0.0
 11
1819.778985000049
 21
1288.844268836654
 31
0.0
  0
LINE
  5
7E7D
  8
3
  6
CONTINUOUS
 62
     0
 10
1742.7532300000501
 20
1038.844268836654
 30
0.0
 11
1819.778985000049
 21
1038.844268836654
 31
0.0
  0
LINE
  5
7E7E
  8
3
  6
CONTINUOUS
 62
     0
 10
1809.7789850000499
 20
1268.844268836654
 30
0.0
 11
1809.7789850000499
 21
1058.8442688366531
 31
0.0
  0
INSERT
  5
7E7F
  8
3
  6
CONTINUOUS
 62
     0
  2
_OPEN
 10
1809.7789850000499
 20
1288.844268836654
 30
0.0
 41
20.0
 42
20.0
 43
20.0
 50
90.0
  0
INSERT
  5
7E80
  8
3
  6
CONTINUOUS
 62
     0
  2
_OPEN
 10
1809.7789850000499
 20
1038.844268836654
 30
0.0
 41
20.0
 42
20.0
 43
20.0
 50
270.0
  0
TEXT
  8
3
  40
30
  5
7EB1
  62
0
  72
0
  71
0
 10
1724.78
 20
1111.65
 30
0.000000
  1
φ250
  0
POINT
  5
7E82
  8
DEFPOINTS
  6
CONTINUOUS
 62
     0
 10
1737.7532300000489
 20
1288.844268836654
 30
0.0
  0
POINT
  5
7E83
  8
DEFPOINTS
  6
CONTINUOUS
 62
     0
 10
1737.7532300000489
 20
1038.844268836654
 30
0.0
  0
POINT
  5
7E84
  8
DEFPOINTS
  6
CONTINUOUS
 62
     0
 10
1809.7789850000499
 20
1038.844268836654
 30
0.0
  0
ENDBLK
  5
7CBA
  8
0
  0
BLOCK
  8
0
  2
*D16
 70
     1
 10
0.0
 20
0.0
 30
0.0
  3
*D16
  1

  0
LINE
  5
7E85
  8
3
 62
     0
 10
1630.7532300000501
 20
791.84426883665401
 30
0.0
 11
1630.7532300000501
 21
700.24417483665377
 31
0.0
  0
LINE
  5
7E86
  8
3
 62
     0
 10
1638.7532300000489
 20
792.94020583665394
 30
0.0
 11
1638.7532300000489
 21
700.24417483665377
 31
0.0
  0
LINE
  5
7E87
  8
3
 62
     0
 10
1610.7532300000489
 20
710.24417483665388
 30
0.0
 11
1590.7532300000489
 21
710.24417483665388
 31
0.0
  0
LINE
  5
7E88
  8
3
 62
     0
 10
1658.7532300000489
 20
710.24417483665388
 30
0.0
 11
1718.7532300000489
 21
710.24417483665388
 31
0.0
  0
LINE
  5
7E89
  8
3
 62
     0
 10
1630.7532300000501
 20
710.24417483665388
 30
0.0
 11
1638.7532300000489
 21
710.24417483665388
 31
0.0
  0
INSERT
  5
7E8A
  8
3
 62
     0
  2
_OPEN
 10
1630.7532300000501
 20
710.24417483665388
 30
0.0
 41
20.0
 42
20.0
 43
20.0
  0
INSERT
  5
7E8B
  8
3
 62
     0
  2
_OPEN
 10
1638.7532300000489
 20
710.24417483665388
 30
0.0
 41
20.0
 42
20.0
 43
20.0
 50
180.0
  0
TEXT
  8
3
  40
30
  5
7EB2
  62
0
  72
0
  71
0
 10
1638.75
 20
682.144
 30
0.000000
  1
8
  0
POINT
  5
7E8D
  8
DEFPOINTS
 62
     0
 10
1630.7532300000501
 20
796.84426883665401
 30
0.0
  0
POINT
  5
7E8E
  8
DEFPOINTS
 62
     0
 10
1638.7532300000489
 20
797.94020583665394
 30
0.0
  0
POINT
  5
7E8F
  8
DEFPOINTS
 62
     0
 10
1638.7532300000489
 20
710.24417483665388
 30
0.0
  0
ENDBLK
  5
7CAF
  8
0
  0
BLOCK
  8
0
  2
*D17
 70
     1
 10
0.0
 20
0.0
 30
0.0
  3
*D17
  1

  0
LINE
  5
7E90
  8
3
 62
     0
 10
1008.3718872219559
 20
1173.8442688366531
 30
0.0
 11
1008.3718872219559
 21
1549.122284794593
 31
0.0
  0
LINE
  5
7E91
  8
3
 62
     0
 10
272.38250322195648
 20
831.8442688366539
 30
0.0
 11
272.38250322195648
 21
1549.122284794593
 31
0.0
  0
LINE
  5
7E92
  8
3
 62
     0
 10
988.37188722195651
 20
1539.122284794594
 30
0.0
 11
292.3825032219566
 21
1539.122284794594
 31
0.0
  0
INSERT
  5
7E93
  8
3
 62
     0
  2
_OPEN
 10
1008.3718872219559
 20
1539.122284794594
 30
0.0
 41
20.0
 42
20.0
 43
20.0
  0
INSERT
  5
7E94
  8
3
 62
     0
  2
_OPEN
 10
272.38250322195648
 20
1539.122284794594
 30
0.0
 41
20.0
 42
20.0
 43
20.0
 50
180.0
  0
TEXT
  8
3
  40
30
  5
7EB3
  62
0
  72
0
  71
0
 10
630.954
 20
1511.02
 30
0.000000
  1
736
  0
POINT
  5
7E96
  8
DEFPOINTS
 62
     0
 10
1008.3718872219559
 20
1168.844268836654
 30
0.0
  0
POINT
  5
7E97
  8
DEFPOINTS
 62
     0
 10
272.38250322195648
 20
826.84426883665401
 30
0.0
  0
POINT
  5
7E98
  8
DEFPOINTS
 62
     0
 10
272.38250322195648
 20
1539.122284794594
 30
0.0
  0
ENDBLK
  5
7CDE
  8
0
  0
BLOCK
  8
0
  2
*D18
 70
     1
 10
0.0
 20
0.0
 30
0.0
  3
*D18
  1

  0
LINE
  5
7E99
  8
3
 62
     0
 10
267.38250322195648
 20
2089.9162027294878
 30
0.0
 11
211.40589271620991
 21
2089.9162027294878
 31
0.0
  0
LINE
  5
7E9A
  8
3
 62
     0
 10
267.38250322195648
 20
1839.9162027294881
 30
0.0
 11
211.40589271620979
 21
1839.9162027294881
 31
0.0
  0
LINE
  5
7E9B
  8
3
 62
     0
 10
221.40589271620991
 20
2069.9162027294878
 30
0.0
 11
221.40589271620979
 21
1859.9162027294881
 31
0.0
  0
INSERT
  5
7E9C
  8
3
 62
     0
  2
_OPEN
 10
221.40589271620991
 20
2089.9162027294878
 30
0.0
 41
20.0
 42
20.0
 43
20.0
 50
90.0
  0
INSERT
  5
7E9D
  8
3
 62
     0
  2
_OPEN
 10
221.40589271620979
 20
1839.9162027294881
 30
0.0
 41
20.0
 42
20.0
 43
20.0
 50
270.0
  0
TEXT
  8
3
  40
30
  5
7EB4
  62
0
  72
0
  71
0
 10
136.406
 20
1914.70
 30
0.000000
  1
250
  0
POINT
  5
7E9F
  8
DEFPOINTS
 62
     0
 10
272.38250322195648
 20
2089.9162027294878
 30
0.0
  0
POINT
  5
7EA0
  8
DEFPOINTS
 62
     0
 10
272.38250322195648
 20
1839.9162027294881
 30
0.0
  0
POINT
  5
7EA1
  8
DEFPOINTS
 62
     0
 10
221.40589271620979
 20
1839.9162027294881
 30
0.0
  0
ENDBLK
  5
7CEB
  8
0
  0
ENDSEC
  0
SECTION
  2
ENTITIES
  0
LINE
  5
7A8D
  8
1
  6
CONTINUOUS
 10
1353.7532300000489
 20
1008.344268836654
 30
0.0
 11
1410.7532300000489
 21
1008.344268836654
 31
0.0
  0
LINE
  5
7A8E
  8
1
  6
CONTINUOUS
 10
1353.7532300000489
 20
984.34426883665401
 30
0.0
 11
1410.7532300000489
 21
984.34426883665401
 31
0.0
  0
LINE
  5
7A8F
  8
1
  6
CONTINUOUS
 10
1353.7532300000489
 20
1151.844268836654
 30
0.0
 11
1443.153230000049
 21
1151.844268836654
 31
0.0
  0
LINE
  5
7A90
  8
1
  6
CONTINUOUS
 10
1353.7532300000489
 20
1175.844268836654
 30
0.0
 11
1472.8532300000491
 21
1175.844268836654
 31
0.0
  0
LINE
  5
7A91
  8
1
  6
CONTINUOUS
 10
1298.7532300000489
 20
908.8442688366539
 30
0.0
 11
1630.7532300000501
 21
908.8442688366539
 31
0.0
  0
LINE
  5
7A92
  8
1
  6
CONTINUOUS
 10
272.38250322195648
 20
826.84426883665401
 30
0.0
 11
1042.3825032219561
 21
826.84426883665401
 31
0.0
  0
LINE
  5
7A93
  8
1
  6
CONTINUOUS
 10
272.38250322195648
 20
796.84426883665401
 30
0.0
 11
1042.3825032219561
 21
796.84426883665401
 31
0.0
  0
LINE
  5
7A94
  8
1
  6
CONTINUOUS
 10
302.38250322195648
 20
848.8442688366539
 30
0.0
 11
1012.382503221956
 21
848.8442688366539
 31
0.0
  0
LINE
  5
7A95
  8
2
  6
CENTER
 10
406.78250322195652
 20
996.3442688366539
 30
0.0
 11
512.78250322195663
 21
996.3442688366539
 31
0.0
  0
LINE
  5
7A96
  8
1
  6
CONTINUOUS
 10
436.28250322195652
 20
1043.844268836654
 30
0.0
 11
794.28250322195663
 21
1220.7442688366541
 31
0.0
  0
LINE
  5
7A97
  8
1
  6
CONTINUOUS
 10
480.68250322195661
 20
947.64426883665385
 30
0.0
 11
847.48250322195656
 21
1105.5442688366541
 31
0.0
  0
CIRCLE
  5
7A98
  8
1
  6
CONTINUOUS
 10
459.78250322195652
 20
996.3442688366539
 30
0.0
 40
53.0
  0
LINE
  5
7A99
  8
1
  6
CONTINUOUS
 10
822.58250322195659
 20
1288.844268836654
 30
0.0
 11
367.38250322195648
 21
1088.8442688366531
 31
0.0
  0
LINE
  5
7A9A
  8
1
  6
CONTINUOUS
 10
557.08250322195647
 20
928.84426883665401
 30
0.0
 11
302.38250322195648
 21
928.84426883665401
 31
0.0
  0
ARC
  5
7A9B
  8
1
  6
CONTINUOUS
 10
459.78250322195652
 20
996.3442688366539
 30
0.0
 40
75.799999999999997
 50
322.89999999999992
 51
217.09999999999991
  0
LINE
  5
7A9C
  8
1
  6
CONTINUOUS
 10
302.38250322195648
 20
908.8442688366539
 30
0.0
 11
1012.382503221956
 21
908.8442688366539
 31
0.0
  0
LINE
  5
7A9D
  8
1
  6
CONTINUOUS
 10
367.38250322195648
 20
908.8442688366539
 30
0.0
 11
367.38250322195648
 21
1088.8442688366531
 31
0.0
  0
LINE
  5
7A9E
  8
1
  6
CONTINUOUS
 10
272.38250322195648
 20
826.84426883665401
 30
0.0
 11
272.38250322195648
 21
796.84426883665401
 31
0.0
  0
LINE
  5
7A9F
  8
1
  6
CONTINUOUS
 10
302.38250322195648
 20
908.8442688366539
 30
0.0
 11
302.38250322195648
 21
848.8442688366539
 31
0.0
  0
LINE
  5
7AA0
  8
1
  6
CONTINUOUS
 10
302.38250322195648
 20
928.84426883665401
 30
0.0
 11
302.38250322195648
 21
908.8442688366539
 31
0.0
  0
LINE
  5
7AA1
  8
2
  6
CENTER
 10
459.78250322195652
 20
943.34426883665401
 30
0.0
 11
459.78250322195652
 21
1049.344268836654
 31
0.0
  0
LINE
  5
7AA2
  8
1
  6
CONTINUOUS
 10
393.78250322195652
 20
936.3442688366539
 30
0.0
 11
399.28250322195652
 21
950.64426883665396
 31
0.0
  0
LINE
  5
7AA3
  8
1
  6
CONTINUOUS
 10
393.78250322195652
 20
928.84426883665401
 30
0.0
 11
393.78250322195652
 21
936.3442688366539
 31
0.0
  0
CIRCLE
  5
7AA4
  8
1
  6
CONTINUOUS
 10
822.38250322195654
 20
1163.844268836654
 30
0.0
 40
125.0
  0
CIRCLE
  5
7AA5
  8
1
  6
CONTINUOUS
 10
822.38250322195654
 20
1163.844268836654
 30
0.0
 40
145.0
  0
ARC
  5
7AA6
  8
1
  6
CONTINUOUS
 10
836.38250322195654
 20
1149.8442688366531
 30
0.0
 40
172.59999999999991
 50
5.5
 51
91.299999999999997
  0
ARC
  5
7AA7
  8
1
  6
CONTINUOUS
 10
805.38250322195654
 20
1146.844268836654
 30
0.0
 40
203.6999999999999
 50
274.60000000000002
 51
5.5
  0
LINE
  5
7AA8
  8
1
  6
CONTINUOUS
 10
982.38250322195654
 20
1130.5442688366541
 30
0.0
 11
662.38250322195654
 21
1130.5442688366541
 31
0.0
  0
LINE
  5
7AA9
  8
1
  6
CONTINUOUS
 10
883.98250322195645
 20
1313.844268836654
 30
0.0
 11
982.38250322195654
 21
1229.944268836653
 31
0.0
  0
LINE
  5
7AAA
  8
1
  6
CONTINUOUS
 10
662.38250322195654
 20
848.8442688366539
 30
0.0
 11
982.38250322195654
 21
848.8442688366539
 31
0.0
  0
LINE
  5
7AAB
  8
1
  6
CONTINUOUS
 10
947.38250322195654
 20
1218.844268836654
 30
0.0
 11
822.58250322195659
 21
1288.844268836654
 31
0.0
  0
ARC
  5
7AAC
  8
1
  6
CONTINUOUS
 10
802.38250322195665
 20
1183.8442688366531
 30
0.0
 40
240.90000000000001
 50
184.90000000000001
 51
274.60000000000002
  0
LINE
  5
7AAD
  8
1
  6
CONTINUOUS
 10
662.38250322195654
 20
1229.944268836653
 30
0.0
 11
662.38250322195654
 21
908.8442688366539
 31
0.0
  0
LINE
  5
7AAE
  8
1
  6
CONTINUOUS
 10
557.08250322195647
 20
908.8442688366539
 30
0.0
 11
557.08250322195647
 21
928.84426883665401
 31
0.0
  0
LINE
  5
7AAF
  8
1
  6
CONTINUOUS
 10
525.78250322195663
 20
928.84426883665401
 30
0.0
 11
525.78250322195663
 21
936.3442688366539
 31
0.0
  0
LINE
  5
7AB0
  8
1
  6
CONTINUOUS
 10
525.78250322195663
 20
936.3442688366539
 30
0.0
 11
520.18250322195661
 21
950.64426883665396
 31
0.0
  0
LINE
  5
7AB1
  8
1
  6
CONTINUOUS
 10
592.38250322195654
 20
1343.844268836654
 30
0.0
 11
802.38250322195665
 21
1343.844268836654
 31
0.0
  0
LINE
  5
7AB2
  8
1
  6
CONTINUOUS
 10
843.38250322195665
 20
1363.844268836654
 30
0.0
 11
551.38250322195654
 21
1363.844268836654
 31
0.0
  0
LINE
  5
7AB3
  8
1
  6
CONTINUOUS
 10
760.78250322195663
 20
1313.844268836654
 30
0.0
 11
662.38250322195654
 21
1229.944268836653
 31
0.0
  0
LINE
  5
7AB4
  8
1
  6
CONTINUOUS
 10
572.38250322195654
 20
1363.844268836654
 30
0.0
 11
592.38250322195654
 21
1343.844268836654
 31
0.0
  0
LINE
  5
7AB5
  8
1
  6
CONTINUOUS
 10
562.38250322195654
 20
1343.844268836654
 30
0.0
 11
562.38250322195654
 21
1163.444268836653
 31
0.0
  0
LINE
  5
7AB6
  8
1
  6
CONTINUOUS
 10
572.38250322195654
 20
1363.844268836654
 30
0.0
 11
572.38250322195654
 21
1343.844268836654
 31
0.0
  0
LINE
  5
7AB7
  8
1
  6
CONTINUOUS
 10
562.38250322195654
 20
1343.844268836654
 30
0.0
 11
572.38250322195654
 21
1343.844268836654
 31
0.0
  0
LINE
  5
7AB8
  8
1
  6
CONTINUOUS
 10
822.38250322195654
 20
1363.844268836654
 30
0.0
 11
802.38250322195665
 21
1343.844268836654
 31
0.0
  0
LINE
  5
7AB9
  8
2
  6
CENTER
 10
445.20509422195659
 20
1163.844268836654
 30
0.0
 11
1038.128221221956
 21
1163.844268836654
 31
0.0
  0
LINE
  5
7ABA
  8
1
  6
CONTINUOUS
 10
883.98250322195645
 20
1313.844268836654
 30
0.0
 11
760.78250322195663
 21
1313.844268836654
 31
0.0
  0
CIRCLE
  5
7ABB
  8
1
  6
CONTINUOUS
 10
822.38250322195654
 20
1163.844268836654
 30
0.0
 40
63.5
  0
LINE
  5
7ABC
  8
1
  6
CONTINUOUS
 10
832.38250322195654
 20
1343.844268836654
 30
0.0
 11
832.38250322195654
 21
1322.4442688366539
 31
0.0
  0
LINE
  5
7ABD
  8
2
  6
CENTER
 10
801.55557399999987
 20
2230.8142467294879
 30
0.0
 11
801.55557399999987
 21
1722.779197729488
 31
0.0
  0
LINE
  5
7ABE
  8
1
  6
CONTINUOUS
 10
822.38250322195654
 20
1363.844268836654
 30
0.0
 11
822.38250322195654
 21
1343.844268836654
 31
0.0
  0
LINE
  5
7ABF
  8
1
  6
CONTINUOUS
 10
822.38250322195654
 20
1343.844268836654
 30
0.0
 11
832.38250322195654
 21
1343.844268836654
 31
0.0
  0
LINE
  5
7AC0
  8
1
  6
CONTINUOUS
 10
982.38250322195654
 20
908.8442688366539
 30
0.0
 11
982.38250322195654
 21
1229.944268836653
 31
0.0
  0
LINE
  5
7AC1
  8
1
  6
CONTINUOUS
 10
1373.7532300000489
 20
908.8442688366539
 30
0.0
 11
1373.7532300000489
 21
1288.844268836654
 31
0.0
  0
LINE
  5
7AC2
  8
1
  6
CONTINUOUS
 10
1298.7532300000489
 20
908.8442688366539
 30
0.0
 11
1298.7532300000489
 21
1288.844268836654
 31
0.0
  0
LINE
  5
7AC3
  8
1
  6
CONTINUOUS
 10
947.38250322195654
 20
908.8442688366539
 30
0.0
 11
947.38250322195654
 21
1218.844268836654
 31
0.0
  0
LINE
  5
7AC4
  8
1
  6
CONTINUOUS
 10
1012.382503221956
 20
908.8442688366539
 30
0.0
 11
1012.382503221956
 21
848.8442688366539
 31
0.0
  0
LINE
  5
7AC5
  8
1
  6
CONTINUOUS
 10
1042.3825032219561
 20
826.84426883665401
 30
0.0
 11
1042.3825032219561
 21
796.84426883665401
 31
0.0
  0
LINE
  5
7AC9
  8
1
  6
CONTINUOUS
 10
1353.7532300000489
 20
1049.344268836654
 30
0.0
 11
1353.7532300000489
 21
943.34426883665401
 31
0.0
  0
LINE
  5
7ACA
  8
1
  6
CONTINUOUS
 10
1318.7532300000489
 20
943.34426883665401
 30
0.0
 11
1353.7532300000489
 21
943.34426883665401
 31
0.0
  0
LINE
  5
7ACB
  8
1
  6
CONTINUOUS
 10
1318.7532300000489
 20
1049.344268836654
 30
0.0
 11
1318.7532300000489
 21
943.34426883665401
 31
0.0
  0
LINE
  5
7ACC
  8
1
  6
CONTINUOUS
 10
1318.7532300000489
 20
1049.344268836654
 30
0.0
 11
1353.7532300000489
 21
1049.344268836654
 31
0.0
  0
LINE
  5
7ACD
  8
1
  6
CONTINUOUS
 10
1353.7532300000489
 20
1227.344268836654
 30
0.0
 11
1353.7532300000489
 21
1100.344268836654
 31
0.0
  0
LINE
  5
7ACE
  8
1
  6
CONTINUOUS
 10
1318.7532300000489
 20
1100.344268836654
 30
0.0
 11
1353.7532300000489
 21
1100.344268836654
 31
0.0
  0
LINE
  5
7ACF
  8
1
  6
CONTINUOUS
 10
1318.7532300000489
 20
1227.344268836654
 30
0.0
 11
1353.7532300000489
 21
1227.344268836654
 31
0.0
  0
LINE
  5
7AD0
  8
1
  6
CONTINUOUS
 10
1318.7532300000489
 20
1227.344268836654
 30
0.0
 11
1318.7532300000489
 21
1100.344268836654
 31
0.0
  0
LINE
  5
7AD1
  8
1
  6
CONTINUOUS
 10
1298.7532300000489
 20
1288.844268836654
 30
0.0
 11
1373.7532300000489
 21
1288.844268836654
 31
0.0
  0
LINE
  5
7AD2
  8
1
  6
CONTINUOUS
 10
571.38250322195654
 20
2089.9162027294878
 30
0.0
 11
272.38250322195648
 21
2089.9162027294878
 31
0.0
  0
LINE
  5
7AD3
  8
1
  6
CONTINUOUS
 10
512.78250322195663
 20
1777.9162027294881
 30
0.0
 11
406.78250322195652
 21
1777.9162027294881
 31
0.0
  0
LINE
  5
7AD4
  8
1
  6
CONTINUOUS
 10
512.78250322195663
 20
1812.9162027294881
 30
0.0
 11
406.78250322195652
 21
1812.9162027294881
 31
0.0
  0
LINE
  5
7AD5
  8
1
  6
CONTINUOUS
 10
947.38250322195654
 20
1832.9162027294881
 30
0.0
 11
367.38250322195648
 21
1832.9162027294881
 31
0.0
  0
LINE
  5
7AD6
  8
1
  6
CONTINUOUS
 10
947.38250322195654
 20
1757.9162027294881
 30
0.0
 11
367.38250322195648
 21
1757.9162027294881
 31
0.0
  0
LINE
  5
7AD7
  8
1
  6
CONTINUOUS
 10
536.38250322195654
 20
2068.216202729488
 30
0.0
 11
384.88250322195648
 21
2068.216202729488
 31
0.0
  0
LINE
  5
7AD8
  8
1
  6
CONTINUOUS
 10
536.38250322195654
 20
1864.216202729488
 30
0.0
 11
384.88250322195648
 21
1864.216202729488
 31
0.0
  0
LINE
  5
7AD9
  8
1
  6
CONTINUOUS
 10
810.38250322195665
 20
1839.9162027294881
 30
0.0
 11
471.78250322195657
 21
1839.9162027294881
 31
0.0
  0
LINE
  5
7ADA
  8
1
  6
CONTINUOUS
 10
272.38250322195648
 20
2089.9162027294878
 30
0.0
 11
272.38250322195648
 21
1839.9162027294881
 31
0.0
  0
LINE
  5
7ADB
  8
1
  6
CONTINUOUS
 10
367.38250322195648
 20
1757.9162027294881
 30
0.0
 11
367.38250322195648
 21
1832.9162027294881
 31
0.0
  0
LINE
  5
7ADC
  8
1
  6
CONTINUOUS
 10
447.68250322195661
 20
1839.9162027294881
 30
0.0
 11
272.38250322195648
 21
1839.9162027294881
 31
0.0
  0
LINE
  5
7ADD
  8
1
  6
CONTINUOUS
 10
406.78250322195652
 20
1777.9162027294881
 30
0.0
 11
406.78250322195652
 21
1812.9162027294881
 31
0.0
  0
LINE
  5
7ADE
  8
1
  6
CONTINUOUS
 10
447.78250322195652
 20
1812.9162027294881
 30
0.0
 11
447.68250322195661
 21
1864.216202729488
 31
0.0
  0
LINE
  5
7ADF
  8
1
  6
CONTINUOUS
 10
471.68250322195661
 20
1812.9162027294881
 30
0.0
 11
471.78250322195657
 21
1864.216202729488
 31
0.0
  0
LINE
  5
7AE0
  8
1
  6
CONTINUOUS
 10
384.88250322195648
 20
1864.216202729488
 30
0.0
 11
384.88250322195648
 21
2068.216202729488
 31
0.0
  0
LINE
  5
7AE1
  8
1
  6
CONTINUOUS
 10
1021.2825032219559
 20
2007.9162027294881
 30
0.0
 11
571.38250322195654
 21
2007.9162027294881
 31
0.0
  0
LINE
  5
7AE2
  8
1
  6
CONTINUOUS
 10
571.38250322195654
 20
2187.9162027294878
 30
0.0
 11
1021.2825032219559
 21
2187.9162027294878
 31
0.0
  0
LINE
  5
7AE3
  8
1
  6
CONTINUOUS
 10
675.38250322195654
 20
2196.9162027294878
 30
0.0
 11
969.38250322195665
 21
2196.9162027294878
 31
0.0
  0
LINE
  5
7AE4
  8
1
  6
CONTINUOUS
 10
662.38250322195654
 20
1998.9162027294881
 30
0.0
 11
982.38250322195654
 21
1998.9162027294881
 31
0.0
  0
LINE
  5
7AE5
  8
1
  6
CONTINUOUS
 10
1042.3825032219561
 20
1839.9162027294881
 30
0.0
 11
834.38250322195665
 21
1839.9162027294881
 31
0.0
  0
LINE
  5
7AE6
  8
1
  6
CONTINUOUS
 10
982.38250322195654
 20
1869.9162027294881
 30
0.0
 11
834.38250322195665
 21
1869.9162027294881
 31
0.0
  0
LINE
  5
7AE7
  8
1
  6
CONTINUOUS
 10
571.38250322195654
 20
2187.9162027294878
 30
0.0
 11
823.38250322195654
 21
2007.9162027294881
 31
0.0
  0
LINE
  5
7AE8
  8
1
  6
CONTINUOUS
 10
823.38250322195654
 20
2187.9162027294878
 30
0.0
 11
571.38250322195654
 21
2007.9162027294881
 31
0.0
  0
LINE
  5
7AE9
  8
1
  6
CONTINUOUS
 10
823.38250322195654
 20
2187.9162027294878
 30
0.0
 11
823.38250322195654
 21
2007.9162027294881
 31
0.0
  0
LINE
  5
7AEA
  8
1
  6
CONTINUOUS
 10
571.38250322195654
 20
2007.9162027294881
 30
0.0
 11
571.38250322195654
 21
2187.9162027294878
 31
0.0
  0
LINE
  5
7AEB
  8
1
  6
CONTINUOUS
 10
810.38250322195665
 20
1869.9162027294881
 30
0.0
 11
662.38250322195654
 21
1869.9162027294881
 31
0.0
  0
LINE
  5
7AEC
  8
1
  6
CONTINUOUS
 10
512.78250322195663
 20
1777.9162027294881
 30
0.0
 11
512.78250322195663
 21
1812.9162027294881
 31
0.0
  0
LINE
  5
7AED
  8
1
  6
CONTINUOUS
 10
536.38250322195654
 20
1864.216202729488
 30
0.0
 11
536.38250322195654
 21
2068.216202729488
 31
0.0
  0
LINE
  5
7AEE
  8
1
  6
CONTINUOUS
 10
675.38250322195654
 20
2007.9162027294881
 30
0.0
 11
675.38250322195654
 21
1998.9162027294881
 31
0.0
  0
LINE
  5
7AEF
  8
1
  6
CONTINUOUS
 10
662.38250322195654
 20
1998.9162027294881
 30
0.0
 11
662.38250322195654
 21
1869.9162027294881
 31
0.0
  0
LINE
  5
7AF0
  8
1
  6
CONTINUOUS
 10
885.88250322195654
 20
1777.9162027294881
 30
0.0
 11
758.88250322195654
 21
1777.9162027294881
 31
0.0
  0
LINE
  5
7AF1
  8
1
  6
CONTINUOUS
 10
885.88250322195654
 20
1812.9162027294881
 30
0.0
 11
758.88250322195654
 21
1812.9162027294881
 31
0.0
  0
LINE
  5
7AF2
  8
1
  6
CONTINUOUS
 10
810.38250322195665
 20
1812.9162027294881
 30
0.0
 11
810.38250322195665
 21
1998.9162027294881
 31
0.0
  0
LINE
  5
7AF3
  8
1
  6
CONTINUOUS
 10
758.88250322195654
 20
1777.9162027294881
 30
0.0
 11
758.88250322195654
 21
1812.9162027294881
 31
0.0
  0
LINE
  5
7AF4
  8
1
  6
CONTINUOUS
 10
834.38250322195665
 20
1812.9162027294881
 30
0.0
 11
834.38250322195665
 21
1998.9162027294881
 31
0.0
  0
LINE
  5
7AF5
  8
1
  6
CONTINUOUS
 10
885.88250322195654
 20
1777.9162027294881
 30
0.0
 11
885.88250322195654
 21
1812.9162027294881
 31
0.0
  0
LINE
  5
7AF6
  8
1
  6
CONTINUOUS
 10
675.38250322195654
 20
2187.9162027294878
 30
0.0
 11
675.38250322195654
 21
2196.9162027294878
 31
0.0
  0
LINE
  5
7AF7
  8
1
  6
CONTINUOUS
 10
1033.2825032219559
 20
2175.9162027294878
 30
0.0
 11
1033.2825032219559
 21
2019.9162027294881
 31
0.0
  0
LINE
  5
7AF8
  8
1
  6
CONTINUOUS
 10
1042.3825032219561
 20
2089.9162027294878
 30
0.0
 11
1042.3825032219561
 21
1839.9162027294881
 31
0.0
  0
LINE
  5
7AF9
  8
1
  6
CONTINUOUS
 10
947.38250322195654
 20
1757.9162027294881
 30
0.0
 11
947.38250322195654
 21
1832.9162027294881
 31
0.0
  0
ARC
  5
7AFA
  8
1
  6
CONTINUOUS
 10
1021.2825032219559
 20
2019.9162027294881
 30
0.0
 40
12.0
 50
270.0
 51
0.0
  0
LINE
  5
7AFB
  8
1
  6
CONTINUOUS
 10
969.38250322195665
 20
2007.9162027294881
 30
0.0
 11
969.38250322195665
 21
1998.9162027294881
 31
0.0
  0
LINE
  5
7AFC
  8
1
  6
CONTINUOUS
 10
982.38250322195654
 20
1869.9162027294881
 30
0.0
 11
982.38250322195654
 21
1998.9162027294881
 31
0.0
  0
ARC
  5
7AFD
  8
1
  6
CONTINUOUS
 10
1021.2825032219559
 20
2175.9162027294878
 30
0.0
 40
12.0
 50
0.0
 51
90.0
  0
LINE
  5
7AFE
  8
1
  6
CONTINUOUS
 10
969.38250322195665
 20
2187.9162027294878
 30
0.0
 11
969.38250322195665
 21
2196.9162027294878
 31
0.0
  0
LINE
  5
7AFF
  8
1
  6
CONTINUOUS
 10
1042.3825032219561
 20
2089.9162027294878
 30
0.0
 11
1033.2825032219559
 21
2089.9162027294878
 31
0.0
  0
LINE
  5
7B00
  8
1
  6
CONTINUOUS
 10
1737.7532300000489
 20
1310.844268836654
 30
0.0
 11
1737.7532300000489
 21
1016.844268836653
 31
0.0
  0
LINE
  5
7B01
  8
1
  6
CONTINUOUS
 10
1728.5532300000491
 20
964.94426883665392
 30
0.0
 11
1728.5532300000491
 21
1163.844268836654
 31
0.0
  0
LINE
  5
7B02
  8
1
  6
CONTINUOUS
 10
1548.953230000049
 20
1363.844268836654
 30
0.0
 11
1548.953230000049
 21
964.94426883665392
 31
0.0
  0
LINE
  5
7B03
  8
1
  6
CONTINUOUS
 10
1410.7532300000489
 20
908.8442688366539
 30
0.0
 11
1410.7532300000489
 21
1125.644268836654
 31
0.0
  0
LINE
  5
7B04
  8
1
  6
CONTINUOUS
 10
1539.7532300000489
 20
1310.844268836654
 30
0.0
 11
1539.7532300000489
 21
908.8442688366539
 31
0.0
  0
LINE
  5
7B05
  8
1
  6
CONTINUOUS
 10
1560.953230000049
 20
952.94426883665403
 30
0.0
 11
1716.55323000005
 21
952.94426883665403
 31
0.0
  0
LINE
  5
7B06
  8
1
  6
CONTINUOUS
 10
1380.7532300000489
 20
796.84426883665401
 30
0.0
 11
1630.7532300000501
 21
796.84426883665401
 31
0.0
  0
LINE
  5
7B07
  8
1
  6
CONTINUOUS
 10
1380.7532300000489
 20
826.84426883665401
 30
0.0
 11
1630.7532300000501
 21
826.84426883665401
 31
0.0
  0
LINE
  5
7B08
  8
1
  6
CONTINUOUS
 10
1380.7532300000489
 20
848.8442688366539
 30
0.0
 11
1630.7532300000501
 21
848.8442688366539
 31
0.0
  0
LINE
  5
7B09
  8
1
  6
CONTINUOUS
 10
1380.7532300000489
 20
826.84426883665401
 30
0.0
 11
1380.7532300000489
 21
796.84426883665401
 31
0.0
  0
LINE
  5
7B0A
  8
1
  6
CONTINUOUS
 10
1380.7532300000489
 20
908.8442688366539
 30
0.0
 11
1380.7532300000489
 21
848.8442688366539
 31
0.0
  0
LINE
  5
7B0B
  8
1
  6
CONTINUOUS
 10
1548.953230000049
 20
1016.844268836653
 30
0.0
 11
1539.7532300000489
 21
1016.844268836653
 31
0.0
  0
ARC
  5
7B0C
  8
1
  6
CONTINUOUS
 10
1560.953230000049
 20
964.94426883665392
 30
0.0
 40
12.0
 50
180.0
 51
270.0
  0
LINE
  5
7B0D
  8
1
  6
CONTINUOUS
 10
1630.7532300000501
 20
826.84426883665401
 30
0.0
 11
1630.7532300000501
 21
796.84426883665401
 31
0.0
  0
LINE
  5
7B0E
  8
1
  6
CONTINUOUS
 10
1630.7532300000501
 20
908.8442688366539
 30
0.0
 11
1630.7532300000501
 21
848.8442688366539
 31
0.0
  0
LINE
  5
7B0F
  8
1
  6
CONTINUOUS
 10
1728.5532300000491
 20
1016.844268836653
 30
0.0
 11
1737.7532300000489
 21
1016.844268836653
 31
0.0
  0
ARC
  5
7B10
  8
1
  6
CONTINUOUS
 10
1716.55323000005
 20
964.94426883665392
 30
0.0
 40
12.0
 50
270.0
 51
0.0
  0
LINE
  5
7B11
  8
1
  6
CONTINUOUS
 10
1527.7532300000489
 20
1363.844268836654
 30
0.0
 11
1749.7532300000489
 21
1363.844268836654
 31
0.0
  0
LINE
  5
7B12
  8
1
  6
CONTINUOUS
 10
1577.953230000049
 20
1343.844268836654
 30
0.0
 11
1699.5532300000491
 21
1343.844268836654
 31
0.0
  0
LINE
  5
7B13
  8
1
  6
CONTINUOUS
 10
1410.7532300000489
 20
1125.644268836654
 30
0.0
 11
1539.7532300000489
 21
1229.944268836653
 31
0.0
  0
LINE
  5
7B14
  8
1
  6
CONTINUOUS
 10
1548.953230000049
 20
1310.844268836654
 30
0.0
 11
1539.7532300000489
 21
1310.844268836654
 31
0.0
  0
LINE
  5
7B15
  8
1
  6
CONTINUOUS
 10
1557.953230000049
 20
1363.844268836654
 30
0.0
 11
1577.953230000049
 21
1343.844268836654
 31
0.0
  0
LINE
  5
7B16
  8
1
  6
CONTINUOUS
 10
1539.7532300000489
 20
1310.844268836654
 30
0.0
 11
1539.7532300000489
 21
1163.844268836654
 31
0.0
  0
LINE
  5
7B17
  8
1
  6
CONTINUOUS
 10
1719.5532300000491
 20
1363.844268836654
 30
0.0
 11
1699.5532300000491
 21
1343.844268836654
 31
0.0
  0
LINE
  5
7B18
  8
1
  6
CONTINUOUS
 10
1728.5532300000491
 20
1310.844268836654
 30
0.0
 11
1737.7532300000489
 21
1310.844268836654
 31
0.0
  0
LINE
  5
7B19
  8
1
  6
CONTINUOUS
 10
1728.5532300000491
 20
1363.844268836654
 30
0.0
 11
1728.5532300000491
 21
1163.844268836654
 31
0.0
  0
LINE
  5
7B1A
  8
4
  6
CONTINUOUS
 10
1850.0
 20
500.0
 30
0.0
 11
1850.0
 21
300.0
 31
0.0
  0
LINE
  5
7B1B
  8
4
  6
CONTINUOUS
 10
1150.0
 20
500.0
 30
0.0
 11
1150.0
 21
300.0
 31
0.0
  0
LINE
  5
7B1C
  8
4
  6
CONTINUOUS
 10
650.0
 20
500.0
 30
0.0
 11
650.0
 21
300.0
 31
0.0
  0
LINE
  5
7B1F
  8
4
  6
CONTINUOUS
 10
650.0
 20
300.0
 30
0.0
 11
1850.0
 21
300.0
 31
0.0
  0
LINE
  5
7B20
  8
4
  6
CONTINUOUS
 10
650.0
 20
400.0
 30
0.0
 11
1850.0
 21
400.0
 31
0.0
  0
TEXT
  5
7B21
  8
4
  6
CONTINUOUS
 10
688.50208099999998
 20
431.543026
 30
0.0
 40
50.0
  1
機器名称
  0
TEXT
  5
7B22
  8
4
  6
CONTINUOUS
 10
686.258106
 20
321.64515699999993
 30
0.0
 40
50.0
  1
機器型番
  0
TEXT
  5
7B23
  8
4
  6
CONTINUOUS
 10
1177.678744999999
 20
422.57176900000002
 30
0.0
 40
45.0
  1
ミツヤニューマルチファン
  0
TEXT
  5
7B24
  8
4
  6
CONTINUOUS
 10
1186.6544960000001
 20
317.159584
 30
0.0
 40
50.0
  1
NM#1 1/2-1
  0
TEXT
  5
7B26
  8
4
  6
CONTINUOUS
 10
759.32035899999994
 20
2383.4288409999999
 30
0.0
 40
54.0
  1
床置防振ベット
  0
TEXT
  5
7B27
  8
4
  6
CONTINUOUS
 10
316.16759300000001
 20
2533.8809759999999
 30
0.0
 40
72.0
  1
ベルト駆動式片吸込片持多翼ファン
  0
LINE
  5
7B28
  8
4
  6
CONTINUOUS
 10
250.0
 20
2469.408754
 30
0.0
 11
1850.0
 21
2469.408754
 31
0.0
  0
LINE
  5
7B29
  8
4
  6
CONTINUOUS
 10
250.0
 20
2669.408754
 30
0.0
 11
1850.0
 21
2669.408754
 31
0.0
  0
LINE
  5
7B2A
  8
4
  6
CONTINUOUS
 10
650.0
 20
500.0
 30
0.0
 11
1850.0
 21
500.0
 31
0.0
  0
LINE
  5
7B2B
  8
4
  6
CONTINUOUS
 10
250.0
 20
2669.408754
 30
0.0
 11
250.0
 21
2469.408754
 31
0.0
  0
TEXT
  5
7B2C
  8
4
  6
CONTINUOUS
 10
323.46152599999988
 20
2382.3194779999999
 30
0.0
 40
54.0
  1
右回転上向
  0
TEXT
  5
7B2D
  8
4
  6
CONTINUOUS
 10
1468.9695589999999
 20
2706.0610809999998
 30
0.0
 40
56.0
  1
No.
  0
TEXT
  5
7B2E
  8
4
  6
CONTINUOUS
 10
1311.296063
 20
2383.4288409999999
 30
0.0
 40
54.0
  1
縮尺：1/10
  0
LINE
  5
7B2F
  8
4
  6
CONTINUOUS
 10
1850.0
 20
2669.408754
 30
0.0
 11
1850.0
 21
2469.408754
 31
0.0
  0
LINE
  5
7B31
  8
4
  6
CONTINUOUS
 10
1440.617422
 20
2681.2635829999999
 30
0.0
 11
1440.617422
 21
2786.6522620000001
 31
0.0
  0
LINE
  5
7B32
  8
4
  6
CONTINUOUS
 10
1440.617422
 20
2786.6522620000001
 30
0.0
 11
1850.0
 21
2786.6522620000001
 31
0.0
  0
LINE
  5
7B33
  8
4
  6
CONTINUOUS
 10
1850.0
 20
2786.6522620000001
 30
0.0
 11
1850.0
 21
2681.2635829999999
 31
0.0
  0
LINE
  5
7B34
  8
4
  6
CONTINUOUS
 10
1850.0
 20
2681.2635829999999
 30
0.0
 11
1440.617422
 21
2681.2635829999999
 31
0.0
  0
DIMENSION
  5
7B4C
  8
3
  6
CONTINUOUS
  2
*D1
 10
822.38250322195654
 20
699.54682983665396
 30
0.0
 11
551.18367522195661
 21
699.54682983665396
 31
0.0
 70
   128
 13
272.38250322195648
 23
796.84426883665401
 33
0.0
 14
822.38250322195654
 24
796.84426883665401
 34
0.0
1001
ACAD
1000
DSTYLE
1002
{
1070
   287
1070
     3
1070
   287
1070
     3
1070
    40
1040
10.0
1070
   143
1040
0.039
1070
   172
1070
     1
1070
   271
1070
     0
1070
   279
1070
     0
1070
   288
1070
     1
1002
}
  0
DIMENSION
  5
7B58
  8
3
  6
CONTINUOUS
  2
*D2
 10
1042.3825032219561
 20
699.54682983665396
 30
0.0
 11
932.38250322195654
 21
724.54682983665396
 31
0.0
 70
     0
 13
822.38250322195654
 23
796.84426883665401
 33
0.0
 14
1042.3825032219561
 24
796.84426883665401
 34
0.0
1001
ACAD
1000
DSTYLE
1002
{
1070
   287
1070
     4
1070
   287
1070
     4
1070
    40
1040
10.0
1070
    75
1070
     1
1070
   143
1040
0.039
1070
   172
1070
     1
1070
   271
1070
     0
1070
   279
1070
     1
1070
   288
1070
     1
1002
}
  0
DIMENSION
  5
7B65
  8
3
  6
CONTINUOUS
  2
*D3
 10
822.38250322195654
 20
1418.929767836654
 30
0.0
 11
683.4699652219565
 21
1418.929767836654
 31
0.0
 70
   128
 13
572.38250322195654
 23
1363.844268836654
 33
0.0
 14
822.38250322195654
 24
1363.844268836654
 34
0.0
1001
ACAD
1000
DSTYLE
1002
{
1070
   287
1070
     3
1070
   287
1070
     3
1070
    40
1040
10.0
1070
   143
1040
0.039
1070
   172
1070
     1
1070
   271
1070
     0
1070
   279
1070
     0
1070
   288
1070
     1
1002
}
  0
DIMENSION
  5
7B72
  8
3
  6
CONTINUOUS
  2
*D4
 10
822.38250322195654
 20
1477.3987398366539
 30
0.0
 11
701.10574622195645
 21
1477.3987398366539
 31
0.0
 70
   128
 13
562.38250322195654
 23
1343.844268836654
 33
0.0
 14
822.38250322195654
 24
1363.844268836654
 34
0.0
1001
ACAD
1000
DSTYLE
1002
{
1070
   287
1070
     3
1070
   287
1070
     3
1070
    40
1040
10.0
1070
   143
1040
0.039
1070
   172
1070
     1
1070
   271
1070
     0
1070
   279
1070
     0
1070
   288
1070
     1
1002
}
  0
DIMENSION
  5
7B7E
  8
3
  6
CONTINUOUS
  2
*D5
 10
1008.3718872219559
 20
1477.3987398366539
 30
0.0
 11
915.37719522195664
 21
1502.3987398366539
 31
0.0
 70
     0
 13
822.38250322195654
 23
1363.844268836654
 33
0.0
 14
1008.3718872219559
 24
1163.844268836654
 34
0.0
1001
ACAD
1000
DSTYLE
1002
{
1070
   287
1070
     4
1070
   287
1070
     4
1070
    40
1040
10.0
1070
    75
1070
     1
1070
   143
1040
0.039
1070
   172
1070
     1
1070
   271
1070
     0
1070
   279
1070
     1
1070
   288
1070
     1
1002
}
  0
DIMENSION
  5
7B8B
  8
3
  6
CONTINUOUS
  2
*D6
 10
1118.981320105773
 20
1163.844268836654
 30
0.0
 11
1118.981320105773
 21
1268.0783738366531
 31
0.0
 70
   128
 13
843.38250322195665
 23
1363.844268836654
 33
0.0
 14
1008.3718872219559
 24
1163.844268836654
 34
0.0
 50
90.0
1001
ACAD
1000
DSTYLE
1002
{
1070
   287
1070
     3
1070
   287
1070
     3
1070
    40
1040
10.0
1070
   143
1040
0.039
1070
   172
1070
     1
1070
   271
1070
     0
1070
   279
1070
     0
1070
   288
1070
     1
1002
}
  0
DIMENSION
  5
7B97
  8
3
  6
CONTINUOUS
  2
*D7
 10
1118.981320105773
 20
848.8442688366539
 30
0.0
 11
1093.981320105773
 21
1006.344268836654
 31
0.0
 70
     0
 13
1008.3718872219559
 23
1163.844268836654
 33
0.0
 14
1012.382503221956
 24
848.8442688366539
 34
0.0
 50
90.0
1001
ACAD
1000
DSTYLE
1002
{
1070
   287
1070
     4
1070
   287
1070
     4
1070
    40
1040
10.0
1070
    75
1070
     1
1070
   143
1040
0.039
1070
   172
1070
     1
1070
   271
1070
     0
1070
   279
1070
     1
1070
   288
1070
     1
1002
}
  0
DIMENSION
  5
7BA7
  8
3
  6
CONTINUOUS
  2
*D8
 10
1118.981320105773
 20
796.84426883665401
 30
0.0
 11
1118.981320105773
 21
722.55855455093979
 31
0.0
 70
   128
 13
1012.382503221956
 23
848.8442688366539
 33
0.0
 14
1042.3825032219561
 24
796.84426883665401
 34
0.0
 50
90.0
1001
ACAD
1000
DSTYLE
1002
{
1070
   287
1070
     3
1070
   287
1070
     3
1070
    40
1040
10.0
1070
   143
1040
0.039
1070
   172
1070
     1
1070
   271
1070
     0
1070
   279
1070
     0
1070
   288
1070
     1
1002
}
  0
DIMENSION
  5
7BCE
  8
3
  6
CONTINUOUS
  2
*D9
 10
1197.7016062219559
 20
796.84426883665401
 30
0.0
 11
1197.7016062219559
 21
1078.003185836654
 31
0.0
 70
   128
 13
843.38250322195665
 23
1363.844268836654
 33
0.0
 14
1042.3825032219561
 24
796.84426883665401
 34
0.0
 50
90.0
1001
ACAD
1000
DSTYLE
1002
{
1070
   287
1070
     3
1070
   287
1070
     3
1070
    40
1040
10.0
1070
   143
1040
0.039
1070
   172
1070
     1
1070
   271
1070
     0
1070
   279
1070
     0
1070
   288
1070
     1
1002
}
  0
LINE
  5
7BCF
  8
2
  6
CENTER
 10
1274.8745230000491
 20
1163.844268836654
 30
0.0
 11
1749.1404450000491
 21
1163.844268836654
 31
0.0
  0
DIMENSION
  5
7BDC
  8
3
  6
CONTINUOUS
  2
*D10
 10
1042.3825032219561
 20
1674.685025729488
 30
0.0
 11
675.38216622195648
 21
1674.685025729488
 31
0.0
 70
   128
 13
272.38250322195648
 23
1839.9162027294881
 33
0.0
 14
1042.3825032219561
 24
1839.9162027294881
 34
0.0
1001
ACAD
1000
DSTYLE
1002
{
1070
   287
1070
     3
1070
   287
1070
     3
1070
    40
1040
10.0
1070
   143
1040
0.039
1070
   172
1070
     1
1070
   271
1070
     0
1070
   279
1070
     0
1070
   288
1070
     1
1002
}
  0
LINE
  5
7BEA
  8
2
  6
CENTER
 10
536.50308422195656
 20
2097.9162027294878
 30
0.0
 11
1069.5197172219559
 21
2097.9162027294878
 31
0.0
  0
LINE
  5
7BEB
  8
2
  6
CENTER
 10
822.38250322195654
 20
1398.0595368366539
 30
0.0
 11
822.38250322195654
 21
784.38021383665375
 31
0.0
  0
DIMENSION
  5
7BF9
  8
3
  6
CONTINUOUS
  2
*D11
 10
1630.7532300000501
 20
710.24417483665388
 30
0.0
 11
1510.251005000049
 21
710.24417483665388
 31
0.0
 70
   128
 13
1380.7532300000489
 23
796.84426883665401
 33
0.0
 14
1630.7532300000501
 24
796.84426883665401
 34
0.0
1001
ACAD
1000
DSTYLE
1002
{
1070
   287
1070
     3
1070
   287
1070
     3
1070
    40
1040
10.0
1070
   143
1040
0.039
1070
   172
1070
     1
1070
   271
1070
     0
1070
   279
1070
     0
1070
   288
1070
     1
1002
}
  0
DIMENSION
  5
7C06
  8
3
  6
CONTINUOUS
  2
*D12
 10
1728.5532300000491
 20
1403.6519148366531
 30
0.0
 11
1628.841059000049
 21
1403.6519148366531
 31
0.0
 70
   128
 13
1548.953230000049
 23
1363.844268836654
 33
0.0
 14
1728.5532300000491
 24
1363.844268836654
 34
0.0
1001
ACAD
1000
DSTYLE
1002
{
1070
   287
1070
     3
1070
   287
1070
     3
1070
    40
1040
10.0
1070
   143
1040
0.039
1070
   172
1070
     1
1070
   271
1070
     0
1070
   279
1070
     0
1070
   288
1070
     1
1002
}
  0
LINE
  5
7C30
  8
2
  6
CENTER
 10
1638.7532300000489
 20
797.94020583665394
 30
0.0
 11
1638.7532300000489
 21
1406.928533836654
 31
0.0
  0
DIMENSION
  5
7C4A
  8
3
  6
CONTINUOUS
  2
*D13
 10
1638.7532300000489
 20
1482.0101388366541
 30
0.0
 11
1473.376380000049
 21
1482.0101388366541
 31
0.0
 70
   128
  1
MAX\P340
 13
1298.7532300000489
 23
1288.844268836654
 33
0.0
 14
1638.7532300000489
 24
1452.0970758366541
 34
0.0
1001
ACAD
1000
DSTYLE
1002
{
1070
   287
1070
     3
1070
   287
1070
     3
1070
    40
1040
10.0
1070
   143
1040
0.039
1070
   172
1070
     1
1070
   271
1070
     0
1070
   279
1070
     0
1070
   288
1070
     1
1002
}
  0
DIMENSION
  5
7C58
  8
3
  6
CONTINUOUS
  2
*D14
 10
1737.7532300000489
 20
1482.0101388366541
 30
0.0
 11
1685.6991570000489
 21
1482.0101388366541
 31
0.0
 70
   128
 13
1638.7532300000489
 23
1452.0970758366541
 33
0.0
 14
1737.7532300000489
 24
1310.844268836654
 34
0.0
1001
ACAD
1000
DSTYLE
1002
{
1070
   287
1070
     4
1070
   287
1070
     4
1070
    40
1040
10.0
1070
    75
1070
     1
1070
   143
1040
0.039
1070
   172
1070
     1
1070
   271
1070
     0
1070
   279
1070
     1
1070
   288
1070
     1
1002
}
  0
DIMENSION
  5
7C83
  8
3
  6
CONTINUOUS
  2
*D15
 10
1809.7789850000499
 20
1038.844268836654
 30
0.0
 11
1809.778985000049
 21
1164.754293836653
 31
0.0
 70
   128
 13
1737.7532300000489
 23
1288.844268836654
 33
0.0
 14
1737.7532300000489
 24
1038.844268836654
 34
0.0
 50
90.0
1001
ACAD
1000
DSTYLE
1002
{
1070
   287
1070
     3
1070
   287
1070
     3
1070
     3
1000
φ<>
1070
    40
1040
10.0
1070
   143
1040
0.039
1070
   172
1070
     1
1070
   271
1070
     0
1070
   279
1070
     0
1070
   288
1070
     1
1002
}
  0
DIMENSION
  5
7CA2
  8
3
  2
*D16
 10
1638.7532300000489
 20
710.24417483665388
 30
0.0
 11
1698.7532300000501
 21
735.24417483665388
 31
0.0
 70
     0
 13
1630.7532300000501
 23
796.84426883665401
 33
0.0
 14
1638.7532300000489
 24
797.94020583665394
 34
0.0
1001
ACAD
1000
DSTYLE
1002
{
1070
   287
1070
     3
1070
   287
1070
     3
1070
    40
1040
10.0
1070
   143
1040
0.039
1070
   172
1070
     1
1070
   271
1070
     0
1070
   279
1070
     0
1070
   288
1070
     1
1002
}
  0
DIMENSION
  5
7CDF
  8
3
  2
*D17
 10
272.38250322195648
 20
1539.122284794594
 30
0.0
 11
690.95384347109029
 21
1539.122284794594
 31
0.0
 70
   128
 13
1008.3718872219559
 23
1168.844268836654
 33
0.0
 14
272.38250322195648
 24
826.84426883665401
 34
0.0
1001
ACAD
1000
DSTYLE
1002
{
1070
   287
1070
     3
1070
   287
1070
     3
1070
    40
1040
10.0
1070
   143
1040
0.039
1070
   172
1070
     1
1070
   271
1070
     0
1070
   279
1070
     0
1070
   288
1070
     1
1002
}
  0
DIMENSION
  5
7CEC
  8
3
  2
*D18
 10
221.40589271620979
 20
1839.9162027294881
 30
0.0
 11
221.40589271620951
 21
1967.8008050771671
 31
0.0
 70
   128
 13
272.38250322195648
 23
2089.9162027294878
 33
0.0
 14
272.38250322195648
 24
1839.9162027294881
 34
0.0
 50
90.0
1001
ACAD
1000
DSTYLE
1002
{
1070
   287
1070
     3
1070
   287
1070
     3
1070
    40
1040
10.0
1070
   143
1040
0.039
1070
   172
1070
     1
1070
   271
1070
     0
1070
   279
1070
     0
1070
   288
1070
     1
1002
}
  0
ENDSEC
  0
EOF
