  0
SECTION
  2
HEADER
  9
$ACADVER
  1
AC1009
  9
$INSBASE
 10
0.0
 20
0.0
 30
0.0
  9
$EXTMIN
 10
-1527.9825867072341
 20
-840.73604199999988
 30
0.0
  9
$EXTMAX
 10
104.86888
 20
1645.9162199999989
 30
0.0
  9
$LIMMIN
 10
0.0
 20
0.0
  9
$LIMMAX
 10
297.0
 20
210.0
  9
$ORTHOMODE
 70
     0
  9
$REGENMODE
 70
     1
  9
$FILLMODE
 70
     0
  9
$QTEXTMODE
 70
     0
  9
$MIRRTEXT
 70
     1
  9
$DRAGMODE
 70
     2
  9
$LTSCALE
 40
100.0
  9
$OSMODE
 70
    37
  9
$ATTMODE
 70
     1
  9
$TEXTSIZE
 40
180.0
  9
$TRACEWID
 40
0.05
  9
$TEXTSTYLE
  7
STANDARD
  9
$CLAYER
  8
3
  9
$CELTYPE
  6
BYLAYER
  9
$CECOLOR
 62
   256
  9
$DIMSCALE
 40
10.0
  9
$DIMASZ
 40
2.0
  9
$DIMEXO
 40
0.5
  9
$DIMDLI
 40
10.0
  9
$DIMRND
 40
0.0
  9
$DIMDLE
 40
0.0
  9
$DIMEXE
 40
1.0
  9
$DIMTP
 40
1.0
  9
$DIMTM
 40
1.0
  9
$DIMTXT
 40
3.0
  9
$DIMCEN
 40
0.0
  9
$DIMTSZ
 40
0.0
  9
$DIMTOL
 70
     0
  9
$DIMLIM
 70
     0
  9
$DIMTIH
 70
     0
  9
$DIMTOH
 70
     0
  9
$DIMSE1
 70
     0
  9
$DIMSE2
 70
     0
  9
$DIMTAD
 70
     1
  9
$DIMZIN
 70
     8
  9
$DIMBLK
  1

  9
$DIMASO
 70
     1
  9
$DIMSHO
 70
     1
  9
$DIMPOST
  1

  9
$DIMAPOST
  1

  9
$DIMALT
 70
     0
  9
$DIMALTD
 70
     2
  9
$DIMALTF
 40
0.039
  9
$DIMLFAC
 40
1.0
  9
$DIMTOFL
 70
     1
  9
$DIMTVP
 40
0.0
  9
$DIMTIX
 70
     0
  9
$DIMSOXD
 70
     0
  9
$DIMSAH
 70
     1
  9
$DIMBLK1
  1
OPEN
  9
$DIMBLK2
  1
OPEN
  9
$DIMSTYLE
  2
IGA
  9
$DIMCLRD
 70
     0
  9
$DIMCLRE
 70
     0
  9
$DIMCLRT
 70
     0
  9
$DIMTFAC
 40
10.0
  9
$DIMGAP
 40
1.0
  9
$LUNITS
 70
     2
  9
$LUPREC
 70
     3
  9
$SKETCHINC
 40
0.1
  9
$FILLETRAD
 40
50.0
  9
$AUNITS
 70
     0
  9
$AUPREC
 70
     0
  9
$MENU
  1
acad
  9
$ELEVATION
 40
0.0
  9
$PELEVATION
 40
0.0
  9
$THICKNESS
 40
0.0
  9
$LIMCHECK
 70
     0
  9
$BLIPMODE
 70
     0
  9
$CHAMFERA
 40
0.5
  9
$CHAMFERB
 40
0.5
  9
$SKPOLY
 70
     0
  9
$TDCREATE
 40
2450740.5342298611
  9
$TDUPDATE
 40
2454953.8641800112
  9
$TDINDWG
 40
0.0219709028
  9
$TDUSRTIMER
 40
0.0219709028
  9
$USRTIMER
 70
     1
  9
$ANGBASE
 50
0.0
  9
$ANGDIR
 70
     0
  9
$PDMODE
 70
     0
  9
$PDSIZE
 40
0.0
  9
$PLINEWID
 40
0.0
  9
$COORDS
 70
     1
  9
$SPLFRAME
 70
     0
  9
$SPLINETYPE
 70
     6
  9
$SPLINESEGS
 70
     8
  9
$ATTDIA
 70
     0
  9
$ATTREQ
 70
     1
  9
$HANDLING
 70
 10241
  9
$HANDSEED
  5
7EB8
  9
$SURFTAB1
 70
     6
  9
$SURFTAB2
 70
     6
  9
$SURFTYPE
 70
     6
  9
$SURFU
 70
     6
  9
$SURFV
 70
     6
  9
$UCSNAME
  2

  9
$UCSORG
 10
0.0
 20
0.0
 30
0.0
  9
$UCSXDIR
 10
1.0
 20
0.0
 30
0.0
  9
$UCSYDIR
 10
0.0
 20
1.0
 30
0.0
  9
$PUCSNAME
  2

  9
$PUCSORG
 10
0.0
 20
0.0
 30
0.0
  9
$PUCSXDIR
 10
1.0
 20
0.0
 30
0.0
  9
$PUCSYDIR
 10
0.0
 20
1.0
 30
0.0
  9
$USERI1
 70
     0
  9
$USERI2
 70
     0
  9
$USERI3
 70
     0
  9
$USERI4
 70
     0
  9
$USERI5
 70
     0
  9
$USERR1
 40
0.0
  9
$USERR2
 40
0.0
  9
$USERR3
 40
0.0
  9
$USERR4
 40
0.0
  9
$USERR5
 40
0.0
  9
$WORLDVIEW
 70
     1
  9
$SHADEDGE
 70
     3
  9
$SHADEDIF
 70
    70
  9
$TILEMODE
 70
     1
  9
$MAXACTVP
 70
    16
  9
$PLIMCHECK
 70
     0
  9
$PEXTMIN
 10
1.0000000000000000E+020
 20
1.0000000000000000E+020
 30
1.0000000000000000E+020
  9
$PEXTMAX
 10
-1.0000000000000000E+020
 20
-1.0000000000000000E+020
 30
-1.0000000000000000E+020
  9
$PLIMMIN
 10
0.0
 20
0.0
  9
$PLIMMAX
 10
12.0
 20
9.0
  9
$UNITMODE
 70
     0
  9
$VISRETAIN
 70
     0
  9
$PLINEGEN
 70
     0
  9
$PSLTSCALE
 70
     1
  0
ENDSEC
  0
SECTION
  2
TABLES
  0
TABLE
  2
VPORT
 70
     2
  0
VPORT
  2
*ACTIVE
 70
     0
 10
0.0
 20
0.0
 11
1.0
 21
1.0
 12
1166.047193961869
 22
832.93950496915363
 13
0.0
 23
0.0
 14
10.0
 24
10.0
 15
10.0
 25
10.0
 16
0.0
 26
0.0
 36
1.0
 17
0.0
 27
0.0
 37
0.0
 40
3860.430887615777
 41
1.5051150895140659
 42
50.0
 43
0.0
 44
0.0
 50
0.0
 51
0.0
 71
     0
 72
   100
 73
     1
 74
     0
 75
     0
 76
     0
 77
     0
 78
     0
  0
ENDTAB
  0
TABLE
  2
LTYPE
 70
     2
  0
LTYPE
  2
CONTINUOUS
 70
     0
  3
Solid line
 72
    65
 73
     0
 40
0.0
  0
LTYPE
  2
CENTER
 70
     0
  3
____ _ ____ _ ____ _ ____ _ ____ _ ____ _ ____ 
 72
    65
 73
     4
 40
2.0
 49
1.25
 49
-0.25
 49
0.25
 49
-0.25
  0
ENDTAB
  0
TABLE
  2
LAYER
 70
     6
  0
LAYER
  2
0
 70
     0
 62
     7
  6
CONTINUOUS
  0
LAYER
  2
3
 70
     0
 62
     2
  6
CONTINUOUS
  0
LAYER
  2
2
 70
     0
 62
     3
  6
CENTER
  0
LAYER
  2
1
 70
     0
 62
     4
  6
CONTINUOUS
  0
LAYER
  2
4
 70
     0
 62
     7
  6
CONTINUOUS
  0
LAYER
  2
DEFPOINTS
 70
     0
 62
     7
  6
CONTINUOUS
  0
ENDTAB
  0
TABLE
  2
STYLE
 70
     1
  0
STYLE
  2
STANDARD
 70
     0
 40
0.0
 41
1.0
 50
0.0
 71
     0
 42
180.0
  3
simplex.shx
  4
extfont.shx
  0
ENDTAB
  0
TABLE
  2
VIEW
 70
     0
  0
ENDTAB
  0
TABLE
  2
UCS
 70
     0
  0
ENDTAB
  0
TABLE
  2
APPID
 70
     1
  0
APPID
  2
ACAD
 70
     0
  0
ENDTAB
  0
TABLE
  2
DIMSTYLE
 70
     1
  0
DIMSTYLE
  2
IGA
 70
     0
  3

  4

  5

  6
OPEN
  7
OPEN
 40
2.0
 41
2.0
 42
0.5
 43
10.0
 44
1.0
 45
0.0
 46
0.0
 47
1.0
 48
1.0
140
3.0
141
0.0
142
0.0
143
0.03937
144
1.0
145
0.0
146
10.0
147
1.0
 71
     0
 72
     0
 73
     0
 74
     0
 75
     0
 76
     0
 77
     1
 78
     8
170
     0
171
     2
172
     0
173
     1
174
     0
175
     0
176
     0
177
     0
178
     0
  0
ENDTAB
  0
ENDSEC
  0
SECTION
  2
BLOCKS
  0
BLOCK
  8
0
  2
$MODEL_SPACE
 70
     0
 10
0.0
 20
0.0
 30
0.0
  3
$MODEL_SPACE
  1

  0
ENDBLK
  5
1B
  8
0
  0
BLOCK
 67
     1
  8
0
  2
$PAPER_SPACE
 70
     0
 10
0.0
 20
0.0
 30
0.0
  3
$PAPER_SPACE
  1

  0
ENDBLK
  5
18
 67
     1
  8
0
  0
BLOCK
  8
0
  2
_OPEN
 70
     0
 10
0.0
 20
0.0
 30
0.0
  3
_OPEN
  1

  0
LINE
  5
7B3B
  8
0
  6
BYBLOCK
 62
     0
 10
-1.0
 20
0.166667
 30
0.0
 11
0.0
 21
0.0
 31
0.0
  0
LINE
  5
7B3C
  8
0
  6
BYBLOCK
 62
     0
 10
0.0
 20
0.0
 30
0.0
 11
-1.0
 21
-0.166667
 31
0.0
  0
LINE
  5
7B3D
  8
0
  6
BYBLOCK
 62
     0
 10
0.0
 20
0.0
 30
0.0
 11
-1.0
 21
0.0
 31
0.0
  0
ENDBLK
  5
7B3E
  8
0
  0
BLOCK
  8
0
  2
*D1
 70
     1
 10
0.0
 20
0.0
 30
0.0
  3
*D1
  1

  0
LINE
  5
7E03
  8
3
  6
CONTINUOUS
 62
     0
 10
-1436.0810630000001
 20
-314.48327153507682
 30
0.0
 11
-1436.0810630000001
 21
-414.94263153507671
 31
0.0
  0
LINE
  5
7E04
  8
3
  6
CONTINUOUS
 62
     0
 10
-886.08106300000009
 20
-314.48327153507682
 30
0.0
 11
-886.08106300000009
 21
-414.94263153507671
 31
0.0
  0
LINE
  5
7E05
  8
3
  6
CONTINUOUS
 62
     0
 10
-1416.0810630000001
 20
-404.94263153507683
 30
0.0
 11
-906.08106299999997
 21
-404.94263153507683
 31
0.0
  0
INSERT
  5
7E06
  8
3
  6
CONTINUOUS
 62
     0
  2
_OPEN
 10
-1436.0810630000001
 20
-404.94263153507683
 30
0.0
 41
20.0
 42
20.0
 43
20.0
 50
180.0
  0
INSERT
  5
7E07
  8
3
  6
CONTINUOUS
 62
     0
  2
_OPEN
 10
-886.08106300000009
 20
-404.94263153507683
 30
0.0
 41
20.0
 42
20.0
 43
20.0
  0
TEXT
  8
3
  40
30
  5
7EA5
  62
0
  72
0
  71
0
 10
-1214.92
 20
-433.043
 30
0.000000
  1
550
  0
POINT
  5
7E09
  8
DEFPOINTS
  6
CONTINUOUS
 62
     0
 10
-1436.0810630000001
 20
-309.48327153507682
 30
0.0
  0
POINT
  5
7E0A
  8
DEFPOINTS
  6
CONTINUOUS
 62
     0
 10
-886.08106300000009
 20
-309.48327153507682
 30
0.0
  0
POINT
  5
7E0B
  8
DEFPOINTS
  6
CONTINUOUS
 62
     0
 10
-886.08106300000009
 20
-404.94263153507683
 30
0.0
  0
ENDBLK
  5
7B4B
  8
0
  0
BLOCK
  8
0
  2
*D2
 70
     1
 10
0.0
 20
0.0
 30
0.0
  3
*D2
  1

  0
LINE
  5
7E0C
  8
3
  6
CONTINUOUS
 62
     0
 10
-666.08106299999997
 20
-314.48327153507682
 30
0.0
 11
-666.08106299999997
 21
-414.94263153507671
 31
0.0
  0
LINE
  5
7E0D
  8
3
  6
CONTINUOUS
 62
     0
 10
-866.08106299999997
 20
-404.94263153507683
 30
0.0
 11
-686.08106299999986
 21
-404.94263153507683
 31
0.0
  0
INSERT
  5
7E0E
  8
3
  6
CONTINUOUS
 62
     0
  2
_OPEN
 10
-886.08106300000009
 20
-404.94263153507683
 30
0.0
 41
20.0
 42
20.0
 43
20.0
 50
180.0
  0
INSERT
  5
7E0F
  8
3
  6
CONTINUOUS
 62
     0
  2
_OPEN
 10
-666.08106299999997
 20
-404.94263153507683
 30
0.0
 41
20.0
 42
20.0
 43
20.0
  0
TEXT
  8
3
  40
30
  5
7EA6
  62
0
  72
0
  71
0
 10
-836.081
 20
-433.043
 30
0.000000
  1
220
  0
POINT
  5
7E11
  8
DEFPOINTS
  6
CONTINUOUS
 62
     0
 10
-886.08106300000009
 20
-309.48327153507682
 30
0.0
  0
POINT
  5
7E12
  8
DEFPOINTS
  6
CONTINUOUS
 62
     0
 10
-666.08106299999997
 20
-309.48327153507682
 30
0.0
  0
POINT
  5
7E13
  8
DEFPOINTS
  6
CONTINUOUS
 62
     0
 10
-666.08106299999997
 20
-404.94263153507683
 30
0.0
  0
ENDBLK
  5
7B57
  8
0
  0
BLOCK
  8
0
  2
*D3
 70
     1
 10
0.0
 20
0.0
 30
0.0
  3
*D3
  1

  0
LINE
  5
7E14
  8
3
  6
CONTINUOUS
 62
     0
 10
-681.08106299999986
 20
307.51672846492312
 30
0.0
 11
-594.13912099999993
 21
307.51672846492312
 31
0.0
  0
LINE
  5
7E15
  8
3
  6
CONTINUOUS
 62
     0
 10
-681.08106299999986
 20
57.516728464923183
 30
0.0
 11
-594.13912100000005
 21
57.516728464923148
 31
0.0
  0
LINE
  5
7E16
  8
3
  6
CONTINUOUS
 62
     0
 10
-604.13912099999993
 20
287.51672846492312
 30
0.0
 11
-604.13912100000005
 21
77.516728464923148
 31
0.0
  0
INSERT
  5
7E17
  8
3
  6
CONTINUOUS
 62
     0
  2
_OPEN
 10
-604.13912099999993
 20
307.51672846492312
 30
0.0
 41
20.0
 42
20.0
 43
20.0
 50
90.0
  0
INSERT
  5
7E18
  8
3
  6
CONTINUOUS
 62
     0
  2
_OPEN
 10
-604.13912100000005
 20
57.516728464923148
 30
0.0
 41
20.0
 42
20.0
 43
20.0
 50
270.0
  0
TEXT
  8
3
  40
30
  5
7EA7
  62
0
  72
0
  71
0
 10
-689.139
 20
135.544
 30
0.000000
  1
250
  0
POINT
  5
7E1A
  8
DEFPOINTS
  6
CONTINUOUS
 62
     0
 10
-686.08106299999986
 20
307.51672846492312
 30
0.0
  0
POINT
  5
7E1B
  8
DEFPOINTS
  6
CONTINUOUS
 62
     0
 10
-686.08106299999986
 20
57.516728464923183
 30
0.0
  0
POINT
  5
7E1C
  8
DEFPOINTS
  6
CONTINUOUS
 62
     0
 10
-604.13912100000005
 20
57.516728464923148
 30
0.0
  0
ENDBLK
  5
7B64
  8
0
  0
BLOCK
  8
0
  2
*D4
 70
     1
 10
0.0
 20
0.0
 30
0.0
  3
*D4
  1

  0
LINE
  5
7E1D
  8
3
  6
CONTINUOUS
 62
     0
 10
-701.08106299999986
 20
317.51672846492312
 30
0.0
 11
-534.80765084724362
 21
317.51672846492312
 31
0.0
  0
LINE
  5
7E1E
  8
3
  6
CONTINUOUS
 62
     0
 10
-681.08106299999986
 20
57.516728464923183
 30
0.0
 11
-534.80765084724374
 21
57.516728464923141
 31
0.0
  0
LINE
  5
7E1F
  8
3
  6
CONTINUOUS
 62
     0
 10
-544.80765084724362
 20
297.51672846492312
 30
0.0
 11
-544.80765084724374
 21
77.516728464923148
 31
0.0
  0
INSERT
  5
7E20
  8
3
  6
CONTINUOUS
 62
     0
  2
_OPEN
 10
-544.80765084724362
 20
317.51672846492312
 30
0.0
 41
20.0
 42
20.0
 43
20.0
 50
90.0
  0
INSERT
  5
7E21
  8
3
  6
CONTINUOUS
 62
     0
  2
_OPEN
 10
-544.80765084724374
 20
57.516728464923141
 30
0.0
 41
20.0
 42
20.0
 43
20.0
 50
270.0
  0
TEXT
  8
3
  40
30
  5
7EA8
  62
0
  72
0
  71
0
 10
-629.808
 20
136.554
 30
0.000000
  1
260
  0
POINT
  5
7E23
  8
DEFPOINTS
  6
CONTINUOUS
 62
     0
 10
-706.08106299999986
 20
317.51672846492312
 30
0.0
  0
POINT
  5
7E24
  8
DEFPOINTS
  6
CONTINUOUS
 62
     0
 10
-686.08106299999986
 20
57.516728464923183
 30
0.0
  0
POINT
  5
7E25
  8
DEFPOINTS
  6
CONTINUOUS
 62
     0
 10
-544.80765084724374
 20
57.516728464923141
 30
0.0
  0
ENDBLK
  5
7C79
  8
0
  0
BLOCK
  8
0
  2
*D5
 70
     1
 10
0.0
 20
0.0
 30
0.0
  3
*D5
  1

  0
LINE
  5
7E26
  8
3
  6
CONTINUOUS
 62
     0
 10
-691.08106299999997
 20
-257.48327153507682
 30
0.0
 11
-534.80765084724374
 21
-257.48327153507688
 31
0.0
  0
LINE
  5
7E27
  8
3
  6
CONTINUOUS
 62
     0
 10
-544.80765084724362
 20
37.516728464923141
 30
0.0
 11
-544.80765084724362
 21
-237.4832715350768
 31
0.0
  0
INSERT
  5
7E28
  8
3
  6
CONTINUOUS
 62
     0
  2
_OPEN
 10
-544.80765084724362
 20
57.516728464923141
 30
0.0
 41
20.0
 42
20.0
 43
20.0
 50
90.0
  0
INSERT
  5
7E29
  8
3
  6
CONTINUOUS
 62
     0
  2
_OPEN
 10
-544.80765084724374
 20
-257.48327153507688
 30
0.0
 41
20.0
 42
20.0
 43
20.0
 50
270.0
  0
TEXT
  8
3
  40
30
  5
7EA9
  62
0
  72
0
  71
0
 10
-629.808
 20
-153.083
 30
0.000000
  1
315
  0
POINT
  5
7E2B
  8
DEFPOINTS
  6
CONTINUOUS
 62
     0
 10
-686.08106299999986
 20
57.516728464923183
 30
0.0
  0
POINT
  5
7E2C
  8
DEFPOINTS
  6
CONTINUOUS
 62
     0
 10
-696.08106299999997
 20
-257.48327153507682
 30
0.0
  0
POINT
  5
7E2D
  8
DEFPOINTS
  6
CONTINUOUS
 62
     0
 10
-544.80765084724374
 20
-257.48327153507688
 30
0.0
  0
ENDBLK
  5
7C83
  8
0
  0
BLOCK
  8
0
  2
*D6
 70
     1
 10
0.0
 20
0.0
 30
0.0
  3
*D6
  1

  0
LINE
  5
7E2E
  8
3
  6
CONTINUOUS
 62
     0
 10
-691.08106299999997
 20
-257.48327153507682
 30
0.0
 11
-534.80765084724385
 21
-257.48327153507688
 31
0.0
  0
LINE
  5
7E2F
  8
3
  6
CONTINUOUS
 62
     0
 10
-661.08106299999986
 20
-309.48327153507682
 30
0.0
 11
-534.80765084724385
 21
-309.48327153507688
 31
0.0
  0
LINE
  5
7E30
  8
3
  6
CONTINUOUS
 62
     0
 10
-544.80765084724374
 20
-237.4832715350768
 30
0.0
 11
-544.80765084724374
 21
-217.4832715350768
 31
0.0
  0
LINE
  5
7E31
  8
3
  6
CONTINUOUS
 62
     0
 10
-544.80765084724385
 20
-329.48327153507682
 30
0.0
 11
-544.80765084724385
 21
-418.05470010650549
 31
0.0
  0
LINE
  5
7E32
  8
3
  6
CONTINUOUS
 62
     0
 10
-544.80765084724385
 20
-257.48327153507688
 30
0.0
 11
-544.80765084724385
 21
-309.48327153507688
 31
0.0
  0
INSERT
  5
7E33
  8
3
  6
CONTINUOUS
 62
     0
  2
_OPEN
 10
-544.80765084724385
 20
-257.48327153507688
 30
0.0
 41
20.0
 42
20.0
 43
20.0
 50
270.0
  0
INSERT
  5
7E34
  8
3
  6
CONTINUOUS
 62
     0
  2
_OPEN
 10
-544.80765084724385
 20
-309.48327153507688
 30
0.0
 41
20.0
 42
20.0
 43
20.0
 50
90.0
  0
TEXT
  8
3
  40
30
  5
7EAA
  62
0
  72
0
  71
0
 10
-629.808
 20
-436.869
 30
0.000000
  1
52
  0
POINT
  5
7E36
  8
DEFPOINTS
  6
CONTINUOUS
 62
     0
 10
-696.08106299999997
 20
-257.48327153507682
 30
0.0
  0
POINT
  5
7E37
  8
DEFPOINTS
  6
CONTINUOUS
 62
     0
 10
-666.08106299999997
 20
-309.48327153507682
 30
0.0
  0
POINT
  5
7E38
  8
DEFPOINTS
  6
CONTINUOUS
 62
     0
 10
-544.80765084724385
 20
-309.48327153507688
 30
0.0
  0
ENDBLK
  5
7CCD
  8
0
  0
BLOCK
  8
0
  2
*D7
 70
     1
 10
0.0
 20
0.0
 30
0.0
  3
*D7
  1

  0
LINE
  5
7E39
  8
3
  6
CONTINUOUS
 62
     0
 10
-681.08106299999986
 20
328.51672846492312
 30
0.0
 11
-467.99340869448753
 21
328.51672846492312
 31
0.0
  0
LINE
  5
7E3A
  8
3
  6
CONTINUOUS
 62
     0
 10
-661.08106299999986
 20
-309.48327153507682
 30
0.0
 11
-467.99340869448758
 21
-309.48327153507688
 31
0.0
  0
LINE
  5
7E3B
  8
3
  6
CONTINUOUS
 62
     0
 10
-477.99340869448753
 20
308.51672846492312
 30
0.0
 11
-477.99340869448758
 21
-289.48327153507682
 31
0.0
  0
INSERT
  5
7E3C
  8
3
  6
CONTINUOUS
 62
     0
  2
_OPEN
 10
-477.99340869448753
 20
328.51672846492312
 30
0.0
 41
20.0
 42
20.0
 43
20.0
 50
90.0
  0
INSERT
  5
7E3D
  8
3
  6
CONTINUOUS
 62
     0
  2
_OPEN
 10
-477.99340869448758
 20
-309.48327153507688
 30
0.0
 41
20.0
 42
20.0
 43
20.0
 50
270.0
  0
TEXT
  8
3
  40
30
  5
7EAB
  62
0
  72
0
  71
0
 10
-562.993
 20
-62.0439
 30
0.000000
  1
638
  0
POINT
  5
7E3F
  8
DEFPOINTS
  6
CONTINUOUS
 62
     0
 10
-686.08106299999986
 20
328.51672846492312
 30
0.0
  0
POINT
  5
7E40
  8
DEFPOINTS
  6
CONTINUOUS
 62
     0
 10
-666.08106299999997
 20
-309.48327153507682
 30
0.0
  0
POINT
  5
7E41
  8
DEFPOINTS
  6
CONTINUOUS
 62
     0
 10
-477.99340869448758
 20
-309.48327153507688
 30
0.0
  0
ENDBLK
  5
7CA5
  8
0
  0
BLOCK
  8
0
  2
*D8
 70
     1
 10
0.0
 20
0.0
 30
0.0
  3
*D8
  1

  0
LINE
  5
7E42
  8
3
  6
CONTINUOUS
 62
     0
 10
-1106.0704470000001
 20
62.516728464923183
 30
0.0
 11
-1106.0704470000001
 21
379.24270746492311
 31
0.0
  0
LINE
  5
7E43
  8
3
  6
CONTINUOUS
 62
     0
 10
-886.08106300000009
 20
322.51672846492312
 30
0.0
 11
-886.08106300000009
 21
379.24270746492311
 31
0.0
  0
LINE
  5
7E44
  8
3
  6
CONTINUOUS
 62
     0
 10
-1086.0704469999989
 20
369.24270746492311
 30
0.0
 11
-906.08106299999997
 21
369.24270746492311
 31
0.0
  0
INSERT
  5
7E45
  8
3
  6
CONTINUOUS
 62
     0
  2
_OPEN
 10
-1106.0704470000001
 20
369.24270746492311
 30
0.0
 41
20.0
 42
20.0
 43
20.0
 50
180.0
  0
INSERT
  5
7E46
  8
3
  6
CONTINUOUS
 62
     0
  2
_OPEN
 10
-886.08106300000009
 20
369.24270746492311
 30
0.0
 41
20.0
 42
20.0
 43
20.0
  0
TEXT
  8
3
  40
30
  5
7EAC
  62
0
  72
0
  71
0
 10
-1063.44
 20
341.143
 30
0.000000
  1
220
  0
POINT
  5
7E48
  8
DEFPOINTS
  6
CONTINUOUS
 62
     0
 10
-1106.0704470000001
 20
57.516728464923183
 30
0.0
  0
POINT
  5
7E49
  8
DEFPOINTS
  6
CONTINUOUS
 62
     0
 10
-886.08106300000009
 20
317.51672846492312
 30
0.0
  0
POINT
  5
7E4A
  8
DEFPOINTS
  6
CONTINUOUS
 62
     0
 10
-886.08106300000009
 20
369.24270746492311
 30
0.0
  0
ENDBLK
  5
7BC1
  8
0
  0
BLOCK
  8
0
  2
*D9
 70
     1
 10
0.0
 20
0.0
 30
0.0
  3
*D9
  1

  0
LINE
  5
7E4B
  8
3
  6
CONTINUOUS
 62
     0
 10
-686.08106299999986
 20
333.51672846492312
 30
0.0
 11
-686.08106299999986
 21
379.24270746492311
 31
0.0
  0
LINE
  5
7E4C
  8
3
  6
CONTINUOUS
 62
     0
 10
-866.08106299999997
 20
369.24270746492311
 30
0.0
 11
-706.08106299999986
 21
369.24270746492311
 31
0.0
  0
INSERT
  5
7E4D
  8
3
  6
CONTINUOUS
 62
     0
  2
_OPEN
 10
-886.08106300000009
 20
369.24270746492311
 30
0.0
 41
20.0
 42
20.0
 43
20.0
 50
180.0
  0
INSERT
  5
7E4E
  8
3
  6
CONTINUOUS
 62
     0
  2
_OPEN
 10
-686.08106299999986
 20
369.24270746492311
 30
0.0
 41
20.0
 42
20.0
 43
20.0
  0
TEXT
  8
3
  40
30
  5
7EAD
  62
0
  72
0
  71
0
 10
-846.081
 20
341.143
 30
0.000000
  1
200
  0
POINT
  5
7E50
  8
DEFPOINTS
  6
CONTINUOUS
 62
     0
 10
-886.08106300000009
 20
317.51672846492312
 30
0.0
  0
POINT
  5
7E51
  8
DEFPOINTS
  6
CONTINUOUS
 62
     0
 10
-686.08106299999986
 20
328.51672846492312
 30
0.0
  0
POINT
  5
7E52
  8
DEFPOINTS
  6
CONTINUOUS
 62
     0
 10
-686.08106299999986
 20
369.24270746492311
 30
0.0
  0
ENDBLK
  5
7BCD
  8
0
  0
BLOCK
  8
0
  2
*D10
 70
     1
 10
0.0
 20
0.0
 30
0.0
  3
*D10
  1

  0
LINE
  5
7E53
  8
3
  6
CONTINUOUS
 62
     0
 10
-334.63182934004118
 20
-314.48327153507682
 30
0.0
 11
-334.63182934004118
 21
-392.64866253507682
 31
0.0
  0
LINE
  5
7E54
  8
3
  6
CONTINUOUS
 62
     0
 10
-84.631829340041364
 20
-314.48327153507682
 30
0.0
 11
-84.631829340041364
 21
-392.64866253507682
 31
0.0
  0
LINE
  5
7E55
  8
3
  6
CONTINUOUS
 62
     0
 10
-314.63182934004118
 20
-382.64866253507682
 30
0.0
 11
-104.63182934004131
 21
-382.64866253507682
 31
0.0
  0
INSERT
  5
7E56
  8
3
  6
CONTINUOUS
 62
     0
  2
_OPEN
 10
-334.63182934004118
 20
-382.64866253507682
 30
0.0
 41
20.0
 42
20.0
 43
20.0
 50
180.0
  0
INSERT
  5
7E57
  8
3
  6
CONTINUOUS
 62
     0
  2
_OPEN
 10
-84.631829340041364
 20
-382.64866253507682
 30
0.0
 41
20.0
 42
20.0
 43
20.0
  0
TEXT
  8
3
  40
30
  5
7EAE
  62
0
  72
0
  71
0
 10
-265.743
 20
-410.749
 30
0.000000
  1
250
  0
POINT
  5
7E59
  8
DEFPOINTS
  6
CONTINUOUS
 62
     0
 10
-334.63182934004118
 20
-309.48327153507682
 30
0.0
  0
POINT
  5
7E5A
  8
DEFPOINTS
  6
CONTINUOUS
 62
     0
 10
-84.631829340041364
 20
-309.48327153507682
 30
0.0
  0
POINT
  5
7E5B
  8
DEFPOINTS
  6
CONTINUOUS
 62
     0
 10
-84.631829340041364
 20
-382.64866253507682
 30
0.0
  0
ENDBLK
  5
7BDA
  8
0
  0
BLOCK
  8
0
  2
*D11
 70
     1
 10
0.0
 20
0.0
 30
0.0
  3
*D11
  1

  0
LINE
  5
7E5C
  8
3
  6
CONTINUOUS
 62
     0
 10
-1436.0810630000001
 20
696.07655403745434
 30
0.0
 11
-1436.0810630000001
 21
517.10572403745425
 31
0.0
  0
LINE
  5
7E5D
  8
3
  6
CONTINUOUS
 62
     0
 10
-666.08106299999997
 20
696.07655403745434
 30
0.0
 11
-666.08106299999997
 21
517.10572403745425
 31
0.0
  0
LINE
  5
7E5E
  8
3
  6
CONTINUOUS
 62
     0
 10
-1416.0810630000001
 20
527.10572403745437
 30
0.0
 11
-686.08106299999986
 21
527.10572403745437
 31
0.0
  0
INSERT
  5
7E5F
  8
3
  6
CONTINUOUS
 62
     0
  2
_OPEN
 10
-1436.0810630000001
 20
527.10572403745437
 30
0.0
 41
20.0
 42
20.0
 43
20.0
 50
180.0
  0
INSERT
  5
7E60
  8
3
  6
CONTINUOUS
 62
     0
  2
_OPEN
 10
-666.08106299999997
 20
527.10572403745437
 30
0.0
 41
20.0
 42
20.0
 43
20.0
  0
TEXT
  8
3
  40
30
  5
7EAF
  62
0
  72
0
  71
0
 10
-1115.38
 20
499.006
 30
0.000000
  1
770
  0
POINT
  5
7E62
  8
DEFPOINTS
  6
CONTINUOUS
 62
     0
 10
-1436.0810630000001
 20
701.07655403745434
 30
0.0
  0
POINT
  5
7E63
  8
DEFPOINTS
  6
CONTINUOUS
 62
     0
 10
-666.08106299999997
 20
701.07655403745434
 30
0.0
  0
POINT
  5
7E64
  8
DEFPOINTS
  6
CONTINUOUS
 62
     0
 10
-666.08106299999997
 20
527.10572403745437
 30
0.0
  0
ENDBLK
  5
7BE7
  8
0
  0
BLOCK
  8
0
  2
*D12
 70
     1
 10
0.0
 20
0.0
 30
0.0
  3
*D12
  1

  0
LINE
  5
7E65
  8
3
  6
CONTINUOUS
 62
     0
 10
-166.63182934004121
 20
313.51672846492312
 30
0.0
 11
-166.63182934004121
 21
374.78203346492307
 31
0.0
  0
LINE
  5
7E66
  8
3
  6
CONTINUOUS
 62
     0
 10
13.368170659958761
 20
313.51672846492312
 30
0.0
 11
13.368170659958761
 21
374.78203346492307
 31
0.0
  0
LINE
  5
7E67
  8
3
  6
CONTINUOUS
 62
     0
 10
-146.63182934004121
 20
364.78203346492319
 30
0.0
 11
-6.6318293400412323
 21
364.78203346492319
 31
0.0
  0
INSERT
  5
7E68
  8
3
  6
CONTINUOUS
 62
     0
  2
_OPEN
 10
-166.63182934004121
 20
364.78203346492319
 30
0.0
 41
20.0
 42
20.0
 43
20.0
 50
180.0
  0
INSERT
  5
7E69
  8
3
  6
CONTINUOUS
 62
     0
  2
_OPEN
 10
13.368170659958761
 20
364.78203346492319
 30
0.0
 41
20.0
 42
20.0
 43
20.0
  0
TEXT
  8
3
  40
30
  5
7EB0
  62
0
  72
0
  71
0
 10
-135.137
 20
336.682
 30
0.000000
  1
180
  0
POINT
  5
7E6B
  8
DEFPOINTS
  6
CONTINUOUS
 62
     0
 10
-166.63182934004121
 20
308.51672846492312
 30
0.0
  0
POINT
  5
7E6C
  8
DEFPOINTS
  6
CONTINUOUS
 62
     0
 10
13.368170659958761
 20
308.51672846492312
 30
0.0
  0
POINT
  5
7E6D
  8
DEFPOINTS
  6
CONTINUOUS
 62
     0
 10
13.368170659958761
 20
364.78203346492319
 30
0.0
  0
ENDBLK
  5
7C07
  8
0
  0
BLOCK
  8
0
  2
*D13
 70
     1
 10
0.0
 20
0.0
 30
0.0
  3
*D13
  1

  0
LINE
  5
7E6E
  8
3
  6
CONTINUOUS
 62
     0
 10
-416.63182934004118
 20
187.51672846492309
 30
0.0
 11
-416.63182934004118
 21
439.05662346492318
 31
0.0
  0
LINE
  5
7E6F
  8
3
  6
CONTINUOUS
 62
     0
 10
-76.631829340041349
 20
418.37459846492322
 30
0.0
 11
-76.631829340041349
 21
439.05662346492318
 31
0.0
  0
LINE
  5
7E70
  8
3
  6
CONTINUOUS
 62
     0
 10
-396.63182934004118
 20
429.05662346492312
 30
0.0
 11
-96.631829340041349
 21
429.05662346492312
 31
0.0
  0
INSERT
  5
7E71
  8
3
  6
CONTINUOUS
 62
     0
  2
_OPEN
 10
-416.63182934004118
 20
429.05662346492312
 30
0.0
 41
20.0
 42
20.0
 43
20.0
 50
180.0
  0
INSERT
  5
7E72
  8
3
  6
CONTINUOUS
 62
     0
  2
_OPEN
 10
-76.631829340041349
 20
429.05662346492312
 30
0.0
 41
20.0
 42
20.0
 43
20.0
  0
TEXT
  8
3
  40
30
  5
7EB1
  62
0
  72
0
  71
0
 10
-297.594
 20
425.957
 30
0.000000
  1
MAX
  0
TEXT
  8
3
  40
30
  5
7EB2
  62
0
  72
0
  71
0
 10
-297.594
 20
386.957
 30
0.000000
  1
340
  0
POINT
  5
7E74
  8
DEFPOINTS
  6
CONTINUOUS
 62
     0
 10
-416.63182934004118
 20
182.51672846492309
 30
0.0
  0
POINT
  5
7E75
  8
DEFPOINTS
  6
CONTINUOUS
 62
     0
 10
-76.631829340041349
 20
413.37459846492322
 30
0.0
  0
POINT
  5
7E76
  8
DEFPOINTS
  6
CONTINUOUS
 62
     0
 10
-76.631829340041349
 20
429.05662346492312
 30
0.0
  0
ENDBLK
  5
7CB5
  8
0
  0
BLOCK
  8
0
  2
*D14
 70
     1
 10
0.0
 20
0.0
 30
0.0
  3
*D14
  1

  0
LINE
  5
7E77
  8
3
  6
CONTINUOUS
 62
     0
 10
22.368170659958761
 20
209.51672846492309
 30
0.0
 11
22.368170659958771
 21
439.05662346492318
 31
0.0
  0
LINE
  5
7E78
  8
3
  6
CONTINUOUS
 62
     0
 10
-56.631829340041349
 20
429.05662346492312
 30
0.0
 11
2.368170659958778
 21
429.05662346492312
 31
0.0
  0
TEXT
  8
3
  40
30
  5
7EB3
  62
0
  72
0
  71
0
 10
-90.2473
 20
401.168
 30
0.000000
  1
99
  0
INSERT
  5
7E7A
  8
3
  6
CONTINUOUS
 62
     0
  2
_OPEN
 10
-76.631829340041349
 20
429.05662346492312
 30
0.0
 41
20.0
 42
20.0
 43
20.0
 50
180.0
  0
INSERT
  5
7E7B
  8
3
  6
CONTINUOUS
 62
     0
  2
_OPEN
 10
22.368170659958771
 20
429.05662346492312
 30
0.0
 41
20.0
 42
20.0
 43
20.0
  0
POINT
  5
7E7C
  8
DEFPOINTS
  6
CONTINUOUS
 62
     0
 10
-76.631829340041349
 20
413.37459846492322
 30
0.0
  0
POINT
  5
7E7D
  8
DEFPOINTS
  6
CONTINUOUS
 62
     0
 10
22.368170659958761
 20
204.51672846492309
 30
0.0
  0
POINT
  5
7E7E
  8
DEFPOINTS
  6
CONTINUOUS
 62
     0
 10
22.368170659958771
 20
429.05662346492312
 30
0.0
  0
ENDBLK
  5
7C64
  8
0
  0
BLOCK
  8
0
  2
*D15
 70
     1
 10
0.0
 20
0.0
 30
0.0
  3
*D15
  1

  0
LINE
  5
7E7F
  8
3
  6
CONTINUOUS
 62
     0
 10
27.368170659958761
 20
182.51672846492309
 30
0.0
 11
104.5331816599587
 21
182.51672846492309
 31
0.0
  0
LINE
  5
7E80
  8
3
  6
CONTINUOUS
 62
     0
 10
27.368170659958761
 20
-67.483271535076824
 30
0.0
 11
104.5331816599586
 21
-67.483271535076852
 31
0.0
  0
LINE
  5
7E81
  8
3
  6
CONTINUOUS
 62
     0
 10
94.533181659958743
 20
162.51672846492309
 30
0.0
 11
94.533181659958686
 21
-47.483271535076838
 31
0.0
  0
INSERT
  5
7E82
  8
3
  6
CONTINUOUS
 62
     0
  2
_OPEN
 10
94.533181659958743
 20
182.51672846492309
 30
0.0
 41
20.0
 42
20.0
 43
20.0
 50
90.0
  0
INSERT
  5
7E83
  8
3
  6
CONTINUOUS
 62
     0
  2
_OPEN
 10
94.533181659958686
 20
-67.483271535076838
 30
0.0
 41
20.0
 42
20.0
 43
20.0
 50
270.0
  0
TEXT
  8
3
  40
30
  5
7EB4
  62
0
  72
0
  71
0
 10
9.53318
 20
-5.31115
 30
0.000000
  1
φ250
  0
POINT
  5
7E85
  8
DEFPOINTS
  6
CONTINUOUS
 62
     0
 10
22.368170659958761
 20
182.51672846492309
 30
0.0
  0
POINT
  5
7E86
  8
DEFPOINTS
  6
CONTINUOUS
 62
     0
 10
22.368170659958761
 20
-67.483271535076824
 30
0.0
  0
POINT
  5
7E87
  8
DEFPOINTS
  6
CONTINUOUS
 62
     0
 10
94.533181659958686
 20
-67.483271535076838
 30
0.0
  0
ENDBLK
  5
7CC0
  8
0
  0
BLOCK
  8
0
  2
*D16
 70
     1
 10
0.0
 20
0.0
 30
0.0
  3
*D16
  1

  0
LINE
  5
7E88
  8
3
 62
     0
 10
-686.08106299999986
 20
333.51672846492312
 30
0.0
 11
-686.08106299999986
 21
455.28427367544731
 31
0.0
  0
LINE
  5
7E89
  8
3
 62
     0
 10
-1436.0810630000001
 20
-274.48327153507682
 30
0.0
 11
-1436.0810630000001
 21
455.28427367544731
 31
0.0
  0
LINE
  5
7E8A
  8
3
 62
     0
 10
-706.08106299999986
 20
445.28427367544731
 30
0.0
 11
-1416.0810630000001
 21
445.28427367544731
 31
0.0
  0
INSERT
  5
7E8B
  8
3
 62
     0
  2
_OPEN
 10
-686.08106299999986
 20
445.28427367544731
 30
0.0
 41
20.0
 42
20.0
 43
20.0
  0
INSERT
  5
7E8C
  8
3
 62
     0
  2
_OPEN
 10
-1436.0810630000001
 20
445.28427367544731
 30
0.0
 41
20.0
 42
20.0
 43
20.0
 50
180.0
  0
TEXT
  8
3
  40
30
  5
7EB5
  62
0
  72
0
  71
0
 10
-1109.42
 20
417.184
 30
0.000000
  1
750
  0
POINT
  5
7E8E
  8
DEFPOINTS
 62
     0
 10
-686.08106299999986
 20
328.51672846492312
 30
0.0
  0
POINT
  5
7E8F
  8
DEFPOINTS
 62
     0
 10
-1436.0810630000001
 20
-279.48327153507682
 30
0.0
  0
POINT
  5
7E90
  8
DEFPOINTS
 62
     0
 10
-1436.0810630000001
 20
445.28427367544731
 30
0.0
  0
ENDBLK
  5
7CE6
  8
0
  0
BLOCK
  8
0
  2
*D17
 70
     1
 10
0.0
 20
0.0
 30
0.0
  3
*D17
  1

  0
LINE
  5
7E91
  8
3
 62
     0
 10
-84.631829340041364
 20
-314.48327153507682
 30
0.0
 11
-84.631829340041364
 21
-392.64866253507682
 31
0.0
  0
LINE
  5
7E92
  8
3
 62
     0
 10
-76.631829340041349
 20
-270.15982100763722
 30
0.0
 11
-76.631829340041364
 21
-392.64866253507682
 31
0.0
  0
LINE
  5
7E93
  8
3
 62
     0
 10
-104.63182934004131
 20
-382.64866253507682
 30
0.0
 11
-124.63182934004131
 21
-382.64866253507682
 31
0.0
  0
LINE
  5
7E94
  8
3
 62
     0
 10
-56.631829340041371
 20
-382.64866253507682
 30
0.0
 11
3.3681706599586358
 21
-382.64866253507682
 31
0.0
  0
LINE
  5
7E95
  8
3
 62
     0
 10
-84.631829340041364
 20
-382.64866253507682
 30
0.0
 11
-76.631829340041364
 21
-382.64866253507682
 31
0.0
  0
INSERT
  5
7E96
  8
3
 62
     0
  2
_OPEN
 10
-84.631829340041364
 20
-382.64866253507682
 30
0.0
 41
20.0
 42
20.0
 43
20.0
  0
INSERT
  5
7E97
  8
3
 62
     0
  2
_OPEN
 10
-76.631829340041364
 20
-382.64866253507682
 30
0.0
 41
20.0
 42
20.0
 43
20.0
 50
180.0
  0
TEXT
  8
3
  40
30
  5
7EB6
  62
0
  72
0
  71
0
 10
-76.6318
 20
-410.749
 30
0.000000
  1
8
  0
POINT
  5
7E99
  8
DEFPOINTS
 62
     0
 10
-84.631829340041364
 20
-309.48327153507682
 30
0.0
  0
POINT
  5
7E9A
  8
DEFPOINTS
 62
     0
 10
-76.631829340041349
 20
-265.15982100763722
 30
0.0
  0
POINT
  5
7E9B
  8
DEFPOINTS
 62
     0
 10
-76.631829340041364
 20
-382.64866253507682
 30
0.0
  0
ENDBLK
  5
7D03
  8
0
  0
BLOCK
  8
0
  2
*D18
 70
     1
 10
0.0
 20
0.0
 30
0.0
  3
*D18
  1

  0
LINE
  5
7E9C
  8
3
 62
     0
 10
-1441.0810630000001
 20
951.07655403745457
 30
0.0
 11
-1497.9825867072341
 21
951.07655403745457
 31
0.0
  0
LINE
  5
7E9D
  8
3
 62
     0
 10
-1441.0810630000001
 20
701.07655403745434
 30
0.0
 11
-1497.9825867072341
 21
701.07655403745434
 31
0.0
  0
LINE
  5
7E9E
  8
3
 62
     0
 10
-1487.9825867072341
 20
931.07655403745446
 30
0.0
 11
-1487.9825867072341
 21
721.07655403745434
 31
0.0
  0
INSERT
  5
7E9F
  8
3
 62
     0
  2
_OPEN
 10
-1487.9825867072341
 20
951.07655403745457
 30
0.0
 41
20.0
 42
20.0
 43
20.0
 50
90.0
  0
INSERT
  5
7EA0
  8
3
 62
     0
  2
_OPEN
 10
-1487.9825867072341
 20
701.07655403745434
 30
0.0
 41
20.0
 42
20.0
 43
20.0
 50
270.0
  0
TEXT
  8
3
  40
30
  5
7EB7
  62
0
  72
0
  71
0
 10
-1572.98
 20
758.659
 30
0.000000
  1
250
  0
POINT
  5
7EA2
  8
DEFPOINTS
 62
     0
 10
-1436.0810630000001
 20
951.07655403745457
 30
0.0
  0
POINT
  5
7EA3
  8
DEFPOINTS
 62
     0
 10
-1436.0810630000001
 20
701.07655403745434
 30
0.0
  0
POINT
  5
7EA4
  8
DEFPOINTS
 62
     0
 10
-1487.9825867072341
 20
701.07655403745434
 30
0.0
  0
ENDBLK
  5
7D0F
  8
0
  0
ENDSEC
  0
SECTION
  2
ENTITIES
  0
LINE
  5
7A8D
  8
1
  6
CONTINUOUS
 10
-1436.0810630000001
 20
-309.48327153507682
 30
0.0
 11
-666.08106299999997
 21
-309.48327153507682
 31
0.0
  0
LINE
  5
7A8E
  8
1
  6
CONTINUOUS
 10
-1436.0810630000001
 20
-279.48327153507682
 30
0.0
 11
-666.08106299999997
 21
-279.48327153507682
 31
0.0
  0
LINE
  5
7A8F
  8
1
  6
CONTINUOUS
 10
-666.08106299999997
 20
701.07655403745434
 30
0.0
 11
-874.08106299999997
 21
701.07655403745434
 31
0.0
  0
LINE
  5
7A90
  8
1
  6
CONTINUOUS
 10
-666.08106299999997
 20
951.07655403745457
 30
0.0
 11
-686.08106299999986
 21
951.07655403745457
 31
0.0
  0
ARC
  5
7A91
  8
1
  6
CONTINUOUS
 10
-903.08106300000009
 20
74.516728464923176
 30
0.0
 40
203.6999999999999
 50
184.59999999999999
 51
275.49999999999989
  0
ARC
  5
7A92
  8
1
  6
CONTINUOUS
 10
-866.08106299999997
 20
77.516728464923176
 30
0.0
 40
240.90000000000001
 50
94.900000000000006
 51
184.59999999999999
  0
LINE
  5
7A93
  8
1
  6
CONTINUOUS
 10
-1406.0810630000001
 20
-257.48327153507682
 30
0.0
 11
-696.08106299999997
 21
-257.48327153507682
 31
0.0
  0
LINE
  5
7A94
  8
1
  6
CONTINUOUS
 10
-1406.0810630000001
 20
-197.4832715350768
 30
0.0
 11
-696.08106299999997
 21
-197.4832715350768
 31
0.0
  0
LINE
  5
7A95
  8
1
  6
CONTINUOUS
 10
-885.88106300000004
 20
182.51672846492309
 30
0.0
 11
-1341.0810630000001
 21
-17.48327153507682
 31
0.0
  0
LINE
  5
7A96
  8
1
  6
CONTINUOUS
 10
-1227.7810629999999
 20
-158.68327153507681
 30
0.0
 11
-860.98106299999995
 21
-0.7832715350767785
 31
0.0
  0
LINE
  5
7A97
  8
1
  6
CONTINUOUS
 10
-1272.181063
 20
-62.483271535076817
 30
0.0
 11
-914.18106300000011
 21
114.4167284649231
 31
0.0
  0
LINE
  5
7A98
  8
1
  6
CONTINUOUS
 10
-1341.0810630000001
 20
-197.4832715350768
 30
0.0
 11
-1341.0810630000001
 21
-17.48327153507682
 31
0.0
  0
LINE
  5
7A99
  8
1
  6
CONTINUOUS
 10
-1151.381063
 20
-177.4832715350768
 30
0.0
 11
-1406.0810630000001
 21
-177.4832715350768
 31
0.0
  0
LINE
  5
7A9A
  8
1
  6
CONTINUOUS
 10
-1436.0810630000001
 20
-279.48327153507682
 30
0.0
 11
-1436.0810630000001
 21
-309.48327153507682
 31
0.0
  0
LINE
  5
7A9B
  8
1
  6
CONTINUOUS
 10
-1406.0810630000001
 20
-197.4832715350768
 30
0.0
 11
-1406.0810630000001
 21
-257.48327153507682
 31
0.0
  0
LINE
  5
7A9C
  8
1
  6
CONTINUOUS
 10
-1406.0810630000001
 20
-177.4832715350768
 30
0.0
 11
-1406.0810630000001
 21
-197.4832715350768
 31
0.0
  0
ARC
  5
7A9D
  8
1
  6
CONTINUOUS
 10
-1248.681063
 20
-109.9832715350768
 30
0.0
 40
75.799999999999997
 50
322.89999999999992
 51
217.09999999999991
  0
CIRCLE
  5
7A9E
  8
1
  6
CONTINUOUS
 10
-1248.681063
 20
-109.9832715350768
 30
0.0
 40
53.0
  0
LINE
  5
7A9F
  8
2
  6
CENTER
 10
-1301.681063
 20
-109.9832715350768
 30
0.0
 11
-1195.681063
 21
-109.9832715350768
 31
0.0
  0
LINE
  5
7AA0
  8
1
  6
CONTINUOUS
 10
-1314.681063
 20
-177.4832715350768
 30
0.0
 11
-1314.681063
 21
-169.9832715350768
 31
0.0
  0
LINE
  5
7AA1
  8
1
  6
CONTINUOUS
 10
-1314.681063
 20
-169.9832715350768
 30
0.0
 11
-1309.181063
 21
-155.68327153507681
 31
0.0
  0
LINE
  5
7AA2
  8
2
  6
CENTER
 10
-1248.681063
 20
-162.9832715350768
 30
0.0
 11
-1248.681063
 21
-56.983271535076817
 31
0.0
  0
POINT
  5
7AA3
  8
1
  6
CONTINUOUS
 10
-1178.2810629999999
 20
-109.9832715350768
 30
0.0
  0
LINE
  5
7AA4
  8
1
  6
CONTINUOUS
 10
-1182.681063
 20
-169.9832715350768
 30
0.0
 11
-1188.2810629999999
 21
-155.68327153507681
 31
0.0
  0
LINE
  5
7AA5
  8
1
  6
CONTINUOUS
 10
-1182.681063
 20
-177.4832715350768
 30
0.0
 11
-1182.681063
 21
-169.9832715350768
 31
0.0
  0
LINE
  5
7AA6
  8
1
  6
CONTINUOUS
 10
-1151.381063
 20
-197.4832715350768
 30
0.0
 11
-1151.381063
 21
-177.4832715350768
 31
0.0
  0
CIRCLE
  5
7AA7
  8
1
  6
CONTINUOUS
 10
-886.08106300000009
 20
57.516728464923183
 30
0.0
 40
145.0
  0
CIRCLE
  5
7AA8
  8
1
  6
CONTINUOUS
 10
-886.08106300000009
 20
57.516728464923183
 30
0.0
 40
125.0
  0
ARC
  5
7AA9
  8
1
  6
CONTINUOUS
 10
-900.08106300000009
 20
43.516728464923169
 30
0.0
 40
172.59999999999991
 50
275.49999999999989
 51
1.3
  0
LINE
  5
7AAA
  8
1
  6
CONTINUOUS
 10
-1046.0810630000001
 20
123.6167284649231
 30
0.0
 11
-1046.0810630000001
 21
-197.4832715350768
 31
0.0
  0
LINE
  5
7AAB
  8
1
  6
CONTINUOUS
 10
-726.08106299999986
 20
-197.4832715350768
 30
0.0
 11
-726.08106299999986
 21
123.6167284649231
 31
0.0
  0
LINE
  5
7AAC
  8
1
  6
CONTINUOUS
 10
-761.08106299999986
 20
-197.4832715350768
 30
0.0
 11
-761.08106299999986
 21
112.5167284649231
 31
0.0
  0
LINE
  5
7AAD
  8
1
  6
CONTINUOUS
 10
-696.08106299999997
 20
-197.4832715350768
 30
0.0
 11
-696.08106299999997
 21
-257.48327153507682
 31
0.0
  0
LINE
  5
7AAE
  8
2
  6
CENTER
 10
34.331250659958748
 20
57.516728464923183
 30
0.0
 11
-442.80212034004131
 21
57.516728464923183
 31
0.0
  0
LINE
  5
7AAF
  8
1
  6
CONTINUOUS
 10
-726.08106299999986
 20
24.216728464923222
 30
0.0
 11
-1046.0810630000001
 21
24.216728464923222
 31
0.0
  0
LINE
  5
7AB0
  8
1
  6
CONTINUOUS
 10
-824.48106299999995
 20
207.51672846492309
 30
0.0
 11
-947.68106300000011
 21
207.51672846492309
 31
0.0
  0
CIRCLE
  5
7AB1
  8
1
  6
CONTINUOUS
 10
-886.08106300000009
 20
57.516728464923183
 30
0.0
 40
63.5
  0
LINE
  5
7AB2
  8
1
  6
CONTINUOUS
 10
-947.68106300000011
 20
207.51672846492309
 30
0.0
 11
-1046.0810630000001
 21
123.6167284649231
 31
0.0
  0
LINE
  5
7AB3
  8
1
  6
CONTINUOUS
 10
-686.08106299999986
 20
36.516728464923169
 30
0.0
 11
-686.08106299999986
 21
328.51672846492312
 31
0.0
  0
LINE
  5
7AB4
  8
1
  6
CONTINUOUS
 10
-706.08106299999986
 20
287.51672846492312
 30
0.0
 11
-706.08106299999986
 21
77.516728464923176
 31
0.0
  0
LINE
  5
7AB5
  8
1
  6
CONTINUOUS
 10
-824.48106299999995
 20
207.51672846492309
 30
0.0
 11
-726.08106299999986
 21
123.6167284649231
 31
0.0
  0
LINE
  5
7AB6
  8
1
  6
CONTINUOUS
 10
-761.08106299999986
 20
112.5167284649231
 30
0.0
 11
-885.88106300000004
 21
182.51672846492309
 31
0.0
  0
LINE
  5
7AB7
  8
2
  6
CENTER
 10
-886.08106300000009
 20
1077.8993020374539
 30
0.0
 11
-886.08106300000009
 21
589.90396603745432
 31
0.0
  0
LINE
  5
7AB8
  8
1
  6
CONTINUOUS
 10
-706.08106299999986
 20
47.516728464923183
 30
0.0
 11
-727.48106299999995
 21
47.516728464923183
 31
0.0
  0
LINE
  5
7AB9
  8
1
  6
CONTINUOUS
 10
-686.08106299999986
 20
57.516728464923183
 30
0.0
 11
-706.08106299999986
 21
77.516728464923176
 31
0.0
  0
LINE
  5
7ABA
  8
1
  6
CONTINUOUS
 10
-686.08106299999986
 20
57.516728464923183
 30
0.0
 11
-706.08106299999986
 21
57.516728464923183
 31
0.0
  0
LINE
  5
7ABB
  8
1
  6
CONTINUOUS
 10
-706.08106299999986
 20
57.516728464923183
 30
0.0
 11
-706.08106299999986
 21
47.516728464923183
 31
0.0
  0
LINE
  5
7ABC
  8
1
  6
CONTINUOUS
 10
-706.08106299999986
 20
317.51672846492312
 30
0.0
 11
-886.48106299999995
 21
317.51672846492312
 31
0.0
  0
LINE
  5
7ABD
  8
1
  6
CONTINUOUS
 10
-686.08106299999986
 20
307.51672846492312
 30
0.0
 11
-706.08106299999986
 21
287.51672846492312
 31
0.0
  0
LINE
  5
7ABE
  8
1
  6
CONTINUOUS
 10
-706.08106299999986
 20
317.51672846492312
 30
0.0
 11
-706.08106299999986
 21
307.51672846492312
 31
0.0
  0
LINE
  5
7ABF
  8
1
  6
CONTINUOUS
 10
-686.08106299999986
 20
307.51672846492312
 30
0.0
 11
-706.08106299999986
 21
307.51672846492312
 31
0.0
  0
LINE
  5
7AC0
  8
1
  6
CONTINUOUS
 10
-1096.9810629999999
 20
951.07655403745457
 30
0.0
 11
-1436.0810630000001
 21
951.07655403745457
 31
0.0
  0
LINE
  5
7AC1
  8
1
  6
CONTINUOUS
 10
-761.08106299999986
 20
619.07655403745434
 30
0.0
 11
-1341.0810630000001
 21
619.07655403745434
 31
0.0
  0
LINE
  5
7AC2
  8
1
  6
CONTINUOUS
 10
-761.08106299999986
 20
694.07655403745434
 30
0.0
 11
-1341.0810630000001
 21
694.07655403745434
 31
0.0
  0
LINE
  5
7AC3
  8
1
  6
CONTINUOUS
 10
-898.08106299999997
 20
701.07655403745434
 30
0.0
 11
-1236.681063
 21
701.07655403745434
 31
0.0
  0
LINE
  5
7AC4
  8
1
  6
CONTINUOUS
 10
-1436.0810630000001
 20
951.07655403745457
 30
0.0
 11
-1436.0810630000001
 21
701.07655403745434
 31
0.0
  0
LINE
  5
7AC5
  8
1
  6
CONTINUOUS
 10
-1260.7810629999999
 20
701.07655403745434
 30
0.0
 11
-1436.0810630000001
 21
701.07655403745434
 31
0.0
  0
LINE
  5
7AC6
  8
1
  6
CONTINUOUS
 10
-1341.0810630000001
 20
619.07655403745434
 30
0.0
 11
-1341.0810630000001
 21
694.07655403745434
 31
0.0
  0
LINE
  5
7AC7
  8
1
  6
CONTINUOUS
 10
-1172.0810630000001
 20
725.37655403745441
 30
0.0
 11
-1323.5810630000001
 21
725.37655403745441
 31
0.0
  0
LINE
  5
7AC8
  8
1
  6
CONTINUOUS
 10
-1172.0810630000001
 20
929.37655403745453
 30
0.0
 11
-1323.5810630000001
 21
929.37655403745453
 31
0.0
  0
LINE
  5
7AC9
  8
1
  6
CONTINUOUS
 10
-1195.681063
 20
674.07655403745434
 30
0.0
 11
-1301.681063
 21
674.07655403745434
 31
0.0
  0
LINE
  5
7ACA
  8
1
  6
CONTINUOUS
 10
-1195.681063
 20
639.07655403745434
 30
0.0
 11
-1301.681063
 21
639.07655403745434
 31
0.0
  0
LINE
  5
7ACB
  8
1
  6
CONTINUOUS
 10
-1236.7810629999999
 20
674.07655403745434
 30
0.0
 11
-1236.681063
 21
725.37655403745441
 31
0.0
  0
LINE
  5
7ACC
  8
1
  6
CONTINUOUS
 10
-1260.681063
 20
674.07655403745434
 30
0.0
 11
-1260.7810629999999
 21
725.37655403745441
 31
0.0
  0
LINE
  5
7ACD
  8
1
  6
CONTINUOUS
 10
-1323.5810630000001
 20
725.37655403745441
 30
0.0
 11
-1323.5810630000001
 21
929.37655403745453
 31
0.0
  0
LINE
  5
7ACE
  8
1
  6
CONTINUOUS
 10
-1301.681063
 20
639.07655403745434
 30
0.0
 11
-1301.681063
 21
674.07655403745434
 31
0.0
  0
LINE
  5
7ACF
  8
1
  6
CONTINUOUS
 10
-1172.0810630000001
 20
725.37655403745441
 30
0.0
 11
-1172.0810630000001
 21
929.37655403745453
 31
0.0
  0
LINE
  5
7AD0
  8
1
  6
CONTINUOUS
 10
-1195.681063
 20
639.07655403745434
 30
0.0
 11
-1195.681063
 21
674.07655403745434
 31
0.0
  0
LINE
  5
7AD1
  8
1
  6
CONTINUOUS
 10
-1096.9810629999999
 20
1036.8765540374541
 30
0.0
 11
-1096.9810629999999
 21
881.2765540374545
 31
0.0
  0
LINE
  5
7AD2
  8
1
  6
CONTINUOUS
 10
-706.08106299999986
 20
1019.876554037454
 30
0.0
 11
-706.08106299999986
 21
898.27655403745428
 31
0.0
  0
LINE
  5
7AD3
  8
1
  6
CONTINUOUS
 10
-686.08106299999986
 20
1070.0765540374539
 30
0.0
 11
-686.08106299999986
 21
848.07655403745434
 31
0.0
  0
LINE
  5
7AD4
  8
1
  6
CONTINUOUS
 10
-686.08106299999986
 20
869.27655403745439
 30
0.0
 11
-1084.9810629999999
 21
869.27655403745439
 31
0.0
  0
LINE
  5
7AD5
  8
1
  6
CONTINUOUS
 10
-726.08106299999986
 20
860.07655403745434
 30
0.0
 11
-1046.0810630000001
 21
860.07655403745434
 31
0.0
  0
LINE
  5
7AD6
  8
1
  6
CONTINUOUS
 10
-822.58106299999986
 20
674.07655403745434
 30
0.0
 11
-949.58106300000009
 21
674.07655403745434
 31
0.0
  0
LINE
  5
7AD7
  8
1
  6
CONTINUOUS
 10
-822.58106299999986
 20
639.07655403745434
 30
0.0
 11
-949.58106300000009
 21
639.07655403745434
 31
0.0
  0
LINE
  5
7AD8
  8
1
  6
CONTINUOUS
 10
-898.08106299999997
 20
731.07655403745446
 30
0.0
 11
-1046.0810630000001
 21
731.07655403745446
 31
0.0
  0
LINE
  5
7AD9
  8
1
  6
CONTINUOUS
 10
-1033.0810630000001
 20
869.27655403745439
 30
0.0
 11
-1033.0810630000001
 21
860.07655403745434
 31
0.0
  0
ARC
  5
7ADA
  8
1
  6
CONTINUOUS
 10
-1084.9810629999999
 20
881.2765540374545
 30
0.0
 40
12.0
 50
180.0
 51
270.0
  0
LINE
  5
7ADB
  8
1
  6
CONTINUOUS
 10
-1046.0810630000001
 20
860.07655403745434
 30
0.0
 11
-1046.0810630000001
 21
731.07655403745446
 31
0.0
  0
LINE
  5
7ADC
  8
1
  6
CONTINUOUS
 10
-949.58106300000009
 20
639.07655403745434
 30
0.0
 11
-949.58106300000009
 21
674.07655403745434
 31
0.0
  0
LINE
  5
7ADD
  8
1
  6
CONTINUOUS
 10
-761.08106299999986
 20
619.07655403745434
 30
0.0
 11
-761.08106299999986
 21
694.07655403745434
 31
0.0
  0
LINE
  5
7ADE
  8
1
  6
CONTINUOUS
 10
-726.08106299999986
 20
731.07655403745446
 30
0.0
 11
-874.08106299999997
 21
731.07655403745446
 31
0.0
  0
LINE
  5
7ADF
  8
1
  6
CONTINUOUS
 10
-822.58106299999986
 20
639.07655403745434
 30
0.0
 11
-822.58106299999986
 21
674.07655403745434
 31
0.0
  0
LINE
  5
7AE0
  8
1
  6
CONTINUOUS
 10
-898.08106299999997
 20
674.07655403745434
 30
0.0
 11
-898.08106299999997
 21
860.07655403745434
 31
0.0
  0
LINE
  5
7AE1
  8
1
  6
CONTINUOUS
 10
-874.08106299999997
 20
674.07655403745434
 30
0.0
 11
-874.08106299999997
 21
860.07655403745434
 31
0.0
  0
LINE
  5
7AE2
  8
1
  6
CONTINUOUS
 10
-739.08106299999986
 20
869.27655403745439
 30
0.0
 11
-739.08106299999986
 21
860.07655403745434
 31
0.0
  0
LINE
  5
7AE3
  8
1
  6
CONTINUOUS
 10
-686.08106299999986
 20
878.27655403745439
 30
0.0
 11
-706.08106299999986
 21
898.27655403745428
 31
0.0
  0
LINE
  5
7AE4
  8
1
  6
CONTINUOUS
 10
-726.08106299999986
 20
731.07655403745446
 30
0.0
 11
-726.08106299999986
 21
860.07655403745434
 31
0.0
  0
LINE
  5
7AE5
  8
1
  6
CONTINUOUS
 10
-686.08106299999986
 20
1048.8765540374541
 30
0.0
 11
-1084.9810629999999
 21
1048.8765540374541
 31
0.0
  0
LINE
  5
7AE6
  8
1
  6
CONTINUOUS
 10
-1033.0810630000001
 20
1058.0765540374539
 30
0.0
 11
-739.08106299999986
 21
1058.0765540374539
 31
0.0
  0
ARC
  5
7AE7
  8
1
  6
CONTINUOUS
 10
-1084.9810629999999
 20
1036.8765540374541
 30
0.0
 40
12.0
 50
90.0
 51
180.0
  0
LINE
  5
7AE8
  8
1
  6
CONTINUOUS
 10
-1033.0810630000001
 20
1049.8765540374541
 30
0.0
 11
-1033.0810630000001
 21
1058.0765540374539
 31
0.0
  0
LINE
  5
7AE9
  8
1
  6
CONTINUOUS
 10
-686.08106299999986
 20
1039.8765540374541
 30
0.0
 11
-706.08106299999986
 21
1019.876554037454
 31
0.0
  0
LINE
  5
7AEA
  8
1
  6
CONTINUOUS
 10
-739.08106299999986
 20
1049.8765540374541
 30
0.0
 11
-739.08106299999986
 21
1058.0765540374539
 31
0.0
  0
LINE
  5
7AEB
  8
1
  6
CONTINUOUS
 10
-334.63182934004118
 20
-279.48327153507682
 30
0.0
 11
-84.631829340041364
 21
-279.48327153507682
 31
0.0
  0
LINE
  5
7AEC
  8
1
  6
CONTINUOUS
 10
-334.63182934004118
 20
-309.48327153507682
 30
0.0
 11
-84.631829340041364
 21
-309.48327153507682
 31
0.0
  0
LINE
  5
7AED
  8
1
  6
CONTINUOUS
 10
-416.63182934004118
 20
-197.4832715350768
 30
0.0
 11
-84.631829340041364
 21
-197.4832715350768
 31
0.0
  0
LINE
  5
7AEE
  8
1
  6
CONTINUOUS
 10
-334.63182934004118
 20
-257.48327153507682
 30
0.0
 11
-84.631829340041364
 21
-257.48327153507682
 31
0.0
  0
LINE
  5
7AEF
  8
1
  6
CONTINUOUS
 10
-304.63182934004118
 20
19.31672846492318
 30
0.0
 11
-175.63182934004121
 21
123.6167284649231
 31
0.0
  0
LINE
  5
7AF0
  8
1
  6
CONTINUOUS
 10
-304.63182934004118
 20
-197.4832715350768
 30
0.0
 11
-304.63182934004118
 21
19.31672846492318
 31
0.0
  0
LINE
  5
7AF1
  8
1
  6
CONTINUOUS
 10
-416.63182934004118
 20
-197.4832715350768
 30
0.0
 11
-416.63182934004118
 21
182.51672846492309
 31
0.0
  0
LINE
  5
7AF2
  8
1
  6
CONTINUOUS
 10
-341.63182934004118
 20
-197.4832715350768
 30
0.0
 11
-341.63182934004118
 21
182.51672846492309
 31
0.0
  0
LINE
  5
7AF6
  8
1
  6
CONTINUOUS
 10
-666.08106299999997
 20
-279.48327153507682
 30
0.0
 11
-666.08106299999997
 21
-309.48327153507682
 31
0.0
  0
LINE
  5
7AF8
  8
1
  6
CONTINUOUS
 10
-361.63182934004118
 20
-121.9832715350768
 30
0.0
 11
-304.63182934004118
 21
-121.9832715350768
 31
0.0
  0
LINE
  5
7AF9
  8
1
  6
CONTINUOUS
 10
-361.63182934004118
 20
-97.983271535076824
 30
0.0
 11
-304.63182934004118
 21
-97.983271535076824
 31
0.0
  0
LINE
  5
7AFA
  8
1
  6
CONTINUOUS
 10
-396.63182934004118
 20
-56.983271535076817
 30
0.0
 11
-361.63182934004118
 21
-56.983271535076817
 31
0.0
  0
LINE
  5
7AFB
  8
1
  6
CONTINUOUS
 10
-396.63182934004118
 20
-56.983271535076817
 30
0.0
 11
-396.63182934004118
 21
-162.9832715350768
 31
0.0
  0
LINE
  5
7AFC
  8
1
  6
CONTINUOUS
 10
-396.63182934004118
 20
-162.9832715350768
 30
0.0
 11
-361.63182934004118
 21
-162.9832715350768
 31
0.0
  0
LINE
  5
7AFD
  8
1
  6
CONTINUOUS
 10
-361.63182934004118
 20
-56.983271535076817
 30
0.0
 11
-361.63182934004118
 21
-162.9832715350768
 31
0.0
  0
LINE
  5
7AFE
  8
1
  6
CONTINUOUS
 10
-334.63182934004118
 20
-279.48327153507682
 30
0.0
 11
-334.63182934004118
 21
-309.48327153507682
 31
0.0
  0
LINE
  5
7AFF
  8
1
  6
CONTINUOUS
 10
-334.63182934004118
 20
-197.4832715350768
 30
0.0
 11
-334.63182934004118
 21
-257.48327153507682
 31
0.0
  0
LINE
  5
7B00
  8
1
  6
CONTINUOUS
 10
-416.63182934004118
 20
182.51672846492309
 30
0.0
 11
-341.63182934004118
 21
182.51672846492309
 31
0.0
  0
LINE
  5
7B01
  8
1
  6
CONTINUOUS
 10
-361.63182934004118
 20
69.516728464923176
 30
0.0
 11
-242.53182934004121
 21
69.516728464923176
 31
0.0
  0
LINE
  5
7B02
  8
1
  6
CONTINUOUS
 10
-361.63182934004118
 20
45.516728464923169
 30
0.0
 11
-272.2318293400412
 21
45.516728464923169
 31
0.0
  0
LINE
  5
7B03
  8
1
  6
CONTINUOUS
 10
-396.63182934004118
 20
121.0167284649231
 30
0.0
 11
-396.63182934004118
 21
-5.9832715350768231
 31
0.0
  0
LINE
  5
7B04
  8
1
  6
CONTINUOUS
 10
-396.63182934004118
 20
121.0167284649231
 30
0.0
 11
-361.63182934004118
 21
121.0167284649231
 31
0.0
  0
LINE
  5
7B05
  8
1
  6
CONTINUOUS
 10
-396.63182934004118
 20
-5.9832715350768231
 30
0.0
 11
-361.63182934004118
 21
-5.9832715350768231
 31
0.0
  0
LINE
  5
7B06
  8
1
  6
CONTINUOUS
 10
-361.63182934004118
 20
121.0167284649231
 30
0.0
 11
-361.63182934004118
 21
-5.9832715350768231
 31
0.0
  0
LINE
  5
7B07
  8
1
  6
CONTINUOUS
 10
22.368170659958761
 20
204.51672846492309
 30
0.0
 11
22.368170659958761
 21
-89.483271535076824
 31
0.0
  0
LINE
  5
7B08
  8
1
  6
CONTINUOUS
 10
13.368170659958761
 20
-141.38327153507669
 30
0.0
 11
13.368170659958761
 21
308.51672846492312
 31
0.0
  0
LINE
  5
7B09
  8
1
  6
CONTINUOUS
 10
-166.63182934004121
 20
308.51672846492312
 30
0.0
 11
-166.63182934004121
 21
-141.38327153507669
 31
0.0
  0
LINE
  5
7B0A
  8
1
  6
CONTINUOUS
 10
-175.63182934004121
 20
204.51672846492309
 30
0.0
 11
-175.63182934004121
 21
-197.4832715350768
 31
0.0
  0
LINE
  5
7B0B
  8
1
  6
CONTINUOUS
 10
-155.63182934004121
 20
-153.3832715350768
 30
0.0
 11
2.3681706599586501
 21
-153.3832715350768
 31
0.0
  0
LINE
  5
7B0C
  8
1
  6
CONTINUOUS
 10
-166.63182934004121
 20
-89.483271535076824
 30
0.0
 11
-175.63182934004121
 21
-89.483271535076824
 31
0.0
  0
ARC
  5
7B0D
  8
1
  6
CONTINUOUS
 10
-155.63182934004121
 20
-141.38327153507669
 30
0.0
 40
12.0
 50
180.0
 51
270.0
  0
ARC
  5
7B0E
  8
1
  6
CONTINUOUS
 10
-154.63182934004121
 20
-141.38327153507669
 30
0.0
 40
12.0
 50
180.0
 51
270.0
  0
LINE
  5
7B0F
  8
1
  6
CONTINUOUS
 10
-84.631829340041364
 20
-279.48327153507682
 30
0.0
 11
-84.631829340041364
 21
-309.48327153507682
 31
0.0
  0
LINE
  5
7B10
  8
1
  6
CONTINUOUS
 10
-84.631829340041364
 20
-197.4832715350768
 30
0.0
 11
-84.631829340041364
 21
-257.48327153507682
 31
0.0
  0
LINE
  5
7B11
  8
1
  6
CONTINUOUS
 10
13.368170659958761
 20
-89.483271535076824
 30
0.0
 11
22.368170659958761
 21
-89.483271535076824
 31
0.0
  0
ARC
  5
7B12
  8
1
  6
CONTINUOUS
 10
1.3681706599586501
 20
-141.38327153507669
 30
0.0
 40
12.0
 50
270.0
 51
0.0
  0
LINE
  5
7B13
  8
1
  6
CONTINUOUS
 10
-166.63182934004121
 20
56.516728464923169
 30
0.0
 11
13.368170659958761
 21
56.516728464923169
 31
0.0
  0
LINE
  5
7B14
  8
1
  6
CONTINUOUS
 10
13.368170659958761
 20
308.51672846492312
 30
0.0
 11
-166.63182934004121
 21
308.51672846492312
 31
0.0
  0
LINE
  5
7B15
  8
1
  6
CONTINUOUS
 10
-166.63182934004121
 20
308.51672846492312
 30
0.0
 11
13.368170659958761
 21
56.516728464923169
 31
0.0
  0
LINE
  5
7B16
  8
1
  6
CONTINUOUS
 10
-166.63182934004121
 20
56.516728464923169
 30
0.0
 11
13.368170659958761
 21
308.51672846492312
 31
0.0
  0
LINE
  5
7B17
  8
1
  6
CONTINUOUS
 10
-166.63182934004121
 20
204.51672846492309
 30
0.0
 11
-175.63182934004121
 21
204.51672846492309
 31
0.0
  0
LINE
  5
7B18
  8
1
  6
CONTINUOUS
 10
13.368170659958761
 20
204.51672846492309
 30
0.0
 11
22.368170659958761
 21
204.51672846492309
 31
0.0
  0
LINE
  5
7B19
  8
1
  6
CONTINUOUS
 10
-666.08106299999997
 20
951.07655403745457
 30
0.0
 11
-666.08106299999997
 21
701.07655403745434
 31
0.0
  0
LINE
  5
7B1A
  8
4
  6
CONTINUOUS
 10
104.86888
 20
-640.73604199999988
 30
0.0
 11
104.86888
 21
-840.73604199999988
 31
0.0
  0
LINE
  5
7B1B
  8
4
  6
CONTINUOUS
 10
-595.13112000000001
 20
-640.73604199999988
 30
0.0
 11
-595.13112000000001
 21
-840.73604199999988
 31
0.0
  0
LINE
  5
7B1C
  8
4
  6
CONTINUOUS
 10
-1095.13112
 20
-640.73604199999988
 30
0.0
 11
-1095.13112
 21
-840.73604199999988
 31
0.0
  0
LINE
  5
7B1F
  8
4
  6
CONTINUOUS
 10
-1095.13112
 20
-840.73604199999988
 30
0.0
 11
104.86888
 21
-840.73604199999988
 31
0.0
  0
LINE
  5
7B20
  8
4
  6
CONTINUOUS
 10
-1095.13112
 20
-740.73604199999988
 30
0.0
 11
104.86888
 21
-740.73604199999988
 31
0.0
  0
TEXT
  5
7B21
  8
4
  6
CONTINUOUS
 10
-1056.62904
 20
-709.19301599999994
 30
0.0
 40
50.0
  1
機器名称
  0
TEXT
  5
7B22
  8
4
  6
CONTINUOUS
 10
-1058.873014
 20
-819.09088499999984
 30
0.0
 40
50.0
  1
機器型番
  0
TEXT
  5
7B23
  8
4
  6
CONTINUOUS
 10
-567.45237499999985
 20
-718.16427299999998
 30
0.0
 40
45.0
  1
ミツヤニューマルチファン
  0
TEXT
  5
7B24
  8
4
  6
CONTINUOUS
 10
-558.47662500000001
 20
-823.57645799999989
 30
0.0
 40
50.0
  1
NM#1 1/2-1
  0
TEXT
  5
7B26
  8
4
  6
CONTINUOUS
 10
-999.95042899999987
 20
1242.6927989999999
 30
0.0
 40
54.0
  1
床置防振ベット
  0
TEXT
  5
7B27
  8
4
  6
CONTINUOUS
 10
-1428.9635270000001
 20
1393.1449339999999
 30
0.0
 40
72.0
  1
ベルト駆動式片吸込片持多翼ファン
  0
LINE
  5
7B28
  8
4
  6
CONTINUOUS
 10
-1495.13112
 20
1328.6727119999989
 30
0.0
 11
104.86888
 21
1328.6727119999989
 31
0.0
  0
LINE
  5
7B29
  8
4
  6
CONTINUOUS
 10
-1495.13112
 20
1528.6727119999989
 30
0.0
 11
104.86888
 21
1528.6727119999989
 31
0.0
  0
LINE
  5
7B2A
  8
4
  6
CONTINUOUS
 10
-1095.13112
 20
-640.73604199999988
 30
0.0
 11
104.86888
 21
-640.73604199999988
 31
0.0
  0
LINE
  5
7B2B
  8
4
  6
CONTINUOUS
 10
-1495.13112
 20
1528.6727119999989
 30
0.0
 11
-1495.13112
 21
1328.6727119999989
 31
0.0
  0
TEXT
  5
7B2C
  8
4
  6
CONTINUOUS
 10
-1435.8092610000001
 20
1241.583435999999
 30
0.0
 40
54.0
  1
右回転右横向
  0
TEXT
  5
7B2D
  8
4
  6
CONTINUOUS
 10
-276.16156100000001
 20
1565.3250399999999
 30
0.0
 40
56.0
  1
No.
  0
TEXT
  5
7B2E
  8
4
  6
CONTINUOUS
 10
-433.835058
 20
1242.6927989999999
 30
0.0
 40
54.0
  1
縮尺：1/10
  0
LINE
  5
7B2F
  8
4
  6
CONTINUOUS
 10
104.86888
 20
1528.6727119999989
 30
0.0
 11
104.86888
 21
1328.6727119999989
 31
0.0
  0
LINE
  5
7B31
  8
4
  6
CONTINUOUS
 10
-304.51369799999992
 20
1540.5275409999999
 30
0.0
 11
-304.51369799999992
 21
1645.9162199999989
 31
0.0
  0
LINE
  5
7B32
  8
4
  6
CONTINUOUS
 10
-304.51369799999992
 20
1645.9162199999989
 30
0.0
 11
104.86888
 21
1645.9162199999989
 31
0.0
  0
LINE
  5
7B33
  8
4
  6
CONTINUOUS
 10
104.86888
 20
1645.9162199999989
 30
0.0
 11
104.86888
 21
1540.5275409999999
 31
0.0
  0
LINE
  5
7B34
  8
4
  6
CONTINUOUS
 10
104.86888
 20
1540.5275409999999
 30
0.0
 11
-304.51369799999992
 21
1540.5275409999999
 31
0.0
  0
DIMENSION
  5
7B4C
  8
3
  6
CONTINUOUS
  2
*D1
 10
-886.08106300000009
 20
-404.94263153507683
 30
0.0
 11
-1154.916737
 21
-404.94263153507683
 31
0.0
 70
   128
 13
-1436.0810630000001
 23
-309.48327153507682
 33
0.0
 14
-886.08106300000009
 24
-309.48327153507682
 34
0.0
1001
ACAD
1000
DSTYLE
1002
{
1070
   287
1070
     3
1070
   287
1070
     3
1070
    40
1040
10.0
1070
   143
1040
0.039
1070
   172
1070
     1
1070
   271
1070
     0
1070
   279
1070
     0
1070
   288
1070
     1
1002
}
  0
DIMENSION
  5
7B58
  8
3
  6
CONTINUOUS
  2
*D2
 10
-666.08106299999997
 20
-404.94263153507683
 30
0.0
 11
-776.08106299999997
 21
-379.94263153507671
 31
0.0
 70
     0
 13
-886.08106300000009
 23
-309.48327153507682
 33
0.0
 14
-666.08106299999997
 24
-309.48327153507682
 34
0.0
1001
ACAD
1000
DSTYLE
1002
{
1070
   287
1070
     4
1070
   287
1070
     4
1070
    40
1040
10.0
1070
    75
1070
     1
1070
   143
1040
0.039
1070
   172
1070
     1
1070
   271
1070
     0
1070
   279
1070
     1
1070
   288
1070
     1
1002
}
  0
DIMENSION
  5
7B65
  8
3
  6
CONTINUOUS
  2
*D3
 10
-604.13912100000005
 20
57.516728464923148
 30
0.0
 11
-604.13912100000005
 21
188.6443524649232
 31
0.0
 70
   128
 13
-686.08106299999986
 23
307.51672846492312
 33
0.0
 14
-686.08106299999986
 24
57.516728464923183
 34
0.0
 50
90.0
1001
ACAD
1000
DSTYLE
1002
{
1070
   287
1070
     3
1070
   287
1070
     3
1070
    40
1040
10.0
1070
   143
1040
0.039
1070
   172
1070
     1
1070
   271
1070
     0
1070
   279
1070
     0
1070
   288
1070
     1
1002
}
  0
DIMENSION
  5
7B72
  8
3
  6
CONTINUOUS
  2
*D4
 10
-544.80765084724374
 20
57.516728464923141
 30
0.0
 11
-544.80765084724374
 21
189.65350846492319
 31
0.0
 70
   128
 13
-706.08106299999986
 23
317.51672846492312
 33
0.0
 14
-686.08106299999986
 24
57.516728464923183
 34
0.0
 50
90.0
1001
ACAD
1000
DSTYLE
1002
{
1070
   287
1070
     3
1070
   287
1070
     3
1070
    40
1040
10.0
1070
   143
1040
0.039
1070
   172
1070
     1
1070
   271
1070
     0
1070
   279
1070
     0
1070
   288
1070
     1
1002
}
  0
DIMENSION
  5
7B7E
  8
3
  6
CONTINUOUS
  2
*D5
 10
-544.80765084724374
 20
-257.48327153507688
 30
0.0
 11
-569.80765084724362
 21
-99.983271535076966
 31
0.0
 70
     0
 13
-686.08106299999986
 23
57.516728464923183
 33
0.0
 14
-696.08106299999997
 24
-257.48327153507682
 34
0.0
 50
90.0
1001
ACAD
1000
DSTYLE
1002
{
1070
   287
1070
     4
1070
   287
1070
     4
1070
    40
1040
10.0
1070
    75
1070
     1
1070
   143
1040
0.039
1070
   172
1070
     1
1070
   271
1070
     0
1070
   279
1070
     1
1070
   288
1070
     1
1002
}
  0
DIMENSION
  5
7B8E
  8
3
  6
CONTINUOUS
  2
*D6
 10
-544.80765084724385
 20
-309.48327153507688
 30
0.0
 11
-544.80765084724374
 21
-383.76898582079122
 31
0.0
 70
   128
 13
-696.08106299999997
 23
-257.48327153507682
 33
0.0
 14
-666.08106299999997
 24
-309.48327153507682
 34
0.0
 50
90.0
1001
ACAD
1000
DSTYLE
1002
{
1070
   287
1070
     3
1070
   287
1070
     3
1070
    40
1040
10.0
1070
   143
1040
0.039
1070
   172
1070
     1
1070
   271
1070
     0
1070
   279
1070
     0
1070
   288
1070
     1
1002
}
  0
DIMENSION
  5
7BB5
  8
3
  6
CONTINUOUS
  2
*D7
 10
-477.99340869448758
 20
-309.48327153507688
 30
0.0
 11
-477.99340869448758
 21
-8.9438855350767881
 31
0.0
 70
   128
 13
-686.08106299999986
 23
328.51672846492312
 33
0.0
 14
-666.08106299999997
 24
-309.48327153507682
 34
0.0
 50
90.0
1001
ACAD
1000
DSTYLE
1002
{
1070
   287
1070
     3
1070
   287
1070
     3
1070
    40
1040
10.0
1070
   143
1040
0.039
1070
   172
1070
     1
1070
   271
1070
     0
1070
   279
1070
     0
1070
   288
1070
     1
1002
}
  0
DIMENSION
  5
7BC2
  8
3
  6
CONTINUOUS
  2
*D8
 10
-886.08106300000009
 20
369.24270746492311
 30
0.0
 11
-1003.441106
 21
369.24270746492311
 31
0.0
 70
   128
 13
-1106.0704470000001
 23
57.516728464923183
 33
0.0
 14
-886.08106300000009
 24
317.51672846492312
 34
0.0
1001
ACAD
1000
DSTYLE
1002
{
1070
   287
1070
     3
1070
   287
1070
     3
1070
    40
1040
10.0
1070
   143
1040
0.039
1070
   172
1070
     1
1070
   271
1070
     0
1070
   279
1070
     0
1070
   288
1070
     1
1002
}
  0
DIMENSION
  5
7BCE
  8
3
  6
CONTINUOUS
  2
*D9
 10
-686.08106299999986
 20
369.24270746492311
 30
0.0
 11
-786.08106300000009
 21
394.24270746492311
 31
0.0
 70
     0
 13
-886.08106300000009
 23
317.51672846492312
 33
0.0
 14
-686.08106299999986
 24
328.51672846492312
 34
0.0
1001
ACAD
1000
DSTYLE
1002
{
1070
   287
1070
     4
1070
   287
1070
     4
1070
    40
1040
10.0
1070
    75
1070
     1
1070
   143
1040
0.039
1070
   172
1070
     1
1070
   271
1070
     0
1070
   279
1070
     1
1070
   288
1070
     1
1002
}
  0
DIMENSION
  5
7BDB
  8
3
  6
CONTINUOUS
  2
*D10
 10
-84.631829340041364
 20
-382.64866253507682
 30
0.0
 11
-205.7431143400413
 21
-382.64866253507682
 31
0.0
 70
   128
 13
-334.63182934004118
 23
-309.48327153507682
 33
0.0
 14
-84.631829340041364
 24
-309.48327153507682
 34
0.0
1001
ACAD
1000
DSTYLE
1002
{
1070
   287
1070
     3
1070
   287
1070
     3
1070
    40
1040
10.0
1070
   143
1040
0.039
1070
   172
1070
     1
1070
   271
1070
     0
1070
   279
1070
     0
1070
   288
1070
     1
1002
}
  0
DIMENSION
  5
7BE8
  8
3
  6
CONTINUOUS
  2
*D11
 10
-666.08106299999997
 20
527.10572403745437
 30
0.0
 11
-1055.3835799999999
 21
527.10572403745437
 31
0.0
 70
   128
 13
-1436.0810630000001
 23
701.07655403745434
 33
0.0
 14
-666.08106299999997
 24
701.07655403745434
 34
0.0
1001
ACAD
1000
DSTYLE
1002
{
1070
   287
1070
     3
1070
   287
1070
     3
1070
    40
1040
10.0
1070
   143
1040
0.039
1070
   172
1070
     1
1070
   271
1070
     0
1070
   279
1070
     0
1070
   288
1070
     1
1002
}
  0
LINE
  5
7BF7
  8
2
  6
CENTER
 10
-1152.5583989999991
 20
959.07655403745457
 30
0.0
 11
-632.14082699999994
 21
959.07655403745457
 31
0.0
  0
LINE
  5
7BF8
  8
2
  6
CENTER
 10
-886.08106300000009
 20
338.28653846492313
 30
0.0
 11
-886.08106300000009
 21
-328.83750453507679
 31
0.0
  0
LINE
  5
7BF9
  8
2
  6
CENTER
 10
-76.631829340041349
 20
368.37863146492322
 30
0.0
 11
-76.631829340041349
 21
-265.15982100763722
 31
0.0
  0
LINE
  5
7BFB
  8
2
  6
CENTER
 10
-667.19918700000005
 20
57.516728464923183
 30
0.0
 11
-1278.0350860000001
 21
57.516728464923183
 31
0.0
  0
DIMENSION
  5
7C08
  8
3
  6
CONTINUOUS
  2
*D12
 10
13.368170659958761
 20
364.78203346492319
 30
0.0
 11
-75.136681340041264
 21
364.78203346492319
 31
0.0
 70
   128
 13
-166.63182934004121
 23
308.51672846492312
 33
0.0
 14
13.368170659958761
 24
308.51672846492312
 34
0.0
1001
ACAD
1000
DSTYLE
1002
{
1070
   287
1070
     3
1070
   287
1070
     3
1070
    40
1040
10.0
1070
   143
1040
0.039
1070
   172
1070
     1
1070
   271
1070
     0
1070
   279
1070
     0
1070
   288
1070
     1
1002
}
  0
DIMENSION
  5
7C15
  8
3
  6
CONTINUOUS
  2
*D13
 10
-76.631829340041349
 20
429.05662346492312
 30
0.0
 11
-237.59350534004119
 21
429.05662346492312
 31
0.0
 70
   128
  1
MAX\P340
 13
-416.63182934004118
 23
182.51672846492309
 33
0.0
 14
-76.631829340041349
 24
413.37459846492322
 34
0.0
1001
ACAD
1000
DSTYLE
1002
{
1070
   287
1070
     3
1070
   287
1070
     3
1070
    40
1040
10.0
1070
   143
1040
0.039
1070
   172
1070
     1
1070
   271
1070
     0
1070
   279
1070
     0
1070
   288
1070
     1
1002
}
  0
DIMENSION
  5
7C23
  8
3
  6
CONTINUOUS
  2
*D14
 10
22.368170659958771
 20
429.05662346492312
 30
0.0
 11
-30.247303340041299
 21
429.26753346492308
 31
0.0
 70
   128
 13
-76.631829340041349
 23
413.37459846492322
 33
0.0
 14
22.368170659958761
 24
204.51672846492309
 34
0.0
1001
ACAD
1000
DSTYLE
1002
{
1070
   287
1070
     4
1070
   287
1070
     4
1070
    40
1040
10.0
1070
    75
1070
     1
1070
   143
1040
0.039
1070
   172
1070
     1
1070
   271
1070
     0
1070
   279
1070
     1
1070
   288
1070
     1
1002
}
  0
LINE
  5
7C3B
  8
3
  6
CONTINUOUS
 10
22.368170659958761
 20
182.51672846492309
 30
0.0
 11
34.533248659958758
 21
182.51672846492309
 31
0.0
  0
LINE
  5
7C3D
  8
3
  6
CONTINUOUS
 10
22.368170659958761
 20
-67.483271535076824
 30
0.0
 11
31.416361659958739
 21
-67.483271535076824
 31
0.0
  0
DIMENSION
  5
7C4A
  8
3
  6
CONTINUOUS
  2
*D15
 10
94.533181659958686
 20
-67.483271535076838
 30
0.0
 11
94.5331816599587
 21
47.788847464923201
 31
0.0
 70
   128
 13
22.368170659958761
 23
182.51672846492309
 33
0.0
 14
22.368170659958761
 24
-67.483271535076824
 34
0.0
 50
90.0
1001
ACAD
1000
DSTYLE
1002
{
1070
   287
1070
     3
1070
   287
1070
     3
1070
     3
1000
φ<>
1070
    40
1040
10.0
1070
   143
1040
0.039
1070
   172
1070
     1
1070
   271
1070
     0
1070
   279
1070
     0
1070
   288
1070
     1
1002
}
  0
DIMENSION
  5
7CDB
  8
3
  2
*D16
 10
-1436.0810630000001
 20
445.28427367544731
 30
0.0
 11
-1049.4206592709629
 21
445.28427367544731
 31
0.0
 70
   128
 13
-686.08106299999986
 23
328.51672846492312
 33
0.0
 14
-1436.0810630000001
 24
-279.48327153507682
 34
0.0
1001
ACAD
1000
DSTYLE
1002
{
1070
   287
1070
     3
1070
   287
1070
     3
1070
    40
1040
10.0
1070
   143
1040
0.039
1070
   172
1070
     1
1070
   271
1070
     0
1070
   279
1070
     0
1070
   288
1070
     1
1002
}
  0
DIMENSION
  5
7CF6
  8
3
  2
*D17
 10
-76.631829340041364
 20
-382.64866253507682
 30
0.0
 11
-16.63182934004136
 21
-357.64866253507682
 31
0.0
 70
     0
 13
-84.631829340041364
 23
-309.48327153507682
 33
0.0
 14
-76.631829340041349
 24
-265.15982100763722
 34
0.0
1001
ACAD
1000
DSTYLE
1002
{
1070
   287
1070
     3
1070
   287
1070
     3
1070
    40
1040
10.0
1070
   143
1040
0.039
1070
   172
1070
     1
1070
   271
1070
     0
1070
   279
1070
     0
1070
   288
1070
     1
1002
}
  0
DIMENSION
  5
7D10
  8
3
  2
*D18
 10
-1487.9825867072341
 20
701.07655403745434
 30
0.0
 11
-1487.9825867072341
 21
811.75913299497461
 31
0.0
 70
   128
 13
-1436.0810630000001
 23
951.07655403745457
 33
0.0
 14
-1436.0810630000001
 24
701.07655403745434
 34
0.0
 50
90.0
1001
ACAD
1000
DSTYLE
1002
{
1070
   287
1070
     3
1070
   287
1070
     3
1070
    40
1040
10.0
1070
   143
1040
0.039
1070
   172
1070
     1
1070
   271
1070
     0
1070
   279
1070
     0
1070
   288
1070
     1
1002
}
  0
ENDSEC
  0
EOF
