  0
SECTION
  2
HEADER
  9
$ACADVER
  1
AC1009
  9
$INSBASE
 10
0.0
 20
0.0
 30
0.0
  9
$EXTMIN
 10
-326.71081624983168
 20
-2292.0394379999989
 30
0.0
  9
$EXTMAX
 10
1357.58898484729
 20
194.6128239999999
 30
0.0
  9
$LIMMIN
 10
0.0
 20
0.0
  9
$LIMMAX
 10
297.0
 20
210.0
  9
$ORTHOMODE
 70
     0
  9
$REGENMODE
 70
     1
  9
$FILLMODE
 70
     0
  9
$QTEXTMODE
 70
     0
  9
$MIRRTEXT
 70
     1
  9
$DRAGMODE
 70
     2
  9
$LTSCALE
 40
100.0
  9
$OSMODE
 70
    37
  9
$ATTMODE
 70
     1
  9
$TEXTSIZE
 40
180.0
  9
$TRACEWID
 40
0.05
  9
$TEXTSTYLE
  7
STANDARD
  9
$CLAYER
  8
3
  9
$CELTYPE
  6
BYLAYER
  9
$CECOLOR
 62
   256
  9
$DIMSCALE
 40
10.0
  9
$DIMASZ
 40
2.0
  9
$DIMEXO
 40
0.5
  9
$DIMDLI
 40
10.0
  9
$DIMRND
 40
0.0
  9
$DIMDLE
 40
0.0
  9
$DIMEXE
 40
1.0
  9
$DIMTP
 40
1.0
  9
$DIMTM
 40
1.0
  9
$DIMTXT
 40
3.0
  9
$DIMCEN
 40
0.0
  9
$DIMTSZ
 40
0.0
  9
$DIMTOL
 70
     0
  9
$DIMLIM
 70
     0
  9
$DIMTIH
 70
     0
  9
$DIMTOH
 70
     0
  9
$DIMSE1
 70
     0
  9
$DIMSE2
 70
     0
  9
$DIMTAD
 70
     1
  9
$DIMZIN
 70
     8
  9
$DIMBLK
  1

  9
$DIMASO
 70
     1
  9
$DIMSHO
 70
     1
  9
$DIMPOST
  1

  9
$DIMAPOST
  1

  9
$DIMALT
 70
     0
  9
$DIMALTD
 70
     2
  9
$DIMALTF
 40
0.039
  9
$DIMLFAC
 40
1.0
  9
$DIMTOFL
 70
     1
  9
$DIMTVP
 40
0.0
  9
$DIMTIX
 70
     0
  9
$DIMSOXD
 70
     0
  9
$DIMSAH
 70
     1
  9
$DIMBLK1
  1
OPEN
  9
$DIMBLK2
  1
OPEN
  9
$DIMSTYLE
  2
IGA
  9
$DIMCLRD
 70
     0
  9
$DIMCLRE
 70
     0
  9
$DIMCLRT
 70
     0
  9
$DIMTFAC
 40
10.0
  9
$DIMGAP
 40
1.0
  9
$LUNITS
 70
     2
  9
$LUPREC
 70
     3
  9
$SKETCHINC
 40
0.1
  9
$FILLETRAD
 40
50.0
  9
$AUNITS
 70
     0
  9
$AUPREC
 70
     0
  9
$MENU
  1
acad
  9
$ELEVATION
 40
0.0
  9
$PELEVATION
 40
0.0
  9
$THICKNESS
 40
0.0
  9
$LIMCHECK
 70
     0
  9
$BLIPMODE
 70
     0
  9
$CHAMFERA
 40
0.5
  9
$CHAMFERB
 40
0.5
  9
$SKPOLY
 70
     0
  9
$TDCREATE
 40
2450740.6106658559
  9
$TDUPDATE
 40
2454953.8641191199
  9
$TDINDWG
 40
0.0043878125
  9
$TDUSRTIMER
 40
0.0043878125
  9
$USRTIMER
 70
     1
  9
$ANGBASE
 50
0.0
  9
$ANGDIR
 70
     0
  9
$PDMODE
 70
     0
  9
$PDSIZE
 40
0.0
  9
$PLINEWID
 40
0.0
  9
$COORDS
 70
     1
  9
$SPLFRAME
 70
     0
  9
$SPLINETYPE
 70
     6
  9
$SPLINESEGS
 70
     8
  9
$ATTDIA
 70
     0
  9
$ATTREQ
 70
     1
  9
$HANDLING
 70
 10241
  9
$HANDSEED
  5
7F37
  9
$SURFTAB1
 70
     6
  9
$SURFTAB2
 70
     6
  9
$SURFTYPE
 70
     6
  9
$SURFU
 70
     6
  9
$SURFV
 70
     6
  9
$UCSNAME
  2

  9
$UCSORG
 10
0.0
 20
0.0
 30
0.0
  9
$UCSXDIR
 10
1.0
 20
0.0
 30
0.0
  9
$UCSYDIR
 10
0.0
 20
1.0
 30
0.0
  9
$PUCSNAME
  2

  9
$PUCSORG
 10
0.0
 20
0.0
 30
0.0
  9
$PUCSXDIR
 10
1.0
 20
0.0
 30
0.0
  9
$PUCSYDIR
 10
0.0
 20
1.0
 30
0.0
  9
$USERI1
 70
     0
  9
$USERI2
 70
     0
  9
$USERI3
 70
     0
  9
$USERI4
 70
     0
  9
$USERI5
 70
     0
  9
$USERR1
 40
0.0
  9
$USERR2
 40
0.0
  9
$USERR3
 40
0.0
  9
$USERR4
 40
0.0
  9
$USERR5
 40
0.0
  9
$WORLDVIEW
 70
     1
  9
$SHADEDGE
 70
     3
  9
$SHADEDIF
 70
    70
  9
$TILEMODE
 70
     1
  9
$MAXACTVP
 70
    16
  9
$PLIMCHECK
 70
     0
  9
$PEXTMIN
 10
1.0000000000000000E+020
 20
1.0000000000000000E+020
 30
1.0000000000000000E+020
  9
$PEXTMAX
 10
-1.0000000000000000E+020
 20
-1.0000000000000000E+020
 30
-1.0000000000000000E+020
  9
$PLIMMIN
 10
0.0
 20
0.0
  9
$PLIMMAX
 10
12.0
 20
9.0
  9
$UNITMODE
 70
     0
  9
$VISRETAIN
 70
     0
  9
$PLINEGEN
 70
     0
  9
$PSLTSCALE
 70
     1
  0
ENDSEC
  0
SECTION
  2
TABLES
  0
TABLE
  2
VPORT
 70
     2
  0
VPORT
  2
*ACTIVE
 70
     0
 10
0.0
 20
0.0
 11
1.0
 21
1.0
 12
2339.0716147413768
 22
-572.32274460441704
 13
0.0
 23
0.0
 14
10.0
 24
10.0
 15
10.0
 25
10.0
 16
0.0
 26
0.0
 36
1.0
 17
0.0
 27
0.0
 37
0.0
 40
3860.4308835425809
 41
1.5051150895140659
 42
50.0
 43
0.0
 44
0.0
 50
0.0
 51
0.0
 71
     0
 72
   100
 73
     1
 74
     0
 75
     0
 76
     0
 77
     0
 78
     0
  0
ENDTAB
  0
TABLE
  2
LTYPE
 70
     2
  0
LTYPE
  2
CONTINUOUS
 70
     0
  3
Solid line
 72
    65
 73
     0
 40
0.0
  0
LTYPE
  2
CENTER
 70
     0
  3
____ _ ____ _ ____ _ ____ _ ____ _ ____ _ ____ 
 72
    65
 73
     4
 40
2.0
 49
1.25
 49
-0.25
 49
0.25
 49
-0.25
  0
ENDTAB
  0
TABLE
  2
LAYER
 70
     6
  0
LAYER
  2
0
 70
     0
 62
     7
  6
CONTINUOUS
  0
LAYER
  2
3
 70
     0
 62
     2
  6
CONTINUOUS
  0
LAYER
  2
2
 70
     0
 62
     3
  6
CENTER
  0
LAYER
  2
1
 70
     0
 62
     4
  6
CONTINUOUS
  0
LAYER
  2
4
 70
     0
 62
     7
  6
CONTINUOUS
  0
LAYER
  2
DEFPOINTS
 70
     0
 62
     7
  6
CONTINUOUS
  0
ENDTAB
  0
TABLE
  2
STYLE
 70
     1
  0
STYLE
  2
STANDARD
 70
     0
 40
0.0
 41
1.0
 50
0.0
 71
     0
 42
180.0
  3
simplex.shx
  4
extfont.shx
  0
ENDTAB
  0
TABLE
  2
VIEW
 70
     0
  0
ENDTAB
  0
TABLE
  2
UCS
 70
     0
  0
ENDTAB
  0
TABLE
  2
APPID
 70
     1
  0
APPID
  2
ACAD
 70
     0
  0
ENDTAB
  0
TABLE
  2
DIMSTYLE
 70
     1
  0
DIMSTYLE
  2
IGA
 70
     0
  3

  4

  5

  6
OPEN
  7
OPEN
 40
2.0
 41
2.0
 42
0.5
 43
10.0
 44
1.0
 45
0.0
 46
0.0
 47
1.0
 48
1.0
140
3.0
141
0.0
142
0.0
143
0.03937
144
1.0
145
0.0
146
10.0
147
1.0
 71
     0
 72
     0
 73
     0
 74
     0
 75
     0
 76
     0
 77
     1
 78
     8
170
     0
171
     2
172
     0
173
     1
174
     0
175
     0
176
     0
177
     0
178
     0
  0
ENDTAB
  0
ENDSEC
  0
SECTION
  2
BLOCKS
  0
BLOCK
  8
0
  2
$MODEL_SPACE
 70
     0
 10
0.0
 20
0.0
 30
0.0
  3
$MODEL_SPACE
  1

  0
ENDBLK
  5
1B
  8
0
  0
BLOCK
 67
     1
  8
0
  2
$PAPER_SPACE
 70
     0
 10
0.0
 20
0.0
 30
0.0
  3
$PAPER_SPACE
  1

  0
ENDBLK
  5
18
 67
     1
  8
0
  0
BLOCK
  8
0
  2
_OPEN
 70
     0
 10
0.0
 20
0.0
 30
0.0
  3
_OPEN
  1

  0
LINE
  5
7B40
  8
0
  6
BYBLOCK
 62
     0
 10
-1.0
 20
0.166667
 30
0.0
 11
0.0
 21
0.0
 31
0.0
  0
LINE
  5
7B41
  8
0
  6
BYBLOCK
 62
     0
 10
0.0
 20
0.0
 30
0.0
 11
-1.0
 21
-0.166667
 31
0.0
  0
LINE
  5
7B42
  8
0
  6
BYBLOCK
 62
     0
 10
0.0
 20
0.0
 30
0.0
 11
-1.0
 21
0.0
 31
0.0
  0
ENDBLK
  5
7B43
  8
0
  0
BLOCK
  8
0
  2
*D1
 70
     1
 10
0.0
 20
0.0
 30
0.0
  3
*D1
  1

  0
LINE
  5
7E76
  8
3
  6
CONTINUOUS
 62
     0
 10
-237.6160253054654
 20
-1918.8014846149881
 30
0.0
 11
-237.6160253054654
 21
-2010.871158614988
 31
0.0
  0
LINE
  5
7E77
  8
3
  6
CONTINUOUS
 62
     0
 10
312.38397469453452
 20
-1918.8014846149881
 30
0.0
 11
312.38397469453452
 21
-2010.871158614988
 31
0.0
  0
LINE
  5
7E78
  8
3
  6
CONTINUOUS
 62
     0
 10
-217.6160253054654
 20
-2000.871158614988
 30
0.0
 11
292.38397469453452
 21
-2000.871158614988
 31
0.0
  0
INSERT
  5
7E79
  8
3
  6
CONTINUOUS
 62
     0
  2
_OPEN
 10
-237.6160253054654
 20
-2000.871158614988
 30
0.0
 41
20.0
 42
20.0
 43
20.0
 50
180.0
  0
INSERT
  5
7E7A
  8
3
  6
CONTINUOUS
 62
     0
  2
_OPEN
 10
312.38397469453452
 20
-2000.871158614988
 30
0.0
 41
20.0
 42
20.0
 43
20.0
  0
TEXT
  8
3
  40
30
  5
7F23
  62
0
  72
0
  71
0
 10
-18.8536
 20
-2028.97
 30
0.000000
  1
550
  0
POINT
  5
7E7C
  8
DEFPOINTS
  6
CONTINUOUS
 62
     0
 10
-237.6160253054654
 20
-1913.801484614987
 30
0.0
  0
POINT
  5
7E7D
  8
DEFPOINTS
  6
CONTINUOUS
 62
     0
 10
312.38397469453452
 20
-1913.801484614987
 30
0.0
  0
POINT
  5
7E7E
  8
DEFPOINTS
  6
CONTINUOUS
 62
     0
 10
312.38397469453452
 20
-2000.871158614988
 30
0.0
  0
ENDBLK
  5
7B50
  8
0
  0
BLOCK
  8
0
  2
*D2
 70
     1
 10
0.0
 20
0.0
 30
0.0
  3
*D2
  1

  0
LINE
  5
7E7F
  8
3
  6
CONTINUOUS
 62
     0
 10
532.38397469453457
 20
-1918.8014846149881
 30
0.0
 11
532.38397469453457
 21
-2010.871158614988
 31
0.0
  0
LINE
  5
7E80
  8
3
  6
CONTINUOUS
 62
     0
 10
332.38397469453457
 20
-2000.871158614988
 30
0.0
 11
512.38397469453446
 21
-2000.871158614988
 31
0.0
  0
INSERT
  5
7E81
  8
3
  6
CONTINUOUS
 62
     0
  2
_OPEN
 10
312.38397469453452
 20
-2000.871158614988
 30
0.0
 41
20.0
 42
20.0
 43
20.0
 50
180.0
  0
INSERT
  5
7E82
  8
3
  6
CONTINUOUS
 62
     0
  2
_OPEN
 10
532.38397469453457
 20
-2000.871158614988
 30
0.0
 41
20.0
 42
20.0
 43
20.0
  0
TEXT
  8
3
  40
30
  5
7F24
  62
0
  72
0
  71
0
 10
362.384
 20
-2028.97
 30
0.000000
  1
220
  0
POINT
  5
7E84
  8
DEFPOINTS
  6
CONTINUOUS
 62
     0
 10
312.38397469453452
 20
-1913.801484614987
 30
0.0
  0
POINT
  5
7E85
  8
DEFPOINTS
  6
CONTINUOUS
 62
     0
 10
532.38397469453457
 20
-1913.801484614987
 30
0.0
  0
POINT
  5
7E86
  8
DEFPOINTS
  6
CONTINUOUS
 62
     0
 10
532.38397469453457
 20
-2000.871158614988
 30
0.0
  0
ENDBLK
  5
7B5C
  8
0
  0
BLOCK
  8
0
  2
*D3
 70
     1
 10
0.0
 20
0.0
 30
0.0
  3
*D3
  1

  0
LINE
  5
7E87
  8
3
  6
CONTINUOUS
 62
     0
 10
517.38397469453446
 20
-1546.8014846149881
 30
0.0
 11
598.18766569453442
 21
-1546.8014846149881
 31
0.0
  0
LINE
  5
7E88
  8
3
  6
CONTINUOUS
 62
     0
 10
517.38397469453446
 20
-1796.8014846149881
 30
0.0
 11
598.1876656945343
 21
-1796.8014846149881
 31
0.0
  0
LINE
  5
7E89
  8
3
  6
CONTINUOUS
 62
     0
 10
588.18766569453442
 20
-1566.8014846149881
 30
0.0
 11
588.18766569453442
 21
-1776.801484614987
 31
0.0
  0
INSERT
  5
7E8A
  8
3
  6
CONTINUOUS
 62
     0
  2
_OPEN
 10
588.18766569453442
 20
-1546.8014846149881
 30
0.0
 41
20.0
 42
20.0
 43
20.0
 50
90.0
  0
INSERT
  5
7E8B
  8
3
  6
CONTINUOUS
 62
     0
  2
_OPEN
 10
588.1876656945343
 20
-1796.8014846149881
 30
0.0
 41
20.0
 42
20.0
 43
20.0
 50
270.0
  0
TEXT
  8
3
  40
30
  5
7F25
  62
0
  72
0
  71
0
 10
503.188
 20
-1716.67
 30
0.000000
  1
250
  0
POINT
  5
7E8D
  8
DEFPOINTS
  6
CONTINUOUS
 62
     0
 10
512.38397469453446
 20
-1546.8014846149881
 30
0.0
  0
POINT
  5
7E8E
  8
DEFPOINTS
  6
CONTINUOUS
 62
     0
 10
512.38397469453446
 20
-1796.8014846149881
 30
0.0
  0
POINT
  5
7E8F
  8
DEFPOINTS
  6
CONTINUOUS
 62
     0
 10
588.1876656945343
 20
-1796.8014846149881
 30
0.0
  0
ENDBLK
  5
7B69
  8
0
  0
BLOCK
  8
0
  2
*D4
 70
     1
 10
0.0
 20
0.0
 30
0.0
  3
*D4
  1

  0
LINE
  5
7E90
  8
3
  6
CONTINUOUS
 62
     0
 10
317.38397469453452
 20
-1360.8121006149879
 30
0.0
 11
716.55195596542308
 21
-1360.8121006149879
 31
0.0
  0
LINE
  5
7E91
  8
3
  6
CONTINUOUS
 62
     0
 10
517.38397469453446
 20
-1546.8014846149881
 30
0.0
 11
716.55195596542308
 21
-1546.8014846149881
 31
0.0
  0
LINE
  5
7E92
  8
3
  6
CONTINUOUS
 62
     0
 10
706.55195596542296
 20
-1340.8121006149879
 30
0.0
 11
706.55195596542296
 21
-1320.8121006149879
 31
0.0
  0
LINE
  5
7E93
  8
3
  6
CONTINUOUS
 62
     0
 10
706.55195596542296
 20
-1566.8014846149881
 30
0.0
 11
706.55195596542296
 21
-1586.8014846149881
 31
0.0
  0
LINE
  5
7E94
  8
3
  6
CONTINUOUS
 62
     0
 10
706.55195596542296
 20
-1360.8121006149879
 30
0.0
 11
706.55195596542296
 21
-1546.8014846149881
 31
0.0
  0
INSERT
  5
7E95
  8
3
  6
CONTINUOUS
 62
     0
  2
_OPEN
 10
706.55195596542296
 20
-1360.8121006149879
 30
0.0
 41
20.0
 42
20.0
 43
20.0
 50
270.0
  0
INSERT
  5
7E96
  8
3
  6
CONTINUOUS
 62
     0
  2
_OPEN
 10
706.55195596542296
 20
-1546.8014846149881
 30
0.0
 41
20.0
 42
20.0
 43
20.0
 50
90.0
  0
TEXT
  8
3
  40
30
  5
7F26
  62
0
  72
0
  71
0
 10
621.552
 20
-1534.90
 30
0.000000
  1
186
  0
POINT
  5
7E98
  8
DEFPOINTS
  6
CONTINUOUS
 62
     0
 10
312.38397469453452
 20
-1360.8121006149879
 30
0.0
  0
POINT
  5
7E99
  8
DEFPOINTS
  6
CONTINUOUS
 62
     0
 10
512.38397469453446
 20
-1546.8014846149881
 30
0.0
  0
POINT
  5
7E9A
  8
DEFPOINTS
  6
CONTINUOUS
 62
     0
 10
706.55195596542296
 20
-1546.8014846149881
 30
0.0
  0
ENDBLK
  5
7D06
  8
0
  0
BLOCK
  8
0
  2
*D5
 70
     1
 10
0.0
 20
0.0
 30
0.0
  3
*D5
  1

  0
LINE
  5
7E9B
  8
3
  6
CONTINUOUS
 62
     0
 10
507.38397469453457
 20
-1861.801484614987
 30
0.0
 11
716.55195596542319
 21
-1861.8014846149881
 31
0.0
  0
LINE
  5
7E9C
  8
3
  6
CONTINUOUS
 62
     0
 10
706.55195596542342
 20
-1566.8014846149881
 30
0.0
 11
706.5519559654233
 21
-1841.8014846149881
 31
0.0
  0
INSERT
  5
7E9D
  8
3
  6
CONTINUOUS
 62
     0
  2
_OPEN
 10
706.55195596542342
 20
-1546.8014846149881
 30
0.0
 41
20.0
 42
20.0
 43
20.0
 50
90.0
  0
INSERT
  5
7E9E
  8
3
  6
CONTINUOUS
 62
     0
  2
_OPEN
 10
706.5519559654233
 20
-1861.8014846149881
 30
0.0
 41
20.0
 42
20.0
 43
20.0
 50
270.0
  0
TEXT
  8
3
  40
30
  5
7F27
  62
0
  72
0
  71
0
 10
621.552
 20
-1757.40
 30
0.000000
  1
315
  0
POINT
  5
7EA0
  8
DEFPOINTS
  6
CONTINUOUS
 62
     0
 10
512.38397469453446
 20
-1546.8014846149881
 30
0.0
  0
POINT
  5
7EA1
  8
DEFPOINTS
  6
CONTINUOUS
 62
     0
 10
502.38397469453457
 20
-1861.801484614987
 30
0.0
  0
POINT
  5
7EA2
  8
DEFPOINTS
  6
CONTINUOUS
 62
     0
 10
706.5519559654233
 20
-1861.8014846149881
 30
0.0
  0
ENDBLK
  5
7CFB
  8
0
  0
BLOCK
  8
0
  2
*D6
 70
     1
 10
0.0
 20
0.0
 30
0.0
  3
*D6
  1

  0
LINE
  5
7EA3
  8
3
  6
CONTINUOUS
 62
     0
 10
507.38397469453457
 20
-1861.801484614987
 30
0.0
 11
716.55195596542285
 21
-1861.8014846149881
 31
0.0
  0
LINE
  5
7EA4
  8
3
  6
CONTINUOUS
 62
     0
 10
537.38397469453446
 20
-1913.801484614987
 30
0.0
 11
716.55195596542285
 21
-1913.801484614987
 31
0.0
  0
LINE
  5
7EA5
  8
3
  6
CONTINUOUS
 62
     0
 10
706.55195596542285
 20
-1841.8014846149881
 30
0.0
 11
706.55195596542285
 21
-1821.8014846149881
 31
0.0
  0
LINE
  5
7EA6
  8
3
  6
CONTINUOUS
 62
     0
 10
706.55195596542285
 20
-1933.8014846149881
 30
0.0
 11
706.55195596542285
 21
-2022.3729131864161
 31
0.0
  0
LINE
  5
7EA7
  8
3
  6
CONTINUOUS
 62
     0
 10
706.55195596542285
 20
-1861.8014846149881
 30
0.0
 11
706.55195596542285
 21
-1913.801484614987
 31
0.0
  0
INSERT
  5
7EA8
  8
3
  6
CONTINUOUS
 62
     0
  2
_OPEN
 10
706.55195596542285
 20
-1861.8014846149881
 30
0.0
 41
20.0
 42
20.0
 43
20.0
 50
270.0
  0
INSERT
  5
7EA9
  8
3
  6
CONTINUOUS
 62
     0
  2
_OPEN
 10
706.55195596542285
 20
-1913.801484614987
 30
0.0
 41
20.0
 42
20.0
 43
20.0
 50
90.0
  0
TEXT
  8
3
  40
30
  5
7F28
  62
0
  72
0
  71
0
 10
621.552
 20
-2041.19
 30
0.000000
  1
52
  0
POINT
  5
7EAB
  8
DEFPOINTS
  6
CONTINUOUS
 62
     0
 10
502.38397469453457
 20
-1861.801484614987
 30
0.0
  0
POINT
  5
7EAC
  8
DEFPOINTS
  6
CONTINUOUS
 62
     0
 10
532.38397469453457
 20
-1913.801484614987
 30
0.0
  0
POINT
  5
7EAD
  8
DEFPOINTS
  6
CONTINUOUS
 62
     0
 10
706.55195596542285
 20
-1913.801484614987
 30
0.0
  0
ENDBLK
  5
7D2E
  8
0
  0
BLOCK
  8
0
  2
*D7
 70
     1
 10
0.0
 20
0.0
 30
0.0
  3
*D7
  1

  0
LINE
  5
7EAE
  8
3
  6
CONTINUOUS
 62
     0
 10
317.38397469453452
 20
-1360.8121006149879
 30
0.0
 11
771.95133123631172
 21
-1360.8121006149879
 31
0.0
  0
LINE
  5
7EAF
  8
3
  6
CONTINUOUS
 62
     0
 10
537.38397469453446
 20
-1913.801484614987
 30
0.0
 11
771.95133123631149
 21
-1913.801484614987
 31
0.0
  0
LINE
  5
7EB0
  8
3
  6
CONTINUOUS
 62
     0
 10
761.95133123631172
 20
-1380.8121006149879
 30
0.0
 11
761.9513312363116
 21
-1893.801484614987
 31
0.0
  0
INSERT
  5
7EB1
  8
3
  6
CONTINUOUS
 62
     0
  2
_OPEN
 10
761.95133123631172
 20
-1360.8121006149879
 30
0.0
 41
20.0
 42
20.0
 43
20.0
 50
90.0
  0
INSERT
  5
7EB2
  8
3
  6
CONTINUOUS
 62
     0
  2
_OPEN
 10
761.9513312363116
 20
-1913.801484614987
 30
0.0
 41
20.0
 42
20.0
 43
20.0
 50
270.0
  0
TEXT
  8
3
  40
30
  5
7F29
  62
0
  72
0
  71
0
 10
676.951
 20
-1722.77
 30
0.000000
  1
553
  0
POINT
  5
7EB4
  8
DEFPOINTS
  6
CONTINUOUS
 62
     0
 10
312.38397469453452
 20
-1360.8121006149879
 30
0.0
  0
POINT
  5
7EB5
  8
DEFPOINTS
  6
CONTINUOUS
 62
     0
 10
532.38397469453457
 20
-1913.801484614987
 30
0.0
  0
POINT
  5
7EB6
  8
DEFPOINTS
  6
CONTINUOUS
 62
     0
 10
761.9513312363116
 20
-1913.801484614987
 30
0.0
  0
ENDBLK
  5
7D11
  8
0
  0
BLOCK
  8
0
  2
*D8
 70
     1
 10
0.0
 20
0.0
 30
0.0
  3
*D8
  1

  0
LINE
  5
7EB7
  8
3
  6
CONTINUOUS
 62
     0
 10
-237.6160253054654
 20
-865.72570892129897
 30
0.0
 11
-237.6160253054654
 21
-1044.0221619212989
 31
0.0
  0
LINE
  5
7EB8
  8
3
  6
CONTINUOUS
 62
     0
 10
532.38397469453457
 20
-865.72570892129897
 30
0.0
 11
532.38397469453457
 21
-1044.0221619212989
 31
0.0
  0
LINE
  5
7EB9
  8
3
  6
CONTINUOUS
 62
     0
 10
-217.6160253054654
 20
-1034.0221619212989
 30
0.0
 11
512.38397469453446
 21
-1034.0221619212989
 31
0.0
  0
INSERT
  5
7EBA
  8
3
  6
CONTINUOUS
 62
     0
  2
_OPEN
 10
-237.6160253054654
 20
-1034.0221619212989
 30
0.0
 41
20.0
 42
20.0
 43
20.0
 50
180.0
  0
INSERT
  5
7EBB
  8
3
  6
CONTINUOUS
 62
     0
  2
_OPEN
 10
532.38397469453457
 20
-1034.0221619212989
 30
0.0
 41
20.0
 42
20.0
 43
20.0
  0
TEXT
  8
3
  40
30
  5
7F2A
  62
0
  72
0
  71
0
 10
77.3879
 20
-1062.12
 30
0.000000
  1
770
  0
POINT
  5
7EBD
  8
DEFPOINTS
  6
CONTINUOUS
 62
     0
 10
-237.6160253054654
 20
-860.72570892129909
 30
0.0
  0
POINT
  5
7EBE
  8
DEFPOINTS
  6
CONTINUOUS
 62
     0
 10
532.38397469453457
 20
-860.72570892129909
 30
0.0
  0
POINT
  5
7EBF
  8
DEFPOINTS
  6
CONTINUOUS
 62
     0
 10
532.38397469453457
 20
-1034.0221619212989
 30
0.0
  0
ENDBLK
  5
7BC6
  8
0
  0
BLOCK
  8
0
  2
*D9
 70
     1
 10
0.0
 20
0.0
 30
0.0
  3
*D9
  1

  0
LINE
  5
7EC0
  8
3
  6
CONTINUOUS
 62
     0
 10
917.39673384729065
 20
-1918.8014846149881
 30
0.0
 11
917.39673384729065
 21
-2005.566476614988
 31
0.0
  0
LINE
  5
7EC1
  8
3
  6
CONTINUOUS
 62
     0
 10
1167.3967338472901
 20
-1918.8014846149881
 30
0.0
 11
1167.3967338472901
 21
-2005.566476614988
 31
0.0
  0
LINE
  5
7EC2
  8
3
  6
CONTINUOUS
 62
     0
 10
937.39673384729065
 20
-1995.566476614988
 30
0.0
 11
1147.3967338472901
 21
-1995.566476614988
 31
0.0
  0
INSERT
  5
7EC3
  8
3
  6
CONTINUOUS
 62
     0
  2
_OPEN
 10
917.39673384729065
 20
-1995.566476614988
 30
0.0
 41
20.0
 42
20.0
 43
20.0
 50
180.0
  0
INSERT
  5
7EC4
  8
3
  6
CONTINUOUS
 62
     0
  2
_OPEN
 10
1167.3967338472901
 20
-1995.566476614988
 30
0.0
 41
20.0
 42
20.0
 43
20.0
  0
TEXT
  8
3
  40
30
  5
7F2B
  62
0
  72
0
  71
0
 10
973.231
 20
-2023.67
 30
0.000000
  1
250
  0
POINT
  5
7EC6
  8
DEFPOINTS
  6
CONTINUOUS
 62
     0
 10
917.39673384729065
 20
-1913.801484614987
 30
0.0
  0
POINT
  5
7EC7
  8
DEFPOINTS
  6
CONTINUOUS
 62
     0
 10
1167.3967338472901
 20
-1913.801484614987
 30
0.0
  0
POINT
  5
7EC8
  8
DEFPOINTS
  6
CONTINUOUS
 62
     0
 10
1167.3967338472901
 20
-1995.566476614988
 30
0.0
  0
ENDBLK
  5
7BE4
  8
0
  0
BLOCK
  8
0
  2
*D10
 70
     1
 10
0.0
 20
0.0
 30
0.0
  3
*D10
  1

  0
LINE
  5
7EC9
  8
3
  6
CONTINUOUS
 62
     0
 10
1085.3967338472901
 20
-1342.901484614988
 30
0.0
 11
1085.3967338472901
 21
-1283.0013796149881
 31
0.0
  0
LINE
  5
7ECA
  8
3
  6
CONTINUOUS
 62
     0
 10
1265.3967338472901
 20
-1342.901484614988
 30
0.0
 11
1265.3967338472901
 21
-1283.0013796149881
 31
0.0
  0
LINE
  5
7ECB
  8
3
  6
CONTINUOUS
 62
     0
 10
1105.3967338472901
 20
-1293.0013796149881
 30
0.0
 11
1245.3967338472901
 21
-1293.0013796149881
 31
0.0
  0
INSERT
  5
7ECC
  8
3
  6
CONTINUOUS
 62
     0
  2
_OPEN
 10
1085.3967338472901
 20
-1293.0013796149881
 30
0.0
 41
20.0
 42
20.0
 43
20.0
 50
180.0
  0
INSERT
  5
7ECD
  8
3
  6
CONTINUOUS
 62
     0
  2
_OPEN
 10
1265.3967338472901
 20
-1293.0013796149881
 30
0.0
 41
20.0
 42
20.0
 43
20.0
  0
TEXT
  8
3
  40
30
  5
7F2C
  62
0
  72
0
  71
0
 10
1111.81
 20
-1321.10
 30
0.000000
  1
180
  0
POINT
  5
7ECF
  8
DEFPOINTS
  6
CONTINUOUS
 62
     0
 10
1085.3967338472901
 20
-1347.901484614988
 30
0.0
  0
POINT
  5
7ED0
  8
DEFPOINTS
  6
CONTINUOUS
 62
     0
 10
1265.3967338472901
 20
-1347.901484614988
 30
0.0
  0
POINT
  5
7ED1
  8
DEFPOINTS
  6
CONTINUOUS
 62
     0
 10
1265.3967338472901
 20
-1293.0013796149881
 30
0.0
  0
ENDBLK
  5
7BF1
  8
0
  0
BLOCK
  8
0
  2
*D11
 70
     1
 10
0.0
 20
0.0
 30
0.0
  3
*D11
  1

  0
LINE
  5
7ED2
  8
3
  6
CONTINUOUS
 62
     0
 10
835.39673384729065
 20
-1416.801484614987
 30
0.0
 11
835.39673384729065
 21
-1220.704967614987
 31
0.0
  0
LINE
  5
7ED3
  8
3
  6
CONTINUOUS
 62
     0
 10
1175.3967338472901
 20
-1241.2671766149881
 30
0.0
 11
1175.3967338472901
 21
-1220.704967614987
 31
0.0
  0
LINE
  5
7ED4
  8
3
  6
CONTINUOUS
 62
     0
 10
855.39673384729076
 20
-1230.7049676149879
 30
0.0
 11
1155.3967338472901
 21
-1230.7049676149879
 31
0.0
  0
INSERT
  5
7ED5
  8
3
  6
CONTINUOUS
 62
     0
  2
_OPEN
 10
835.39673384729065
 20
-1230.7049676149879
 30
0.0
 41
20.0
 42
20.0
 43
20.0
 50
180.0
  0
INSERT
  5
7ED6
  8
3
  6
CONTINUOUS
 62
     0
  2
_OPEN
 10
1175.3967338472901
 20
-1230.7049676149879
 30
0.0
 41
20.0
 42
20.0
 43
20.0
  0
TEXT
  8
3
  40
30
  5
7F2D
  62
0
  72
0
  71
0
 10
942.052
 20
-1233.80
 30
0.000000
  1
MAX
  0
TEXT
  8
3
  40
30
  5
7F2E
  62
0
  72
0
  71
0
 10
942.052
 20
-1272.80
 30
0.000000
  1
340
  0
POINT
  5
7ED8
  8
DEFPOINTS
  6
CONTINUOUS
 62
     0
 10
835.39673384729065
 20
-1421.8014846149881
 30
0.0
  0
POINT
  5
7ED9
  8
DEFPOINTS
  6
CONTINUOUS
 62
     0
 10
1175.3967338472901
 20
-1246.267176614987
 30
0.0
  0
POINT
  5
7EDA
  8
DEFPOINTS
  6
CONTINUOUS
 62
     0
 10
1175.3967338472901
 20
-1230.7049676149879
 30
0.0
  0
ENDBLK
  5
7D39
  8
0
  0
BLOCK
  8
0
  2
*D12
 70
     1
 10
0.0
 20
0.0
 30
0.0
  3
*D12
  1

  0
LINE
  5
7EDB
  8
3
  6
CONTINUOUS
 62
     0
 10
1274.3967338472901
 20
-1394.8014846149881
 30
0.0
 11
1274.3967338472901
 21
-1220.704967614987
 31
0.0
  0
LINE
  5
7EDC
  8
3
  6
CONTINUOUS
 62
     0
 10
1195.3967338472901
 20
-1230.7049676149879
 30
0.0
 11
1254.396733847291
 21
-1230.7049676149879
 31
0.0
  0
TEXT
  8
3
  40
30
  5
7F2F
  62
0
  72
0
  71
0
 10
1160.31
 20
-1258.80
 30
0.000000
  1
99
  0
INSERT
  5
7EDE
  8
3
  6
CONTINUOUS
 62
     0
  2
_OPEN
 10
1175.3967338472901
 20
-1230.7049676149879
 30
0.0
 41
20.0
 42
20.0
 43
20.0
 50
180.0
  0
INSERT
  5
7EDF
  8
3
  6
CONTINUOUS
 62
     0
  2
_OPEN
 10
1274.3967338472901
 20
-1230.7049676149879
 30
0.0
 41
20.0
 42
20.0
 43
20.0
  0
POINT
  5
7EE0
  8
DEFPOINTS
  6
CONTINUOUS
 62
     0
 10
1175.3967338472901
 20
-1246.267176614987
 30
0.0
  0
POINT
  5
7EE1
  8
DEFPOINTS
  6
CONTINUOUS
 62
     0
 10
1274.3967338472901
 20
-1399.801484614987
 30
0.0
  0
POINT
  5
7EE2
  8
DEFPOINTS
  6
CONTINUOUS
 62
     0
 10
1274.3967338472901
 20
-1230.7049676149879
 30
0.0
  0
ENDBLK
  5
7C8A
  8
0
  0
BLOCK
  8
0
  2
*D13
 70
     1
 10
0.0
 20
0.0
 30
0.0
  3
*D13
  1

  0
LINE
  5
7EE3
  8
3
  6
CONTINUOUS
 62
     0
 10
92.394590694534585
 20
-1541.801484614987
 30
0.0
 11
92.394590694534614
 21
-1296.8450296149881
 31
0.0
  0
LINE
  5
7EE4
  8
3
  6
CONTINUOUS
 62
     0
 10
312.38397469453452
 20
-1355.812100614987
 30
0.0
 11
312.38397469453452
 21
-1296.8450296149881
 31
0.0
  0
LINE
  5
7EE5
  8
3
  6
CONTINUOUS
 62
     0
 10
112.3945906945346
 20
-1306.8450296149881
 30
0.0
 11
292.38397469453452
 21
-1306.8450296149881
 31
0.0
  0
INSERT
  5
7EE6
  8
3
  6
CONTINUOUS
 62
     0
  2
_OPEN
 10
92.394590694534614
 20
-1306.8450296149881
 30
0.0
 41
20.0
 42
20.0
 43
20.0
 50
180.0
  0
INSERT
  5
7EE7
  8
3
  6
CONTINUOUS
 62
     0
  2
_OPEN
 10
312.38397469453452
 20
-1306.8450296149881
 30
0.0
 41
20.0
 42
20.0
 43
20.0
  0
TEXT
  8
3
  40
30
  5
7F30
  62
0
  72
0
  71
0
 10
138.359
 20
-1334.95
 30
0.000000
  1
220
  0
POINT
  5
7EE9
  8
DEFPOINTS
  6
CONTINUOUS
 62
     0
 10
92.394590694534585
 20
-1546.8014846149881
 30
0.0
  0
POINT
  5
7EEA
  8
DEFPOINTS
  6
CONTINUOUS
 62
     0
 10
312.38397469453452
 20
-1360.8121006149879
 30
0.0
  0
POINT
  5
7EEB
  8
DEFPOINTS
  6
CONTINUOUS
 62
     0
 10
312.38397469453452
 20
-1306.8450296149881
 30
0.0
  0
ENDBLK
  5
7C2F
  8
0
  0
BLOCK
  8
0
  2
*D14
 70
     1
 10
0.0
 20
0.0
 30
0.0
  3
*D14
  1

  0
LINE
  5
7EEC
  8
3
  6
CONTINUOUS
 62
     0
 10
512.38397469453446
 20
-1520.801484614987
 30
0.0
 11
512.38397469453446
 21
-1296.8450296149881
 31
0.0
  0
LINE
  5
7EED
  8
3
  6
CONTINUOUS
 62
     0
 10
332.38397469453457
 20
-1306.8450296149881
 30
0.0
 11
492.38397469453452
 21
-1306.8450296149881
 31
0.0
  0
INSERT
  5
7EEE
  8
3
  6
CONTINUOUS
 62
     0
  2
_OPEN
 10
312.38397469453452
 20
-1306.8450296149881
 30
0.0
 41
20.0
 42
20.0
 43
20.0
 50
180.0
  0
INSERT
  5
7EEF
  8
3
  6
CONTINUOUS
 62
     0
  2
_OPEN
 10
512.38397469453446
 20
-1306.8450296149881
 30
0.0
 41
20.0
 42
20.0
 43
20.0
  0
TEXT
  8
3
  40
30
  5
7F31
  62
0
  72
0
  71
0
 10
352.384
 20
-1334.95
 30
0.000000
  1
200
  0
POINT
  5
7EF1
  8
DEFPOINTS
  6
CONTINUOUS
 62
     0
 10
312.38397469453452
 20
-1360.8121006149879
 30
0.0
  0
POINT
  5
7EF2
  8
DEFPOINTS
  6
CONTINUOUS
 62
     0
 10
512.38397469453446
 20
-1525.801484614987
 30
0.0
  0
POINT
  5
7EF3
  8
DEFPOINTS
  6
CONTINUOUS
 62
     0
 10
512.38397469453446
 20
-1306.8450296149881
 30
0.0
  0
ENDBLK
  5
7C3B
  8
0
  0
BLOCK
  8
0
  2
*D15
 70
     1
 10
0.0
 20
0.0
 30
0.0
  3
*D15
  1

  0
LINE
  5
7EF4
  8
3
  6
CONTINUOUS
 62
     0
 10
517.38397469453446
 20
-1546.8014846149881
 30
0.0
 11
668.55711769453433
 21
-1546.8014846149881
 31
0.0
  0
LINE
  5
7EF5
  8
3
  6
CONTINUOUS
 62
     0
 10
497.38397469453452
 20
-1806.8014846149881
 30
0.0
 11
668.55711769453421
 21
-1806.8014846149881
 31
0.0
  0
LINE
  5
7EF6
  8
3
  6
CONTINUOUS
 62
     0
 10
658.55711769453433
 20
-1566.8014846149881
 30
0.0
 11
658.55711769453433
 21
-1786.8014846149881
 31
0.0
  0
INSERT
  5
7EF7
  8
3
  6
CONTINUOUS
 62
     0
  2
_OPEN
 10
658.55711769453433
 20
-1546.8014846149881
 30
0.0
 41
20.0
 42
20.0
 43
20.0
 50
90.0
  0
INSERT
  5
7EF8
  8
3
  6
CONTINUOUS
 62
     0
  2
_OPEN
 10
658.55711769453421
 20
-1806.8014846149881
 30
0.0
 41
20.0
 42
20.0
 43
20.0
 50
270.0
  0
TEXT
  8
3
  40
30
  5
7F32
  62
0
  72
0
  71
0
 10
573.557
 20
-1768.91
 30
0.000000
  1
260
  0
POINT
  5
7EFA
  8
DEFPOINTS
  6
CONTINUOUS
 62
     0
 10
512.38397469453446
 20
-1546.8014846149881
 30
0.0
  0
POINT
  5
7EFB
  8
DEFPOINTS
  6
CONTINUOUS
 62
     0
 10
492.38397469453452
 20
-1806.8014846149881
 30
0.0
  0
POINT
  5
7EFC
  8
DEFPOINTS
  6
CONTINUOUS
 62
     0
 10
658.55711769453421
 20
-1806.8014846149881
 30
0.0
  0
ENDBLK
  5
7D1C
  8
0
  0
BLOCK
  8
0
  2
*D16
 70
     1
 10
0.0
 20
0.0
 30
0.0
  3
*D16
  1

  0
LINE
  5
7EFD
  8
3
  6
CONTINUOUS
 62
     0
 10
1279.3967338472901
 20
-1421.8014846149881
 30
0.0
 11
1357.58898484729
 21
-1421.8014846149881
 31
0.0
  0
LINE
  5
7EFE
  8
3
  6
CONTINUOUS
 62
     0
 10
1279.3967338472901
 20
-1671.801484614987
 30
0.0
 11
1357.58898484729
 21
-1671.801484614987
 31
0.0
  0
LINE
  5
7EFF
  8
3
  6
CONTINUOUS
 62
     0
 10
1347.58898484729
 20
-1441.8014846149881
 30
0.0
 11
1347.58898484729
 21
-1651.801484614987
 31
0.0
  0
INSERT
  5
7F00
  8
3
  6
CONTINUOUS
 62
     0
  2
_OPEN
 10
1347.58898484729
 20
-1421.8014846149881
 30
0.0
 41
20.0
 42
20.0
 43
20.0
 50
90.0
  0
INSERT
  5
7F01
  8
3
  6
CONTINUOUS
 62
     0
  2
_OPEN
 10
1347.58898484729
 20
-1671.801484614987
 30
0.0
 41
20.0
 42
20.0
 43
20.0
 50
270.0
  0
TEXT
  8
3
  40
30
  5
7F33
  62
0
  72
0
  71
0
 10
1262.59
 20
-1601.50
 30
0.000000
  1
φ250
  0
POINT
  5
7F03
  8
DEFPOINTS
  6
CONTINUOUS
 62
     0
 10
1274.3967338472901
 20
-1421.8014846149881
 30
0.0
  0
POINT
  5
7F04
  8
DEFPOINTS
  6
CONTINUOUS
 62
     0
 10
1274.3967338472901
 20
-1671.801484614987
 30
0.0
  0
POINT
  5
7F05
  8
DEFPOINTS
  6
CONTINUOUS
 62
     0
 10
1347.58898484729
 20
-1671.801484614987
 30
0.0
  0
ENDBLK
  5
7D44
  8
0
  0
BLOCK
  8
0
  2
*D17
 70
     1
 10
0.0
 20
0.0
 30
0.0
  3
*D17
  1

  0
LINE
  5
7F06
  8
3
 62
     0
 10
1167.3967338472901
 20
-1918.8014846149881
 30
0.0
 11
1167.3967338472901
 21
-2005.566476614988
 31
0.0
  0
LINE
  5
7F07
  8
3
 62
     0
 10
1175.3967338472901
 20
-1938.2700646149881
 30
0.0
 11
1175.3967338472901
 21
-2005.566476614988
 31
0.0
  0
LINE
  5
7F08
  8
3
 62
     0
 10
1147.3967338472901
 20
-1995.566476614988
 30
0.0
 11
1127.3967338472901
 21
-1995.566476614988
 31
0.0
  0
LINE
  5
7F09
  8
3
 62
     0
 10
1195.3967338472901
 20
-1995.566476614988
 30
0.0
 11
1255.3967338472901
 21
-1995.566476614988
 31
0.0
  0
LINE
  5
7F0A
  8
3
 62
     0
 10
1167.3967338472901
 20
-1995.566476614988
 30
0.0
 11
1175.3967338472901
 21
-1995.566476614988
 31
0.0
  0
INSERT
  5
7F0B
  8
3
 62
     0
  2
_OPEN
 10
1167.3967338472901
 20
-1995.566476614988
 30
0.0
 41
20.0
 42
20.0
 43
20.0
  0
INSERT
  5
7F0C
  8
3
 62
     0
  2
_OPEN
 10
1175.3967338472901
 20
-1995.566476614988
 30
0.0
 41
20.0
 42
20.0
 43
20.0
 50
180.0
  0
TEXT
  8
3
  40
30
  5
7F34
  62
0
  72
0
  71
0
 10
1175.40
 20
-2023.67
 30
0.000000
  1
8
  0
POINT
  5
7F0E
  8
DEFPOINTS
 62
     0
 10
1167.3967338472901
 20
-1913.801484614987
 30
0.0
  0
POINT
  5
7F0F
  8
DEFPOINTS
 62
     0
 10
1175.3967338472901
 20
-1933.2700646149881
 30
0.0
  0
POINT
  5
7F10
  8
DEFPOINTS
 62
     0
 10
1175.3967338472901
 20
-1995.566476614988
 30
0.0
  0
ENDBLK
  5
7D61
  8
0
  0
BLOCK
  8
0
  2
*D18
 70
     1
 10
0.0
 20
0.0
 30
0.0
  3
*D18
  1

  0
LINE
  5
7F11
  8
3
 62
     0
 10
512.38397469453446
 20
-1515.801484614987
 30
0.0
 11
512.38397469453446
 21
-1236.6677722817419
 31
0.0
  0
LINE
  5
7F12
  8
3
 62
     0
 10
-237.6160253054654
 20
-1878.801484614987
 30
0.0
 11
-237.6160253054654
 21
-1236.6677722817419
 31
0.0
  0
LINE
  5
7F13
  8
3
 62
     0
 10
492.38397469453452
 20
-1246.6677722817419
 30
0.0
 11
-217.61602530546531
 21
-1246.6677722817419
 31
0.0
  0
INSERT
  5
7F14
  8
3
 62
     0
  2
_OPEN
 10
512.38397469453446
 20
-1246.6677722817419
 30
0.0
 41
20.0
 42
20.0
 43
20.0
  0
INSERT
  5
7F15
  8
3
 62
     0
  2
_OPEN
 10
-237.6160253054654
 20
-1246.6677722817419
 30
0.0
 41
20.0
 42
20.0
 43
20.0
 50
180.0
  0
TEXT
  8
3
  40
30
  5
7F35
  62
0
  72
0
  71
0
 10
57.1810
 20
-1274.77
 30
0.000000
  1
750
  0
POINT
  5
7F17
  8
DEFPOINTS
 62
     0
 10
512.38397469453446
 20
-1520.801484614987
 30
0.0
  0
POINT
  5
7F18
  8
DEFPOINTS
 62
     0
 10
-237.6160253054654
 20
-1883.8014846149881
 30
0.0
  0
POINT
  5
7F19
  8
DEFPOINTS
 62
     0
 10
-237.6160253054654
 20
-1246.6677722817419
 30
0.0
  0
ENDBLK
  5
7D6D
  8
0
  0
BLOCK
  8
0
  2
*D19
 70
     1
 10
0.0
 20
0.0
 30
0.0
  3
*D19
  1

  0
LINE
  5
7F1A
  8
3
 62
     0
 10
-242.6160253054654
 20
-610.72570892129886
 30
0.0
 11
-296.71081624983162
 21
-610.72570892129875
 31
0.0
  0
LINE
  5
7F1B
  8
3
 62
     0
 10
-242.6160253054654
 20
-860.72570892129909
 30
0.0
 11
-296.71081624983168
 21
-860.72570892129886
 31
0.0
  0
LINE
  5
7F1C
  8
3
 62
     0
 10
-286.71081624983168
 20
-630.72570892129875
 30
0.0
 11
-286.71081624983168
 21
-840.72570892129897
 31
0.0
  0
INSERT
  5
7F1D
  8
3
 62
     0
  2
_OPEN
 10
-286.71081624983168
 20
-610.72570892129875
 30
0.0
 41
20.0
 42
20.0
 43
20.0
 50
90.0
  0
INSERT
  5
7F1E
  8
3
 62
     0
  2
_OPEN
 10
-286.71081624983168
 20
-860.72570892129886
 30
0.0
 41
20.0
 42
20.0
 43
20.0
 50
270.0
  0
TEXT
  8
3
  40
30
  5
7F36
  62
0
  72
0
  71
0
 10
-371.711
 20
-799.784
 30
0.000000
  1
250
  0
POINT
  5
7F20
  8
DEFPOINTS
 62
     0
 10
-237.6160253054654
 20
-610.72570892129886
 30
0.0
  0
POINT
  5
7F21
  8
DEFPOINTS
 62
     0
 10
-237.6160253054654
 20
-860.72570892129909
 30
0.0
  0
POINT
  5
7F22
  8
DEFPOINTS
 62
     0
 10
-286.71081624983168
 20
-860.72570892129886
 30
0.0
  0
ENDBLK
  5
7D7A
  8
0
  0
ENDSEC
  0
SECTION
  2
ENTITIES
  0
LINE
  5
7A8F
  8
1
  6
CONTINUOUS
 10
1085.3967338472901
 20
-1545.8014846149881
 30
0.0
 11
1265.3967338472901
 21
-1545.8014846149881
 31
0.0
  0
LINE
  5
7A90
  8
1
  6
CONTINUOUS
 10
1097.3967338472901
 20
-1335.901484614988
 30
0.0
 11
1253.3967338472901
 21
-1335.901484614988
 31
0.0
  0
LINE
  5
7A91
  8
1
  6
CONTINUOUS
 10
1085.3967338472901
 20
-1545.8014846149881
 30
0.0
 11
1265.3967338472901
 21
-1797.801484614987
 31
0.0
  0
LINE
  5
7A92
  8
1
  6
CONTINUOUS
 10
1265.3967338472901
 20
-1545.8014846149881
 30
0.0
 11
1085.3967338472901
 21
-1797.801484614987
 31
0.0
  0
LINE
  5
7A93
  8
1
  6
CONTINUOUS
 10
1265.3967338472901
 20
-1797.801484614987
 30
0.0
 11
1085.3967338472901
 21
-1797.801484614987
 31
0.0
  0
CIRCLE
  5
7A94
  8
1
  6
CONTINUOUS
 10
312.38397469453452
 20
-1546.8014846149881
 30
0.0
 40
125.0
  0
CIRCLE
  5
7A95
  8
1
  6
CONTINUOUS
 10
312.38397469453452
 20
-1546.8014846149881
 30
0.0
 40
145.0
  0
LINE
  5
7A96
  8
1
  6
CONTINUOUS
 10
-237.6160253054654
 20
-1883.8014846149881
 30
0.0
 11
532.38397469453457
 21
-1883.8014846149881
 31
0.0
  0
LINE
  5
7A97
  8
1
  6
CONTINUOUS
 10
-237.6160253054654
 20
-1913.801484614987
 30
0.0
 11
532.38397469453457
 21
-1913.801484614987
 31
0.0
  0
LINE
  5
7A98
  8
1
  6
CONTINUOUS
 10
492.38397469453452
 20
-1806.8014846149881
 30
0.0
 11
311.98397469453442
 21
-1806.8014846149881
 31
0.0
  0
ARC
  5
7A99
  8
1
  6
CONTINUOUS
 10
295.38397469453452
 20
-1563.801484614987
 30
0.0
 40
203.6999999999999
 50
84.500000000000014
 51
175.40000000000001
  0
LINE
  5
7A9A
  8
2
  6
CENTER
 10
1290.47398484729
 20
-1546.8014846149881
 30
0.0
 11
778.56973611817932
 21
-1546.8014846149881
 31
0.0
  0
LINE
  5
7A9B
  8
1
  6
CONTINUOUS
 10
373.98397469453448
 20
-1396.8014846149881
 30
0.0
 11
250.78397469453461
 21
-1396.8014846149881
 31
0.0
  0
LINE
  5
7A9C
  8
1
  6
CONTINUOUS
 10
152.38397469453449
 20
-1861.801484614987
 30
0.0
 11
472.38397469453452
 21
-1861.801484614987
 31
0.0
  0
LINE
  5
7A9D
  8
1
  6
CONTINUOUS
 10
-207.6160253054654
 20
-1861.801484614987
 30
0.0
 11
502.38397469453457
 21
-1861.801484614987
 31
0.0
  0
LINE
  5
7A9E
  8
1
  6
CONTINUOUS
 10
-29.31602530546547
 20
-1763.0014846149879
 30
0.0
 11
337.48397469453442
 21
-1605.1014846149881
 31
0.0
  0
LINE
  5
7A9F
  8
1
  6
CONTINUOUS
 10
-207.6160253054654
 20
-1801.801484614987
 30
0.0
 11
502.38397469453457
 21
-1801.801484614987
 31
0.0
  0
CIRCLE
  5
7AA0
  8
1
  6
CONTINUOUS
 10
312.38397469453452
 20
-1546.8014846149881
 30
0.0
 40
63.5
  0
LINE
  5
7AA1
  8
1
  6
CONTINUOUS
 10
437.38397469453452
 20
-1491.801484614987
 30
0.0
 11
312.58397469453462
 21
-1421.8014846149881
 31
0.0
  0
LINE
  5
7AA2
  8
1
  6
CONTINUOUS
 10
312.58397469453462
 20
-1421.8014846149881
 30
0.0
 11
-142.6160253054654
 21
-1621.801484614987
 31
0.0
  0
LINE
  5
7AA3
  8
1
  6
CONTINUOUS
 10
47.08397469453439
 20
-1781.801484614987
 30
0.0
 11
-207.6160253054654
 21
-1781.801484614987
 31
0.0
  0
ARC
  5
7AA4
  8
1
  6
CONTINUOUS
 10
-50.216025305465557
 20
-1714.301484614987
 30
0.0
 40
75.799999999999997
 50
322.89999999999992
 51
217.09999999999991
  0
LINE
  5
7AA5
  8
1
  6
CONTINUOUS
 10
-142.6160253054654
 20
-1801.801484614987
 30
0.0
 11
-142.6160253054654
 21
-1621.801484614987
 31
0.0
  0
LINE
  5
7AA6
  8
1
  6
CONTINUOUS
 62
     4
 10
-237.6160253054654
 20
-1883.8014846149881
 30
0.0
 11
-237.6160253054654
 21
-1913.801484614987
 31
0.0
  0
LINE
  5
7AA7
  8
1
  6
CONTINUOUS
 10
-207.6160253054654
 20
-1801.801484614987
 30
0.0
 11
-207.6160253054654
 21
-1861.801484614987
 31
0.0
  0
LINE
  5
7AA8
  8
1
  6
CONTINUOUS
 10
-207.6160253054654
 20
-1781.801484614987
 30
0.0
 11
-207.6160253054654
 21
-1801.801484614987
 31
0.0
  0
ARC
  5
7AA9
  8
1
  6
CONTINUOUS
 10
332.38397469453457
 20
-1566.8014846149881
 30
0.0
 40
240.90000000000001
 50
175.40000000000001
 51
265.10000000000002
  0
LINE
  5
7AAA
  8
1
  6
CONTINUOUS
 10
152.38397469453449
 20
-1480.7014846149871
 30
0.0
 11
152.38397469453449
 21
-1801.801484614987
 31
0.0
  0
LINE
  5
7AAB
  8
1
  6
CONTINUOUS
 10
-73.716025305465337
 20
-1666.8014846149881
 30
0.0
 11
284.28397469453461
 21
-1489.901484614988
 31
0.0
  0
LINE
  5
7AAC
  8
2
  6
CENTER
 10
-103.21602530546529
 20
-1714.301484614987
 30
0.0
 11
2.7839746945346628
 21
-1714.301484614987
 31
0.0
  0
CIRCLE
  5
7AAD
  8
1
  6
CONTINUOUS
 10
-50.216025305465557
 20
-1714.301484614987
 30
0.0
 40
53.0
  0
LINE
  5
7AAE
  8
2
  6
CENTER
 10
-50.216025305465557
 20
-1767.301484614987
 30
0.0
 11
-50.216025305465557
 21
-1661.3014846149881
 31
0.0
  0
LINE
  5
7AAF
  8
1
  6
CONTINUOUS
 10
-116.21602530546529
 20
-1774.3014846149881
 30
0.0
 11
-110.71602530546529
 21
-1760.0014846149879
 31
0.0
  0
LINE
  5
7AB0
  8
1
  6
CONTINUOUS
 10
-116.21602530546529
 20
-1781.801484614987
 30
0.0
 11
-116.21602530546529
 21
-1774.3014846149881
 31
0.0
  0
LINE
  5
7AB1
  8
1
  6
CONTINUOUS
 10
47.08397469453439
 20
-1801.801484614987
 30
0.0
 11
47.08397469453439
 21
-1781.801484614987
 31
0.0
  0
LINE
  5
7AB2
  8
1
  6
CONTINUOUS
 10
15.78397469453466
 20
-1781.801484614987
 30
0.0
 11
15.78397469453466
 21
-1774.3014846149881
 31
0.0
  0
LINE
  5
7AB3
  8
1
  6
CONTINUOUS
 10
15.78397469453466
 20
-1774.3014846149881
 30
0.0
 11
10.18397469453452
 21
-1760.0014846149879
 31
0.0
  0
POINT
  5
7AB4
  8
1
  6
CONTINUOUS
 10
20.18397469453452
 20
-1714.301484614987
 30
0.0
  0
LINE
  5
7AB5
  8
1
  6
CONTINUOUS
 10
250.78397469453461
 20
-1396.8014846149881
 30
0.0
 11
152.38397469453449
 21
-1480.7014846149871
 31
0.0
  0
LINE
  5
7AB6
  8
2
  6
CENTER
 10
312.38397469453452
 20
-1944.767257614988
 30
0.0
 11
312.38397469453452
 21
-1336.9677796149881
 31
0.0
  0
LINE
  5
7AB9
  8
1
  6
CONTINUOUS
 10
492.38397469453452
 20
-1776.801484614987
 30
0.0
 11
492.38397469453452
 21
-1566.8014846149881
 31
0.0
  0
LINE
  5
7ABA
  8
1
  6
CONTINUOUS
 10
512.38397469453446
 20
-1525.801484614987
 30
0.0
 11
512.38397469453446
 21
-1817.801484614987
 31
0.0
  0
LINE
  5
7ABB
  8
1
  6
CONTINUOUS
 10
472.38397469453452
 20
-1801.801484614987
 30
0.0
 11
472.38397469453452
 21
-1480.7014846149871
 31
0.0
  0
LINE
  5
7ABC
  8
1
  6
CONTINUOUS
 10
437.38397469453452
 20
-1801.801484614987
 30
0.0
 11
437.38397469453452
 21
-1491.801484614987
 31
0.0
  0
LINE
  5
7ABD
  8
1
  6
CONTINUOUS
 10
512.38397469453446
 20
-1796.8014846149881
 30
0.0
 11
492.38397469453452
 21
-1776.801484614987
 31
0.0
  0
LINE
  5
7ABE
  8
1
  6
CONTINUOUS
 10
502.38397469453457
 20
-1801.801484614987
 30
0.0
 11
502.38397469453457
 21
-1861.801484614987
 31
0.0
  0
LINE
  5
7ABF
  8
1
  6
CONTINUOUS
 10
512.38397469453446
 20
-1796.8014846149881
 30
0.0
 11
492.38397469453452
 21
-1796.8014846149881
 31
0.0
  0
LINE
  5
7AC0
  8
1
  6
CONTINUOUS
 10
492.38397469453452
 20
-1806.8014846149881
 30
0.0
 11
492.38397469453452
 21
-1796.8014846149881
 31
0.0
  0
LINE
  5
7AC1
  8
1
  6
CONTINUOUS
 10
532.38397469453457
 20
-1883.8014846149881
 30
0.0
 11
532.38397469453457
 21
-1913.801484614987
 31
0.0
  0
POINT
  5
7AC2
  8
1
  6
CONTINUOUS
 10
748.68326923631184
 20
-1909.8241453070209
 30
0.0
  0
ARC
  5
7AC3
  8
1
  6
CONTINUOUS
 10
298.38397469453452
 20
-1532.8014846149881
 30
0.0
 40
172.59999999999991
 50
358.69999999999987
 51
84.500000000000014
  0
LINE
  5
7AC4
  8
1
  6
CONTINUOUS
 10
373.98397469453448
 20
-1396.8014846149881
 30
0.0
 11
472.38397469453452
 21
-1480.7014846149871
 31
0.0
  0
LINE
  5
7AC5
  8
1
  6
CONTINUOUS
 10
512.38397469453446
 20
-1546.8014846149881
 30
0.0
 11
492.38397469453452
 21
-1566.8014846149881
 31
0.0
  0
LINE
  5
7AC6
  8
1
  6
CONTINUOUS
 10
492.38397469453452
 20
-1536.801484614987
 30
0.0
 11
470.98397469453448
 21
-1536.801484614987
 31
0.0
  0
LINE
  5
7AC7
  8
1
  6
CONTINUOUS
 10
512.38397469453446
 20
-1546.8014846149881
 30
0.0
 11
492.38397469453452
 21
-1546.8014846149881
 31
0.0
  0
LINE
  5
7AC8
  8
1
  6
CONTINUOUS
 10
492.38397469453452
 20
-1546.8014846149881
 30
0.0
 11
492.38397469453452
 21
-1536.801484614987
 31
0.0
  0
LINE
  5
7AC9
  8
1
  6
CONTINUOUS
 10
1085.3967338472901
 20
-1797.801484614987
 30
0.0
 11
1085.3967338472901
 21
-1347.901484614988
 31
0.0
  0
LINE
  5
7ACA
  8
1
  6
CONTINUOUS
 10
1076.3967338472901
 20
-1693.801484614987
 30
0.0
 11
1076.3967338472901
 21
-1546.8014846149881
 31
0.0
  0
LINE
  5
7ACB
  8
1
  6
CONTINUOUS
 10
1076.3967338472901
 20
-1399.801484614987
 30
0.0
 11
1076.3967338472901
 21
-1801.801484614987
 31
0.0
  0
LINE
  5
7ACC
  8
1
  6
CONTINUOUS
 10
910.39673384729065
 20
-1801.801484614987
 30
0.0
 11
910.39673384729065
 21
-1421.8014846149881
 31
0.0
  0
LINE
  5
7ACD
  8
1
  6
CONTINUOUS
 10
835.39673384729065
 20
-1801.801484614987
 30
0.0
 11
835.39673384729065
 21
-1421.8014846149881
 31
0.0
  0
LINE
  5
7ACE
  8
1
  6
CONTINUOUS
 10
947.39673384729076
 20
-1801.801484614987
 30
0.0
 11
947.39673384729076
 21
-1585.0014846149879
 31
0.0
  0
LINE
  5
7ACF
  8
1
  6
CONTINUOUS
 10
917.39673384729065
 20
-1913.801484614987
 30
0.0
 11
1167.3967338472901
 21
-1913.801484614987
 31
0.0
  0
LINE
  5
7AD0
  8
1
  6
CONTINUOUS
 10
917.39673384729065
 20
-1883.8014846149881
 30
0.0
 11
1167.3967338472901
 21
-1883.8014846149881
 31
0.0
  0
LINE
  5
7AD1
  8
1
  6
CONTINUOUS
 10
917.39673384729065
 20
-1861.801484614987
 30
0.0
 11
1167.3967338472901
 21
-1861.801484614987
 31
0.0
  0
LINE
  5
7AD2
  8
1
  6
CONTINUOUS
 10
835.39673384729065
 20
-1801.801484614987
 30
0.0
 11
1167.3967338472901
 21
-1801.801484614987
 31
0.0
  0
LINE
  5
7AD3
  8
1
  6
CONTINUOUS
 10
890.39673384729076
 20
-1702.3014846149881
 30
0.0
 11
947.39673384729076
 21
-1702.3014846149881
 31
0.0
  0
LINE
  5
7AD4
  8
1
  6
CONTINUOUS
 10
890.39673384729076
 20
-1726.3014846149881
 30
0.0
 11
947.39673384729076
 21
-1726.3014846149881
 31
0.0
  0
LINE
  5
7AD5
  8
1
  6
CONTINUOUS
 10
917.39673384729065
 20
-1883.8014846149881
 30
0.0
 11
917.39673384729065
 21
-1913.801484614987
 31
0.0
  0
LINE
  5
7AD6
  8
1
  6
CONTINUOUS
 10
917.39673384729065
 20
-1801.801484614987
 30
0.0
 11
917.39673384729065
 21
-1861.801484614987
 31
0.0
  0
LINE
  5
7AD7
  8
1
  6
CONTINUOUS
 10
890.39673384729076
 20
-1661.3014846149881
 30
0.0
 11
890.39673384729076
 21
-1767.301484614987
 31
0.0
  0
LINE
  5
7AD8
  8
1
  6
CONTINUOUS
 10
855.39673384729076
 20
-1767.301484614987
 30
0.0
 11
890.39673384729076
 21
-1767.301484614987
 31
0.0
  0
LINE
  5
7AD9
  8
1
  6
CONTINUOUS
 10
855.39673384729076
 20
-1661.3014846149881
 30
0.0
 11
855.39673384729076
 21
-1767.301484614987
 31
0.0
  0
LINE
  5
7ADA
  8
1
  6
CONTINUOUS
 10
855.39673384729076
 20
-1661.3014846149881
 30
0.0
 11
890.39673384729076
 21
-1661.3014846149881
 31
0.0
  0
LINE
  5
7ADB
  8
1
  6
CONTINUOUS
 10
1085.3967338472901
 20
-1693.801484614987
 30
0.0
 11
1076.3967338472901
 21
-1693.801484614987
 31
0.0
  0
LINE
  5
7ADC
  8
1
  6
CONTINUOUS
 10
1085.3967338472901
 20
-1797.801484614987
 30
0.0
 11
1085.3967338472901
 21
-1775.821199614988
 31
0.0
  0
LINE
  5
7ADD
  8
1
  6
CONTINUOUS
 10
1167.3967338472901
 20
-1883.8014846149881
 30
0.0
 11
1167.3967338472901
 21
-1913.801484614987
 31
0.0
  0
LINE
  5
7ADE
  8
1
  6
CONTINUOUS
 10
1167.3967338472901
 20
-1801.801484614987
 30
0.0
 11
1167.3967338472901
 21
-1861.801484614987
 31
0.0
  0
LINE
  5
7ADF
  8
1
  6
CONTINUOUS
 10
947.39673384729076
 20
-1585.0014846149879
 30
0.0
 11
1076.3967338472901
 21
-1480.7014846149871
 31
0.0
  0
LINE
  5
7AE0
  8
1
  6
CONTINUOUS
 10
890.39673384729076
 20
-1558.8014846149881
 30
0.0
 11
979.79673384729062
 21
-1558.8014846149881
 31
0.0
  0
LINE
  5
7AE1
  8
1
  6
CONTINUOUS
 10
890.39673384729076
 20
-1534.801484614987
 30
0.0
 11
1009.49673384729
 21
-1534.801484614987
 31
0.0
  0
LINE
  5
7AE2
  8
1
  6
CONTINUOUS
 10
890.39673384729076
 20
-1483.3014846149881
 30
0.0
 11
890.39673384729076
 21
-1610.301484614987
 31
0.0
  0
LINE
  5
7AE3
  8
1
  6
CONTINUOUS
 10
855.39673384729076
 20
-1610.301484614987
 30
0.0
 11
890.39673384729076
 21
-1610.301484614987
 31
0.0
  0
LINE
  5
7AE4
  8
1
  6
CONTINUOUS
 10
855.39673384729076
 20
-1483.3014846149881
 30
0.0
 11
890.39673384729076
 21
-1483.3014846149881
 31
0.0
  0
LINE
  5
7AE5
  8
1
  6
CONTINUOUS
 10
855.39673384729076
 20
-1483.3014846149881
 30
0.0
 11
855.39673384729076
 21
-1610.301484614987
 31
0.0
  0
LINE
  5
7AE6
  8
1
  6
CONTINUOUS
 10
835.39673384729065
 20
-1421.8014846149881
 30
0.0
 11
910.39673384729065
 21
-1421.8014846149881
 31
0.0
  0
ARC
  5
7AE7
  8
1
  6
CONTINUOUS
 10
1097.3967338472901
 20
-1347.901484614988
 30
0.0
 40
12.0
 50
90.0
 51
180.0
  0
LINE
  5
7AE8
  8
1
  6
CONTINUOUS
 10
1076.3967338472901
 20
-1399.801484614987
 30
0.0
 11
1076.3967338472901
 21
-1546.8014846149881
 31
0.0
  0
LINE
  5
7AE9
  8
1
  6
CONTINUOUS
 10
1085.3967338472901
 20
-1399.801484614987
 30
0.0
 11
1076.3967338472901
 21
-1399.801484614987
 31
0.0
  0
LINE
  5
7AEA
  8
1
  6
CONTINUOUS
 10
512.38397469453446
 20
-512.92570892129902
 30
0.0
 11
113.4839746945344
 21
-512.92570892129902
 31
0.0
  0
LINE
  5
7AEB
  8
1
  6
CONTINUOUS
 10
165.38397469453449
 20
-503.72570892129897
 30
0.0
 11
459.38397469453452
 21
-503.72570892129897
 31
0.0
  0
LINE
  5
7AEC
  8
1
  6
CONTINUOUS
 10
512.38397469453446
 20
-692.52570892129916
 30
0.0
 11
312.38397469453452
 21
-692.52570892129916
 31
0.0
  0
LINE
  5
7AED
  8
1
  6
CONTINUOUS
 10
152.38397469453449
 20
-701.72570892129886
 30
0.0
 11
472.38397469453452
 21
-701.72570892129886
 31
0.0
  0
LINE
  5
7AEE
  8
1
  6
CONTINUOUS
 10
375.88397469453452
 20
-922.72570892129897
 30
0.0
 11
248.88397469453449
 21
-922.72570892129897
 31
0.0
  0
LINE
  5
7AEF
  8
1
  6
CONTINUOUS
 10
375.88397469453452
 20
-887.72570892129897
 30
0.0
 11
248.88397469453449
 21
-887.72570892129897
 31
0.0
  0
LINE
  5
7AF0
  8
1
  6
CONTINUOUS
 10
437.38397469453452
 20
-867.72570892129909
 30
0.0
 11
-142.6160253054654
 21
-867.72570892129909
 31
0.0
  0
LINE
  5
7AF1
  8
1
  6
CONTINUOUS
 10
437.38397469453452
 20
-942.72570892129909
 30
0.0
 11
-142.6160253054654
 21
-942.72570892129909
 31
0.0
  0
LINE
  5
7AF2
  8
1
  6
CONTINUOUS
 10
101.4839746945344
 20
-610.72570892129886
 30
0.0
 11
-237.6160253054654
 21
-610.72570892129886
 31
0.0
  0
LINE
  5
7AF3
  8
1
  6
CONTINUOUS
 10
26.383974694534569
 20
-632.42570892129902
 30
0.0
 11
-125.1160253054654
 21
-632.42570892129902
 31
0.0
  0
LINE
  5
7AF4
  8
1
  6
CONTINUOUS
 10
26.383974694534569
 20
-836.42570892129913
 30
0.0
 11
-125.1160253054654
 21
-836.42570892129913
 31
0.0
  0
LINE
  5
7AF5
  8
1
  6
CONTINUOUS
 10
-62.21602530546533
 20
-860.72570892129909
 30
0.0
 11
-237.6160253054654
 21
-860.72570892129909
 31
0.0
  0
LINE
  5
7AF6
  8
1
  6
CONTINUOUS
 10
-237.6160253054654
 20
-610.72570892129886
 30
0.0
 11
-237.6160253054654
 21
-860.72570892129909
 31
0.0
  0
LINE
  5
7AF7
  8
1
  6
CONTINUOUS
 10
-142.6160253054654
 20
-942.72570892129909
 30
0.0
 11
-142.6160253054654
 21
-867.72570892129909
 31
0.0
  0
LINE
  5
7AF8
  8
1
  6
CONTINUOUS
 10
-125.1160253054654
 20
-836.42570892129913
 30
0.0
 11
-125.1160253054654
 21
-632.42570892129902
 31
0.0
  0
LINE
  5
7AF9
  8
1
  6
CONTINUOUS
 10
101.4839746945344
 20
-524.92570892129891
 30
0.0
 11
101.4839746945344
 21
-680.52570892129916
 31
0.0
  0
LINE
  5
7AFA
  8
1
  6
CONTINUOUS
 10
300.38397469453452
 20
-860.72570892129909
 30
0.0
 11
-38.21602530546533
 21
-860.72570892129909
 31
0.0
  0
LINE
  5
7AFB
  8
1
  6
CONTINUOUS
 10
2.7839746945345492
 20
-922.72570892129897
 30
0.0
 11
-103.21602530546529
 21
-922.72570892129897
 31
0.0
  0
LINE
  5
7AFC
  8
1
  6
CONTINUOUS
 10
2.7839746945345492
 20
-887.72570892129897
 30
0.0
 11
-103.21602530546529
 21
-887.72570892129897
 31
0.0
  0
LINE
  5
7AFD
  8
1
  6
CONTINUOUS
 10
-103.21602530546529
 20
-922.72570892129897
 30
0.0
 11
-103.21602530546529
 21
-887.72570892129897
 31
0.0
  0
LINE
  5
7AFE
  8
1
  6
CONTINUOUS
 10
-62.21602530546533
 20
-887.72570892129897
 30
0.0
 11
-62.316025305465473
 21
-836.42570892129913
 31
0.0
  0
LINE
  5
7AFF
  8
1
  6
CONTINUOUS
 10
-38.21602530546533
 20
-887.72570892129897
 30
0.0
 11
-38.21602530546533
 21
-836.42570892129913
 31
0.0
  0
LINE
  5
7B00
  8
1
  6
CONTINUOUS
 10
2.7839746945345492
 20
-922.72570892129897
 30
0.0
 11
2.7839746945345492
 21
-887.72570892129897
 31
0.0
  0
LINE
  5
7B01
  8
1
  6
CONTINUOUS
 10
26.383974694534569
 20
-836.42570892129913
 30
0.0
 11
26.383974694534569
 21
-632.42570892129902
 31
0.0
  0
LINE
  5
7B02
  8
1
  6
CONTINUOUS
 10
113.4839746945344
 20
-692.52570892129916
 30
0.0
 11
312.38397469453452
 21
-692.52570892129916
 31
0.0
  0
LINE
  5
7B03
  8
1
  6
CONTINUOUS
 10
300.38397469453452
 20
-830.72570892129897
 30
0.0
 11
152.38397469453449
 21
-830.72570892129897
 31
0.0
  0
LINE
  5
7B04
  8
1
  6
CONTINUOUS
 10
165.38397469453449
 20
-692.52570892129916
 30
0.0
 11
165.38397469453449
 21
-701.72570892129886
 31
0.0
  0
ARC
  5
7B05
  8
1
  6
CONTINUOUS
 10
113.4839746945344
 20
-680.52570892129916
 30
0.0
 40
12.0
 50
180.0
 51
270.0
  0
LINE
  5
7B06
  8
1
  6
CONTINUOUS
 10
152.38397469453449
 20
-701.72570892129886
 30
0.0
 11
152.38397469453449
 21
-830.72570892129897
 31
0.0
  0
LINE
  5
7B07
  8
1
  6
CONTINUOUS
 10
300.38397469453452
 20
-887.72570892129897
 30
0.0
 11
300.38397469453452
 21
-701.72570892129886
 31
0.0
  0
LINE
  5
7B08
  8
1
  6
CONTINUOUS
 10
248.88397469453449
 20
-922.72570892129897
 30
0.0
 11
248.88397469453449
 21
-887.72570892129897
 31
0.0
  0
LINE
  5
7B09
  8
1
  6
CONTINUOUS
 10
165.38397469453449
 20
-512.92570892129902
 30
0.0
 11
165.38397469453449
 21
-503.72570892129897
 31
0.0
  0
ARC
  5
7B0A
  8
1
  6
CONTINUOUS
 10
113.4839746945344
 20
-524.92570892129891
 30
0.0
 40
12.0
 50
90.0
 51
180.0
  0
LINE
  5
7B0B
  8
1
  6
CONTINUOUS
 10
492.38397469453452
 20
-541.92570892129891
 30
0.0
 11
492.38397469453452
 21
-663.52570892129916
 31
0.0
  0
LINE
  5
7B0C
  8
1
  6
CONTINUOUS
 10
512.38397469453446
 20
-494.91736701706481
 30
0.0
 11
512.38397469453446
 21
-716.91736701706498
 31
0.0
  0
LINE
  5
7B0D
  8
1
  6
CONTINUOUS
 10
532.38397469453457
 20
-610.72570892129886
 30
0.0
 11
532.38397469453457
 21
-860.72570892129909
 31
0.0
  0
LINE
  5
7B0E
  8
1
  6
CONTINUOUS
 10
532.38397469453457
 20
-860.72570892129909
 30
0.0
 11
324.38397469453452
 21
-860.72570892129909
 31
0.0
  0
LINE
  5
7B0F
  8
1
  6
CONTINUOUS
 10
437.38397469453452
 20
-942.72570892129909
 30
0.0
 11
437.38397469453452
 21
-867.72570892129909
 31
0.0
  0
LINE
  5
7B10
  8
1
  6
CONTINUOUS
 10
472.38397469453452
 20
-830.72570892129897
 30
0.0
 11
324.38397469453452
 21
-830.72570892129897
 31
0.0
  0
LINE
  5
7B11
  8
1
  6
CONTINUOUS
 10
324.38397469453452
 20
-887.72570892129897
 30
0.0
 11
324.38397469453452
 21
-701.72570892129886
 31
0.0
  0
LINE
  5
7B12
  8
1
  6
CONTINUOUS
 10
375.88397469453452
 20
-922.72570892129897
 30
0.0
 11
375.88397469453452
 21
-887.72570892129897
 31
0.0
  0
LINE
  5
7B13
  8
1
  6
CONTINUOUS
 10
512.38397469453446
 20
-683.52570892129916
 30
0.0
 11
492.38397469453452
 21
-663.52570892129916
 31
0.0
  0
LINE
  5
7B14
  8
1
  6
CONTINUOUS
 10
459.38397469453452
 20
-692.52570892129916
 30
0.0
 11
459.38397469453452
 21
-701.72570892129886
 31
0.0
  0
LINE
  5
7B15
  8
1
  6
CONTINUOUS
 10
472.38397469453452
 20
-830.72570892129897
 30
0.0
 11
472.38397469453452
 21
-701.72570892129886
 31
0.0
  0
LINE
  5
7B16
  8
1
  6
CONTINUOUS
 10
532.38397469453457
 20
-610.72570892129886
 30
0.0
 11
512.38397469453446
 21
-610.72570892129886
 31
0.0
  0
LINE
  5
7B17
  8
1
  6
CONTINUOUS
 10
512.38397469453446
 20
-521.92570892129902
 30
0.0
 11
492.38397469453452
 21
-541.92570892129891
 31
0.0
  0
LINE
  5
7B18
  8
1
  6
CONTINUOUS
 10
459.38397469453452
 20
-512.92570892129902
 30
0.0
 11
459.38397469453452
 21
-503.72570892129897
 31
0.0
  0
LINE
  5
7B19
  8
1
  6
CONTINUOUS
 10
1265.3967338472901
 20
-1347.901484614988
 30
0.0
 11
1265.3967338472901
 21
-1797.801484614987
 31
0.0
  0
LINE
  5
7B1A
  8
1
  6
CONTINUOUS
 10
1274.3967338472901
 20
-1693.801484614987
 30
0.0
 11
1274.3967338472901
 21
-1399.801484614987
 31
0.0
  0
LINE
  5
7B1B
  8
1
  6
CONTINUOUS
 10
1265.3967338472901
 20
-1693.801484614987
 30
0.0
 11
1274.3967338472901
 21
-1693.801484614987
 31
0.0
  0
ARC
  5
7B1C
  8
1
  6
CONTINUOUS
 10
1253.3967338472901
 20
-1347.901484614988
 30
0.0
 40
12.0
 50
0.0
 51
90.0
  0
LINE
  5
7B1D
  8
1
  6
CONTINUOUS
 10
1265.3967338472901
 20
-1399.801484614987
 30
0.0
 11
1274.3967338472901
 21
-1399.801484614987
 31
0.0
  0
LINE
  5
7B1E
  8
4
  6
CONTINUOUS
 10
1316.352832
 20
-2092.0394379999998
 30
0.0
 11
1316.352832
 21
-2292.0394379999989
 31
0.0
  0
LINE
  5
7B1F
  8
4
  6
CONTINUOUS
 10
616.35283200000003
 20
-2092.0394379999998
 30
0.0
 11
616.35283200000003
 21
-2292.0394379999989
 31
0.0
  0
LINE
  5
7B20
  8
4
  6
CONTINUOUS
 10
116.35283200000001
 20
-2092.0394379999998
 30
0.0
 11
116.35283200000001
 21
-2292.0394379999989
 31
0.0
  0
LINE
  5
7B23
  8
4
  6
CONTINUOUS
 10
116.35283200000001
 20
-2292.0394379999989
 30
0.0
 11
1316.352832
 21
-2292.0394379999989
 31
0.0
  0
LINE
  5
7B24
  8
4
  6
CONTINUOUS
 10
116.35283200000001
 20
-2192.0394379999989
 30
0.0
 11
1316.352832
 21
-2192.0394379999989
 31
0.0
  0
TEXT
  5
7B25
  8
4
  6
CONTINUOUS
 10
154.8549129999999
 20
-2160.496412
 30
0.0
 40
50.0
  1
機器名称
  0
TEXT
  5
7B26
  8
4
  6
CONTINUOUS
 10
152.61093799999989
 20
-2270.394280999999
 30
0.0
 40
50.0
  1
機器型番
  0
TEXT
  5
7B27
  8
4
  6
CONTINUOUS
 10
644.03157699999986
 20
-2169.4676690000001
 30
0.0
 40
45.0
  1
ミツヤニューマルチファン
  0
TEXT
  5
7B28
  8
4
  6
CONTINUOUS
 10
653.00732699999992
 20
-2274.879852999999
 30
0.0
 40
50.0
  1
NM#1 1/2-1
  0
TEXT
  5
7B2A
  8
4
  6
CONTINUOUS
 10
192.97921799999989
 20
-198.1410909999999
 30
0.0
 40
54.0
  1
床置防振ベット
  0
TEXT
  5
7B2B
  8
4
  6
CONTINUOUS
 10
-217.47957500000001
 20
-58.158460999999988
 30
0.0
 40
72.0
  1
ベルト駆動式片吸込片持多翼ファン
  0
LINE
  5
7B2C
  8
4
  6
CONTINUOUS
 10
-283.64716800000002
 20
-122.630683
 30
0.0
 11
1316.352832
 21
-122.630683
 31
0.0
  0
LINE
  5
7B2D
  8
4
  6
CONTINUOUS
 10
-283.64716800000002
 20
77.369317000000009
 30
0.0
 11
1316.352832
 21
77.369317000000009
 31
0.0
  0
LINE
  5
7B2E
  8
4
  6
CONTINUOUS
 10
116.35283200000001
 20
-2092.0394379999998
 30
0.0
 11
1316.352832
 21
-2092.0394379999998
 31
0.0
  0
LINE
  5
7B2F
  8
4
  6
CONTINUOUS
 10
-283.64716800000002
 20
77.369317000000009
 30
0.0
 11
-283.64716800000002
 21
-122.630683
 31
0.0
  0
TEXT
  5
7B30
  8
4
  6
CONTINUOUS
 10
-242.879614
 20
-199.25045499999999
 30
0.0
 40
54.0
  1
左回転右横向
  0
TEXT
  5
7B31
  8
4
  6
CONTINUOUS
 10
935.32239100000004
 20
114.0216439999999
 30
0.0
 40
56.0
  1
No.
  0
TEXT
  5
7B32
  8
4
  6
CONTINUOUS
 10
777.64889400000015
 20
-208.6105959999999
 30
0.0
 40
54.0
  1
縮尺：1/10
  0
LINE
  5
7B33
  8
4
  6
CONTINUOUS
 10
1316.352832
 20
77.369317000000009
 30
0.0
 11
1316.352832
 21
-122.630683
 31
0.0
  0
LINE
  5
7B35
  8
4
  6
CONTINUOUS
 10
906.97025399999995
 20
89.22414599999999
 30
0.0
 11
906.97025399999995
 21
194.6128239999999
 31
0.0
  0
LINE
  5
7B36
  8
4
  6
CONTINUOUS
 10
906.97025399999995
 20
194.6128239999999
 30
0.0
 11
1316.352832
 21
194.6128239999999
 31
0.0
  0
LINE
  5
7B37
  8
4
  6
CONTINUOUS
 10
1316.352832
 20
194.6128239999999
 30
0.0
 11
1316.352832
 21
89.22414599999999
 31
0.0
  0
LINE
  5
7B38
  8
4
  6
CONTINUOUS
 10
1316.352832
 20
89.22414599999999
 30
0.0
 11
906.97025399999995
 21
89.22414599999999
 31
0.0
  0
DIMENSION
  5
7B51
  8
3
  6
CONTINUOUS
  2
*D1
 10
312.38397469453452
 20
-2000.871158614988
 30
0.0
 11
41.146430694534502
 21
-2000.871158614988
 31
0.0
 70
   128
 13
-237.6160253054654
 23
-1913.801484614987
 33
0.0
 14
312.38397469453452
 24
-1913.801484614987
 34
0.0
1001
ACAD
1000
DSTYLE
1002
{
1070
   287
1070
     3
1070
   287
1070
     3
1070
    40
1040
10.0
1070
   143
1040
0.039
1070
   172
1070
     1
1070
   271
1070
     0
1070
   279
1070
     0
1070
   288
1070
     1
1002
}
  0
DIMENSION
  5
7B5D
  8
3
  6
CONTINUOUS
  2
*D2
 10
532.38397469453457
 20
-2000.871158614988
 30
0.0
 11
422.38397469453452
 21
-1975.871158614988
 31
0.0
 70
     0
 13
312.38397469453452
 23
-1913.801484614987
 33
0.0
 14
532.38397469453457
 24
-1913.801484614987
 34
0.0
1001
ACAD
1000
DSTYLE
1002
{
1070
   287
1070
     4
1070
   287
1070
     4
1070
    40
1040
10.0
1070
    75
1070
     1
1070
   143
1040
0.039
1070
   172
1070
     1
1070
   271
1070
     0
1070
   279
1070
     1
1070
   288
1070
     1
1002
}
  0
DIMENSION
  5
7B6A
  8
3
  6
CONTINUOUS
  2
*D3
 10
588.1876656945343
 20
-1796.8014846149881
 30
0.0
 11
588.18766569453464
 21
-1663.5698996149879
 31
0.0
 70
   128
 13
512.38397469453446
 23
-1546.8014846149881
 33
0.0
 14
512.38397469453446
 24
-1796.8014846149881
 34
0.0
 50
90.0
1001
ACAD
1000
DSTYLE
1002
{
1070
   287
1070
     3
1070
   287
1070
     3
1070
    40
1040
10.0
1070
   143
1040
0.039
1070
   172
1070
     1
1070
   271
1070
     0
1070
   279
1070
     0
1070
   288
1070
     1
1002
}
  0
DIMENSION
  5
7B77
  8
3
  6
CONTINUOUS
  2
*D4
 10
706.55195596542296
 20
-1546.8014846149881
 30
0.0
 11
706.5519559654233
 21
-1481.8014846149881
 31
0.0
 70
   128
 13
312.38397469453452
 23
-1360.8121006149879
 33
0.0
 14
512.38397469453446
 24
-1546.8014846149881
 34
0.0
 50
90.0
1001
ACAD
1000
DSTYLE
1002
{
1070
   287
1070
     3
1070
   287
1070
     3
1070
    40
1040
10.0
1070
   143
1040
0.039
1070
   172
1070
     1
1070
   271
1070
     0
1070
   279
1070
     0
1070
   288
1070
     1
1002
}
  0
DIMENSION
  5
7B83
  8
3
  6
CONTINUOUS
  2
*D5
 10
706.5519559654233
 20
-1861.8014846149881
 30
0.0
 11
681.55195596542364
 21
-1704.301484614987
 31
0.0
 70
     0
 13
512.38397469453446
 23
-1546.8014846149881
 33
0.0
 14
502.38397469453457
 24
-1861.801484614987
 34
0.0
 50
90.0
1001
ACAD
1000
DSTYLE
1002
{
1070
   287
1070
     4
1070
   287
1070
     4
1070
    40
1040
10.0
1070
    75
1070
     1
1070
   143
1040
0.039
1070
   172
1070
     1
1070
   271
1070
     0
1070
   279
1070
     1
1070
   288
1070
     1
1002
}
  0
DIMENSION
  5
7B93
  8
3
  6
CONTINUOUS
  2
*D6
 10
706.55195596542285
 20
-1913.801484614987
 30
0.0
 11
706.5519559654233
 21
-1988.0871989007021
 31
0.0
 70
   128
 13
502.38397469453457
 23
-1861.801484614987
 33
0.0
 14
532.38397469453457
 24
-1913.801484614987
 34
0.0
 50
90.0
1001
ACAD
1000
DSTYLE
1002
{
1070
   287
1070
     3
1070
   287
1070
     3
1070
    40
1040
10.0
1070
   143
1040
0.039
1070
   172
1070
     1
1070
   271
1070
     0
1070
   279
1070
     0
1070
   288
1070
     1
1002
}
  0
DIMENSION
  5
7BBA
  8
3
  6
CONTINUOUS
  2
*D7
 10
761.9513312363116
 20
-1913.801484614987
 30
0.0
 11
761.95133123631194
 21
-1669.6707223070221
 31
0.0
 70
   128
 13
312.38397469453452
 23
-1360.8121006149879
 33
0.0
 14
532.38397469453457
 24
-1913.801484614987
 34
0.0
 50
90.0
1001
ACAD
1000
DSTYLE
1002
{
1070
   287
1070
     3
1070
   287
1070
     3
1070
    40
1040
10.0
1070
   143
1040
0.039
1070
   172
1070
     1
1070
   271
1070
     0
1070
   279
1070
     0
1070
   288
1070
     1
1002
}
  0
DIMENSION
  5
7BC7
  8
3
  6
CONTINUOUS
  2
*D8
 10
532.38397469453457
 20
-1034.0221619212989
 30
0.0
 11
137.3878546945345
 21
-1034.0221619212989
 31
0.0
 70
   128
 13
-237.6160253054654
 23
-860.72570892129909
 33
0.0
 14
532.38397469453457
 24
-860.72570892129909
 34
0.0
1001
ACAD
1000
DSTYLE
1002
{
1070
   287
1070
     3
1070
   287
1070
     3
1070
    40
1040
10.0
1070
   143
1040
0.039
1070
   172
1070
     1
1070
   271
1070
     0
1070
   279
1070
     0
1070
   288
1070
     1
1002
}
  0
LINE
  5
7BD5
  8
2
  6
CENTER
 10
54.714984694534557
 20
-602.72570892129886
 30
0.0
 11
563.67834269453454
 21
-602.72570892129886
 31
0.0
  0
LINE
  5
7BD6
  8
2
  6
CENTER
 10
312.38397469453452
 20
-965.36722613715995
 30
0.0
 11
312.38397469453452
 21
-466.94383613716008
 31
0.0
  0
LINE
  5
7BD7
  8
2
  6
CENTER
 10
1175.3967338472901
 20
-1287.2010026149869
 30
0.0
 11
1175.3967338472901
 21
-1933.2700646149881
 31
0.0
  0
LINE
  5
7BD8
  8
2
  6
CENTER
 10
537.86726369453424
 20
-1546.8014846149881
 30
0.0
 11
5.7331236945346973
 21
-1546.8014846149881
 31
0.0
  0
DIMENSION
  5
7BE5
  8
3
  6
CONTINUOUS
  2
*D9
 10
1167.3967338472901
 20
-1995.566476614988
 30
0.0
 11
1033.2314638472899
 21
-1995.566476614988
 31
0.0
 70
   128
 13
917.39673384729065
 23
-1913.801484614987
 33
0.0
 14
1167.3967338472901
 24
-1913.801484614987
 34
0.0
1001
ACAD
1000
DSTYLE
1002
{
1070
   287
1070
     3
1070
   287
1070
     3
1070
    40
1040
10.0
1070
   143
1040
0.039
1070
   172
1070
     1
1070
   271
1070
     0
1070
   279
1070
     0
1070
   288
1070
     1
1002
}
  0
DIMENSION
  5
7BF2
  8
3
  6
CONTINUOUS
  2
*D10
 10
1265.3967338472901
 20
-1293.0013796149881
 30
0.0
 11
1171.8062688472901
 21
-1293.0013796149881
 31
0.0
 70
   128
 13
1085.3967338472901
 23
-1347.901484614988
 33
0.0
 14
1265.3967338472901
 24
-1347.901484614988
 34
0.0
1001
ACAD
1000
DSTYLE
1002
{
1070
   287
1070
     3
1070
   287
1070
     3
1070
    40
1040
10.0
1070
   143
1040
0.039
1070
   172
1070
     1
1070
   271
1070
     0
1070
   279
1070
     0
1070
   288
1070
     1
1002
}
  0
DIMENSION
  5
7BFF
  8
3
  6
CONTINUOUS
  2
*D11
 10
1175.3967338472901
 20
-1230.7049676149879
 30
0.0
 11
1002.0521368472899
 21
-1230.7049676149879
 31
0.0
 70
   128
  1
MAX\P340
 13
835.39673384729065
 23
-1421.8014846149881
 33
0.0
 14
1175.3967338472901
 24
-1246.267176614987
 34
0.0
1001
ACAD
1000
DSTYLE
1002
{
1070
   287
1070
     3
1070
   287
1070
     3
1070
    40
1040
10.0
1070
   143
1040
0.039
1070
   172
1070
     1
1070
   271
1070
     0
1070
   279
1070
     0
1070
   288
1070
     1
1002
}
  0
DIMENSION
  5
7C0D
  8
3
  6
CONTINUOUS
  2
*D12
 10
1274.3967338472901
 20
-1230.7049676149879
 30
0.0
 11
1220.30745684729
 21
-1230.7049676149879
 31
0.0
 70
   128
 13
1175.3967338472901
 23
-1246.267176614987
 33
0.0
 14
1274.3967338472901
 24
-1399.801484614987
 34
0.0
1001
ACAD
1000
DSTYLE
1002
{
1070
   287
1070
     4
1070
   287
1070
     4
1070
    40
1040
10.0
1070
    75
1070
     1
1070
   143
1040
0.039
1070
   172
1070
     1
1070
   271
1070
     0
1070
   279
1070
     1
1070
   288
1070
     1
1002
}
  0
DIMENSION
  5
7C30
  8
3
  6
CONTINUOUS
  2
*D13
 10
312.38397469453452
 20
-1306.8450296149881
 30
0.0
 11
198.3589996945345
 21
-1306.8450296149881
 31
0.0
 70
   128
 13
92.394590694534585
 23
-1546.8014846149881
 33
0.0
 14
312.38397469453452
 24
-1360.8121006149879
 34
0.0
1001
ACAD
1000
DSTYLE
1002
{
1070
   287
1070
     3
1070
   287
1070
     3
1070
    40
1040
10.0
1070
   143
1040
0.039
1070
   172
1070
     1
1070
   271
1070
     0
1070
   279
1070
     0
1070
   288
1070
     1
1002
}
  0
DIMENSION
  5
7C3C
  8
3
  6
CONTINUOUS
  2
*D14
 10
512.38397469453446
 20
-1306.8450296149881
 30
0.0
 11
412.38397469453452
 21
-1281.8450296149881
 31
0.0
 70
     0
 13
312.38397469453452
 23
-1360.8121006149879
 33
0.0
 14
512.38397469453446
 24
-1525.801484614987
 34
0.0
1001
ACAD
1000
DSTYLE
1002
{
1070
   287
1070
     4
1070
   287
1070
     4
1070
    40
1040
10.0
1070
    75
1070
     1
1070
   143
1040
0.039
1070
   172
1070
     1
1070
   271
1070
     0
1070
   279
1070
     1
1070
   288
1070
     1
1002
}
  0
DIMENSION
  5
7C7B
  8
3
  6
CONTINUOUS
  2
*D15
 10
658.55711769453421
 20
-1806.8014846149881
 30
0.0
 11
658.55711769453455
 21
-1715.8143013070221
 31
0.0
 70
   128
 13
512.38397469453446
 23
-1546.8014846149881
 33
0.0
 14
492.38397469453452
 24
-1806.8014846149881
 34
0.0
 50
90.0
1001
ACAD
1000
DSTYLE
1002
{
1070
   287
1070
     3
1070
   287
1070
     3
1070
    40
1040
10.0
1070
   143
1040
0.039
1070
   172
1070
     1
1070
   271
1070
     0
1070
   279
1070
     0
1070
   288
1070
     1
1002
}
  0
DIMENSION
  5
7CA4
  8
3
  6
CONTINUOUS
  2
*D16
 10
1347.58898484729
 20
-1671.801484614987
 30
0.0
 11
1347.58898484729
 21
-1548.402800614987
 31
0.0
 70
   128
 13
1274.3967338472901
 23
-1421.8014846149881
 33
0.0
 14
1274.3967338472901
 24
-1671.801484614987
 34
0.0
 50
90.0
1001
ACAD
1000
DSTYLE
1002
{
1070
   287
1070
     3
1070
   287
1070
     3
1070
     3
1000
φ<>
1070
    40
1040
10.0
1070
   143
1040
0.039
1070
   172
1070
     1
1070
   271
1070
     0
1070
   279
1070
     0
1070
   288
1070
     1
1002
}
  0
DIMENSION
  5
7D54
  8
3
  2
*D17
 10
1175.3967338472901
 20
-1995.566476614988
 30
0.0
 11
1235.3967338472901
 21
-1970.566476614988
 31
0.0
 70
     0
 13
1167.3967338472901
 23
-1913.801484614987
 33
0.0
 14
1175.3967338472901
 24
-1933.2700646149881
 34
0.0
1001
ACAD
1000
DSTYLE
1002
{
1070
   287
1070
     3
1070
   287
1070
     3
1070
    40
1040
10.0
1070
   143
1040
0.039
1070
   172
1070
     1
1070
   271
1070
     0
1070
   279
1070
     0
1070
   288
1070
     1
1002
}
  0
DIMENSION
  5
7D6E
  8
3
  2
*D18
 10
-237.6160253054654
 20
-1246.6677722817419
 30
0.0
 11
117.1810440105764
 21
-1246.6677722817419
 31
0.0
 70
   128
 13
512.38397469453446
 23
-1520.801484614987
 33
0.0
 14
-237.6160253054654
 24
-1883.8014846149881
 34
0.0
1001
ACAD
1000
DSTYLE
1002
{
1070
   287
1070
     3
1070
   287
1070
     3
1070
    40
1040
10.0
1070
   143
1040
0.039
1070
   172
1070
     1
1070
   271
1070
     0
1070
   279
1070
     0
1070
   288
1070
     1
1002
}
  0
DIMENSION
  5
7D7B
  8
3
  2
*D19
 10
-286.71081624983168
 20
-860.72570892129886
 30
0.0
 11
-286.71081624983162
 21
-746.68370971548654
 31
0.0
 70
   128
 13
-237.6160253054654
 23
-610.72570892129886
 33
0.0
 14
-237.6160253054654
 24
-860.72570892129909
 34
0.0
 50
90.0
1001
ACAD
1000
DSTYLE
1002
{
1070
   287
1070
     3
1070
   287
1070
     3
1070
    40
1040
10.0
1070
   143
1040
0.039
1070
   172
1070
     1
1070
   271
1070
     0
1070
   279
1070
     0
1070
   288
1070
     1
1002
}
  0
ENDSEC
  0
EOF
