  0
SECTION
  2
HEADER
  9
$ACADVER
  1
AC1009
  9
$INSBASE
 10
0.0
 20
0.0
 30
0.0
  9
$EXTMIN
 10
250.0
 20
300.0
 30
0.0
  9
$EXTMAX
 10
1865.0149889308491
 20
2786.6522620000001
 30
0.0
  9
$LIMMIN
 10
0.0
 20
0.0
  9
$LIMMAX
 10
297.0
 20
210.0
  9
$ORTHOMODE
 70
     0
  9
$REGENMODE
 70
     1
  9
$FILLMODE
 70
     0
  9
$QTEXTMODE
 70
     0
  9
$MIRRTEXT
 70
     1
  9
$DRAGMODE
 70
     2
  9
$LTSCALE
 40
100.0
  9
$OSMODE
 70
    37
  9
$ATTMODE
 70
     1
  9
$TEXTSIZE
 40
180.0
  9
$TRACEWID
 40
0.05
  9
$TEXTSTYLE
  7
STANDARD
  9
$CLAYER
  8
3
  9
$CELTYPE
  6
BYLAYER
  9
$CECOLOR
 62
   256
  9
$DIMSCALE
 40
10.0
  9
$DIMASZ
 40
2.0
  9
$DIMEXO
 40
0.5
  9
$DIMDLI
 40
10.0
  9
$DIMRND
 40
0.0
  9
$DIMDLE
 40
0.0
  9
$DIMEXE
 40
1.0
  9
$DIMTP
 40
1.0
  9
$DIMTM
 40
1.0
  9
$DIMTXT
 40
3.0
  9
$DIMCEN
 40
0.0
  9
$DIMTSZ
 40
0.0
  9
$DIMTOL
 70
     0
  9
$DIMLIM
 70
     0
  9
$DIMTIH
 70
     0
  9
$DIMTOH
 70
     0
  9
$DIMSE1
 70
     0
  9
$DIMSE2
 70
     0
  9
$DIMTAD
 70
     1
  9
$DIMZIN
 70
     8
  9
$DIMBLK
  1

  9
$DIMASO
 70
     1
  9
$DIMSHO
 70
     1
  9
$DIMPOST
  1

  9
$DIMAPOST
  1

  9
$DIMALT
 70
     0
  9
$DIMALTD
 70
     2
  9
$DIMALTF
 40
0.039
  9
$DIMLFAC
 40
1.0
  9
$DIMTOFL
 70
     1
  9
$DIMTVP
 40
0.0
  9
$DIMTIX
 70
     0
  9
$DIMSOXD
 70
     0
  9
$DIMSAH
 70
     1
  9
$DIMBLK1
  1
OPEN
  9
$DIMBLK2
  1
OPEN
  9
$DIMSTYLE
  2
IGA
  9
$DIMCLRD
 70
     0
  9
$DIMCLRE
 70
     0
  9
$DIMCLRT
 70
     0
  9
$DIMTFAC
 40
10.0
  9
$DIMGAP
 40
1.0
  9
$LUNITS
 70
     2
  9
$LUPREC
 70
     3
  9
$SKETCHINC
 40
0.1
  9
$FILLETRAD
 40
50.0
  9
$AUNITS
 70
     0
  9
$AUPREC
 70
     0
  9
$MENU
  1
acad
  9
$ELEVATION
 40
0.0
  9
$PELEVATION
 40
0.0
  9
$THICKNESS
 40
0.0
  9
$LIMCHECK
 70
     0
  9
$BLIPMODE
 70
     0
  9
$CHAMFERA
 40
0.5
  9
$CHAMFERB
 40
0.5
  9
$SKPOLY
 70
     0
  9
$TDCREATE
 40
2450740.4700966431
  9
$TDUPDATE
 40
2454953.8639980671
  9
$TDINDWG
 40
0.0322997569
  9
$TDUSRTIMER
 40
0.0322997569
  9
$USRTIMER
 70
     1
  9
$ANGBASE
 50
0.0
  9
$ANGDIR
 70
     0
  9
$PDMODE
 70
     0
  9
$PDSIZE
 40
0.0
  9
$PLINEWID
 40
0.0
  9
$COORDS
 70
     1
  9
$SPLFRAME
 70
     0
  9
$SPLINETYPE
 70
     6
  9
$SPLINESEGS
 70
     8
  9
$ATTDIA
 70
     0
  9
$ATTREQ
 70
     1
  9
$HANDLING
 70
 10241
  9
$HANDSEED
  5
7F2E
  9
$SURFTAB1
 70
     6
  9
$SURFTAB2
 70
     6
  9
$SURFTYPE
 70
     6
  9
$SURFU
 70
     6
  9
$SURFV
 70
     6
  9
$UCSNAME
  2

  9
$UCSORG
 10
0.0
 20
0.0
 30
0.0
  9
$UCSXDIR
 10
1.0
 20
0.0
 30
0.0
  9
$UCSYDIR
 10
0.0
 20
1.0
 30
0.0
  9
$PUCSNAME
  2

  9
$PUCSORG
 10
0.0
 20
0.0
 30
0.0
  9
$PUCSXDIR
 10
1.0
 20
0.0
 30
0.0
  9
$PUCSYDIR
 10
0.0
 20
1.0
 30
0.0
  9
$USERI1
 70
     0
  9
$USERI2
 70
     0
  9
$USERI3
 70
     0
  9
$USERI4
 70
     0
  9
$USERI5
 70
     0
  9
$USERR1
 40
0.0
  9
$USERR2
 40
0.0
  9
$USERR3
 40
0.0
  9
$USERR4
 40
0.0
  9
$USERR5
 40
0.0
  9
$WORLDVIEW
 70
     1
  9
$SHADEDGE
 70
     3
  9
$SHADEDIF
 70
    70
  9
$TILEMODE
 70
     1
  9
$MAXACTVP
 70
    16
  9
$PLIMCHECK
 70
     0
  9
$PEXTMIN
 10
1.0000000000000000E+020
 20
1.0000000000000000E+020
 30
1.0000000000000000E+020
  9
$PEXTMAX
 10
-1.0000000000000000E+020
 20
-1.0000000000000000E+020
 30
-1.0000000000000000E+020
  9
$PLIMMIN
 10
0.0
 20
0.0
  9
$PLIMMAX
 10
12.0
 20
9.0
  9
$UNITMODE
 70
     0
  9
$VISRETAIN
 70
     0
  9
$PLINEGEN
 70
     0
  9
$PSLTSCALE
 70
     1
  0
ENDSEC
  0
SECTION
  2
TABLES
  0
TABLE
  2
VPORT
 70
     2
  0
VPORT
  2
*ACTIVE
 70
     0
 10
0.0
 20
0.0
 11
1.0
 21
1.0
 12
2943.4071141539198
 22
1987.487901740169
 13
0.0
 23
0.0
 14
10.0
 24
10.0
 15
10.0
 25
10.0
 16
0.0
 26
0.0
 36
1.0
 17
0.0
 27
0.0
 37
0.0
 40
3860.4308998952438
 41
1.5051150895140659
 42
50.0
 43
0.0
 44
0.0
 50
0.0
 51
0.0
 71
     0
 72
   100
 73
     1
 74
     0
 75
     0
 76
     0
 77
     0
 78
     0
  0
ENDTAB
  0
TABLE
  2
LTYPE
 70
     2
  0
LTYPE
  2
CONTINUOUS
 70
     0
  3
Solid line
 72
    65
 73
     0
 40
0.0
  0
LTYPE
  2
CENTER
 70
     0
  3
____ _ ____ _ ____ _ ____ _ ____ _ ____ _ ____ 
 72
    65
 73
     4
 40
2.0
 49
1.25
 49
-0.25
 49
0.25
 49
-0.25
  0
ENDTAB
  0
TABLE
  2
LAYER
 70
     6
  0
LAYER
  2
0
 70
     0
 62
     7
  6
CONTINUOUS
  0
LAYER
  2
3
 70
     0
 62
     2
  6
CONTINUOUS
  0
LAYER
  2
2
 70
     0
 62
     3
  6
CENTER
  0
LAYER
  2
1
 70
     0
 62
     4
  6
CONTINUOUS
  0
LAYER
  2
4
 70
     0
 62
     7
  6
CONTINUOUS
  0
LAYER
  2
DEFPOINTS
 70
     0
 62
     7
  6
CONTINUOUS
  0
ENDTAB
  0
TABLE
  2
STYLE
 70
     1
  0
STYLE
  2
STANDARD
 70
     0
 40
0.0
 41
1.0
 50
0.0
 71
     0
 42
180.0
  3
simplex.shx
  4
extfont.shx
  0
ENDTAB
  0
TABLE
  2
VIEW
 70
     0
  0
ENDTAB
  0
TABLE
  2
UCS
 70
     0
  0
ENDTAB
  0
TABLE
  2
APPID
 70
     1
  0
APPID
  2
ACAD
 70
     0
  0
ENDTAB
  0
TABLE
  2
DIMSTYLE
 70
     1
  0
DIMSTYLE
  2
IGA
 70
     0
  3

  4

  5

  6
OPEN
  7
OPEN
 40
2.0
 41
2.0
 42
0.5
 43
10.0
 44
1.0
 45
0.0
 46
0.0
 47
1.0
 48
1.0
140
3.0
141
0.0
142
0.0
143
0.03937
144
1.0
145
0.0
146
10.0
147
1.0
 71
     0
 72
     0
 73
     0
 74
     0
 75
     0
 76
     0
 77
     1
 78
     8
170
     0
171
     2
172
     0
173
     1
174
     0
175
     0
176
     0
177
     0
178
     0
  0
ENDTAB
  0
ENDSEC
  0
SECTION
  2
BLOCKS
  0
BLOCK
  8
0
  2
$MODEL_SPACE
 70
     0
 10
0.0
 20
0.0
 30
0.0
  3
$MODEL_SPACE
  1

  0
ENDBLK
  5
1B
  8
0
  0
BLOCK
 67
     1
  8
0
  2
$PAPER_SPACE
 70
     0
 10
0.0
 20
0.0
 30
0.0
  3
$PAPER_SPACE
  1

  0
ENDBLK
  5
18
 67
     1
  8
0
  0
BLOCK
  8
0
  2
_OPEN
 70
     0
 10
0.0
 20
0.0
 30
0.0
  3
_OPEN
  1

  0
LINE
  5
7B37
  8
0
  6
BYBLOCK
 62
     0
 10
-1.0
 20
0.166667
 30
0.0
 11
0.0
 21
0.0
 31
0.0
  0
LINE
  5
7B38
  8
0
  6
BYBLOCK
 62
     0
 10
0.0
 20
0.0
 30
0.0
 11
-1.0
 21
-0.166667
 31
0.0
  0
LINE
  5
7B39
  8
0
  6
BYBLOCK
 62
     0
 10
0.0
 20
0.0
 30
0.0
 11
-1.0
 21
0.0
 31
0.0
  0
ENDBLK
  5
7B3A
  8
0
  0
BLOCK
  8
0
  2
*D1
 70
     1
 10
0.0
 20
0.0
 30
0.0
  3
*D1
  1

  0
LINE
  5
7E79
  8
3
  6
CONTINUOUS
 62
     0
 10
478.50822406920042
 20
764.59313972309712
 30
0.0
 11
478.50822406920042
 21
686.0389797230971
 31
0.0
  0
LINE
  5
7E7A
  8
3
  6
CONTINUOUS
 62
     0
 10
698.50822406920042
 20
764.59313972309712
 30
0.0
 11
698.50822406920042
 21
686.0389797230971
 31
0.0
  0
LINE
  5
7E7B
  8
3
  6
CONTINUOUS
 62
     0
 10
498.50822406920042
 20
696.0389797230971
 30
0.0
 11
678.50822406920042
 21
696.0389797230971
 31
0.0
  0
INSERT
  5
7E7C
  8
3
  6
CONTINUOUS
 62
     0
  2
_OPEN
 10
478.50822406920042
 20
696.0389797230971
 30
0.0
 41
20.0
 42
20.0
 43
20.0
 50
180.0
  0
INSERT
  5
7E7D
  8
3
  6
CONTINUOUS
 62
     0
  2
_OPEN
 10
698.50822406920042
 20
696.0389797230971
 30
0.0
 41
20.0
 42
20.0
 43
20.0
  0
TEXT
  8
3
  40
30
  5
7F1B
  62
0
  72
0
  71
0
 10
532.797
 20
667.939
 30
0.000000
  1
220
  0
POINT
  5
7E7F
  8
DEFPOINTS
  6
CONTINUOUS
 62
     0
 10
478.50822406920042
 20
769.59313972309712
 30
0.0
  0
POINT
  5
7E80
  8
DEFPOINTS
  6
CONTINUOUS
 62
     0
 10
698.50822406920042
 20
769.59313972309712
 30
0.0
  0
POINT
  5
7E81
  8
DEFPOINTS
  6
CONTINUOUS
 62
     0
 10
698.50822406920042
 20
696.0389797230971
 30
0.0
  0
ENDBLK
  5
7B47
  8
0
  0
BLOCK
  8
0
  2
*D2
 70
     1
 10
0.0
 20
0.0
 30
0.0
  3
*D2
  1

  0
LINE
  5
7E82
  8
3
  6
CONTINUOUS
 62
     0
 10
1248.5082240692
 20
764.59313972309712
 30
0.0
 11
1248.5082240692
 21
686.0389797230971
 31
0.0
  0
LINE
  5
7E83
  8
3
  6
CONTINUOUS
 62
     0
 10
718.50822406920042
 20
696.0389797230971
 30
0.0
 11
1228.5082240692
 21
696.0389797230971
 31
0.0
  0
INSERT
  5
7E84
  8
3
  6
CONTINUOUS
 62
     0
  2
_OPEN
 10
698.50822406920042
 20
696.0389797230971
 30
0.0
 41
20.0
 42
20.0
 43
20.0
 50
180.0
  0
INSERT
  5
7E85
  8
3
  6
CONTINUOUS
 62
     0
  2
_OPEN
 10
1248.5082240692
 20
696.0389797230971
 30
0.0
 41
20.0
 42
20.0
 43
20.0
  0
TEXT
  8
3
  40
30
  5
7F1C
  62
0
  72
0
  71
0
 10
913.508
 20
667.939
 30
0.000000
  1
550
  0
POINT
  5
7E87
  8
DEFPOINTS
  6
CONTINUOUS
 62
     0
 10
698.50822406920042
 20
769.59313972309712
 30
0.0
  0
POINT
  5
7E88
  8
DEFPOINTS
  6
CONTINUOUS
 62
     0
 10
1248.5082240692
 20
769.59313972309712
 30
0.0
  0
POINT
  5
7E89
  8
DEFPOINTS
  6
CONTINUOUS
 62
     0
 10
1248.5082240692
 20
696.0389797230971
 30
0.0
  0
ENDBLK
  5
7B53
  8
0
  0
BLOCK
  8
0
  2
*D3
 70
     1
 10
0.0
 20
0.0
 30
0.0
  3
*D3
  1

  0
LINE
  5
7E8A
  8
3
  6
CONTINUOUS
 62
     0
 10
493.50822406920042
 20
1386.593139723097
 30
0.0
 11
435.89086606920051
 21
1386.593139723097
 31
0.0
  0
LINE
  5
7E8B
  8
3
  6
CONTINUOUS
 62
     0
 10
493.50822406920042
 20
1136.593139723097
 30
0.0
 11
435.89086606920051
 21
1136.593139723097
 31
0.0
  0
LINE
  5
7E8C
  8
3
  6
CONTINUOUS
 62
     0
 10
445.89086606920063
 20
1366.593139723097
 30
0.0
 11
445.89086606920063
 21
1156.593139723097
 31
0.0
  0
INSERT
  5
7E8D
  8
3
  6
CONTINUOUS
 62
     0
  2
_OPEN
 10
445.89086606920063
 20
1386.593139723097
 30
0.0
 41
20.0
 42
20.0
 43
20.0
 50
90.0
  0
INSERT
  5
7E8E
  8
3
  6
CONTINUOUS
 62
     0
  2
_OPEN
 10
445.89086606920051
 20
1136.593139723097
 30
0.0
 41
20.0
 42
20.0
 43
20.0
 50
270.0
  0
TEXT
  8
3
  40
30
  5
7F1D
  62
0
  72
0
  71
0
 10
360.891
 20
1203.73
 30
0.000000
  1
250
  0
POINT
  5
7E90
  8
DEFPOINTS
  6
CONTINUOUS
 62
     0
 10
498.50822406920042
 20
1386.593139723097
 30
0.0
  0
POINT
  5
7E91
  8
DEFPOINTS
  6
CONTINUOUS
 62
     0
 10
498.50822406920042
 20
1136.593139723097
 30
0.0
  0
POINT
  5
7E92
  8
DEFPOINTS
  6
CONTINUOUS
 62
     0
 10
445.89086606920051
 20
1136.593139723097
 30
0.0
  0
ENDBLK
  5
7B60
  8
0
  0
BLOCK
  8
0
  2
*D4
 70
     1
 10
0.0
 20
0.0
 30
0.0
  3
*D4
  1

  0
LINE
  5
7E93
  8
3
  6
CONTINUOUS
 62
     0
 10
513.50822406920042
 20
1396.593139723097
 30
0.0
 11
382.64625529115801
 21
1396.593139723097
 31
0.0
  0
LINE
  5
7E94
  8
3
  6
CONTINUOUS
 62
     0
 10
493.50822406920042
 20
1136.593139723097
 30
0.0
 11
382.6462552911579
 21
1136.593139723097
 31
0.0
  0
LINE
  5
7E95
  8
3
  6
CONTINUOUS
 62
     0
 10
392.64625529115801
 20
1376.593139723097
 30
0.0
 11
392.64625529115801
 21
1156.593139723097
 31
0.0
  0
INSERT
  5
7E96
  8
3
  6
CONTINUOUS
 62
     0
  2
_OPEN
 10
392.64625529115801
 20
1396.593139723097
 30
0.0
 41
20.0
 42
20.0
 43
20.0
 50
90.0
  0
INSERT
  5
7E97
  8
3
  6
CONTINUOUS
 62
     0
  2
_OPEN
 10
392.6462552911579
 20
1136.593139723097
 30
0.0
 41
20.0
 42
20.0
 43
20.0
 50
270.0
  0
TEXT
  8
3
  40
30
  5
7F1E
  62
0
  72
0
  71
0
 10
307.646
 20
1204.58
 30
0.000000
  1
260
  0
POINT
  5
7E99
  8
DEFPOINTS
  6
CONTINUOUS
 62
     0
 10
518.50822406920042
 20
1396.593139723097
 30
0.0
  0
POINT
  5
7E9A
  8
DEFPOINTS
  6
CONTINUOUS
 62
     0
 10
498.50822406920042
 20
1136.593139723097
 30
0.0
  0
POINT
  5
7E9B
  8
DEFPOINTS
  6
CONTINUOUS
 62
     0
 10
392.6462552911579
 20
1136.593139723097
 30
0.0
  0
ENDBLK
  5
7D2A
  8
0
  0
BLOCK
  8
0
  2
*D5
 70
     1
 10
0.0
 20
0.0
 30
0.0
  3
*D5
  1

  0
LINE
  5
7E9C
  8
3
  6
CONTINUOUS
 62
     0
 10
503.50822406920042
 20
821.59313972309712
 30
0.0
 11
382.64625529115779
 21
821.59313972309712
 31
0.0
  0
LINE
  5
7E9D
  8
3
  6
CONTINUOUS
 62
     0
 10
392.64625529115779
 20
1116.593139723097
 30
0.0
 11
392.64625529115767
 21
841.59313972309724
 31
0.0
  0
INSERT
  5
7E9E
  8
3
  6
CONTINUOUS
 62
     0
  2
_OPEN
 10
392.64625529115779
 20
1136.593139723097
 30
0.0
 41
20.0
 42
20.0
 43
20.0
 50
90.0
  0
INSERT
  5
7E9F
  8
3
  6
CONTINUOUS
 62
     0
  2
_OPEN
 10
392.64625529115767
 20
821.59313972309712
 30
0.0
 41
20.0
 42
20.0
 43
20.0
 50
270.0
  0
TEXT
  8
3
  40
30
  5
7F1F
  62
0
  72
0
  71
0
 10
307.646
 20
925.993
 30
0.000000
  1
315
  0
POINT
  5
7EA1
  8
DEFPOINTS
  6
CONTINUOUS
 62
     0
 10
498.50822406920042
 20
1136.593139723097
 30
0.0
  0
POINT
  5
7EA2
  8
DEFPOINTS
  6
CONTINUOUS
 62
     0
 10
508.50822406920031
 20
821.59313972309712
 30
0.0
  0
POINT
  5
7EA3
  8
DEFPOINTS
  6
CONTINUOUS
 62
     0
 10
392.64625529115767
 20
821.59313972309712
 30
0.0
  0
ENDBLK
  5
7D1F
  8
0
  0
BLOCK
  8
0
  2
*D6
 70
     1
 10
0.0
 20
0.0
 30
0.0
  3
*D6
  1

  0
LINE
  5
7EA4
  8
3
  6
CONTINUOUS
 62
     0
 10
503.50822406920042
 20
821.59313972309712
 30
0.0
 11
378.87191029115792
 21
821.59313972309712
 31
0.0
  0
LINE
  5
7EA5
  8
3
  6
CONTINUOUS
 62
     0
 10
473.50822406920042
 20
769.59313972309712
 30
0.0
 11
378.87191029115792
 21
769.59313972309712
 31
0.0
  0
LINE
  5
7EA6
  8
3
  6
CONTINUOUS
 62
     0
 10
388.87191029115792
 20
841.59313972309724
 30
0.0
 11
388.87191029115792
 21
861.59313972309712
 31
0.0
  0
LINE
  5
7EA7
  8
3
  6
CONTINUOUS
 62
     0
 10
388.87191029115792
 20
749.59313972309712
 30
0.0
 11
388.87191029115792
 21
661.02171115166857
 31
0.0
  0
LINE
  5
7EA8
  8
3
  6
CONTINUOUS
 62
     0
 10
388.87191029115792
 20
821.59313972309712
 30
0.0
 11
388.87191029115792
 21
769.59313972309712
 31
0.0
  0
INSERT
  5
7EA9
  8
3
  6
CONTINUOUS
 62
     0
  2
_OPEN
 10
388.87191029115792
 20
821.59313972309712
 30
0.0
 41
20.0
 42
20.0
 43
20.0
 50
270.0
  0
INSERT
  5
7EAA
  8
3
  6
CONTINUOUS
 62
     0
  2
_OPEN
 10
388.87191029115792
 20
769.59313972309712
 30
0.0
 41
20.0
 42
20.0
 43
20.0
 50
90.0
  0
TEXT
  8
3
  40
30
  5
7F20
  62
0
  72
0
  71
0
 10
303.872
 20
642.207
 30
0.000000
  1
52
  0
POINT
  5
7EAC
  8
DEFPOINTS
  6
CONTINUOUS
 62
     0
 10
508.50822406920031
 20
821.59313972309712
 30
0.0
  0
POINT
  5
7EAD
  8
DEFPOINTS
  6
CONTINUOUS
 62
     0
 10
478.50822406920042
 20
769.59313972309712
 30
0.0
  0
POINT
  5
7EAE
  8
DEFPOINTS
  6
CONTINUOUS
 62
     0
 10
388.87191029115792
 20
769.59313972309712
 30
0.0
  0
ENDBLK
  5
7D64
  8
0
  0
BLOCK
  8
0
  2
*D7
 70
     1
 10
0.0
 20
0.0
 30
0.0
  3
*D7
  1

  0
LINE
  5
7EAF
  8
3
  6
CONTINUOUS
 62
     0
 10
493.50822406920042
 20
1407.593139723097
 30
0.0
 11
332.73821374937978
 21
1407.593139723097
 31
0.0
  0
LINE
  5
7EB0
  8
3
  6
CONTINUOUS
 62
     0
 10
473.50822406920042
 20
769.59313972309712
 30
0.0
 11
332.73821374937972
 21
769.59313972309712
 31
0.0
  0
LINE
  5
7EB1
  8
3
  6
CONTINUOUS
 62
     0
 10
342.73821374937978
 20
1387.593139723097
 30
0.0
 11
342.73821374937972
 21
789.59313972309712
 31
0.0
  0
INSERT
  5
7EB2
  8
3
  6
CONTINUOUS
 62
     0
  2
_OPEN
 10
342.73821374937978
 20
1407.593139723097
 30
0.0
 41
20.0
 42
20.0
 43
20.0
 50
90.0
  0
INSERT
  5
7EB3
  8
3
  6
CONTINUOUS
 62
     0
  2
_OPEN
 10
342.73821374937972
 20
769.59313972309712
 30
0.0
 41
20.0
 42
20.0
 43
20.0
 50
270.0
  0
TEXT
  8
3
  40
30
  5
7F21
  62
0
  72
0
  71
0
 10
257.738
 20
1021.71
 30
0.000000
  1
638
  0
POINT
  5
7EB5
  8
DEFPOINTS
  6
CONTINUOUS
 62
     0
 10
498.50822406920042
 20
1407.593139723097
 30
0.0
  0
POINT
  5
7EB6
  8
DEFPOINTS
  6
CONTINUOUS
 62
     0
 10
478.50822406920042
 20
769.59313972309712
 30
0.0
  0
POINT
  5
7EB7
  8
DEFPOINTS
  6
CONTINUOUS
 62
     0
 10
342.73821374937972
 20
769.59313972309712
 30
0.0
  0
ENDBLK
  5
7D35
  8
0
  0
BLOCK
  8
0
  2
*D8
 70
     1
 10
0.0
 20
0.0
 30
0.0
  3
*D8
  1

  0
LINE
  5
7EB8
  8
3
  6
CONTINUOUS
 62
     0
 10
498.50822406920042
 20
1412.593139723097
 30
0.0
 11
498.50822406920042
 21
1462.241577723097
 31
0.0
  0
LINE
  5
7EB9
  8
3
  6
CONTINUOUS
 62
     0
 10
698.50822406920042
 20
1401.593139723097
 30
0.0
 11
698.50822406920042
 21
1462.241577723097
 31
0.0
  0
LINE
  5
7EBA
  8
3
  6
CONTINUOUS
 62
     0
 10
518.50822406920042
 20
1452.241577723097
 30
0.0
 11
678.50822406920042
 21
1452.241577723097
 31
0.0
  0
INSERT
  5
7EBB
  8
3
  6
CONTINUOUS
 62
     0
  2
_OPEN
 10
498.50822406920042
 20
1452.241577723097
 30
0.0
 41
20.0
 42
20.0
 43
20.0
 50
180.0
  0
INSERT
  5
7EBC
  8
3
  6
CONTINUOUS
 62
     0
  2
_OPEN
 10
698.50822406920042
 20
1452.241577723097
 30
0.0
 41
20.0
 42
20.0
 43
20.0
  0
TEXT
  8
3
  40
30
  5
7F22
  62
0
  72
0
  71
0
 10
543.942
 20
1424.14
 30
0.000000
  1
200
  0
POINT
  5
7EBE
  8
DEFPOINTS
  6
CONTINUOUS
 62
     0
 10
498.50822406920042
 20
1407.593139723097
 30
0.0
  0
POINT
  5
7EBF
  8
DEFPOINTS
  6
CONTINUOUS
 62
     0
 10
698.50822406920042
 20
1396.593139723097
 30
0.0
  0
POINT
  5
7EC0
  8
DEFPOINTS
  6
CONTINUOUS
 62
     0
 10
698.50822406920042
 20
1452.241577723097
 30
0.0
  0
ENDBLK
  5
7BF2
  8
0
  0
BLOCK
  8
0
  2
*D9
 70
     1
 10
0.0
 20
0.0
 30
0.0
  3
*D9
  1

  0
LINE
  5
7EC1
  8
3
  6
CONTINUOUS
 62
     0
 10
918.4976080692004
 20
1141.593139723097
 30
0.0
 11
918.4976080692004
 21
1462.241577723097
 31
0.0
  0
LINE
  5
7EC2
  8
3
  6
CONTINUOUS
 62
     0
 10
718.50822406920042
 20
1452.241577723097
 30
0.0
 11
898.49760806920028
 21
1452.241577723097
 31
0.0
  0
INSERT
  5
7EC3
  8
3
  6
CONTINUOUS
 62
     0
  2
_OPEN
 10
698.50822406920042
 20
1452.241577723097
 30
0.0
 41
20.0
 42
20.0
 43
20.0
 50
180.0
  0
INSERT
  5
7EC4
  8
3
  6
CONTINUOUS
 62
     0
  2
_OPEN
 10
918.4976080692004
 20
1452.241577723097
 30
0.0
 41
20.0
 42
20.0
 43
20.0
  0
TEXT
  8
3
  40
30
  5
7F23
  62
0
  72
0
  71
0
 10
748.503
 20
1424.14
 30
0.000000
  1
220
  0
POINT
  5
7EC6
  8
DEFPOINTS
  6
CONTINUOUS
 62
     0
 10
698.50822406920042
 20
1396.593139723097
 30
0.0
  0
POINT
  5
7EC7
  8
DEFPOINTS
  6
CONTINUOUS
 62
     0
 10
918.4976080692004
 20
1136.593139723097
 30
0.0
  0
POINT
  5
7EC8
  8
DEFPOINTS
  6
CONTINUOUS
 62
     0
 10
918.4976080692004
 20
1452.241577723097
 30
0.0
  0
ENDBLK
  5
7BFE
  8
0
  0
BLOCK
  8
0
  2
*D10
 70
     1
 10
0.0
 20
0.0
 30
0.0
  3
*D10
  1

  0
LINE
  5
7EC9
  8
3
  6
CONTINUOUS
 62
     0
 10
478.50822406920042
 20
1832.4028031595531
 30
0.0
 11
478.50822406920042
 21
1665.5677241595531
 31
0.0
  0
LINE
  5
7ECA
  8
3
  6
CONTINUOUS
 62
     0
 10
1248.5082240692
 20
1832.4028031595531
 30
0.0
 11
1248.5082240692
 21
1665.5677241595531
 31
0.0
  0
LINE
  5
7ECB
  8
3
  6
CONTINUOUS
 62
     0
 10
498.50822406920042
 20
1675.5677241595531
 30
0.0
 11
1228.5082240692
 21
1675.5677241595531
 31
0.0
  0
INSERT
  5
7ECC
  8
3
  6
CONTINUOUS
 62
     0
  2
_OPEN
 10
478.50822406920042
 20
1675.5677241595531
 30
0.0
 41
20.0
 42
20.0
 43
20.0
 50
180.0
  0
INSERT
  5
7ECD
  8
3
  6
CONTINUOUS
 62
     0
  2
_OPEN
 10
1248.5082240692
 20
1675.5677241595531
 30
0.0
 41
20.0
 42
20.0
 43
20.0
  0
TEXT
  8
3
  40
30
  5
7F24
  62
0
  72
0
  71
0
 10
793.049
 20
1647.47
 30
0.000000
  1
770
  0
POINT
  5
7ECF
  8
DEFPOINTS
  6
CONTINUOUS
 62
     0
 10
478.50822406920042
 20
1837.4028031595531
 30
0.0
  0
POINT
  5
7ED0
  8
DEFPOINTS
  6
CONTINUOUS
 62
     0
 10
1248.5082240692
 20
1837.4028031595531
 30
0.0
  0
POINT
  5
7ED1
  8
DEFPOINTS
  6
CONTINUOUS
 62
     0
 10
1248.5082240692
 20
1675.5677241595531
 30
0.0
  0
ENDBLK
  5
7C0B
  8
0
  0
BLOCK
  8
0
  2
*D11
 70
     1
 10
0.0
 20
0.0
 30
0.0
  3
*D11
  1

  0
LINE
  5
7ED2
  8
3
  6
CONTINUOUS
 62
     0
 10
1253.5082240692
 20
2087.4028031595531
 30
0.0
 11
1353.9019760691999
 21
2087.4028031595531
 31
0.0
  0
LINE
  5
7ED3
  8
3
  6
CONTINUOUS
 62
     0
 10
1253.5082240692
 20
1837.4028031595531
 30
0.0
 11
1353.9019760691999
 21
1837.4028031595531
 31
0.0
  0
LINE
  5
7ED4
  8
3
  6
CONTINUOUS
 62
     0
 10
1343.9019760691999
 20
2067.4028031595531
 30
0.0
 11
1343.9019760691999
 21
1857.4028031595531
 31
0.0
  0
INSERT
  5
7ED5
  8
3
  6
CONTINUOUS
 62
     0
  2
_OPEN
 10
1343.9019760691999
 20
2087.4028031595531
 30
0.0
 41
20.0
 42
20.0
 43
20.0
 50
90.0
  0
INSERT
  5
7ED6
  8
3
  6
CONTINUOUS
 62
     0
  2
_OPEN
 10
1343.9019760691999
 20
1837.4028031595531
 30
0.0
 41
20.0
 42
20.0
 43
20.0
 50
270.0
  0
TEXT
  8
3
  40
30
  5
7F25
  62
0
  72
0
  71
0
 10
1258.90
 20
1910.92
 30
0.000000
  1
250
  0
POINT
  5
7ED8
  8
DEFPOINTS
  6
CONTINUOUS
 62
     0
 10
1248.5082240692
 20
2087.4028031595531
 30
0.0
  0
POINT
  5
7ED9
  8
DEFPOINTS
  6
CONTINUOUS
 62
     0
 10
1248.5082240692
 20
1837.4028031595531
 30
0.0
  0
POINT
  5
7EDA
  8
DEFPOINTS
  6
CONTINUOUS
 62
     0
 10
1343.9019760691999
 20
1837.4028031595531
 30
0.0
  0
ENDBLK
  5
7C18
  8
0
  0
BLOCK
  8
0
  2
*D12
 70
     1
 10
0.0
 20
0.0
 30
0.0
  3
*D12
  1

  0
LINE
  5
7EDB
  8
3
  6
CONTINUOUS
 62
     0
 10
1428.8610479308479
 20
764.59313972309712
 30
0.0
 11
1428.8610479308479
 21
683.83398372309716
 31
0.0
  0
LINE
  5
7EDC
  8
3
  6
CONTINUOUS
 62
     0
 10
1678.8610479308479
 20
764.59313972309712
 30
0.0
 11
1678.8610479308479
 21
683.83398372309716
 31
0.0
  0
LINE
  5
7EDD
  8
3
  6
CONTINUOUS
 62
     0
 10
1448.8610479308479
 20
693.83398372309705
 30
0.0
 11
1658.8610479308479
 21
693.83398372309705
 31
0.0
  0
INSERT
  5
7EDE
  8
3
  6
CONTINUOUS
 62
     0
  2
_OPEN
 10
1428.8610479308479
 20
693.83398372309705
 30
0.0
 41
20.0
 42
20.0
 43
20.0
 50
180.0
  0
INSERT
  5
7EDF
  8
3
  6
CONTINUOUS
 62
     0
  2
_OPEN
 10
1678.8610479308479
 20
693.83398372309705
 30
0.0
 41
20.0
 42
20.0
 43
20.0
  0
TEXT
  8
3
  40
30
  5
7F26
  62
0
  72
0
  71
0
 10
1492.80
 20
665.734
 30
0.000000
  1
250
  0
POINT
  5
7EE1
  8
DEFPOINTS
  6
CONTINUOUS
 62
     0
 10
1428.8610479308479
 20
769.59313972309712
 30
0.0
  0
POINT
  5
7EE2
  8
DEFPOINTS
  6
CONTINUOUS
 62
     0
 10
1678.8610479308479
 20
769.59313972309712
 30
0.0
  0
POINT
  5
7EE3
  8
DEFPOINTS
  6
CONTINUOUS
 62
     0
 10
1678.8610479308479
 20
693.83398372309705
 30
0.0
  0
ENDBLK
  5
7C2A
  8
0
  0
BLOCK
  8
0
  2
*D13
 70
     1
 10
0.0
 20
0.0
 30
0.0
  3
*D13
  1

  0
LINE
  5
7EE4
  8
3
  6
CONTINUOUS
 62
     0
 10
1596.8610479308479
 20
1392.593139723097
 30
0.0
 11
1596.8610479308479
 21
1459.1704357230969
 31
0.0
  0
LINE
  5
7EE5
  8
3
  6
CONTINUOUS
 62
     0
 10
1776.8610479308479
 20
1392.593139723097
 30
0.0
 11
1776.8610479308479
 21
1459.1704357230969
 31
0.0
  0
LINE
  5
7EE6
  8
3
  6
CONTINUOUS
 62
     0
 10
1616.8610479308479
 20
1449.1704357230969
 30
0.0
 11
1756.8610479308479
 21
1449.1704357230969
 31
0.0
  0
INSERT
  5
7EE7
  8
3
  6
CONTINUOUS
 62
     0
  2
_OPEN
 10
1596.8610479308479
 20
1449.1704357230969
 30
0.0
 41
20.0
 42
20.0
 43
20.0
 50
180.0
  0
INSERT
  5
7EE8
  8
3
  6
CONTINUOUS
 62
     0
  2
_OPEN
 10
1776.8610479308479
 20
1449.1704357230969
 30
0.0
 41
20.0
 42
20.0
 43
20.0
  0
TEXT
  8
3
  40
30
  5
7F27
  62
0
  72
0
  71
0
 10
1624.31
 20
1421.07
 30
0.000000
  1
180
  0
POINT
  5
7EEA
  8
DEFPOINTS
  6
CONTINUOUS
 62
     0
 10
1596.8610479308479
 20
1387.593139723097
 30
0.0
  0
POINT
  5
7EEB
  8
DEFPOINTS
  6
CONTINUOUS
 62
     0
 10
1776.8610479308479
 20
1387.593139723097
 30
0.0
  0
POINT
  5
7EEC
  8
DEFPOINTS
  6
CONTINUOUS
 62
     0
 10
1776.8610479308479
 20
1449.1704357230969
 30
0.0
  0
ENDBLK
  5
7C97
  8
0
  0
BLOCK
  8
0
  2
*D14
 70
     1
 10
0.0
 20
0.0
 30
0.0
  3
*D14
  1

  0
LINE
  5
7EED
  8
3
  6
CONTINUOUS
 62
     0
 10
1346.8610479308479
 20
1266.593139723097
 30
0.0
 11
1346.8610479308479
 21
1513.2702417230969
 31
0.0
  0
LINE
  5
7EEE
  8
3
  6
CONTINUOUS
 62
     0
 10
1686.8610479308479
 20
1501.4967317230969
 30
0.0
 11
1686.8610479308479
 21
1513.2702417230969
 31
0.0
  0
LINE
  5
7EEF
  8
3
  6
CONTINUOUS
 62
     0
 10
1366.8610479308479
 20
1503.2702417230969
 30
0.0
 11
1666.8610479308479
 21
1503.2702417230969
 31
0.0
  0
INSERT
  5
7EF0
  8
3
  6
CONTINUOUS
 62
     0
  2
_OPEN
 10
1346.8610479308479
 20
1503.2702417230969
 30
0.0
 41
20.0
 42
20.0
 43
20.0
 50
180.0
  0
INSERT
  5
7EF1
  8
3
  6
CONTINUOUS
 62
     0
  2
_OPEN
 10
1686.8610479308479
 20
1503.2702417230969
 30
0.0
 41
20.0
 42
20.0
 43
20.0
  0
TEXT
  8
3
  40
30
  5
7F28
  62
0
  72
0
  71
0
 10
1471.42
 20
1500.17
 30
0.000000
  1
MAX
  0
TEXT
  8
3
  40
30
  5
7F29
  62
0
  72
0
  71
0
 10
1471.42
 20
1461.17
 30
0.000000
  1
340
  0
POINT
  5
7EF3
  8
DEFPOINTS
  6
CONTINUOUS
 62
     0
 10
1346.8610479308479
 20
1261.593139723097
 30
0.0
  0
POINT
  5
7EF4
  8
DEFPOINTS
  6
CONTINUOUS
 62
     0
 10
1686.8610479308479
 20
1496.4967317230969
 30
0.0
  0
POINT
  5
7EF5
  8
DEFPOINTS
  6
CONTINUOUS
 62
     0
 10
1686.8610479308479
 20
1503.2702417230969
 30
0.0
  0
ENDBLK
  5
7D7C
  8
0
  0
BLOCK
  8
0
  2
*D15
 70
     1
 10
0.0
 20
0.0
 30
0.0
  3
*D15
  1

  0
LINE
  5
7EF6
  8
3
  6
CONTINUOUS
 62
     0
 10
1785.8610479308479
 20
1288.593139723097
 30
0.0
 11
1785.8610479308479
 21
1513.2702417230969
 31
0.0
  0
LINE
  5
7EF7
  8
3
  6
CONTINUOUS
 62
     0
 10
1706.8610479308479
 20
1503.2702417230969
 30
0.0
 11
1765.8610479308479
 21
1503.2702417230969
 31
0.0
  0
TEXT
  8
3
  40
30
  5
7F2A
  62
0
  72
0
  71
0
 10
1673.91
 20
1475.39
 30
0.000000
  1
99
  0
INSERT
  5
7EF9
  8
3
  6
CONTINUOUS
 62
     0
  2
_OPEN
 10
1686.8610479308479
 20
1503.2702417230969
 30
0.0
 41
20.0
 42
20.0
 43
20.0
 50
180.0
  0
INSERT
  5
7EFA
  8
3
  6
CONTINUOUS
 62
     0
  2
_OPEN
 10
1785.8610479308479
 20
1503.2702417230969
 30
0.0
 41
20.0
 42
20.0
 43
20.0
  0
POINT
  5
7EFB
  8
DEFPOINTS
  6
CONTINUOUS
 62
     0
 10
1686.8610479308479
 20
1496.4967317230969
 30
0.0
  0
POINT
  5
7EFC
  8
DEFPOINTS
  6
CONTINUOUS
 62
     0
 10
1785.8610479308479
 20
1283.593139723097
 30
0.0
  0
POINT
  5
7EFD
  8
DEFPOINTS
  6
CONTINUOUS
 62
     0
 10
1785.8610479308479
 20
1503.2702417230969
 30
0.0
  0
ENDBLK
  5
7CF4
  8
0
  0
BLOCK
  8
0
  2
*D16
 70
     1
 10
0.0
 20
0.0
 30
0.0
  3
*D16
  1

  0
LINE
  5
7EFE
  8
3
  6
CONTINUOUS
 62
     0
 10
1790.8610479308479
 20
1261.593139723097
 30
0.0
 11
1865.0149889308491
 21
1261.593139723097
 31
0.0
  0
LINE
  5
7EFF
  8
3
  6
CONTINUOUS
 62
     0
 10
1790.8610479308479
 20
1011.593139723097
 30
0.0
 11
1865.0149889308491
 21
1011.593139723097
 31
0.0
  0
LINE
  5
7F00
  8
3
  6
CONTINUOUS
 62
     0
 10
1855.0149889308479
 20
1241.593139723097
 30
0.0
 11
1855.0149889308479
 21
1031.593139723097
 31
0.0
  0
INSERT
  5
7F01
  8
3
  6
CONTINUOUS
 62
     0
  2
_OPEN
 10
1855.0149889308479
 20
1261.593139723097
 30
0.0
 41
20.0
 42
20.0
 43
20.0
 50
90.0
  0
INSERT
  5
7F02
  8
3
  6
CONTINUOUS
 62
     0
  2
_OPEN
 10
1855.0149889308479
 20
1011.593139723097
 30
0.0
 41
20.0
 42
20.0
 43
20.0
 50
270.0
  0
TEXT
  8
3
  40
30
  5
7F2B
  62
0
  72
0
  71
0
 10
1770.01
 20
1088.31
 30
0.000000
  1
φ250
  0
POINT
  5
7F04
  8
DEFPOINTS
  6
CONTINUOUS
 62
     0
 10
1785.8610479308479
 20
1261.593139723097
 30
0.0
  0
POINT
  5
7F05
  8
DEFPOINTS
  6
CONTINUOUS
 62
     0
 10
1785.8610479308479
 20
1011.593139723097
 30
0.0
  0
POINT
  5
7F06
  8
DEFPOINTS
  6
CONTINUOUS
 62
     0
 10
1855.0149889308479
 20
1011.593139723097
 30
0.0
  0
ENDBLK
  5
7D87
  8
0
  0
BLOCK
  8
0
  2
*D17
 70
     1
 10
0.0
 20
0.0
 30
0.0
  3
*D17
  1

  0
LINE
  5
7F07
  8
3
 62
     0
 10
1678.8610479308479
 20
764.59313972309712
 30
0.0
 11
1678.8610479308479
 21
683.83398372309716
 31
0.0
  0
LINE
  5
7F08
  8
3
 62
     0
 10
1686.8610479308479
 20
730.49654372309703
 30
0.0
 11
1686.8610479308479
 21
683.83398372309716
 31
0.0
  0
LINE
  5
7F09
  8
3
 62
     0
 10
1658.8610479308479
 20
693.83398372309705
 30
0.0
 11
1638.8610479308479
 21
693.83398372309705
 31
0.0
  0
LINE
  5
7F0A
  8
3
 62
     0
 10
1706.8610479308479
 20
693.83398372309705
 30
0.0
 11
1766.8610479308479
 21
693.83398372309705
 31
0.0
  0
LINE
  5
7F0B
  8
3
 62
     0
 10
1678.8610479308479
 20
693.83398372309705
 30
0.0
 11
1686.8610479308479
 21
693.83398372309705
 31
0.0
  0
INSERT
  5
7F0C
  8
3
 62
     0
  2
_OPEN
 10
1678.8610479308479
 20
693.83398372309705
 30
0.0
 41
20.0
 42
20.0
 43
20.0
  0
INSERT
  5
7F0D
  8
3
 62
     0
  2
_OPEN
 10
1686.8610479308479
 20
693.83398372309705
 30
0.0
 41
20.0
 42
20.0
 43
20.0
 50
180.0
  0
TEXT
  8
3
  40
30
  5
7F2C
  62
0
  72
0
  71
0
 10
1686.86
 20
665.734
 30
0.000000
  1
8
  0
POINT
  5
7F0F
  8
DEFPOINTS
 62
     0
 10
1678.8610479308479
 20
769.59313972309712
 30
0.0
  0
POINT
  5
7F10
  8
DEFPOINTS
 62
     0
 10
1686.8610479308479
 20
735.49654372309703
 30
0.0
  0
POINT
  5
7F11
  8
DEFPOINTS
 62
     0
 10
1686.8610479308479
 20
693.83398372309705
 30
0.0
  0
ENDBLK
  5
7D57
  8
0
  0
BLOCK
  8
0
  2
*D18
 70
     1
 10
0.0
 20
0.0
 30
0.0
  3
*D18
  1

  0
LINE
  5
7F12
  8
3
 62
     0
 10
498.50822406920042
 20
1412.593139723097
 30
0.0
 11
498.50822406920042
 21
1529.031751229453
 31
0.0
  0
LINE
  5
7F13
  8
3
 62
     0
 10
1248.5082240692
 20
804.59313972309712
 30
0.0
 11
1248.5082240692
 21
1529.031751229453
 31
0.0
  0
LINE
  5
7F14
  8
3
 62
     0
 10
518.50822406920042
 20
1519.031751229453
 30
0.0
 11
1228.5082240692
 21
1519.031751229453
 31
0.0
  0
INSERT
  5
7F15
  8
3
 62
     0
  2
_OPEN
 10
498.50822406920042
 20
1519.031751229453
 30
0.0
 41
20.0
 42
20.0
 43
20.0
 50
180.0
  0
INSERT
  5
7F16
  8
3
 62
     0
  2
_OPEN
 10
1248.5082240692
 20
1519.031751229453
 30
0.0
 41
20.0
 42
20.0
 43
20.0
  0
TEXT
  8
3
  40
30
  5
7F2D
  62
0
  72
0
  71
0
 10
811.372
 20
1490.93
 30
0.000000
  1
750
  0
POINT
  5
7F18
  8
DEFPOINTS
 62
     0
 10
498.50822406920042
 20
1407.593139723097
 30
0.0
  0
POINT
  5
7F19
  8
DEFPOINTS
 62
     0
 10
1248.5082240692
 20
799.59313972309712
 30
0.0
  0
POINT
  5
7F1A
  8
DEFPOINTS
 62
     0
 10
1248.5082240692
 20
1519.031751229453
 30
0.0
  0
ENDBLK
  5
7D70
  8
0
  0
ENDSEC
  0
SECTION
  2
ENTITIES
  0
LINE
  5
7A8B
  8
1
  6
CONTINUOUS
 10
498.50822406920042
 20
2176.2028031595528
 30
0.0
 11
518.50822406920042
 21
2156.2028031595528
 31
0.0
  0
LINE
  5
7A8C
  8
1
  6
CONTINUOUS
 10
498.50822406920042
 20
2014.6028031595531
 30
0.0
 11
518.50822406920042
 21
2034.6028031595531
 31
0.0
  0
LINE
  5
7A8D
  8
1
  6
CONTINUOUS
 10
498.50822406920042
 20
2185.2028031595528
 30
0.0
 11
897.4082240692004
 21
2185.2028031595528
 31
0.0
  0
LINE
  5
7A8E
  8
1
  6
CONTINUOUS
 10
498.50822406920042
 20
2005.602803159552
 30
0.0
 11
897.4082240692004
 21
2005.602803159552
 31
0.0
  0
LINE
  5
7A8F
  8
1
  6
CONTINUOUS
 10
498.50822406920042
 20
1136.593139723097
 30
0.0
 11
518.50822406920042
 21
1136.593139723097
 31
0.0
  0
LINE
  5
7A90
  8
1
  6
CONTINUOUS
 10
498.50822406920042
 20
1386.593139723097
 30
0.0
 11
518.50822406920042
 21
1386.593139723097
 31
0.0
  0
LINE
  5
7A91
  8
1
  6
CONTINUOUS
 10
478.50822406920042
 20
1837.4028031595531
 30
0.0
 11
686.50822406920042
 21
1837.4028031595531
 31
0.0
  0
LINE
  5
7A92
  8
1
  6
CONTINUOUS
 10
498.50822406920042
 20
1136.593139723097
 30
0.0
 11
518.50822406920042
 21
1156.593139723097
 31
0.0
  0
LINE
  5
7A93
  8
1
  6
CONTINUOUS
 10
498.50822406920042
 20
1386.593139723097
 30
0.0
 11
518.50822406920042
 21
1366.593139723097
 31
0.0
  0
LINE
  5
7A94
  8
1
  6
CONTINUOUS
 10
1248.5082240692
 20
799.59313972309712
 30
0.0
 11
478.50822406920042
 21
799.59313972309712
 31
0.0
  0
LINE
  5
7A95
  8
1
  6
CONTINUOUS
 10
1248.5082240692
 20
769.59313972309712
 30
0.0
 11
478.50822406920042
 21
769.59313972309712
 31
0.0
  0
LINE
  5
7A96
  8
1
  6
CONTINUOUS
 10
478.50822406920042
 20
799.59313972309712
 30
0.0
 11
478.50822406920042
 21
769.59313972309712
 31
0.0
  0
LINE
  5
7A97
  8
1
  6
CONTINUOUS
 10
498.50822406920042
 20
1115.593139723097
 30
0.0
 11
498.50822406920042
 21
1407.593139723097
 31
0.0
  0
LINE
  5
7A98
  8
1
  6
CONTINUOUS
 10
498.50822406920042
 20
2206.4028031595531
 30
0.0
 11
498.50822406920042
 21
1984.4028031595531
 31
0.0
  0
LINE
  5
7A99
  8
1
  6
CONTINUOUS
 10
478.50822406920042
 20
2087.4028031595531
 30
0.0
 11
478.50822406920042
 21
1837.4028031595531
 31
0.0
  0
LINE
  5
7A9A
  8
1
  6
CONTINUOUS
 10
478.50822406920042
 20
2087.4028031595531
 30
0.0
 11
498.50822406920042
 21
2087.4028031595531
 31
0.0
  0
LINE
  5
7A9B
  8
1
  6
CONTINUOUS
 10
1084.6082240692001
 20
1016.593139723097
 30
0.0
 11
726.60822406920033
 21
1193.4931397230971
 31
0.0
  0
LINE
  5
7A9C
  8
1
  6
CONTINUOUS
 10
1040.2082240692
 20
920.39313972309697
 30
0.0
 11
673.4082240692004
 21
1078.2931397230971
 31
0.0
  0
LINE
  5
7A9D
  8
1
  6
CONTINUOUS
 10
698.30822406920026
 20
1261.593139723097
 30
0.0
 11
1153.5082240692
 21
1061.593139723097
 31
0.0
  0
LINE
  5
7A9E
  8
1
  6
CONTINUOUS
 10
1218.5082240692
 20
881.59313972309701
 30
0.0
 11
508.50822406920031
 21
881.59313972309701
 31
0.0
  0
LINE
  5
7A9F
  8
1
  6
CONTINUOUS
 10
1218.5082240692
 20
821.59313972309712
 30
0.0
 11
508.50822406920031
 21
821.59313972309712
 31
0.0
  0
ARC
  5
7AA0
  8
1
  6
CONTINUOUS
 10
678.50822406920042
 20
1156.593139723097
 30
0.0
 40
240.90000000000001
 50
355.39999999999992
 51
85.099999999999994
  0
ARC
  5
7AA1
  8
1
  6
CONTINUOUS
 10
715.50822406920042
 20
1153.5931397230961
 30
0.0
 40
203.6999999999999
 50
264.5
 51
355.39999999999992
  0
CIRCLE
  5
7AA2
  8
1
  6
CONTINUOUS
 10
698.50822406920042
 20
1136.593139723097
 30
0.0
 40
125.0
  0
CIRCLE
  5
7AA3
  8
1
  6
CONTINUOUS
 10
698.50822406920042
 20
1136.593139723097
 30
0.0
 40
145.0
  0
LINE
  5
7AA4
  8
1
  6
CONTINUOUS
 10
573.50822406920042
 20
881.59313972309701
 30
0.0
 11
573.50822406920042
 21
1191.593139723097
 31
0.0
  0
LINE
  5
7AA5
  8
1
  6
CONTINUOUS
 10
538.50822406920042
 20
881.59313972309701
 30
0.0
 11
538.50822406920042
 21
1202.6931397230969
 31
0.0
  0
LINE
  5
7AA6
  8
1
  6
CONTINUOUS
 10
858.50822406920042
 20
1202.6931397230969
 30
0.0
 11
858.50822406920042
 21
881.59313972309701
 31
0.0
  0
ARC
  5
7AA7
  8
1
  6
CONTINUOUS
 10
712.50822406920042
 20
1122.593139723097
 30
0.0
 40
172.59999999999991
 50
178.69999999999999
 51
264.5
  0
LINE
  5
7AA8
  8
1
  6
CONTINUOUS
 10
508.50822406920031
 20
881.59313972309701
 30
0.0
 11
508.50822406920031
 21
821.59313972309712
 31
0.0
  0
CIRCLE
  5
7AA9
  8
1
  6
CONTINUOUS
 10
698.50822406920042
 20
1136.593139723097
 30
0.0
 40
63.5
  0
LINE
  5
7AAA
  8
1
  6
CONTINUOUS
 10
636.90822406920029
 20
1286.5931397230961
 30
0.0
 11
760.10822406920033
 21
1286.5931397230961
 31
0.0
  0
LINE
  5
7AAB
  8
1
  6
CONTINUOUS
 10
538.50822406920042
 20
1103.2931397230971
 30
0.0
 11
858.50822406920042
 21
1103.2931397230971
 31
0.0
  0
LINE
  5
7AAC
  8
2
  6
CENTER
 10
469.34501706920031
 20
1136.593139723097
 30
0.0
 11
1024.0247260691999
 21
1136.593139723097
 31
0.0
  0
LINE
  5
7AAD
  8
1
  6
CONTINUOUS
 10
518.50822406920042
 20
1366.593139723097
 30
0.0
 11
518.50822406920042
 21
1156.593139723097
 31
0.0
  0
LINE
  5
7AAE
  8
1
  6
CONTINUOUS
 10
573.50822406920042
 20
1191.593139723097
 30
0.0
 11
698.30822406920026
 21
1261.593139723097
 31
0.0
  0
LINE
  5
7AAF
  8
1
  6
CONTINUOUS
 10
636.90822406920029
 20
1286.5931397230961
 30
0.0
 11
538.50822406920042
 21
1202.6931397230969
 31
0.0
  0
LINE
  5
7AB0
  8
1
  6
CONTINUOUS
 10
518.50822406920042
 20
1136.593139723097
 30
0.0
 11
518.50822406920042
 21
1126.593139723097
 31
0.0
  0
LINE
  5
7AB1
  8
1
  6
CONTINUOUS
 10
518.50822406920042
 20
1126.593139723097
 30
0.0
 11
539.9082240692004
 21
1126.593139723097
 31
0.0
  0
LINE
  5
7AB2
  8
2
  6
CENTER
 10
698.50822406920042
 20
2223.1195911595519
 30
0.0
 11
698.50822406920042
 21
1727.052458159553
 31
0.0
  0
LINE
  5
7AB3
  8
1
  6
CONTINUOUS
 10
518.50822406920042
 20
1396.593139723097
 30
0.0
 11
698.90822406920029
 21
1396.593139723097
 31
0.0
  0
LINE
  5
7AB4
  8
1
  6
CONTINUOUS
 10
518.50822406920042
 20
1396.593139723097
 30
0.0
 11
518.50822406920042
 21
1386.593139723097
 31
0.0
  0
LINE
  5
7AB5
  8
1
  6
CONTINUOUS
 10
760.10822406920033
 20
1286.5931397230961
 30
0.0
 11
858.50822406920042
 21
1202.6931397230969
 31
0.0
  0
LINE
  5
7AB6
  8
1
  6
CONTINUOUS
 10
1153.5082240692
 20
881.59313972309701
 30
0.0
 11
1153.5082240692
 21
1061.593139723097
 31
0.0
  0
LINE
  5
7AB7
  8
1
  6
CONTINUOUS
 10
963.80822406920026
 20
901.59313972309712
 30
0.0
 11
1218.5082240692
 21
901.59313972309712
 31
0.0
  0
LINE
  5
7AB8
  8
2
  6
CENTER
 10
1114.1082240692001
 20
969.09313972309701
 30
0.0
 11
1008.1082240692
 21
969.09313972309701
 31
0.0
  0
CIRCLE
  5
7AB9
  8
1
  6
CONTINUOUS
 10
1061.1082240692001
 20
969.09313972309701
 30
0.0
 40
53.0
  0
ARC
  5
7ABA
  8
1
  6
CONTINUOUS
 10
1061.1082240692001
 20
969.09313972309701
 30
0.0
 40
75.799999999999997
 50
322.89999999999992
 51
217.09999999999991
  0
LINE
  5
7ABB
  8
1
  6
CONTINUOUS
 10
963.80822406920026
 20
881.59313972309701
 30
0.0
 11
963.80822406920026
 21
901.59313972309712
 31
0.0
  0
LINE
  5
7ABC
  8
1
  6
CONTINUOUS
 10
995.10822406920022
 20
901.59313972309712
 30
0.0
 11
995.10822406920022
 21
909.09313972309712
 31
0.0
  0
LINE
  5
7ABD
  8
1
  6
CONTINUOUS
 10
995.10822406920022
 20
909.09313972309712
 30
0.0
 11
1000.7082240692
 21
923.39313972309708
 31
0.0
  0
POINT
  5
7ABE
  8
1
  6
CONTINUOUS
 10
990.70822406920036
 20
969.09313972309701
 30
0.0
  0
LINE
  5
7ABF
  8
2
  6
CENTER
 10
1061.1082240692001
 20
916.09313972309712
 30
0.0
 11
1061.1082240692001
 21
1022.093139723097
 31
0.0
  0
LINE
  5
7AC0
  8
1
  6
CONTINUOUS
 10
1127.1082240692001
 20
909.09313972309712
 30
0.0
 11
1121.6082240692001
 21
923.39313972309708
 31
0.0
  0
LINE
  5
7AC1
  8
1
  6
CONTINUOUS
 10
1127.1082240692001
 20
901.59313972309712
 30
0.0
 11
1127.1082240692001
 21
909.09313972309712
 31
0.0
  0
LINE
  5
7AC2
  8
1
  6
CONTINUOUS
 10
1218.5082240692
 20
901.59313972309712
 30
0.0
 11
1218.5082240692
 21
881.59313972309701
 31
0.0
  0
LINE
  5
7AC3
  8
1
  6
CONTINUOUS
 10
1218.5082240692
 20
881.59313972309701
 30
0.0
 11
1218.5082240692
 21
821.59313972309712
 31
0.0
  0
LINE
  5
7AC4
  8
1
  6
CONTINUOUS
 10
1248.5082240692
 20
799.59313972309712
 30
0.0
 11
1248.5082240692
 21
769.59313972309712
 31
0.0
  0
LINE
  5
7AC5
  8
1
  6
CONTINUOUS
 10
710.50822406920042
 20
1837.4028031595531
 30
0.0
 11
1049.2082240692
 21
1837.4028031595531
 31
0.0
  0
LINE
  5
7AC6
  8
1
  6
CONTINUOUS
 10
573.50822406920042
 20
1830.4028031595531
 30
0.0
 11
1153.5082240692
 21
1830.4028031595531
 31
0.0
  0
LINE
  5
7AC7
  8
1
  6
CONTINUOUS
 10
573.50822406920042
 20
1755.4028031595531
 30
0.0
 11
1153.5082240692
 21
1755.4028031595531
 31
0.0
  0
LINE
  5
7AC8
  8
1
  6
CONTINUOUS
 10
909.40822406920029
 20
2087.4028031595531
 30
0.0
 11
1248.5082240692
 21
2087.4028031595531
 31
0.0
  0
LINE
  5
7AC9
  8
1
  6
CONTINUOUS
 10
518.50822406920042
 20
2156.2028031595528
 30
0.0
 11
518.50822406920042
 21
2034.6028031595531
 31
0.0
  0
LINE
  5
7ACA
  8
1
  6
CONTINUOUS
 10
909.40822406920029
 20
2173.2028031595528
 30
0.0
 11
909.40822406920029
 21
2017.602803159552
 31
0.0
  0
LINE
  5
7ACB
  8
1
  6
CONTINUOUS
 10
710.50822406920042
 20
1867.4028031595531
 30
0.0
 11
858.50822406920042
 21
1867.4028031595531
 31
0.0
  0
LINE
  5
7ACC
  8
1
  6
CONTINUOUS
 10
635.00822406920042
 20
1775.4028031595531
 30
0.0
 11
762.00822406920042
 21
1775.4028031595531
 31
0.0
  0
LINE
  5
7ACD
  8
1
  6
CONTINUOUS
 10
635.00822406920042
 20
1810.4028031595519
 30
0.0
 11
762.00822406920042
 21
1810.4028031595519
 31
0.0
  0
LINE
  5
7ACE
  8
1
  6
CONTINUOUS
 10
538.50822406920042
 20
1996.4028031595531
 30
0.0
 11
858.50822406920042
 21
1996.4028031595531
 31
0.0
  0
LINE
  5
7ACF
  8
1
  6
CONTINUOUS
 10
573.50822406920042
 20
1755.4028031595531
 30
0.0
 11
573.50822406920042
 21
1830.4028031595531
 31
0.0
  0
LINE
  5
7AD0
  8
1
  6
CONTINUOUS
 10
538.50822406920042
 20
1867.4028031595531
 30
0.0
 11
686.50822406920042
 21
1867.4028031595531
 31
0.0
  0
LINE
  5
7AD1
  8
1
  6
CONTINUOUS
 10
551.50822406920042
 20
2005.602803159552
 30
0.0
 11
551.50822406920042
 21
1996.4028031595531
 31
0.0
  0
LINE
  5
7AD2
  8
1
  6
CONTINUOUS
 10
538.50822406920042
 20
1867.4028031595531
 30
0.0
 11
538.50822406920042
 21
1996.4028031595531
 31
0.0
  0
LINE
  5
7AD3
  8
1
  6
CONTINUOUS
 10
686.50822406920042
 20
1810.4028031595519
 30
0.0
 11
686.50822406920042
 21
1996.4028031595531
 31
0.0
  0
LINE
  5
7AD4
  8
1
  6
CONTINUOUS
 10
710.50822406920042
 20
1810.4028031595519
 30
0.0
 11
710.50822406920042
 21
1996.4028031595531
 31
0.0
  0
LINE
  5
7AD5
  8
1
  6
CONTINUOUS
 10
635.00822406920042
 20
1775.4028031595531
 30
0.0
 11
635.00822406920042
 21
1810.4028031595519
 31
0.0
  0
LINE
  5
7AD6
  8
1
  6
CONTINUOUS
 10
762.00822406920042
 20
1775.4028031595531
 30
0.0
 11
762.00822406920042
 21
1810.4028031595519
 31
0.0
  0
LINE
  5
7AD7
  8
1
  6
CONTINUOUS
 10
845.50822406920042
 20
2005.602803159552
 30
0.0
 11
845.50822406920042
 21
1996.4028031595531
 31
0.0
  0
ARC
  5
7AD8
  8
1
  6
CONTINUOUS
 10
897.4082240692004
 20
2017.602803159552
 30
0.0
 40
12.0
 50
270.0
 51
0.0
  0
LINE
  5
7AD9
  8
1
  6
CONTINUOUS
 10
858.50822406920042
 20
1996.4028031595531
 30
0.0
 11
858.50822406920042
 21
1867.4028031595531
 31
0.0
  0
LINE
  5
7ADA
  8
1
  6
CONTINUOUS
 10
845.50822406920042
 20
2194.4028031595531
 30
0.0
 11
551.50822406920042
 21
2194.4028031595531
 31
0.0
  0
LINE
  5
7ADB
  8
1
  6
CONTINUOUS
 10
551.50822406920042
 20
2186.2028031595528
 30
0.0
 11
551.50822406920042
 21
2194.4028031595531
 31
0.0
  0
LINE
  5
7ADC
  8
1
  6
CONTINUOUS
 10
845.50822406920042
 20
2186.2028031595528
 30
0.0
 11
845.50822406920042
 21
2194.4028031595531
 31
0.0
  0
ARC
  5
7ADD
  8
1
  6
CONTINUOUS
 10
897.4082240692004
 20
2173.2028031595528
 30
0.0
 40
12.0
 50
0.0
 51
90.0
  0
LINE
  5
7ADE
  8
1
  6
CONTINUOUS
 10
1248.5082240692
 20
2087.4028031595531
 30
0.0
 11
1248.5082240692
 21
1837.4028031595531
 31
0.0
  0
LINE
  5
7ADF
  8
1
  6
CONTINUOUS
 10
1073.2082240692
 20
1837.4028031595531
 30
0.0
 11
1248.5082240692
 21
1837.4028031595531
 31
0.0
  0
LINE
  5
7AE0
  8
1
  6
CONTINUOUS
 10
1008.2082240692
 20
1775.4028031595531
 30
0.0
 11
1114.2082240692
 21
1775.4028031595531
 31
0.0
  0
LINE
  5
7AE1
  8
1
  6
CONTINUOUS
 10
1008.2082240692
 20
1810.4028031595519
 30
0.0
 11
1114.2082240692
 21
1810.4028031595519
 31
0.0
  0
LINE
  5
7AE2
  8
1
  6
CONTINUOUS
 10
984.50822406920042
 20
2065.7028031595528
 30
0.0
 11
1136.0082240692
 21
2065.7028031595528
 31
0.0
  0
LINE
  5
7AE3
  8
1
  6
CONTINUOUS
 10
984.50822406920042
 20
1861.702803159553
 30
0.0
 11
1136.0082240692
 21
1861.702803159553
 31
0.0
  0
LINE
  5
7AE4
  8
1
  6
CONTINUOUS
 10
1008.2082240692
 20
1775.4028031595531
 30
0.0
 11
1008.2082240692
 21
1810.4028031595519
 31
0.0
  0
LINE
  5
7AE5
  8
1
  6
CONTINUOUS
 10
984.50822406920042
 20
1861.702803159553
 30
0.0
 11
984.50822406920042
 21
2065.7028031595528
 31
0.0
  0
LINE
  5
7AE6
  8
1
  6
CONTINUOUS
 10
1114.2082240692
 20
1775.4028031595531
 30
0.0
 11
1114.2082240692
 21
1810.4028031595519
 31
0.0
  0
LINE
  5
7AE7
  8
1
  6
CONTINUOUS
 10
1136.0082240692
 20
1861.702803159553
 30
0.0
 11
1136.0082240692
 21
2065.7028031595528
 31
0.0
  0
LINE
  5
7AE8
  8
1
  6
CONTINUOUS
 10
1073.2082240692
 20
1810.4028031595519
 30
0.0
 11
1073.2082240692
 21
1861.702803159553
 31
0.0
  0
LINE
  5
7AE9
  8
1
  6
CONTINUOUS
 10
1049.2082240692
 20
1810.4028031595519
 30
0.0
 11
1049.2082240692
 21
1861.702803159553
 31
0.0
  0
LINE
  5
7AEA
  8
1
  6
CONTINUOUS
 10
1153.5082240692
 20
1755.4028031595531
 30
0.0
 11
1153.5082240692
 21
1830.4028031595531
 31
0.0
  0
LINE
  5
7AEB
  8
1
  6
CONTINUOUS
 10
1428.8610479308479
 20
799.59313972309712
 30
0.0
 11
1678.8610479308479
 21
799.59313972309712
 31
0.0
  0
LINE
  5
7AEC
  8
1
  6
CONTINUOUS
 10
1428.8610479308479
 20
769.59313972309712
 30
0.0
 11
1678.8610479308479
 21
769.59313972309712
 31
0.0
  0
LINE
  5
7AED
  8
1
  6
CONTINUOUS
 10
1346.8610479308479
 20
881.59313972309701
 30
0.0
 11
1678.8610479308479
 21
881.59313972309701
 31
0.0
  0
LINE
  5
7AEE
  8
1
  6
CONTINUOUS
 10
1428.8610479308479
 20
821.59313972309712
 30
0.0
 11
1678.8610479308479
 21
821.59313972309712
 31
0.0
  0
LINE
  5
7AEF
  8
1
  6
CONTINUOUS
 10
1458.8610479308479
 20
1098.393139723097
 30
0.0
 11
1587.8610479308479
 21
1202.6931397230969
 31
0.0
  0
LINE
  5
7AF0
  8
1
  6
CONTINUOUS
 10
1458.8610479308479
 20
881.59313972309701
 30
0.0
 11
1458.8610479308479
 21
1098.393139723097
 31
0.0
  0
LINE
  5
7AF1
  8
1
  6
CONTINUOUS
 10
1346.8610479308479
 20
881.59313972309701
 30
0.0
 11
1346.8610479308479
 21
1261.593139723097
 31
0.0
  0
LINE
  5
7AF2
  8
1
  6
CONTINUOUS
 10
1421.8610479308479
 20
881.59313972309701
 30
0.0
 11
1421.8610479308479
 21
1261.593139723097
 31
0.0
  0
LINE
  5
7AF5
  8
1
  6
CONTINUOUS
 10
1401.8610479308479
 20
957.09313972309712
 30
0.0
 11
1458.8610479308479
 21
957.09313972309712
 31
0.0
  0
LINE
  5
7AF6
  8
1
  6
CONTINUOUS
 10
1401.8610479308479
 20
981.09313972309712
 30
0.0
 11
1458.8610479308479
 21
981.09313972309712
 31
0.0
  0
LINE
  5
7AF7
  8
1
  6
CONTINUOUS
 10
1366.8610479308479
 20
1022.093139723097
 30
0.0
 11
1401.8610479308479
 21
1022.093139723097
 31
0.0
  0
LINE
  5
7AF8
  8
1
  6
CONTINUOUS
 10
1366.8610479308479
 20
1022.093139723097
 30
0.0
 11
1366.8610479308479
 21
916.09313972309712
 31
0.0
  0
LINE
  5
7AF9
  8
1
  6
CONTINUOUS
 10
1366.8610479308479
 20
916.09313972309712
 30
0.0
 11
1401.8610479308479
 21
916.09313972309712
 31
0.0
  0
LINE
  5
7AFA
  8
1
  6
CONTINUOUS
 10
1401.8610479308479
 20
1022.093139723097
 30
0.0
 11
1401.8610479308479
 21
916.09313972309712
 31
0.0
  0
LINE
  5
7AFB
  8
1
  6
CONTINUOUS
 10
1428.8610479308479
 20
799.59313972309712
 30
0.0
 11
1428.8610479308479
 21
769.59313972309712
 31
0.0
  0
LINE
  5
7AFC
  8
1
  6
CONTINUOUS
 10
1428.8610479308479
 20
881.59313972309701
 30
0.0
 11
1428.8610479308479
 21
821.59313972309712
 31
0.0
  0
LINE
  5
7AFD
  8
1
  6
CONTINUOUS
 10
1346.8610479308479
 20
1261.593139723097
 30
0.0
 11
1421.8610479308479
 21
1261.593139723097
 31
0.0
  0
LINE
  5
7AFE
  8
1
  6
CONTINUOUS
 10
1401.8610479308479
 20
1148.593139723097
 30
0.0
 11
1520.9610479308481
 21
1148.593139723097
 31
0.0
  0
LINE
  5
7AFF
  8
1
  6
CONTINUOUS
 10
1401.8610479308479
 20
1124.593139723097
 30
0.0
 11
1491.261047930848
 21
1124.593139723097
 31
0.0
  0
LINE
  5
7B00
  8
1
  6
CONTINUOUS
 10
1366.8610479308479
 20
1200.093139723097
 30
0.0
 11
1366.8610479308479
 21
1073.0931397230961
 31
0.0
  0
LINE
  5
7B01
  8
1
  6
CONTINUOUS
 10
1366.8610479308479
 20
1200.093139723097
 30
0.0
 11
1401.8610479308479
 21
1200.093139723097
 31
0.0
  0
LINE
  5
7B02
  8
1
  6
CONTINUOUS
 10
1366.8610479308479
 20
1073.0931397230961
 30
0.0
 11
1401.8610479308479
 21
1073.0931397230961
 31
0.0
  0
LINE
  5
7B03
  8
1
  6
CONTINUOUS
 10
1401.8610479308479
 20
1200.093139723097
 30
0.0
 11
1401.8610479308479
 21
1073.0931397230961
 31
0.0
  0
LINE
  5
7B05
  8
1
  6
CONTINUOUS
 10
1587.8610479308479
 20
1283.593139723097
 30
0.0
 11
1587.8610479308479
 21
881.59313972309701
 31
0.0
  0
LINE
  5
7B0C
  8
1
  6
CONTINUOUS
 10
1678.8610479308479
 20
799.59313972309712
 30
0.0
 11
1678.8610479308479
 21
769.59313972309712
 31
0.0
  0
LINE
  5
7B0D
  8
1
  6
CONTINUOUS
 10
1678.8610479308479
 20
881.59313972309701
 30
0.0
 11
1678.8610479308479
 21
821.59313972309712
 31
0.0
  0
LINE
  5
7B16
  8
4
  6
CONTINUOUS
 10
1850.0
 20
500.0
 30
0.0
 11
1850.0
 21
300.0
 31
0.0
  0
LINE
  5
7B17
  8
4
  6
CONTINUOUS
 10
1150.0
 20
500.0
 30
0.0
 11
1150.0
 21
300.0
 31
0.0
  0
LINE
  5
7B18
  8
4
  6
CONTINUOUS
 10
650.0
 20
500.0
 30
0.0
 11
650.0
 21
300.0
 31
0.0
  0
LINE
  5
7B1B
  8
4
  6
CONTINUOUS
 10
650.0
 20
300.0
 30
0.0
 11
1850.0
 21
300.0
 31
0.0
  0
LINE
  5
7B1C
  8
4
  6
CONTINUOUS
 10
650.0
 20
400.0
 30
0.0
 11
1850.0
 21
400.0
 31
0.0
  0
TEXT
  5
7B1D
  8
4
  6
CONTINUOUS
 10
688.50208099999998
 20
431.543026
 30
0.0
 40
50.0
  1
機器名称
  0
TEXT
  5
7B1E
  8
4
  6
CONTINUOUS
 10
686.258106
 20
321.64515699999993
 30
0.0
 40
50.0
  1
機器型番
  0
TEXT
  5
7B1F
  8
4
  6
CONTINUOUS
 10
1177.678744999999
 20
422.57176900000002
 30
0.0
 40
45.0
  1
ミツヤニューマルチファン
  0
TEXT
  5
7B20
  8
4
  6
CONTINUOUS
 10
1186.6544960000001
 20
317.159584
 30
0.0
 40
50.0
  1
NM#1 1/2-1
  0
TEXT
  5
7B22
  8
4
  6
CONTINUOUS
 10
730.22728199999995
 20
2383.4288409999999
 30
0.0
 40
54.0
  1
床置防振ベット
  0
TEXT
  5
7B23
  8
4
  6
CONTINUOUS
 10
316.16759300000001
 20
2533.8809759999999
 30
0.0
 40
72.0
  1
ベルト駆動式片吸込片持多翼ファン
  0
LINE
  5
7B24
  8
4
  6
CONTINUOUS
 10
250.0
 20
2469.408754
 30
0.0
 11
1850.0
 21
2469.408754
 31
0.0
  0
LINE
  5
7B25
  8
4
  6
CONTINUOUS
 10
250.0
 20
2669.408754
 30
0.0
 11
1850.0
 21
2669.408754
 31
0.0
  0
LINE
  5
7B26
  8
4
  6
CONTINUOUS
 10
650.0
 20
500.0
 30
0.0
 11
1850.0
 21
500.0
 31
0.0
  0
LINE
  5
7B27
  8
4
  6
CONTINUOUS
 10
250.0
 20
2669.408754
 30
0.0
 11
250.0
 21
2469.408754
 31
0.0
  0
TEXT
  5
7B28
  8
4
  6
CONTINUOUS
 10
294.36844999999988
 20
2382.3194779999999
 30
0.0
 40
54.0
  1
左回転左横向
  0
TEXT
  5
7B29
  8
4
  6
CONTINUOUS
 10
1468.9695589999999
 20
2706.0610809999998
 30
0.0
 40
56.0
  1
No.
  0
TEXT
  5
7B2A
  8
4
  6
CONTINUOUS
 10
1311.296063
 20
2383.4288409999999
 30
0.0
 40
54.0
  1
縮尺：1/10
  0
LINE
  5
7B2B
  8
4
  6
CONTINUOUS
 10
1850.0
 20
2669.408754
 30
0.0
 11
1850.0
 21
2469.408754
 31
0.0
  0
LINE
  5
7B2D
  8
4
  6
CONTINUOUS
 10
1440.617422
 20
2681.2635829999999
 30
0.0
 11
1440.617422
 21
2786.6522620000001
 31
0.0
  0
LINE
  5
7B2E
  8
4
  6
CONTINUOUS
 10
1440.617422
 20
2786.6522620000001
 30
0.0
 11
1850.0
 21
2786.6522620000001
 31
0.0
  0
LINE
  5
7B2F
  8
4
  6
CONTINUOUS
 10
1850.0
 20
2786.6522620000001
 30
0.0
 11
1850.0
 21
2681.2635829999999
 31
0.0
  0
LINE
  5
7B30
  8
4
  6
CONTINUOUS
 10
1850.0
 20
2681.2635829999999
 30
0.0
 11
1440.617422
 21
2681.2635829999999
 31
0.0
  0
DIMENSION
  5
7B48
  8
3
  6
CONTINUOUS
  2
*D1
 10
698.50822406920042
 20
696.0389797230971
 30
0.0
 11
592.79717106920032
 21
696.0389797230971
 31
0.0
 70
   128
 13
478.50822406920042
 23
769.59313972309712
 33
0.0
 14
698.50822406920042
 24
769.59313972309712
 34
0.0
1001
ACAD
1000
DSTYLE
1002
{
1070
   287
1070
     3
1070
   287
1070
     3
1070
    40
1040
10.0
1070
   143
1040
0.039
1070
   172
1070
     1
1070
   271
1070
     0
1070
   279
1070
     0
1070
   288
1070
     1
1002
}
  0
DIMENSION
  5
7B54
  8
3
  6
CONTINUOUS
  2
*D2
 10
1248.5082240692
 20
696.0389797230971
 30
0.0
 11
973.50822406920054
 21
721.0389797230971
 31
0.0
 70
     0
 13
698.50822406920042
 23
769.59313972309712
 33
0.0
 14
1248.5082240692
 24
769.59313972309712
 34
0.0
1001
ACAD
1000
DSTYLE
1002
{
1070
   287
1070
     4
1070
   287
1070
     4
1070
    40
1040
10.0
1070
    75
1070
     1
1070
   143
1040
0.039
1070
   172
1070
     1
1070
   271
1070
     0
1070
   279
1070
     1
1070
   288
1070
     1
1002
}
  0
DIMENSION
  5
7B61
  8
3
  6
CONTINUOUS
  2
*D3
 10
445.89086606920051
 20
1136.593139723097
 30
0.0
 11
445.89086606920029
 21
1256.8289847230969
 31
0.0
 70
   128
 13
498.50822406920042
 23
1386.593139723097
 33
0.0
 14
498.50822406920042
 24
1136.593139723097
 34
0.0
 50
90.0
1001
ACAD
1000
DSTYLE
1002
{
1070
   287
1070
     3
1070
   287
1070
     3
1070
    40
1040
10.0
1070
   143
1040
0.039
1070
   172
1070
     1
1070
   271
1070
     0
1070
   279
1070
     0
1070
   288
1070
     1
1002
}
  0
DIMENSION
  5
7B7B
  8
3
  6
CONTINUOUS
  2
*D4
 10
392.6462552911579
 20
1136.593139723097
 30
0.0
 11
392.64625529115767
 21
1257.684367723097
 31
0.0
 70
   128
 13
518.50822406920042
 23
1396.593139723097
 33
0.0
 14
498.50822406920042
 24
1136.593139723097
 34
0.0
 50
90.0
1001
ACAD
1000
DSTYLE
1002
{
1070
   287
1070
     3
1070
   287
1070
     3
1070
    40
1040
10.0
1070
   143
1040
0.039
1070
   172
1070
     1
1070
   271
1070
     0
1070
   279
1070
     0
1070
   288
1070
     1
1002
}
  0
DIMENSION
  5
7B87
  8
3
  6
CONTINUOUS
  2
*D5
 10
392.64625529115767
 20
821.59313972309712
 30
0.0
 11
367.64625529115762
 21
979.09313972309724
 31
0.0
 70
     0
 13
498.50822406920042
 23
1136.593139723097
 33
0.0
 14
508.50822406920031
 24
821.59313972309712
 34
0.0
 50
90.0
1001
ACAD
1000
DSTYLE
1002
{
1070
   287
1070
     4
1070
   287
1070
     4
1070
    40
1040
10.0
1070
    75
1070
     1
1070
   143
1040
0.039
1070
   172
1070
     1
1070
   271
1070
     0
1070
   279
1070
     1
1070
   288
1070
     1
1002
}
  0
DIMENSION
  5
7B97
  8
3
  6
CONTINUOUS
  2
*D6
 10
388.87191029115792
 20
769.59313972309712
 30
0.0
 11
388.8719102911578
 21
695.3074254373829
 31
0.0
 70
   128
 13
508.50822406920031
 23
821.59313972309712
 33
0.0
 14
478.50822406920042
 24
769.59313972309712
 34
0.0
 50
90.0
1001
ACAD
1000
DSTYLE
1002
{
1070
   287
1070
     3
1070
   287
1070
     3
1070
    40
1040
10.0
1070
   143
1040
0.039
1070
   172
1070
     1
1070
   271
1070
     0
1070
   279
1070
     0
1070
   288
1070
     1
1002
}
  0
DIMENSION
  5
7BBE
  8
3
  6
CONTINUOUS
  2
*D7
 10
342.73821374937972
 20
769.59313972309712
 30
0.0
 11
342.73821374937961
 21
1074.811300723097
 31
0.0
 70
   128
 13
498.50822406920042
 23
1407.593139723097
 33
0.0
 14
478.50822406920042
 24
769.59313972309712
 34
0.0
 50
90.0
1001
ACAD
1000
DSTYLE
1002
{
1070
   287
1070
     3
1070
   287
1070
     3
1070
    40
1040
10.0
1070
   143
1040
0.039
1070
   172
1070
     1
1070
   271
1070
     0
1070
   279
1070
     0
1070
   288
1070
     1
1002
}
  0
DIMENSION
  5
7BF3
  8
3
  6
CONTINUOUS
  2
*D8
 10
698.50822406920042
 20
1452.241577723097
 30
0.0
 11
603.94163106920041
 21
1452.241577723097
 31
0.0
 70
   128
 13
498.50822406920042
 23
1407.593139723097
 33
0.0
 14
698.50822406920042
 24
1396.593139723097
 34
0.0
1001
ACAD
1000
DSTYLE
1002
{
1070
   287
1070
     3
1070
   287
1070
     3
1070
    40
1040
10.0
1070
   143
1040
0.039
1070
   172
1070
     1
1070
   271
1070
     0
1070
   279
1070
     0
1070
   288
1070
     1
1002
}
  0
DIMENSION
  5
7BFF
  8
3
  6
CONTINUOUS
  2
*D9
 10
918.4976080692004
 20
1452.241577723097
 30
0.0
 11
808.50291606920041
 21
1477.241577723097
 31
0.0
 70
     0
 13
698.50822406920042
 23
1396.593139723097
 33
0.0
 14
918.4976080692004
 24
1136.593139723097
 34
0.0
1001
ACAD
1000
DSTYLE
1002
{
1070
   287
1070
     4
1070
   287
1070
     4
1070
    40
1040
10.0
1070
    75
1070
     1
1070
   143
1040
0.039
1070
   172
1070
     1
1070
   271
1070
     0
1070
   279
1070
     1
1070
   288
1070
     1
1002
}
  0
DIMENSION
  5
7C0C
  8
3
  6
CONTINUOUS
  2
*D10
 10
1248.5082240692
 20
1675.5677241595531
 30
0.0
 11
853.04850106920037
 21
1675.5677241595531
 31
0.0
 70
   128
 13
478.50822406920042
 23
1837.4028031595531
 33
0.0
 14
1248.5082240692
 24
1837.4028031595531
 34
0.0
1001
ACAD
1000
DSTYLE
1002
{
1070
   287
1070
     3
1070
   287
1070
     3
1070
    40
1040
10.0
1070
   143
1040
0.039
1070
   172
1070
     1
1070
   271
1070
     0
1070
   279
1070
     0
1070
   288
1070
     1
1002
}
  0
DIMENSION
  5
7C19
  8
3
  6
CONTINUOUS
  2
*D11
 10
1343.9019760691999
 20
1837.4028031595531
 30
0.0
 11
1343.9019760691999
 21
1964.016992159552
 31
0.0
 70
   128
 13
1248.5082240692
 23
2087.4028031595531
 33
0.0
 14
1248.5082240692
 24
1837.4028031595531
 34
0.0
 50
90.0
1001
ACAD
1000
DSTYLE
1002
{
1070
   287
1070
     3
1070
   287
1070
     3
1070
    40
1040
10.0
1070
   143
1040
0.039
1070
   172
1070
     1
1070
   271
1070
     0
1070
   279
1070
     0
1070
   288
1070
     1
1002
}
  0
LINE
  5
7C1A
  8
2
  6
CENTER
 10
939.60299606920034
 20
2095.4028031595531
 30
0.0
 11
468.25359906920028
 21
2095.4028031595531
 31
0.0
  0
LINE
  5
7C1B
  8
2
  6
CENTER
 10
698.50822406920042
 20
1427.188214723097
 30
0.0
 11
698.50822406920042
 21
737.96003772309712
 31
0.0
  0
LINE
  5
7C1C
  8
2
  6
CENTER
 10
1686.8610479308479
 20
1453.261735723097
 30
0.0
 11
1686.8610479308479
 21
735.49654372309703
 31
0.0
  0
LINE
  5
7C1E
  8
2
  6
CENTER
 10
1311.2403919308481
 20
1136.593139723097
 30
0.0
 11
1801.153357930848
 21
1136.593139723097
 31
0.0
  0
DIMENSION
  5
7C2B
  8
3
  6
CONTINUOUS
  2
*D12
 10
1678.8610479308479
 20
693.83398372309705
 30
0.0
 11
1552.7985599308479
 21
693.83398372309705
 31
0.0
 70
   128
 13
1428.8610479308479
 23
769.59313972309712
 33
0.0
 14
1678.8610479308479
 24
769.59313972309712
 34
0.0
1001
ACAD
1000
DSTYLE
1002
{
1070
   287
1070
     3
1070
   287
1070
     3
1070
    40
1040
10.0
1070
   143
1040
0.039
1070
   172
1070
     1
1070
   271
1070
     0
1070
   279
1070
     0
1070
   288
1070
     1
1002
}
  0
LINE
  5
7C7D
  8
1
  6
CONTINUOUS
 10
1785.8610479308479
 20
1283.593139723097
 30
0.0
 11
1785.8610479308479
 21
989.59313972309701
 31
0.0
  0
LINE
  5
7C7E
  8
1
  6
CONTINUOUS
 10
1776.8610479308479
 20
937.69313972309703
 30
0.0
 11
1776.8610479308479
 21
1387.593139723097
 31
0.0
  0
LINE
  5
7C7F
  8
1
  6
CONTINUOUS
 10
1596.8610479308479
 20
1387.593139723097
 30
0.0
 11
1596.8610479308479
 21
937.69313972309703
 31
0.0
  0
LINE
  5
7C80
  8
1
  6
CONTINUOUS
 10
1607.8610479308479
 20
925.69313972309692
 30
0.0
 11
1765.8610479308479
 21
925.69313972309692
 31
0.0
  0
LINE
  5
7C81
  8
1
  6
CONTINUOUS
 10
1596.8610479308479
 20
989.59313972309701
 30
0.0
 11
1587.8610479308479
 21
989.59313972309701
 31
0.0
  0
ARC
  5
7C82
  8
1
  6
CONTINUOUS
 10
1607.8610479308479
 20
937.69313972309703
 30
0.0
 40
12.0
 50
180.0
 51
270.0
  0
ARC
  5
7C83
  8
1
  6
CONTINUOUS
 10
1608.8610479308479
 20
937.69313972309703
 30
0.0
 40
12.0
 50
180.0
 51
270.0
  0
LINE
  5
7C84
  8
1
  6
CONTINUOUS
 10
1776.8610479308479
 20
989.59313972309701
 30
0.0
 11
1785.8610479308479
 21
989.59313972309701
 31
0.0
  0
ARC
  5
7C85
  8
1
  6
CONTINUOUS
 10
1764.8610479308479
 20
937.69313972309703
 30
0.0
 40
12.0
 50
270.0
 51
0.0
  0
LINE
  5
7C86
  8
1
  6
CONTINUOUS
 10
1596.8610479308479
 20
1135.5931397230961
 30
0.0
 11
1776.8610479308479
 21
1135.5931397230961
 31
0.0
  0
LINE
  5
7C87
  8
1
  6
CONTINUOUS
 10
1776.8610479308479
 20
1387.593139723097
 30
0.0
 11
1596.8610479308479
 21
1387.593139723097
 31
0.0
  0
LINE
  5
7C88
  8
1
  6
CONTINUOUS
 10
1596.8610479308479
 20
1387.593139723097
 30
0.0
 11
1776.8610479308479
 21
1135.5931397230961
 31
0.0
  0
LINE
  5
7C89
  8
1
  6
CONTINUOUS
 10
1596.8610479308479
 20
1135.5931397230961
 30
0.0
 11
1776.8610479308479
 21
1387.593139723097
 31
0.0
  0
LINE
  5
7C8A
  8
1
  6
CONTINUOUS
 10
1596.8610479308479
 20
1283.593139723097
 30
0.0
 11
1587.8610479308479
 21
1283.593139723097
 31
0.0
  0
LINE
  5
7C8B
  8
1
  6
CONTINUOUS
 10
1776.8610479308479
 20
1283.593139723097
 30
0.0
 11
1785.8610479308479
 21
1283.593139723097
 31
0.0
  0
DIMENSION
  5
7C98
  8
3
  6
CONTINUOUS
  2
*D13
 10
1776.8610479308479
 20
1449.1704357230969
 30
0.0
 11
1684.312954930848
 21
1449.1704357230969
 31
0.0
 70
   128
 13
1596.8610479308479
 23
1387.593139723097
 33
0.0
 14
1776.8610479308479
 24
1387.593139723097
 34
0.0
1001
ACAD
1000
DSTYLE
1002
{
1070
   287
1070
     3
1070
   287
1070
     3
1070
    40
1040
10.0
1070
   143
1040
0.039
1070
   172
1070
     1
1070
   271
1070
     0
1070
   279
1070
     0
1070
   288
1070
     1
1002
}
  0
DIMENSION
  5
7CA5
  8
3
  6
CONTINUOUS
  2
*D14
 10
1686.8610479308479
 20
1503.2702417230969
 30
0.0
 11
1531.424478930848
 21
1503.2702417230969
 31
0.0
 70
   128
  1
MAX\P340
 13
1346.8610479308479
 23
1261.593139723097
 33
0.0
 14
1686.8610479308479
 24
1496.4967317230969
 34
0.0
1001
ACAD
1000
DSTYLE
1002
{
1070
   287
1070
     3
1070
   287
1070
     3
1070
    40
1040
10.0
1070
   143
1040
0.039
1070
   172
1070
     1
1070
   271
1070
     0
1070
   279
1070
     0
1070
   288
1070
     1
1002
}
  0
DIMENSION
  5
7CB3
  8
3
  6
CONTINUOUS
  2
*D15
 10
1785.8610479308479
 20
1503.2702417230969
 30
0.0
 11
1733.9116189308479
 21
1503.494725723097
 31
0.0
 70
   128
 13
1686.8610479308479
 23
1496.4967317230969
 33
0.0
 14
1785.8610479308479
 24
1283.593139723097
 34
0.0
1001
ACAD
1000
DSTYLE
1002
{
1070
   287
1070
     4
1070
   287
1070
     4
1070
    40
1040
10.0
1070
    75
1070
     1
1070
   143
1040
0.039
1070
   172
1070
     1
1070
   271
1070
     0
1070
   279
1070
     1
1070
   288
1070
     1
1002
}
  0
LINE
  5
7CCB
  8
3
  6
CONTINUOUS
 10
1785.8610479308479
 20
1261.593139723097
 30
0.0
 11
1802.7765099308481
 21
1261.593139723097
 31
0.0
  0
LINE
  5
7CCD
  8
3
  6
CONTINUOUS
 10
1785.8610479308479
 20
1011.593139723097
 30
0.0
 11
1798.349526930848
 21
1011.593139723097
 31
0.0
  0
DIMENSION
  5
7CDA
  8
3
  6
CONTINUOUS
  2
*D16
 10
1855.0149889308479
 20
1011.593139723097
 30
0.0
 11
1855.0149889308479
 21
1141.409386723097
 31
0.0
 70
   128
 13
1785.8610479308479
 23
1261.593139723097
 33
0.0
 14
1785.8610479308479
 24
1011.593139723097
 34
0.0
 50
90.0
1001
ACAD
1000
DSTYLE
1002
{
1070
   287
1070
     3
1070
   287
1070
     3
1070
     3
1000
φ<>
1070
    40
1040
10.0
1070
   143
1040
0.039
1070
   172
1070
     1
1070
   271
1070
     0
1070
   279
1070
     0
1070
   288
1070
     1
1002
}
  0
DIMENSION
  5
7D4A
  8
3
  2
*D17
 10
1686.8610479308479
 20
693.83398372309705
 30
0.0
 11
1746.8610479308479
 21
718.83398372309705
 31
0.0
 70
     0
 13
1678.8610479308479
 23
769.59313972309712
 33
0.0
 14
1686.8610479308479
 24
735.49654372309703
 34
0.0
1001
ACAD
1000
DSTYLE
1002
{
1070
   287
1070
     3
1070
   287
1070
     3
1070
    40
1040
10.0
1070
   143
1040
0.039
1070
   172
1070
     1
1070
   271
1070
     0
1070
   279
1070
     0
1070
   288
1070
     1
1002
}
  0
DIMENSION
  5
7D71
  8
3
  2
*D18
 10
1248.5082240692
 20
1519.031751229453
 30
0.0
 11
871.37209852300111
 21
1519.031751229453
 31
0.0
 70
   128
 13
498.50822406920042
 23
1407.593139723097
 33
0.0
 14
1248.5082240692
 24
799.59313972309712
 34
0.0
1001
ACAD
1000
DSTYLE
1002
{
1070
   287
1070
     3
1070
   287
1070
     3
1070
    40
1040
10.0
1070
   143
1040
0.039
1070
   172
1070
     1
1070
   271
1070
     0
1070
   279
1070
     0
1070
   288
1070
     1
1002
}
  0
ENDSEC
  0
EOF
