  0
SECTION
  2
HEADER
  9
$ACADVER
  1
AC1009
  9
$INSBASE
 10
0.0
 20
0.0
 30
0.0
  9
$EXTMIN
 10
-3105.5433710000002
 20
-2308.1412829999999
 30
0.0
  9
$EXTMAX
 10
-1505.543371
 20
178.51097799999991
 30
0.0
  9
$LIMMIN
 10
0.0
 20
0.0
  9
$LIMMAX
 10
297.0
 20
210.0
  9
$ORTHOMODE
 70
     0
  9
$REGENMODE
 70
     1
  9
$FILLMODE
 70
     0
  9
$QTEXTMODE
 70
     0
  9
$MIRRTEXT
 70
     1
  9
$DRAGMODE
 70
     2
  9
$LTSCALE
 40
100.0
  9
$OSMODE
 70
    37
  9
$ATTMODE
 70
     1
  9
$TEXTSIZE
 40
180.0
  9
$TRACEWID
 40
0.05
  9
$TEXTSTYLE
  7
STANDARD
  9
$CLAYER
  8
3
  9
$CELTYPE
  6
BYLAYER
  9
$CECOLOR
 62
   256
  9
$DIMSCALE
 40
10.0
  9
$DIMASZ
 40
2.0
  9
$DIMEXO
 40
0.5
  9
$DIMDLI
 40
10.0
  9
$DIMRND
 40
0.0
  9
$DIMDLE
 40
0.0
  9
$DIMEXE
 40
1.0
  9
$DIMTP
 40
1.0
  9
$DIMTM
 40
1.0
  9
$DIMTXT
 40
3.0
  9
$DIMCEN
 40
0.0
  9
$DIMTSZ
 40
0.0
  9
$DIMTOL
 70
     0
  9
$DIMLIM
 70
     0
  9
$DIMTIH
 70
     0
  9
$DIMTOH
 70
     0
  9
$DIMSE1
 70
     0
  9
$DIMSE2
 70
     0
  9
$DIMTAD
 70
     1
  9
$DIMZIN
 70
     8
  9
$DIMBLK
  1

  9
$DIMASO
 70
     1
  9
$DIMSHO
 70
     1
  9
$DIMPOST
  1

  9
$DIMAPOST
  1

  9
$DIMALT
 70
     0
  9
$DIMALTD
 70
     2
  9
$DIMALTF
 40
0.039
  9
$DIMLFAC
 40
1.0
  9
$DIMTOFL
 70
     1
  9
$DIMTVP
 40
0.0
  9
$DIMTIX
 70
     0
  9
$DIMSOXD
 70
     0
  9
$DIMSAH
 70
     1
  9
$DIMBLK1
  1
OPEN
  9
$DIMBLK2
  1
OPEN
  9
$DIMSTYLE
  2
IGA
  9
$DIMCLRD
 70
     0
  9
$DIMCLRE
 70
     0
  9
$DIMCLRT
 70
     0
  9
$DIMTFAC
 40
10.0
  9
$DIMGAP
 40
1.0
  9
$LUNITS
 70
     2
  9
$LUPREC
 70
     3
  9
$SKETCHINC
 40
0.1
  9
$FILLETRAD
 40
50.0
  9
$AUNITS
 70
     0
  9
$AUPREC
 70
     0
  9
$MENU
  1
acad
  9
$ELEVATION
 40
0.0
  9
$PELEVATION
 40
0.0
  9
$THICKNESS
 40
0.0
  9
$LIMCHECK
 70
     0
  9
$BLIPMODE
 70
     0
  9
$CHAMFERA
 40
0.5
  9
$CHAMFERB
 40
0.5
  9
$SKPOLY
 70
     0
  9
$TDCREATE
 40
2450740.3361217589
  9
$TDUPDATE
 40
2454953.8639370021
  9
$TDINDWG
 40
0.0046826042
  9
$TDUSRTIMER
 40
0.0046826042
  9
$USRTIMER
 70
     1
  9
$ANGBASE
 50
0.0
  9
$ANGDIR
 70
     0
  9
$PDMODE
 70
     0
  9
$PDSIZE
 40
0.0
  9
$PLINEWID
 40
0.0
  9
$COORDS
 70
     1
  9
$SPLFRAME
 70
     0
  9
$SPLINETYPE
 70
     6
  9
$SPLINESEGS
 70
     8
  9
$ATTDIA
 70
     0
  9
$ATTREQ
 70
     1
  9
$HANDLING
 70
 10241
  9
$HANDSEED
  5
7E75
  9
$SURFTAB1
 70
     6
  9
$SURFTAB2
 70
     6
  9
$SURFTYPE
 70
     6
  9
$SURFU
 70
     6
  9
$SURFV
 70
     6
  9
$UCSNAME
  2

  9
$UCSORG
 10
0.0
 20
0.0
 30
0.0
  9
$UCSXDIR
 10
1.0
 20
0.0
 30
0.0
  9
$UCSYDIR
 10
0.0
 20
1.0
 30
0.0
  9
$PUCSNAME
  2

  9
$PUCSORG
 10
0.0
 20
0.0
 30
0.0
  9
$PUCSXDIR
 10
1.0
 20
0.0
 30
0.0
  9
$PUCSYDIR
 10
0.0
 20
1.0
 30
0.0
  9
$USERI1
 70
     0
  9
$USERI2
 70
     0
  9
$USERI3
 70
     0
  9
$USERI4
 70
     0
  9
$USERI5
 70
     0
  9
$USERR1
 40
0.0
  9
$USERR2
 40
0.0
  9
$USERR3
 40
0.0
  9
$USERR4
 40
0.0
  9
$USERR5
 40
0.0
  9
$WORLDVIEW
 70
     1
  9
$SHADEDGE
 70
     3
  9
$SHADEDIF
 70
    70
  9
$TILEMODE
 70
     1
  9
$MAXACTVP
 70
    16
  9
$PLIMCHECK
 70
     0
  9
$PEXTMIN
 10
1.0000000000000000E+020
 20
1.0000000000000000E+020
 30
1.0000000000000000E+020
  9
$PEXTMAX
 10
-1.0000000000000000E+020
 20
-1.0000000000000000E+020
 30
-1.0000000000000000E+020
  9
$PLIMMIN
 10
0.0
 20
0.0
  9
$PLIMMAX
 10
12.0
 20
9.0
  9
$UNITMODE
 70
     0
  9
$VISRETAIN
 70
     0
  9
$PLINEGEN
 70
     0
  9
$PSLTSCALE
 70
     1
  0
ENDSEC
  0
SECTION
  2
TABLES
  0
TABLE
  2
VPORT
 70
     2
  0
VPORT
  2
*ACTIVE
 70
     0
 10
0.0
 20
0.0
 11
1.0
 21
1.0
 12
-444.3650548980554
 22
-616.04928161770931
 13
0.0
 23
0.0
 14
10.0
 24
10.0
 15
10.0
 25
10.0
 16
0.0
 26
0.0
 36
1.0
 17
0.0
 27
0.0
 37
0.0
 40
3860.4308820501369
 41
1.5051150895140659
 42
50.0
 43
0.0
 44
0.0
 50
0.0
 51
0.0
 71
     0
 72
   100
 73
     1
 74
     0
 75
     0
 76
     0
 77
     0
 78
     0
  0
ENDTAB
  0
TABLE
  2
LTYPE
 70
     2
  0
LTYPE
  2
CONTINUOUS
 70
     0
  3
Solid line
 72
    65
 73
     0
 40
0.0
  0
LTYPE
  2
CENTER
 70
     0
  3
____ _ ____ _ ____ _ ____ _ ____ _ ____ _ ____ 
 72
    65
 73
     4
 40
2.0
 49
1.25
 49
-0.25
 49
0.25
 49
-0.25
  0
ENDTAB
  0
TABLE
  2
LAYER
 70
     6
  0
LAYER
  2
0
 70
     0
 62
     7
  6
CONTINUOUS
  0
LAYER
  2
3
 70
     0
 62
     2
  6
CONTINUOUS
  0
LAYER
  2
2
 70
     0
 62
     3
  6
CENTER
  0
LAYER
  2
1
 70
     0
 62
     4
  6
CONTINUOUS
  0
LAYER
  2
4
 70
     0
 62
     7
  6
CONTINUOUS
  0
LAYER
  2
DEFPOINTS
 70
     0
 62
     7
  6
CONTINUOUS
  0
ENDTAB
  0
TABLE
  2
STYLE
 70
     1
  0
STYLE
  2
STANDARD
 70
     0
 40
0.0
 41
1.0
 50
0.0
 71
     0
 42
180.0
  3
simplex.shx
  4
extfont.shx
  0
ENDTAB
  0
TABLE
  2
VIEW
 70
     0
  0
ENDTAB
  0
TABLE
  2
UCS
 70
     0
  0
ENDTAB
  0
TABLE
  2
APPID
 70
     1
  0
APPID
  2
ACAD
 70
     0
  0
ENDTAB
  0
TABLE
  2
DIMSTYLE
 70
     1
  0
DIMSTYLE
  2
IGA
 70
     0
  3

  4

  5

  6
OPEN
  7
OPEN
 40
2.0
 41
2.0
 42
0.5
 43
10.0
 44
1.0
 45
0.0
 46
0.0
 47
1.0
 48
1.0
140
3.0
141
0.0
142
0.0
143
0.03937
144
1.0
145
0.0
146
10.0
147
1.0
 71
     0
 72
     0
 73
     0
 74
     0
 75
     0
 76
     0
 77
     1
 78
     8
170
     0
171
     2
172
     0
173
     1
174
     0
175
     0
176
     0
177
     0
178
     0
  0
ENDTAB
  0
ENDSEC
  0
SECTION
  2
BLOCKS
  0
BLOCK
  8
0
  2
$MODEL_SPACE
 70
     0
 10
0.0
 20
0.0
 30
0.0
  3
$MODEL_SPACE
  1

  0
ENDBLK
  5
1B
  8
0
  0
BLOCK
 67
     1
  8
0
  2
$PAPER_SPACE
 70
     0
 10
0.0
 20
0.0
 30
0.0
  3
$PAPER_SPACE
  1

  0
ENDBLK
  5
18
 67
     1
  8
0
  0
BLOCK
  8
0
  2
_OPEN
 70
     0
 10
0.0
 20
0.0
 30
0.0
  3
_OPEN
  1

  0
LINE
  5
7B08
  8
0
  6
BYBLOCK
 62
     0
 10
-1.0
 20
0.166667
 30
0.0
 11
0.0
 21
0.0
 31
0.0
  0
LINE
  5
7B09
  8
0
  6
BYBLOCK
 62
     0
 10
0.0
 20
0.0
 30
0.0
 11
-1.0
 21
-0.166667
 31
0.0
  0
LINE
  5
7B0A
  8
0
  6
BYBLOCK
 62
     0
 10
0.0
 20
0.0
 30
0.0
 11
-1.0
 21
0.0
 31
0.0
  0
ENDBLK
  5
7B0B
  8
0
  0
BLOCK
  8
0
  2
*D1
 70
     1
 10
0.0
 20
0.0
 30
0.0
  3
*D1
  1

  0
LINE
  5
7DC2
  8
3
  6
CONTINUOUS
 62
     0
 10
-2810.3423125622639
 20
-1758.708593158053
 30
0.0
 11
-2810.3423125622639
 21
-1845.3505261580531
 31
0.0
  0
LINE
  5
7DC3
  8
3
  6
CONTINUOUS
 62
     0
 10
-2620.342312562263
 20
-1758.708593158053
 30
0.0
 11
-2620.342312562263
 21
-1845.3505261580531
 31
0.0
  0
LINE
  5
7DC4
  8
3
  6
CONTINUOUS
 62
     0
 10
-2790.342312562263
 20
-1835.3505261580531
 30
0.0
 11
-2640.342312562263
 21
-1835.3505261580531
 31
0.0
  0
INSERT
  5
7DC5
  8
3
  6
CONTINUOUS
 62
     0
  2
_OPEN
 10
-2810.3423125622639
 20
-1835.3505261580531
 30
0.0
 41
20.0
 42
20.0
 43
20.0
 50
180.0
  0
INSERT
  5
7DC6
  8
3
  6
CONTINUOUS
 62
     0
  2
_OPEN
 10
-2620.342312562263
 20
-1835.3505261580531
 30
0.0
 41
20.0
 42
20.0
 43
20.0
  0
TEXT
  8
3
  40
30
  5
7E62
  62
0
  72
0
  71
0
 10
-2782.33
 20
-1863.45
 30
0.000000
  1
190
  0
POINT
  5
7DC8
  8
DEFPOINTS
  6
CONTINUOUS
 62
     0
 10
-2810.3423125622639
 20
-1753.708593158053
 30
0.0
  0
POINT
  5
7DC9
  8
DEFPOINTS
  6
CONTINUOUS
 62
     0
 10
-2620.342312562263
 20
-1753.708593158053
 30
0.0
  0
POINT
  5
7DCA
  8
DEFPOINTS
  6
CONTINUOUS
 62
     0
 10
-2620.342312562263
 20
-1835.3505261580531
 30
0.0
  0
ENDBLK
  5
7B18
  8
0
  0
BLOCK
  8
0
  2
*D2
 70
     1
 10
0.0
 20
0.0
 30
0.0
  3
*D2
  1

  0
LINE
  5
7DCB
  8
3
  6
CONTINUOUS
 62
     0
 10
-2100.342312562263
 20
-1758.708593158053
 30
0.0
 11
-2100.342312562263
 21
-1845.3505261580531
 31
0.0
  0
LINE
  5
7DCC
  8
3
  6
CONTINUOUS
 62
     0
 10
-2600.342312562263
 20
-1835.3505261580531
 30
0.0
 11
-2120.342312562263
 21
-1835.3505261580531
 31
0.0
  0
INSERT
  5
7DCD
  8
3
  6
CONTINUOUS
 62
     0
  2
_OPEN
 10
-2620.342312562263
 20
-1835.3505261580531
 30
0.0
 41
20.0
 42
20.0
 43
20.0
 50
180.0
  0
INSERT
  5
7DCE
  8
3
  6
CONTINUOUS
 62
     0
  2
_OPEN
 10
-2100.342312562263
 20
-1835.3505261580531
 30
0.0
 41
20.0
 42
20.0
 43
20.0
  0
TEXT
  8
3
  40
30
  5
7E63
  62
0
  72
0
  71
0
 10
-2420.34
 20
-1863.45
 30
0.000000
  1
520
  0
POINT
  5
7DD0
  8
DEFPOINTS
  6
CONTINUOUS
 62
     0
 10
-2620.342312562263
 20
-1753.708593158053
 30
0.0
  0
POINT
  5
7DD1
  8
DEFPOINTS
  6
CONTINUOUS
 62
     0
 10
-2100.342312562263
 20
-1753.708593158053
 30
0.0
  0
POINT
  5
7DD2
  8
DEFPOINTS
  6
CONTINUOUS
 62
     0
 10
-2100.342312562263
 20
-1835.3505261580531
 30
0.0
  0
ENDBLK
  5
7B24
  8
0
  0
BLOCK
  8
0
  2
*D3
 70
     1
 10
0.0
 20
0.0
 30
0.0
  3
*D3
  1

  0
LINE
  5
7DD3
  8
3
  6
CONTINUOUS
 62
     0
 10
-2825.342312562263
 20
-1438.708593158053
 30
0.0
 11
-2885.573471562263
 21
-1438.708593158053
 31
0.0
  0
LINE
  5
7DD4
  8
3
  6
CONTINUOUS
 62
     0
 10
-2825.342312562263
 20
-1688.708593158053
 30
0.0
 11
-2885.573471562263
 21
-1688.708593158053
 31
0.0
  0
LINE
  5
7DD5
  8
3
  6
CONTINUOUS
 62
     0
 10
-2875.5734715622639
 20
-1458.708593158053
 30
0.0
 11
-2875.5734715622639
 21
-1668.708593158053
 31
0.0
  0
INSERT
  5
7DD6
  8
3
  6
CONTINUOUS
 62
     0
  2
_OPEN
 10
-2875.5734715622639
 20
-1438.708593158053
 30
0.0
 41
20.0
 42
20.0
 43
20.0
 50
90.0
  0
INSERT
  5
7DD7
  8
3
  6
CONTINUOUS
 62
     0
  2
_OPEN
 10
-2875.5734715622639
 20
-1688.708593158053
 30
0.0
 41
20.0
 42
20.0
 43
20.0
 50
270.0
  0
TEXT
  8
3
  40
30
  5
7E64
  62
0
  72
0
  71
0
 10
-2960.57
 20
-1614.11
 30
0.000000
  1
250
  0
POINT
  5
7DD9
  8
DEFPOINTS
  6
CONTINUOUS
 62
     0
 10
-2820.342312562263
 20
-1438.708593158053
 30
0.0
  0
POINT
  5
7DDA
  8
DEFPOINTS
  6
CONTINUOUS
 62
     0
 10
-2820.342312562263
 20
-1688.708593158053
 30
0.0
  0
POINT
  5
7DDB
  8
DEFPOINTS
  6
CONTINUOUS
 62
     0
 10
-2875.5734715622639
 20
-1688.708593158053
 30
0.0
  0
ENDBLK
  5
7B31
  8
0
  0
BLOCK
  8
0
  2
*D4
 70
     1
 10
0.0
 20
0.0
 30
0.0
  3
*D4
  1

  0
LINE
  5
7DDC
  8
3
  6
CONTINUOUS
 62
     0
 10
-2625.342312562263
 20
-1252.719209158053
 30
0.0
 11
-2999.4344278391918
 21
-1252.719209158053
 31
0.0
  0
LINE
  5
7DDD
  8
3
  6
CONTINUOUS
 62
     0
 10
-2825.342312562263
 20
-1438.708593158053
 30
0.0
 11
-2999.4344278391918
 21
-1438.708593158053
 31
0.0
  0
LINE
  5
7DDE
  8
3
  6
CONTINUOUS
 62
     0
 10
-2989.4344278391918
 20
-1272.719209158053
 30
0.0
 11
-2989.4344278391918
 21
-1418.708593158053
 31
0.0
  0
INSERT
  5
7DDF
  8
3
  6
CONTINUOUS
 62
     0
  2
_OPEN
 10
-2989.4344278391918
 20
-1252.719209158053
 30
0.0
 41
20.0
 42
20.0
 43
20.0
 50
90.0
  0
INSERT
  5
7DE0
  8
3
  6
CONTINUOUS
 62
     0
  2
_OPEN
 10
-2989.4344278391918
 20
-1438.708593158053
 30
0.0
 41
20.0
 42
20.0
 43
20.0
 50
270.0
  0
TEXT
  8
3
  40
30
  5
7E65
  62
0
  72
0
  71
0
 10
-3074.43
 20
-1393.36
 30
0.000000
  1
186
  0
POINT
  5
7DE2
  8
DEFPOINTS
  6
CONTINUOUS
 62
     0
 10
-2620.342312562263
 20
-1252.719209158053
 30
0.0
  0
POINT
  5
7DE3
  8
DEFPOINTS
  6
CONTINUOUS
 62
     0
 10
-2820.342312562263
 20
-1438.708593158053
 30
0.0
  0
POINT
  5
7DE4
  8
DEFPOINTS
  6
CONTINUOUS
 62
     0
 10
-2989.4344278391918
 20
-1438.708593158053
 30
0.0
  0
ENDBLK
  5
7C6D
  8
0
  0
BLOCK
  8
0
  2
*D5
 70
     1
 10
0.0
 20
0.0
 30
0.0
  3
*D5
  1

  0
LINE
  5
7DE5
  8
3
  6
CONTINUOUS
 62
     0
 10
-2815.342312562263
 20
-1753.708593158053
 30
0.0
 11
-2999.4344278391909
 21
-1753.708593158053
 31
0.0
  0
LINE
  5
7DE6
  8
3
  6
CONTINUOUS
 62
     0
 10
-2989.4344278391909
 20
-1458.708593158053
 30
0.0
 11
-2989.4344278391909
 21
-1733.708593158053
 31
0.0
  0
INSERT
  5
7DE7
  8
3
  6
CONTINUOUS
 62
     0
  2
_OPEN
 10
-2989.4344278391909
 20
-1438.708593158053
 30
0.0
 41
20.0
 42
20.0
 43
20.0
 50
90.0
  0
INSERT
  5
7DE8
  8
3
  6
CONTINUOUS
 62
     0
  2
_OPEN
 10
-2989.4344278391909
 20
-1753.708593158053
 30
0.0
 41
20.0
 42
20.0
 43
20.0
 50
270.0
  0
TEXT
  8
3
  40
30
  5
7E66
  62
0
  72
0
  71
0
 10
-3074.43
 20
-1649.31
 30
0.000000
  1
315
  0
POINT
  5
7DEA
  8
DEFPOINTS
  6
CONTINUOUS
 62
     0
 10
-2820.342312562263
 20
-1438.708593158053
 30
0.0
  0
POINT
  5
7DEB
  8
DEFPOINTS
  6
CONTINUOUS
 62
     0
 10
-2810.3423125622639
 20
-1753.708593158053
 30
0.0
  0
POINT
  5
7DEC
  8
DEFPOINTS
  6
CONTINUOUS
 62
     0
 10
-2989.4344278391909
 20
-1753.708593158053
 30
0.0
  0
ENDBLK
  5
7C77
  8
0
  0
BLOCK
  8
0
  2
*D6
 70
     1
 10
0.0
 20
0.0
 30
0.0
  3
*D6
  1

  0
LINE
  5
7DED
  8
3
  6
CONTINUOUS
 62
     0
 10
-2625.342312562263
 20
-1252.719209158053
 30
0.0
 11
-3056.108197
 21
-1252.719209158053
 31
0.0
  0
LINE
  5
7DEE
  8
3
  6
CONTINUOUS
 62
     0
 10
-2815.342312562263
 20
-1753.708593158053
 30
0.0
 11
-3056.108197
 21
-1753.708593158053
 31
0.0
  0
LINE
  5
7DEF
  8
3
  6
CONTINUOUS
 62
     0
 10
-3046.108197
 20
-1272.719209158053
 30
0.0
 11
-3046.108197
 21
-1733.708593158053
 31
0.0
  0
INSERT
  5
7DF0
  8
3
  6
CONTINUOUS
 62
     0
  2
_OPEN
 10
-3046.108197
 20
-1252.719209158053
 30
0.0
 41
20.0
 42
20.0
 43
20.0
 50
90.0
  0
INSERT
  5
7DF1
  8
3
  6
CONTINUOUS
 62
     0
  2
_OPEN
 10
-3046.108197
 20
-1753.708593158053
 30
0.0
 41
20.0
 42
20.0
 43
20.0
 50
270.0
  0
TEXT
  8
3
  40
30
  5
7E67
  62
0
  72
0
  71
0
 10
-3131.11
 20
-1553.12
 30
0.000000
  1
501
  0
POINT
  5
7DF3
  8
DEFPOINTS
  6
CONTINUOUS
 62
     0
 10
-2620.342312562263
 20
-1252.719209158053
 30
0.0
  0
POINT
  5
7DF4
  8
DEFPOINTS
  6
CONTINUOUS
 62
     0
 10
-2810.3423125622639
 20
-1753.708593158053
 30
0.0
  0
POINT
  5
7DF5
  8
DEFPOINTS
  6
CONTINUOUS
 62
     0
 10
-3046.108197
 20
-1753.708593158053
 30
0.0
  0
ENDBLK
  5
7C8D
  8
0
  0
BLOCK
  8
0
  2
*D7
 70
     1
 10
0.0
 20
0.0
 30
0.0
  3
*D7
  1

  0
LINE
  5
7DF6
  8
3
  6
CONTINUOUS
 62
     0
 10
-2820.342312562263
 20
-1412.708593158053
 30
0.0
 11
-2820.342312562263
 21
-1196.8323921580529
 31
0.0
  0
LINE
  5
7DF7
  8
3
  6
CONTINUOUS
 62
     0
 10
-2620.342312562263
 20
-1247.719209158053
 30
0.0
 11
-2620.342312562263
 21
-1196.8323921580529
 31
0.0
  0
LINE
  5
7DF8
  8
3
  6
CONTINUOUS
 62
     0
 10
-2800.342312562263
 20
-1206.8323921580529
 30
0.0
 11
-2640.342312562263
 21
-1206.8323921580529
 31
0.0
  0
INSERT
  5
7DF9
  8
3
  6
CONTINUOUS
 62
     0
  2
_OPEN
 10
-2820.342312562263
 20
-1206.8323921580529
 30
0.0
 41
20.0
 42
20.0
 43
20.0
 50
180.0
  0
INSERT
  5
7DFA
  8
3
  6
CONTINUOUS
 62
     0
  2
_OPEN
 10
-2620.342312562263
 20
-1206.8323921580529
 30
0.0
 41
20.0
 42
20.0
 43
20.0
  0
TEXT
  8
3
  40
30
  5
7E68
  62
0
  72
0
  71
0
 10
-2780.93
 20
-1234.93
 30
0.000000
  1
200
  0
POINT
  5
7DFC
  8
DEFPOINTS
  6
CONTINUOUS
 62
     0
 10
-2820.342312562263
 20
-1417.708593158053
 30
0.0
  0
POINT
  5
7DFD
  8
DEFPOINTS
  6
CONTINUOUS
 62
     0
 10
-2620.342312562263
 20
-1252.719209158053
 30
0.0
  0
POINT
  5
7DFE
  8
DEFPOINTS
  6
CONTINUOUS
 62
     0
 10
-2620.342312562263
 20
-1206.8323921580529
 30
0.0
  0
ENDBLK
  5
7B64
  8
0
  0
BLOCK
  8
0
  2
*D8
 70
     1
 10
0.0
 20
0.0
 30
0.0
  3
*D8
  1

  0
LINE
  5
7DFF
  8
3
  6
CONTINUOUS
 62
     0
 10
-2400.3529285622631
 20
-1433.708593158053
 30
0.0
 11
-2400.3529285622631
 21
-1196.8323921580529
 31
0.0
  0
LINE
  5
7E00
  8
3
  6
CONTINUOUS
 62
     0
 10
-2600.342312562263
 20
-1206.8323921580529
 30
0.0
 11
-2420.3529285622631
 21
-1206.8323921580529
 31
0.0
  0
INSERT
  5
7E01
  8
3
  6
CONTINUOUS
 62
     0
  2
_OPEN
 10
-2620.342312562263
 20
-1206.8323921580529
 30
0.0
 41
20.0
 42
20.0
 43
20.0
 50
180.0
  0
INSERT
  5
7E02
  8
3
  6
CONTINUOUS
 62
     0
  2
_OPEN
 10
-2400.3529285622631
 20
-1206.8323921580529
 30
0.0
 41
20.0
 42
20.0
 43
20.0
  0
TEXT
  8
3
  40
30
  5
7E69
  62
0
  72
0
  71
0
 10
-2570.35
 20
-1234.93
 30
0.000000
  1
220
  0
POINT
  5
7E04
  8
DEFPOINTS
  6
CONTINUOUS
 62
     0
 10
-2620.342312562263
 20
-1252.719209158053
 30
0.0
  0
POINT
  5
7E05
  8
DEFPOINTS
  6
CONTINUOUS
 62
     0
 10
-2400.3529285622631
 20
-1438.708593158053
 30
0.0
  0
POINT
  5
7E06
  8
DEFPOINTS
  6
CONTINUOUS
 62
     0
 10
-2400.3529285622631
 20
-1206.8323921580529
 30
0.0
  0
ENDBLK
  5
7B70
  8
0
  0
BLOCK
  8
0
  2
*D9
 70
     1
 10
0.0
 20
0.0
 30
0.0
  3
*D9
  1

  0
LINE
  5
7E07
  8
3
  6
CONTINUOUS
 62
     0
 10
-2810.3423125622639
 20
-820.92158429654478
 30
0.0
 11
-2810.3423125622639
 21
-990.24532529654482
 31
0.0
  0
LINE
  5
7E08
  8
3
  6
CONTINUOUS
 62
     0
 10
-2100.342312562263
 20
-820.92158429654478
 30
0.0
 11
-2100.342312562263
 21
-990.24532529654482
 31
0.0
  0
LINE
  5
7E09
  8
3
  6
CONTINUOUS
 62
     0
 10
-2790.342312562263
 20
-980.24532529654493
 30
0.0
 11
-2120.342312562263
 21
-980.24532529654493
 31
0.0
  0
INSERT
  5
7E0A
  8
3
  6
CONTINUOUS
 62
     0
  2
_OPEN
 10
-2810.3423125622639
 20
-980.24532529654493
 30
0.0
 41
20.0
 42
20.0
 43
20.0
 50
180.0
  0
INSERT
  5
7E0B
  8
3
  6
CONTINUOUS
 62
     0
  2
_OPEN
 10
-2100.342312562263
 20
-980.24532529654493
 30
0.0
 41
20.0
 42
20.0
 43
20.0
  0
TEXT
  8
3
  40
30
  5
7E6A
  62
0
  72
0
  71
0
 10
-2524.35
 20
-1008.35
 30
0.000000
  1
710
  0
POINT
  5
7E0D
  8
DEFPOINTS
  6
CONTINUOUS
 62
     0
 10
-2810.3423125622639
 20
-815.92158429654478
 30
0.0
  0
POINT
  5
7E0E
  8
DEFPOINTS
  6
CONTINUOUS
 62
     0
 10
-2100.342312562263
 20
-815.92158429654478
 30
0.0
  0
POINT
  5
7E0F
  8
DEFPOINTS
  6
CONTINUOUS
 62
     0
 10
-2100.342312562263
 20
-980.24532529654493
 30
0.0
  0
ENDBLK
  5
7B7F
  8
0
  0
BLOCK
  8
0
  2
*D10
 70
     1
 10
0.0
 20
0.0
 30
0.0
  3
*D10
  1

  0
LINE
  5
7E10
  8
3
  6
CONTINUOUS
 62
     0
 10
-2095.342312562263
 20
-565.92158429654478
 30
0.0
 11
-1995.6694375622631
 21
-565.92158429654478
 31
0.0
  0
LINE
  5
7E11
  8
3
  6
CONTINUOUS
 62
     0
 10
-2095.342312562263
 20
-815.92158429654478
 30
0.0
 11
-1995.6694375622631
 21
-815.92158429654478
 31
0.0
  0
LINE
  5
7E12
  8
3
  6
CONTINUOUS
 62
     0
 10
-2005.6694375622631
 20
-585.92158429654467
 30
0.0
 11
-2005.6694375622631
 21
-795.92158429654478
 31
0.0
  0
INSERT
  5
7E13
  8
3
  6
CONTINUOUS
 62
     0
  2
_OPEN
 10
-2005.6694375622631
 20
-565.92158429654478
 30
0.0
 41
20.0
 42
20.0
 43
20.0
 50
90.0
  0
INSERT
  5
7E14
  8
3
  6
CONTINUOUS
 62
     0
  2
_OPEN
 10
-2005.6694375622631
 20
-815.92158429654478
 30
0.0
 41
20.0
 42
20.0
 43
20.0
 50
270.0
  0
TEXT
  8
3
  40
30
  5
7E6B
  62
0
  72
0
  71
0
 10
-2090.67
 20
-740.154
 30
0.000000
  1
250
  0
POINT
  5
7E16
  8
DEFPOINTS
  6
CONTINUOUS
 62
     0
 10
-2100.342312562263
 20
-565.92158429654478
 30
0.0
  0
POINT
  5
7E17
  8
DEFPOINTS
  6
CONTINUOUS
 62
     0
 10
-2100.342312562263
 20
-815.92158429654478
 30
0.0
  0
POINT
  5
7E18
  8
DEFPOINTS
  6
CONTINUOUS
 62
     0
 10
-2005.6694375622631
 20
-815.92158429654478
 30
0.0
  0
ENDBLK
  5
7B8C
  8
0
  0
BLOCK
  8
0
  2
*D11
 70
     1
 10
0.0
 20
0.0
 30
0.0
  3
*D11
  1

  0
LINE
  5
7E19
  8
3
  6
CONTINUOUS
 62
     0
 10
-1962.411636338431
 20
-1758.708593158053
 30
0.0
 11
-1962.411636338431
 21
-1840.0660961580529
 31
0.0
  0
LINE
  5
7E1A
  8
3
  6
CONTINUOUS
 62
     0
 10
-1712.411636338431
 20
-1758.708593158053
 30
0.0
 11
-1712.411636338431
 21
-1840.0660961580529
 31
0.0
  0
LINE
  5
7E1B
  8
3
  6
CONTINUOUS
 62
     0
 10
-1942.411636338431
 20
-1830.0660961580529
 30
0.0
 11
-1732.411636338431
 21
-1830.0660961580529
 31
0.0
  0
INSERT
  5
7E1C
  8
3
  6
CONTINUOUS
 62
     0
  2
_OPEN
 10
-1962.411636338431
 20
-1830.0660961580529
 30
0.0
 41
20.0
 42
20.0
 43
20.0
 50
180.0
  0
INSERT
  5
7E1D
  8
3
  6
CONTINUOUS
 62
     0
  2
_OPEN
 10
-1712.411636338431
 20
-1830.0660961580529
 30
0.0
 41
20.0
 42
20.0
 43
20.0
  0
TEXT
  8
3
  40
30
  5
7E6C
  62
0
  72
0
  71
0
 10
-1882.38
 20
-1858.17
 30
0.000000
  1
250
  0
POINT
  5
7E1F
  8
DEFPOINTS
  6
CONTINUOUS
 62
     0
 10
-1962.411636338431
 20
-1753.708593158053
 30
0.0
  0
POINT
  5
7E20
  8
DEFPOINTS
  6
CONTINUOUS
 62
     0
 10
-1712.411636338431
 20
-1753.708593158053
 30
0.0
  0
POINT
  5
7E21
  8
DEFPOINTS
  6
CONTINUOUS
 62
     0
 10
-1712.411636338431
 20
-1830.0660961580529
 30
0.0
  0
ENDBLK
  5
7B9A
  8
0
  0
BLOCK
  8
0
  2
*D12
 70
     1
 10
0.0
 20
0.0
 30
0.0
  3
*D12
  1

  0
LINE
  5
7E22
  8
3
  6
CONTINUOUS
 62
     0
 10
-1794.411636338431
 20
-1234.8085931580531
 30
0.0
 11
-1794.411636338431
 21
-1175.7472391580529
 31
0.0
  0
LINE
  5
7E23
  8
3
  6
CONTINUOUS
 62
     0
 10
-1614.411636338431
 20
-1234.8085931580531
 30
0.0
 11
-1614.411636338431
 21
-1175.7472391580529
 31
0.0
  0
LINE
  5
7E24
  8
3
  6
CONTINUOUS
 62
     0
 10
-1774.411636338431
 20
-1185.7472391580529
 30
0.0
 11
-1634.411636338431
 21
-1185.7472391580529
 31
0.0
  0
INSERT
  5
7E25
  8
3
  6
CONTINUOUS
 62
     0
  2
_OPEN
 10
-1794.411636338431
 20
-1185.7472391580529
 30
0.0
 41
20.0
 42
20.0
 43
20.0
 50
180.0
  0
INSERT
  5
7E26
  8
3
  6
CONTINUOUS
 62
     0
  2
_OPEN
 10
-1614.411636338431
 20
-1185.7472391580529
 30
0.0
 41
20.0
 42
20.0
 43
20.0
  0
TEXT
  8
3
  40
30
  5
7E6D
  62
0
  72
0
  71
0
 10
-1771.67
 20
-1213.85
 30
0.000000
  1
180
  0
POINT
  5
7E28
  8
DEFPOINTS
  6
CONTINUOUS
 62
     0
 10
-1794.411636338431
 20
-1239.8085931580531
 30
0.0
  0
POINT
  5
7E29
  8
DEFPOINTS
  6
CONTINUOUS
 62
     0
 10
-1614.411636338431
 20
-1239.8085931580531
 30
0.0
  0
POINT
  5
7E2A
  8
DEFPOINTS
  6
CONTINUOUS
 62
     0
 10
-1614.411636338431
 20
-1185.7472391580529
 30
0.0
  0
ENDBLK
  5
7BA7
  8
0
  0
BLOCK
  8
0
  2
*D13
 70
     1
 10
0.0
 20
0.0
 30
0.0
  3
*D13
  1

  0
LINE
  5
7E2B
  8
3
  6
CONTINUOUS
 62
     0
 10
-2044.411636338431
 20
-1308.708593158053
 30
0.0
 11
-2044.411636338431
 21
-1101.6636751580529
 31
0.0
  0
LINE
  5
7E2C
  8
3
  6
CONTINUOUS
 62
     0
 10
-1704.411636338431
 20
-1129.5379401580531
 30
0.0
 11
-1704.411636338431
 21
-1101.6636751580529
 31
0.0
  0
LINE
  5
7E2D
  8
3
  6
CONTINUOUS
 62
     0
 10
-2024.411636338431
 20
-1111.6636751580529
 30
0.0
 11
-1724.411636338431
 21
-1111.6636751580529
 31
0.0
  0
INSERT
  5
7E2E
  8
3
  6
CONTINUOUS
 62
     0
  2
_OPEN
 10
-2044.411636338431
 20
-1111.6636751580529
 30
0.0
 41
20.0
 42
20.0
 43
20.0
 50
180.0
  0
INSERT
  5
7E2F
  8
3
  6
CONTINUOUS
 62
     0
  2
_OPEN
 10
-1704.411636338431
 20
-1111.6636751580529
 30
0.0
 41
20.0
 42
20.0
 43
20.0
  0
TEXT
  8
3
  40
30
  5
7E6E
  62
0
  72
0
  71
0
 10
-1935.10
 20
-1114.76
 30
0.000000
  1
MAX
  0
TEXT
  8
3
  40
30
  5
7E6F
  62
0
  72
0
  71
0
 10
-1935.10
 20
-1153.76
 30
0.000000
  1
340
  0
POINT
  5
7E31
  8
DEFPOINTS
  6
CONTINUOUS
 62
     0
 10
-2044.411636338431
 20
-1313.708593158053
 30
0.0
  0
POINT
  5
7E32
  8
DEFPOINTS
  6
CONTINUOUS
 62
     0
 10
-1704.411636338431
 20
-1134.5379401580531
 30
0.0
  0
POINT
  5
7E33
  8
DEFPOINTS
  6
CONTINUOUS
 62
     0
 10
-1704.411636338431
 20
-1111.6636751580529
 30
0.0
  0
ENDBLK
  5
7C9D
  8
0
  0
BLOCK
  8
0
  2
*D14
 70
     1
 10
0.0
 20
0.0
 30
0.0
  3
*D14
  1

  0
LINE
  5
7E34
  8
3
  6
CONTINUOUS
 62
     0
 10
-1605.411636338431
 20
-1286.708593158053
 30
0.0
 11
-1605.411636338431
 21
-1101.6636751580529
 31
0.0
  0
LINE
  5
7E35
  8
3
  6
CONTINUOUS
 62
     0
 10
-1684.411636338431
 20
-1111.6636751580529
 30
0.0
 11
-1625.411636338431
 21
-1111.6636751580529
 31
0.0
  0
TEXT
  8
3
  40
30
  5
7E70
  62
0
  72
0
  71
0
 10
-1717.19
 20
-1139.76
 30
0.000000
  1
99
  0
INSERT
  5
7E37
  8
3
  6
CONTINUOUS
 62
     0
  2
_OPEN
 10
-1704.411636338431
 20
-1111.6636751580529
 30
0.0
 41
20.0
 42
20.0
 43
20.0
 50
180.0
  0
INSERT
  5
7E38
  8
3
  6
CONTINUOUS
 62
     0
  2
_OPEN
 10
-1605.411636338431
 20
-1111.6636751580529
 30
0.0
 41
20.0
 42
20.0
 43
20.0
  0
POINT
  5
7E39
  8
DEFPOINTS
  6
CONTINUOUS
 62
     0
 10
-1704.411636338431
 20
-1134.5379401580531
 30
0.0
  0
POINT
  5
7E3A
  8
DEFPOINTS
  6
CONTINUOUS
 62
     0
 10
-1605.411636338431
 20
-1291.708593158053
 30
0.0
  0
POINT
  5
7E3B
  8
DEFPOINTS
  6
CONTINUOUS
 62
     0
 10
-1605.411636338431
 20
-1111.6636751580529
 30
0.0
  0
ENDBLK
  5
7C57
  8
0
  0
BLOCK
  8
0
  2
*D15
 70
     1
 10
0.0
 20
0.0
 30
0.0
  3
*D15
  1

  0
LINE
  5
7E3C
  8
3
  6
CONTINUOUS
 62
     0
 10
-1600.411636338431
 20
-1313.708593158053
 30
0.0
 11
-1510.654901338432
 21
-1313.708593158053
 31
0.0
  0
LINE
  5
7E3D
  8
3
  6
CONTINUOUS
 62
     0
 10
-1600.411636338431
 20
-1563.708593158053
 30
0.0
 11
-1510.654901338432
 21
-1563.708593158053
 31
0.0
  0
LINE
  5
7E3E
  8
3
  6
CONTINUOUS
 62
     0
 10
-1520.654901338432
 20
-1333.708593158053
 30
0.0
 11
-1520.654901338432
 21
-1543.708593158053
 31
0.0
  0
INSERT
  5
7E3F
  8
3
  6
CONTINUOUS
 62
     0
  2
_OPEN
 10
-1520.654901338432
 20
-1313.708593158053
 30
0.0
 41
20.0
 42
20.0
 43
20.0
 50
90.0
  0
INSERT
  5
7E40
  8
3
  6
CONTINUOUS
 62
     0
  2
_OPEN
 10
-1520.654901338432
 20
-1563.708593158053
 30
0.0
 41
20.0
 42
20.0
 43
20.0
 50
270.0
  0
TEXT
  8
3
  40
30
  5
7E71
  62
0
  72
0
  71
0
 10
-1605.65
 20
-1508.23
 30
0.000000
  1
φ250
  0
POINT
  5
7E42
  8
DEFPOINTS
  6
CONTINUOUS
 62
     0
 10
-1605.411636338431
 20
-1313.708593158053
 30
0.0
  0
POINT
  5
7E43
  8
DEFPOINTS
  6
CONTINUOUS
 62
     0
 10
-1605.411636338431
 20
-1563.708593158053
 30
0.0
  0
POINT
  5
7E44
  8
DEFPOINTS
  6
CONTINUOUS
 62
     0
 10
-1520.654901338432
 20
-1563.708593158053
 30
0.0
  0
ENDBLK
  5
7CA8
  8
0
  0
BLOCK
  8
0
  2
*D16
 70
     1
 10
0.0
 20
0.0
 30
0.0
  3
*D16
  1

  0
LINE
  5
7E45
  8
3
  6
CONTINUOUS
 62
     0
 10
-2825.342312562263
 20
-1438.708593158053
 30
0.0
 11
-2948.4266375622628
 21
-1438.708593158053
 31
0.0
  0
LINE
  5
7E46
  8
3
  6
CONTINUOUS
 62
     0
 10
-2805.342312562263
 20
-1698.708593158053
 30
0.0
 11
-2948.4266375622628
 21
-1698.708593158053
 31
0.0
  0
LINE
  5
7E47
  8
3
  6
CONTINUOUS
 62
     0
 10
-2938.4266375622642
 20
-1458.708593158053
 30
0.0
 11
-2938.4266375622642
 21
-1678.708593158053
 31
0.0
  0
INSERT
  5
7E48
  8
3
  6
CONTINUOUS
 62
     0
  2
_OPEN
 10
-2938.4266375622642
 20
-1438.708593158053
 30
0.0
 41
20.0
 42
20.0
 43
20.0
 50
90.0
  0
INSERT
  5
7E49
  8
3
  6
CONTINUOUS
 62
     0
  2
_OPEN
 10
-2938.4266375622642
 20
-1698.708593158053
 30
0.0
 41
20.0
 42
20.0
 43
20.0
 50
270.0
  0
TEXT
  8
3
  40
30
  5
7E72
  62
0
  72
0
  71
0
 10
-3023.43
 20
-1610.23
 30
0.000000
  1
260
  0
POINT
  5
7E4B
  8
DEFPOINTS
  6
CONTINUOUS
 62
     0
 10
-2820.342312562263
 20
-1438.708593158053
 30
0.0
  0
POINT
  5
7E4C
  8
DEFPOINTS
  6
CONTINUOUS
 62
     0
 10
-2800.342312562263
 20
-1698.708593158053
 30
0.0
  0
POINT
  5
7E4D
  8
DEFPOINTS
  6
CONTINUOUS
 62
     0
 10
-2938.4266375622642
 20
-1698.708593158053
 30
0.0
  0
ENDBLK
  5
7C3C
  8
0
  0
BLOCK
  8
0
  2
*D17
 70
     1
 10
0.0
 20
0.0
 30
0.0
  3
*D17
  1

  0
LINE
  5
7E4E
  8
3
 62
     0
 10
-2820.342312562263
 20
-1412.708593158053
 30
0.0
 11
-2820.342312562263
 21
-1131.537114977634
 31
0.0
  0
LINE
  5
7E4F
  8
3
 62
     0
 10
-2100.342312562263
 20
-1668.708593158053
 30
0.0
 11
-2100.342312562263
 21
-1131.537114977634
 31
0.0
  0
LINE
  5
7E50
  8
3
 62
     0
 10
-2800.342312562263
 20
-1141.537114977634
 30
0.0
 11
-2120.342312562263
 21
-1141.537114977634
 31
0.0
  0
INSERT
  5
7E51
  8
3
 62
     0
  2
_OPEN
 10
-2820.342312562263
 20
-1141.537114977634
 30
0.0
 41
20.0
 42
20.0
 43
20.0
 50
180.0
  0
INSERT
  5
7E52
  8
3
 62
     0
  2
_OPEN
 10
-2100.342312562263
 20
-1141.537114977634
 30
0.0
 41
20.0
 42
20.0
 43
20.0
  0
TEXT
  8
3
  40
30
  5
7E73
  62
0
  72
0
  71
0
 10
-2550.88
 20
-1169.64
 30
0.000000
  1
720
  0
POINT
  5
7E54
  8
DEFPOINTS
 62
     0
 10
-2820.342312562263
 20
-1417.708593158053
 30
0.0
  0
POINT
  5
7E55
  8
DEFPOINTS
 62
     0
 10
-2100.342312562263
 20
-1673.708593158053
 30
0.0
  0
POINT
  5
7E56
  8
DEFPOINTS
 62
     0
 10
-2100.342312562263
 20
-1141.537114977634
 30
0.0
  0
ENDBLK
  5
7CB4
  8
0
  0
BLOCK
  8
0
  2
*D18
 70
     1
 10
0.0
 20
0.0
 30
0.0
  3
*D18
  1

  0
LINE
  5
7E57
  8
3
 62
     0
 10
-1712.411636338431
 20
-1758.708593158053
 30
0.0
 11
-1712.411636338431
 21
-1840.0660961580529
 31
0.0
  0
LINE
  5
7E58
  8
3
 62
     0
 10
-1704.411636338431
 20
-1771.8631511580529
 30
0.0
 11
-1704.411636338431
 21
-1840.0660961580529
 31
0.0
  0
LINE
  5
7E59
  8
3
 62
     0
 10
-1732.411636338431
 20
-1830.0660961580529
 30
0.0
 11
-1752.411636338431
 21
-1830.0660961580529
 31
0.0
  0
LINE
  5
7E5A
  8
3
 62
     0
 10
-1684.411636338431
 20
-1830.0660961580529
 30
0.0
 11
-1624.411636338431
 21
-1830.0660961580529
 31
0.0
  0
LINE
  5
7E5B
  8
3
 62
     0
 10
-1712.411636338431
 20
-1830.0660961580529
 30
0.0
 11
-1704.411636338431
 21
-1830.0660961580529
 31
0.0
  0
INSERT
  5
7E5C
  8
3
 62
     0
  2
_OPEN
 10
-1712.411636338431
 20
-1830.0660961580529
 30
0.0
 41
20.0
 42
20.0
 43
20.0
  0
INSERT
  5
7E5D
  8
3
 62
     0
  2
_OPEN
 10
-1704.411636338431
 20
-1830.0660961580529
 30
0.0
 41
20.0
 42
20.0
 43
20.0
 50
180.0
  0
TEXT
  8
3
  40
30
  5
7E74
  62
0
  72
0
  71
0
 10
-1704.41
 20
-1858.17
 30
0.000000
  1
8
  0
POINT
  5
7E5F
  8
DEFPOINTS
 62
     0
 10
-1712.411636338431
 20
-1753.708593158053
 30
0.0
  0
POINT
  5
7E60
  8
DEFPOINTS
 62
     0
 10
-1704.411636338431
 20
-1766.8631511580529
 30
0.0
  0
POINT
  5
7E61
  8
DEFPOINTS
 62
     0
 10
-1704.411636338431
 20
-1830.0660961580529
 30
0.0
  0
ENDBLK
  5
7CD2
  8
0
  0
ENDSEC
  0
SECTION
  2
ENTITIES
  0
LINE
  5
7A83
  8
1
  6
CONTINUOUS
 10
-2100.342312562263
 20
-1753.708593158053
 30
0.0
 11
-2810.3423125622639
 21
-1753.708593158053
 31
0.0
  0
LINE
  5
7A84
  8
1
  6
CONTINUOUS
 10
-2355.0423125622629
 20
-1673.708593158053
 30
0.0
 11
-2100.342312562263
 21
-1673.708593158053
 31
0.0
  0
LINE
  5
7A85
  8
1
  6
CONTINUOUS
 10
-2100.342312562263
 20
-1693.708593158053
 30
0.0
 11
-2810.3423125622639
 21
-1693.708593158053
 31
0.0
  0
LINE
  5
7A86
  8
1
  6
CONTINUOUS
 10
-2409.4423125622629
 20
-565.92158429654478
 30
0.0
 11
-2100.342312562263
 21
-565.92158429654478
 31
0.0
  0
LINE
  5
7A87
  8
1
  6
CONTINUOUS
 10
-2245.6423125622632
 20
-815.92158429654478
 30
0.0
 11
-2100.342312562263
 21
-815.92158429654478
 31
0.0
  0
CIRCLE
  5
7A88
  8
1
  6
CONTINUOUS
 10
-2620.342312562263
 20
-1438.708593158053
 30
0.0
 40
125.0
  0
CIRCLE
  5
7A89
  8
1
  6
CONTINUOUS
 10
-2620.342312562263
 20
-1438.708593158053
 30
0.0
 40
145.0
  0
ARC
  5
7A8A
  8
1
  6
CONTINUOUS
 10
-2640.342312562263
 20
-1458.708593158053
 30
0.0
 40
240.90000000000001
 50
274.89999999999992
 51
4.5999999999999996
  0
ARC
  5
7A8B
  8
1
  6
CONTINUOUS
 10
-2603.342312562263
 20
-1455.708593158053
 30
0.0
 40
203.6999999999999
 50
4.5999999999999996
 51
95.5
  0
LINE
  5
7A8C
  8
2
  6
CENTER
 10
-2847.2797285622628
 20
-1438.708593158053
 30
0.0
 11
-2289.281256562263
 21
-1438.708593158053
 31
0.0
  0
LINE
  5
7A8D
  8
1
  6
CONTINUOUS
 10
-2681.9423125622629
 20
-1288.708593158053
 30
0.0
 11
-2558.7423125622631
 21
-1288.708593158053
 31
0.0
  0
LINE
  5
7A8E
  8
1
  6
CONTINUOUS
 10
-2460.342312562263
 20
-1753.708593158053
 30
0.0
 11
-2780.342312562263
 21
-1753.708593158053
 31
0.0
  0
LINE
  5
7A8F
  8
1
  6
CONTINUOUS
 10
-2234.2423125622631
 20
-1558.708593158053
 30
0.0
 11
-2592.2423125622631
 21
-1381.8085931580531
 31
0.0
  0
LINE
  5
7A90
  8
1
  6
CONTINUOUS
 10
-2278.6423125622632
 20
-1654.908593158053
 30
0.0
 11
-2645.4423125622629
 21
-1497.0085931580529
 31
0.0
  0
LINE
  5
7A91
  8
1
  6
CONTINUOUS
 10
-2620.5423125622629
 20
-1313.708593158053
 30
0.0
 11
-2165.342312562263
 21
-1513.708593158053
 31
0.0
  0
CIRCLE
  5
7A92
  8
1
  6
CONTINUOUS
 10
-2620.342312562263
 20
-1438.708593158053
 30
0.0
 40
63.5
  0
LINE
  5
7A93
  8
1
  6
CONTINUOUS
 10
-2800.342312562263
 20
-1668.708593158053
 30
0.0
 11
-2800.342312562263
 21
-1458.708593158053
 31
0.0
  0
LINE
  5
7A94
  8
1
  6
CONTINUOUS
 10
-2820.342312562263
 20
-1417.708593158053
 30
0.0
 11
-2820.342312562263
 21
-1709.708593158053
 31
0.0
  0
LINE
  5
7A95
  8
2
  6
CENTER
 10
-2620.342312562263
 20
-1800.6669371580531
 30
0.0
 11
-2620.342312562263
 21
-1237.046684158053
 31
0.0
  0
LINE
  5
7A96
  8
1
  6
CONTINUOUS
 10
-2780.342312562263
 20
-1693.708593158053
 30
0.0
 11
-2780.342312562263
 21
-1372.6085931580531
 31
0.0
  0
LINE
  5
7A97
  8
1
  6
CONTINUOUS
 10
-2745.342312562263
 20
-1693.708593158053
 30
0.0
 11
-2745.342312562263
 21
-1383.708593158053
 31
0.0
  0
LINE
  5
7A98
  8
1
  6
CONTINUOUS
 10
-2820.342312562263
 20
-1688.708593158053
 30
0.0
 11
-2800.342312562263
 21
-1668.708593158053
 31
0.0
  0
LINE
  5
7A99
  8
1
  6
CONTINUOUS
 10
-2820.342312562263
 20
-1688.708593158053
 30
0.0
 11
-2800.342312562263
 21
-1688.708593158053
 31
0.0
  0
LINE
  5
7A9A
  8
1
  6
CONTINUOUS
 10
-2810.3423125622639
 20
-1693.708593158053
 30
0.0
 11
-2810.3423125622639
 21
-1753.708593158053
 31
0.0
  0
LINE
  5
7A9B
  8
1
  6
CONTINUOUS
 10
-2800.342312562263
 20
-1698.708593158053
 30
0.0
 11
-2619.9423125622629
 21
-1698.708593158053
 31
0.0
  0
LINE
  5
7A9C
  8
1
  6
CONTINUOUS
 10
-2800.342312562263
 20
-1698.708593158053
 30
0.0
 11
-2800.342312562263
 21
-1688.708593158053
 31
0.0
  0
LINE
  5
7A9D
  8
1
  6
CONTINUOUS
 10
-2820.342312562263
 20
-1438.708593158053
 30
0.0
 11
-2800.342312562263
 21
-1458.708593158053
 31
0.0
  0
ARC
  5
7A9E
  8
1
  6
CONTINUOUS
 10
-2606.342312562263
 20
-1424.708593158053
 30
0.0
 40
172.59999999999991
 50
95.5
 51
181.2999999999999
  0
LINE
  5
7A9F
  8
1
  6
CONTINUOUS
 10
-2820.342312562263
 20
-1438.708593158053
 30
0.0
 11
-2800.342312562263
 21
-1438.708593158053
 31
0.0
  0
LINE
  5
7AA0
  8
1
  6
CONTINUOUS
 10
-2681.9423125622629
 20
-1288.708593158053
 30
0.0
 11
-2780.342312562263
 21
-1372.6085931580531
 31
0.0
  0
LINE
  5
7AA1
  8
1
  6
CONTINUOUS
 10
-2745.342312562263
 20
-1383.708593158053
 30
0.0
 11
-2620.5423125622629
 21
-1313.708593158053
 31
0.0
  0
LINE
  5
7AA2
  8
1
  6
CONTINUOUS
 10
-2800.342312562263
 20
-1428.708593158053
 30
0.0
 11
-2778.9423125622629
 21
-1428.708593158053
 31
0.0
  0
LINE
  5
7AA3
  8
1
  6
CONTINUOUS
 10
-2800.342312562263
 20
-1438.708593158053
 30
0.0
 11
-2800.342312562263
 21
-1428.708593158053
 31
0.0
  0
LINE
  5
7AA4
  8
1
  6
CONTINUOUS
 10
-2460.342312562263
 20
-1372.6085931580531
 30
0.0
 11
-2460.342312562263
 21
-1693.708593158053
 31
0.0
  0
LINE
  5
7AA5
  8
2
  6
CENTER
 10
-2204.7423125622631
 20
-1606.208593158053
 30
0.0
 11
-2310.7423125622631
 21
-1606.208593158053
 31
0.0
  0
CIRCLE
  5
7AA6
  8
1
  6
CONTINUOUS
 10
-2257.7423125622631
 20
-1606.208593158053
 30
0.0
 40
53.0
  0
ARC
  5
7AA7
  8
1
  6
CONTINUOUS
 10
-2257.7423125622631
 20
-1606.208593158053
 30
0.0
 40
75.799999999999997
 50
322.89999999999992
 51
217.09999999999991
  0
LINE
  5
7AA8
  8
1
  6
CONTINUOUS
 10
-2355.0423125622629
 20
-1693.708593158053
 30
0.0
 11
-2355.0423125622629
 21
-1673.708593158053
 31
0.0
  0
LINE
  5
7AA9
  8
1
  6
CONTINUOUS
 10
-2323.7423125622631
 20
-1673.708593158053
 30
0.0
 11
-2323.7423125622631
 21
-1666.208593158053
 31
0.0
  0
LINE
  5
7AAA
  8
1
  6
CONTINUOUS
 10
-2323.7423125622631
 20
-1666.208593158053
 30
0.0
 11
-2318.1423125622632
 21
-1651.908593158053
 31
0.0
  0
POINT
  5
7AAB
  8
1
  6
CONTINUOUS
 10
-2328.1423125622632
 20
-1606.208593158053
 30
0.0
  0
LINE
  5
7AAC
  8
2
  6
CENTER
 10
-2257.7423125622631
 20
-1659.208593158053
 30
0.0
 11
-2257.7423125622631
 21
-1553.208593158053
 31
0.0
  0
LINE
  5
7AAD
  8
1
  6
CONTINUOUS
 10
-2165.342312562263
 20
-1693.708593158053
 30
0.0
 11
-2165.342312562263
 21
-1513.708593158053
 31
0.0
  0
LINE
  5
7AAE
  8
1
  6
CONTINUOUS
 10
-2191.7423125622631
 20
-1666.208593158053
 30
0.0
 11
-2197.2423125622631
 21
-1651.908593158053
 31
0.0
  0
LINE
  5
7AAF
  8
1
  6
CONTINUOUS
 10
-2191.7423125622631
 20
-1673.708593158053
 30
0.0
 11
-2191.7423125622631
 21
-1666.208593158053
 31
0.0
  0
LINE
  5
7AB0
  8
1
  6
CONTINUOUS
 10
-2558.7423125622631
 20
-1288.708593158053
 30
0.0
 11
-2460.342312562263
 21
-1372.6085931580531
 31
0.0
  0
LINE
  5
7AB1
  8
1
  6
CONTINUOUS
 10
-2820.342312562263
 20
-468.12158429654482
 30
0.0
 11
-2421.4423125622629
 21
-468.12158429654482
 31
0.0
  0
LINE
  5
7AB2
  8
1
  6
CONTINUOUS
 10
-2421.4423125622629
 20
-647.72158429654485
 30
0.0
 11
-2620.342312562263
 21
-647.72158429654485
 31
0.0
  0
LINE
  5
7AB3
  8
1
  6
CONTINUOUS
 10
-2460.342312562263
 20
-656.92158429654489
 30
0.0
 11
-2780.342312562263
 21
-656.92158429654489
 31
0.0
  0
LINE
  5
7AB4
  8
1
  6
CONTINUOUS
 10
-2473.342312562263
 20
-458.92158429654478
 30
0.0
 11
-2767.342312562263
 21
-458.92158429654478
 31
0.0
  0
LINE
  5
7AB5
  8
1
  6
CONTINUOUS
 10
-2683.842312562263
 20
-877.92158429654489
 30
0.0
 11
-2556.842312562263
 21
-877.92158429654489
 31
0.0
  0
LINE
  5
7AB6
  8
1
  6
CONTINUOUS
 10
-2683.842312562263
 20
-842.92158429654489
 30
0.0
 11
-2556.842312562263
 21
-842.92158429654489
 31
0.0
  0
LINE
  5
7AB7
  8
1
  6
CONTINUOUS
 10
-2745.342312562263
 20
-822.92158429654478
 30
0.0
 11
-2165.342312562263
 21
-822.92158429654478
 31
0.0
  0
LINE
  5
7AB8
  8
1
  6
CONTINUOUS
 10
-2745.342312562263
 20
-897.92158429654478
 30
0.0
 11
-2165.342312562263
 21
-897.92158429654478
 31
0.0
  0
LINE
  5
7AB9
  8
1
  6
CONTINUOUS
 10
-2608.342312562263
 20
-785.92158429654489
 30
0.0
 11
-2460.342312562263
 21
-785.92158429654489
 31
0.0
  0
LINE
  5
7ABA
  8
1
  6
CONTINUOUS
 10
-2608.342312562263
 20
-815.92158429654478
 30
0.0
 11
-2269.6423125622632
 21
-815.92158429654478
 31
0.0
  0
LINE
  5
7ABB
  8
1
  6
CONTINUOUS
 10
-2800.342312562263
 20
-497.12158429654482
 30
0.0
 11
-2800.342312562263
 21
-618.72158429654485
 31
0.0
  0
LINE
  5
7ABC
  8
1
  6
CONTINUOUS
 10
-2820.342312562263
 20
-446.92158429654478
 30
0.0
 11
-2820.342312562263
 21
-668.92158429654489
 31
0.0
  0
LINE
  5
7ABD
  8
1
  6
CONTINUOUS
 10
-2820.342312562263
 20
-647.72158429654485
 30
0.0
 11
-2620.342312562263
 21
-647.72158429654485
 31
0.0
  0
LINE
  5
7ABE
  8
1
  6
CONTINUOUS
 10
-2820.342312562263
 20
-638.72158429654485
 30
0.0
 11
-2800.342312562263
 21
-618.72158429654485
 31
0.0
  0
LINE
  5
7ABF
  8
1
  6
CONTINUOUS
 10
-2810.3423125622639
 20
-815.92158429654478
 30
0.0
 11
-2632.342312562263
 21
-815.92158429654478
 31
0.0
  0
LINE
  5
7AC0
  8
1
  6
CONTINUOUS
 10
-2810.3423125622639
 20
-647.72158429654485
 30
0.0
 11
-2810.3423125622639
 21
-815.92158429654478
 31
0.0
  0
LINE
  5
7AC1
  8
1
  6
CONTINUOUS
 10
-2632.342312562263
 20
-842.92158429654489
 30
0.0
 11
-2632.342312562263
 21
-656.92158429654489
 31
0.0
  0
LINE
  5
7AC2
  8
1
  6
CONTINUOUS
 10
-2608.342312562263
 20
-842.92158429654489
 30
0.0
 11
-2608.342312562263
 21
-656.92158429654489
 31
0.0
  0
LINE
  5
7AC3
  8
1
  6
CONTINUOUS
 10
-2745.342312562263
 20
-897.92158429654478
 30
0.0
 11
-2745.342312562263
 21
-822.92158429654478
 31
0.0
  0
LINE
  5
7AC4
  8
1
  6
CONTINUOUS
 10
-2683.842312562263
 20
-877.92158429654489
 30
0.0
 11
-2683.842312562263
 21
-842.92158429654489
 31
0.0
  0
LINE
  5
7AC5
  8
1
  6
CONTINUOUS
 10
-2780.342312562263
 20
-785.92158429654489
 30
0.0
 11
-2632.342312562263
 21
-785.92158429654489
 31
0.0
  0
LINE
  5
7AC6
  8
1
  6
CONTINUOUS
 10
-2767.342312562263
 20
-647.72158429654485
 30
0.0
 11
-2767.342312562263
 21
-656.92158429654489
 31
0.0
  0
LINE
  5
7AC7
  8
1
  6
CONTINUOUS
 10
-2780.342312562263
 20
-785.92158429654489
 30
0.0
 11
-2780.342312562263
 21
-656.92158429654489
 31
0.0
  0
LINE
  5
7AC8
  8
1
  6
CONTINUOUS
 10
-2820.342312562263
 20
-477.12158429654482
 30
0.0
 11
-2800.342312562263
 21
-497.12158429654482
 31
0.0
  0
LINE
  5
7AC9
  8
1
  6
CONTINUOUS
 10
-2767.342312562263
 20
-468.12158429654482
 30
0.0
 11
-2767.342312562263
 21
-458.92158429654478
 31
0.0
  0
LINE
  5
7ACA
  8
1
  6
CONTINUOUS
 10
-2409.4423125622629
 20
-480.12158429654482
 30
0.0
 11
-2409.4423125622629
 21
-635.72158429654485
 31
0.0
  0
LINE
  5
7ACB
  8
1
  6
CONTINUOUS
 10
-2556.842312562263
 20
-877.92158429654489
 30
0.0
 11
-2556.842312562263
 21
-842.92158429654489
 31
0.0
  0
ARC
  5
7ACC
  8
1
  6
CONTINUOUS
 10
-2421.4423125622629
 20
-635.72158429654485
 30
0.0
 40
12.0
 50
270.0
 51
0.0
  0
LINE
  5
7ACD
  8
1
  6
CONTINUOUS
 10
-2473.342312562263
 20
-647.72158429654485
 30
0.0
 11
-2473.342312562263
 21
-656.92158429654489
 31
0.0
  0
LINE
  5
7ACE
  8
1
  6
CONTINUOUS
 10
-2460.342312562263
 20
-656.92158429654489
 30
0.0
 11
-2460.342312562263
 21
-785.92158429654489
 31
0.0
  0
LINE
  5
7ACF
  8
1
  6
CONTINUOUS
 10
-2245.6423125622632
 20
-842.92158429654489
 30
0.0
 11
-2245.6423125622632
 21
-791.62158429654482
 31
0.0
  0
LINE
  5
7AD0
  8
1
  6
CONTINUOUS
 10
-2269.6423125622632
 20
-842.92158429654489
 30
0.0
 11
-2269.6423125622632
 21
-791.62158429654482
 31
0.0
  0
LINE
  5
7AD1
  8
1
  6
CONTINUOUS
 10
-2310.6423125622632
 20
-877.92158429654489
 30
0.0
 11
-2204.6423125622632
 21
-877.92158429654489
 31
0.0
  0
LINE
  5
7AD2
  8
1
  6
CONTINUOUS
 10
-2310.6423125622632
 20
-842.92158429654489
 30
0.0
 11
-2204.6423125622632
 21
-842.92158429654489
 31
0.0
  0
LINE
  5
7AD3
  8
1
  6
CONTINUOUS
 10
-2310.6423125622632
 20
-877.92158429654489
 30
0.0
 11
-2310.6423125622632
 21
-842.92158429654489
 31
0.0
  0
LINE
  5
7AD4
  8
1
  6
CONTINUOUS
 10
-2204.6423125622632
 20
-877.92158429654489
 30
0.0
 11
-2204.6423125622632
 21
-842.92158429654489
 31
0.0
  0
LINE
  5
7AD5
  8
1
  6
CONTINUOUS
 10
-2165.342312562263
 20
-897.92158429654478
 30
0.0
 11
-2165.342312562263
 21
-822.92158429654478
 31
0.0
  0
LINE
  5
7AD6
  8
1
  6
CONTINUOUS
 10
-2334.342312562263
 20
-587.62158429654482
 30
0.0
 11
-2182.842312562263
 21
-587.62158429654482
 31
0.0
  0
LINE
  5
7AD7
  8
1
  6
CONTINUOUS
 10
-2334.342312562263
 20
-791.62158429654482
 30
0.0
 11
-2182.842312562263
 21
-791.62158429654482
 31
0.0
  0
LINE
  5
7AD8
  8
1
  6
CONTINUOUS
 10
-2334.342312562263
 20
-791.62158429654482
 30
0.0
 11
-2334.342312562263
 21
-587.62158429654482
 31
0.0
  0
LINE
  5
7AD9
  8
1
  6
CONTINUOUS
 10
-2182.842312562263
 20
-791.62158429654482
 30
0.0
 11
-2182.842312562263
 21
-587.62158429654482
 31
0.0
  0
ARC
  5
7ADA
  8
1
  6
CONTINUOUS
 10
-2421.4423125622629
 20
-480.12158429654482
 30
0.0
 40
12.0
 50
0.0
 51
90.0
  0
LINE
  5
7ADB
  8
1
  6
CONTINUOUS
 10
-2473.342312562263
 20
-468.12158429654482
 30
0.0
 11
-2473.342312562263
 21
-458.92158429654478
 31
0.0
  0
LINE
  5
7ADC
  8
1
  6
CONTINUOUS
 10
-2100.342312562263
 20
-1693.708593158053
 30
0.0
 11
-2100.342312562263
 21
-1753.708593158053
 31
0.0
  0
LINE
  5
7ADD
  8
1
  6
CONTINUOUS
 10
-2100.342312562263
 20
-1673.708593158053
 30
0.0
 11
-2100.342312562263
 21
-1693.708593158053
 31
0.0
  0
LINE
  5
7ADE
  8
1
  6
CONTINUOUS
 10
-2100.342312562263
 20
-565.92158429654478
 30
0.0
 11
-2100.342312562263
 21
-815.92158429654478
 31
0.0
  0
LINE
  5
7ADF
  8
1
  6
CONTINUOUS
 10
-1614.411636338431
 20
-1437.708593158053
 30
0.0
 11
-1794.411636338431
 21
-1689.708593158053
 31
0.0
  0
LINE
  5
7AE0
  8
1
  6
CONTINUOUS
 10
-1794.411636338431
 20
-1437.708593158053
 30
0.0
 11
-1614.411636338431
 21
-1689.708593158053
 31
0.0
  0
LINE
  5
7AE1
  8
1
  6
CONTINUOUS
 10
-1782.411636338431
 20
-1227.8085931580531
 30
0.0
 11
-1626.411636338431
 21
-1227.8085931580531
 31
0.0
  0
LINE
  5
7AE2
  8
1
  6
CONTINUOUS
 10
-1794.411636338431
 20
-1437.708593158053
 30
0.0
 11
-1614.411636338431
 21
-1437.708593158053
 31
0.0
  0
LINE
  5
7AE3
  8
1
  6
CONTINUOUS
 10
-1614.411636338431
 20
-1689.708593158053
 30
0.0
 11
-1794.411636338431
 21
-1689.708593158053
 31
0.0
  0
LINE
  5
7AE4
  8
1
  6
CONTINUOUS
 10
-1803.411636338431
 20
-1291.708593158053
 30
0.0
 11
-1803.411636338431
 21
-1693.708593158053
 31
0.0
  0
LINE
  5
7AE5
  8
1
  6
CONTINUOUS
 10
-1932.411636338431
 20
-1693.708593158053
 30
0.0
 11
-1932.411636338431
 21
-1476.908593158053
 31
0.0
  0
LINE
  5
7AE6
  8
1
  6
CONTINUOUS
 10
-2044.411636338431
 20
-1693.708593158053
 30
0.0
 11
-2044.411636338431
 21
-1313.708593158053
 31
0.0
  0
LINE
  5
7AE7
  8
1
  6
CONTINUOUS
 10
-1969.411636338431
 20
-1693.708593158053
 30
0.0
 11
-1969.411636338431
 21
-1313.708593158053
 31
0.0
  0
LINE
  5
7AE8
  8
1
  6
CONTINUOUS
 10
-2024.411636338431
 20
-1375.208593158053
 30
0.0
 11
-2024.411636338431
 21
-1502.208593158053
 31
0.0
  0
LINE
  5
7AE9
  8
1
  6
CONTINUOUS
 10
-1989.411636338431
 20
-1375.208593158053
 30
0.0
 11
-1989.411636338431
 21
-1502.208593158053
 31
0.0
  0
LINE
  5
7AEA
  8
1
  6
CONTINUOUS
 10
-1803.411636338431
 20
-1585.708593158053
 30
0.0
 11
-1803.411636338431
 21
-1438.708593158053
 31
0.0
  0
LINE
  5
7AEB
  8
1
  6
CONTINUOUS
 10
-1794.411636338431
 20
-1689.708593158053
 30
0.0
 11
-1794.411636338431
 21
-1239.8085931580531
 31
0.0
  0
LINE
  5
7AEC
  8
1
  6
CONTINUOUS
 10
-2044.411636338431
 20
-1693.708593158053
 30
0.0
 11
-1712.411636338431
 21
-1693.708593158053
 31
0.0
  0
LINE
  5
7AED
  8
1
  6
CONTINUOUS
 10
-1962.411636338431
 20
-1753.708593158053
 30
0.0
 11
-1712.411636338431
 21
-1753.708593158053
 31
0.0
  0
LINE
  5
7AEE
  8
1
  6
CONTINUOUS
 10
-1989.411636338431
 20
-1618.208593158053
 30
0.0
 11
-1932.411636338431
 21
-1618.208593158053
 31
0.0
  0
LINE
  5
7AEF
  8
1
  6
CONTINUOUS
 10
-1989.411636338431
 20
-1594.208593158053
 30
0.0
 11
-1932.411636338431
 21
-1594.208593158053
 31
0.0
  0
LINE
  5
7AF0
  8
1
  6
CONTINUOUS
 10
-2024.411636338431
 20
-1502.208593158053
 30
0.0
 11
-1989.411636338431
 21
-1502.208593158053
 31
0.0
  0
LINE
  5
7AF1
  8
1
  6
CONTINUOUS
 10
-2024.411636338431
 20
-1553.208593158053
 30
0.0
 11
-1989.411636338431
 21
-1553.208593158053
 31
0.0
  0
LINE
  5
7AF2
  8
1
  6
CONTINUOUS
 10
-2024.411636338431
 20
-1553.208593158053
 30
0.0
 11
-2024.411636338431
 21
-1659.208593158053
 31
0.0
  0
LINE
  5
7AF3
  8
1
  6
CONTINUOUS
 10
-2024.411636338431
 20
-1659.208593158053
 30
0.0
 11
-1989.411636338431
 21
-1659.208593158053
 31
0.0
  0
LINE
  5
7AF4
  8
1
  6
CONTINUOUS
 10
-1989.411636338431
 20
-1553.208593158053
 30
0.0
 11
-1989.411636338431
 21
-1659.208593158053
 31
0.0
  0
LINE
  5
7AF5
  8
1
  6
CONTINUOUS
 10
-1962.411636338431
 20
-1693.708593158053
 30
0.0
 11
-1962.411636338431
 21
-1753.708593158053
 31
0.0
  0
LINE
  5
7AF6
  8
1
  6
CONTINUOUS
 10
-1794.411636338431
 20
-1689.708593158053
 30
0.0
 11
-1794.411636338431
 21
-1667.7283081580531
 31
0.0
  0
LINE
  5
7AF7
  8
1
  6
CONTINUOUS
 10
-1794.411636338431
 20
-1585.708593158053
 30
0.0
 11
-1803.411636338431
 21
-1585.708593158053
 31
0.0
  0
LINE
  5
7AF8
  8
1
  6
CONTINUOUS
 10
-1712.411636338431
 20
-1693.708593158053
 30
0.0
 11
-1712.411636338431
 21
-1753.708593158053
 31
0.0
  0
LINE
  5
7AF9
  8
1
  6
CONTINUOUS
 10
-1932.411636338431
 20
-1476.908593158053
 30
0.0
 11
-1803.411636338431
 21
-1372.6085931580531
 31
0.0
  0
LINE
  5
7AFA
  8
1
  6
CONTINUOUS
 10
-1989.411636338431
 20
-1426.708593158053
 30
0.0
 11
-1870.3116363384311
 21
-1426.708593158053
 31
0.0
  0
LINE
  5
7AFB
  8
1
  6
CONTINUOUS
 10
-1989.411636338431
 20
-1450.708593158053
 30
0.0
 11
-1900.0116363384309
 21
-1450.708593158053
 31
0.0
  0
LINE
  5
7AFC
  8
1
  6
CONTINUOUS
 10
-2044.411636338431
 20
-1313.708593158053
 30
0.0
 11
-1969.411636338431
 21
-1313.708593158053
 31
0.0
  0
LINE
  5
7AFD
  8
1
  6
CONTINUOUS
 10
-2024.411636338431
 20
-1375.208593158053
 30
0.0
 11
-1989.411636338431
 21
-1375.208593158053
 31
0.0
  0
LINE
  5
7AFE
  8
1
  6
CONTINUOUS
 10
-1794.411636338431
 20
-1291.708593158053
 30
0.0
 11
-1803.411636338431
 21
-1291.708593158053
 31
0.0
  0
LINE
  5
7AFF
  8
1
  6
CONTINUOUS
 10
-1803.411636338431
 20
-1291.708593158053
 30
0.0
 11
-1803.411636338431
 21
-1438.708593158053
 31
0.0
  0
ARC
  5
7B00
  8
1
  6
CONTINUOUS
 10
-1782.411636338431
 20
-1239.8085931580531
 30
0.0
 40
12.0
 50
90.0
 51
180.0
  0
LINE
  5
7B01
  8
1
  6
CONTINUOUS
 10
-1605.411636338431
 20
-1585.708593158053
 30
0.0
 11
-1605.411636338431
 21
-1291.708593158053
 31
0.0
  0
LINE
  5
7B02
  8
1
  6
CONTINUOUS
 10
-1614.411636338431
 20
-1239.8085931580531
 30
0.0
 11
-1614.411636338431
 21
-1689.708593158053
 31
0.0
  0
LINE
  5
7B03
  8
1
  6
CONTINUOUS
 10
-1614.411636338431
 20
-1585.708593158053
 30
0.0
 11
-1605.411636338431
 21
-1585.708593158053
 31
0.0
  0
LINE
  5
7B04
  8
1
  6
CONTINUOUS
 10
-1614.411636338431
 20
-1291.708593158053
 30
0.0
 11
-1605.411636338431
 21
-1291.708593158053
 31
0.0
  0
ARC
  5
7B05
  8
1
  6
CONTINUOUS
 10
-1626.411636338431
 20
-1239.8085931580531
 30
0.0
 40
12.0
 50
0.0
 51
90.0
  0
DIMENSION
  5
7B19
  8
3
  6
CONTINUOUS
  2
*D1
 10
-2620.342312562263
 20
-1835.3505261580531
 30
0.0
 11
-2722.334247562264
 21
-1835.3505261580531
 31
0.0
 70
   128
 13
-2810.3423125622639
 23
-1753.708593158053
 33
0.0
 14
-2620.342312562263
 24
-1753.708593158053
 34
0.0
1001
ACAD
1000
DSTYLE
1002
{
1070
   287
1070
     3
1070
   287
1070
     3
1070
    40
1040
10.0
1070
   143
1040
0.039
1070
   172
1070
     1
1070
   271
1070
     0
1070
   279
1070
     0
1070
   288
1070
     1
1002
}
  0
DIMENSION
  5
7B25
  8
3
  6
CONTINUOUS
  2
*D2
 10
-2100.342312562263
 20
-1835.3505261580531
 30
0.0
 11
-2360.342312562263
 21
-1810.3505261580531
 31
0.0
 70
     0
 13
-2620.342312562263
 23
-1753.708593158053
 33
0.0
 14
-2100.342312562263
 24
-1753.708593158053
 34
0.0
1001
ACAD
1000
DSTYLE
1002
{
1070
   287
1070
     4
1070
   287
1070
     4
1070
    40
1040
10.0
1070
    75
1070
     1
1070
   143
1040
0.039
1070
   172
1070
     1
1070
   271
1070
     0
1070
   279
1070
     1
1070
   288
1070
     1
1002
}
  0
DIMENSION
  5
7B32
  8
3
  6
CONTINUOUS
  2
*D3
 10
-2875.5734715622639
 20
-1688.708593158053
 30
0.0
 11
-2875.573471562263
 21
-1561.014922158053
 31
0.0
 70
   128
 13
-2820.342312562263
 23
-1438.708593158053
 33
0.0
 14
-2820.342312562263
 24
-1688.708593158053
 34
0.0
 50
90.0
1001
ACAD
1000
DSTYLE
1002
{
1070
   287
1070
     3
1070
   287
1070
     3
1070
    40
1040
10.0
1070
   143
1040
0.039
1070
   172
1070
     1
1070
   271
1070
     0
1070
   279
1070
     0
1070
   288
1070
     1
1002
}
  0
DIMENSION
  5
7B3F
  8
3
  6
CONTINUOUS
  2
*D4
 10
-2989.4344278391918
 20
-1438.708593158053
 30
0.0
 11
-2989.4344278391909
 21
-1340.2608201580531
 31
0.0
 70
   128
 13
-2620.342312562263
 23
-1252.719209158053
 33
0.0
 14
-2820.342312562263
 24
-1438.708593158053
 34
0.0
 50
90.0
1001
ACAD
1000
DSTYLE
1002
{
1070
   287
1070
     3
1070
   287
1070
     3
1070
    40
1040
10.0
1070
   143
1040
0.039
1070
   172
1070
     1
1070
   271
1070
     0
1070
   279
1070
     0
1070
   288
1070
     1
1002
}
  0
DIMENSION
  5
7B4B
  8
3
  6
CONTINUOUS
  2
*D5
 10
-2989.4344278391909
 20
-1753.708593158053
 30
0.0
 11
-3014.4344278391909
 21
-1596.2085931580541
 31
0.0
 70
     0
 13
-2820.342312562263
 23
-1438.708593158053
 33
0.0
 14
-2810.3423125622639
 24
-1753.708593158053
 34
0.0
 50
90.0
1001
ACAD
1000
DSTYLE
1002
{
1070
   287
1070
     4
1070
   287
1070
     4
1070
    40
1040
10.0
1070
    75
1070
     1
1070
   143
1040
0.039
1070
   172
1070
     1
1070
   271
1070
     0
1070
   279
1070
     1
1070
   288
1070
     1
1002
}
  0
DIMENSION
  5
7B58
  8
3
  6
CONTINUOUS
  2
*D6
 10
-3046.108197
 20
-1753.708593158053
 30
0.0
 11
-3046.108197
 21
-1500.023814158053
 31
0.0
 70
   128
 13
-2620.342312562263
 23
-1252.719209158053
 33
0.0
 14
-2810.3423125622639
 24
-1753.708593158053
 34
0.0
 50
90.0
1001
ACAD
1000
DSTYLE
1002
{
1070
   287
1070
     3
1070
   287
1070
     3
1070
    40
1040
10.0
1070
   143
1040
0.039
1070
   172
1070
     1
1070
   271
1070
     0
1070
   279
1070
     0
1070
   288
1070
     1
1002
}
  0
DIMENSION
  5
7B65
  8
3
  6
CONTINUOUS
  2
*D7
 10
-2620.342312562263
 20
-1206.8323921580529
 30
0.0
 11
-2720.9277935622631
 21
-1206.8323921580529
 31
0.0
 70
   128
 13
-2820.342312562263
 23
-1417.708593158053
 33
0.0
 14
-2620.342312562263
 24
-1252.719209158053
 34
0.0
1001
ACAD
1000
DSTYLE
1002
{
1070
   287
1070
     3
1070
   287
1070
     3
1070
    40
1040
10.0
1070
   143
1040
0.039
1070
   172
1070
     1
1070
   271
1070
     0
1070
   279
1070
     0
1070
   288
1070
     1
1002
}
  0
DIMENSION
  5
7B71
  8
3
  6
CONTINUOUS
  2
*D8
 10
-2400.3529285622631
 20
-1206.8323921580529
 30
0.0
 11
-2510.3476205622642
 21
-1181.8323921580529
 31
0.0
 70
     0
 13
-2620.342312562263
 23
-1252.719209158053
 33
0.0
 14
-2400.3529285622631
 24
-1438.708593158053
 34
0.0
1001
ACAD
1000
DSTYLE
1002
{
1070
   287
1070
     4
1070
   287
1070
     4
1070
    40
1040
10.0
1070
    75
1070
     1
1070
   143
1040
0.039
1070
   172
1070
     1
1070
   271
1070
     0
1070
   279
1070
     1
1070
   288
1070
     1
1002
}
  0
LINE
  5
7B72
  8
2
  6
CENTER
 10
-2620.342312562263
 20
-933.90085629654504
 30
0.0
 11
-2620.342312562263
 21
-442.69931029654481
 31
0.0
  0
LINE
  5
7B73
  8
2
  6
CENTER
 10
-2369.0223065622631
 20
-557.92158429654478
 30
0.0
 11
-2865.033905562263
 21
-557.92158429654478
 31
0.0
  0
DIMENSION
  5
7B80
  8
3
  6
CONTINUOUS
  2
*D9
 10
-2100.342312562263
 20
-980.24532529654493
 30
0.0
 11
-2464.348628562263
 21
-980.24532529654493
 31
0.0
 70
   128
 13
-2810.3423125622639
 23
-815.92158429654478
 33
0.0
 14
-2100.342312562263
 24
-815.92158429654478
 34
0.0
1001
ACAD
1000
DSTYLE
1002
{
1070
   287
1070
     3
1070
   287
1070
     3
1070
    40
1040
10.0
1070
   143
1040
0.039
1070
   172
1070
     1
1070
   271
1070
     0
1070
   279
1070
     0
1070
   288
1070
     1
1002
}
  0
DIMENSION
  5
7B8D
  8
3
  6
CONTINUOUS
  2
*D10
 10
-2005.6694375622631
 20
-815.92158429654478
 30
0.0
 11
-2005.6694375622631
 21
-687.05390329654495
 31
0.0
 70
   128
 13
-2100.342312562263
 23
-565.92158429654478
 33
0.0
 14
-2100.342312562263
 24
-815.92158429654478
 34
0.0
 50
90.0
1001
ACAD
1000
DSTYLE
1002
{
1070
   287
1070
     3
1070
   287
1070
     3
1070
    40
1040
10.0
1070
   143
1040
0.039
1070
   172
1070
     1
1070
   271
1070
     0
1070
   279
1070
     0
1070
   288
1070
     1
1002
}
  0
LINE
  5
7B8E
  8
2
  6
CENTER
 10
-1704.411636338431
 20
-1180.6033761580529
 30
0.0
 11
-1704.411636338431
 21
-1766.8631511580529
 31
0.0
  0
DIMENSION
  5
7B9B
  8
3
  6
CONTINUOUS
  2
*D11
 10
-1712.411636338431
 20
-1830.0660961580529
 30
0.0
 11
-1822.3808293384311
 21
-1830.0660961580529
 31
0.0
 70
   128
 13
-1962.411636338431
 23
-1753.708593158053
 33
0.0
 14
-1712.411636338431
 24
-1753.708593158053
 34
0.0
1001
ACAD
1000
DSTYLE
1002
{
1070
   287
1070
     3
1070
   287
1070
     3
1070
    40
1040
10.0
1070
   143
1040
0.039
1070
   172
1070
     1
1070
   271
1070
     0
1070
   279
1070
     0
1070
   288
1070
     1
1002
}
  0
DIMENSION
  5
7BA8
  8
3
  6
CONTINUOUS
  2
*D12
 10
-1614.411636338431
 20
-1185.7472391580529
 30
0.0
 11
-1711.665173338431
 21
-1185.7472391580529
 31
0.0
 70
   128
 13
-1794.411636338431
 23
-1239.8085931580531
 33
0.0
 14
-1614.411636338431
 24
-1239.8085931580531
 34
0.0
1001
ACAD
1000
DSTYLE
1002
{
1070
   287
1070
     3
1070
   287
1070
     3
1070
    40
1040
10.0
1070
   143
1040
0.039
1070
   172
1070
     1
1070
   271
1070
     0
1070
   279
1070
     0
1070
   288
1070
     1
1002
}
  0
DIMENSION
  5
7BB5
  8
3
  6
CONTINUOUS
  2
*D13
 10
-1704.411636338431
 20
-1111.6636751580529
 30
0.0
 11
-1875.102589338431
 21
-1111.6636751580529
 31
0.0
 70
   128
  1
MAX\P340
 13
-2044.411636338431
 23
-1313.708593158053
 33
0.0
 14
-1704.411636338431
 24
-1134.5379401580531
 34
0.0
1001
ACAD
1000
DSTYLE
1002
{
1070
   287
1070
     3
1070
   287
1070
     3
1070
    40
1040
10.0
1070
   143
1040
0.039
1070
   172
1070
     1
1070
   271
1070
     0
1070
   279
1070
     0
1070
   288
1070
     1
1002
}
  0
DIMENSION
  5
7BC3
  8
3
  6
CONTINUOUS
  2
*D14
 10
-1605.411636338431
 20
-1111.6636751580529
 30
0.0
 11
-1657.186034338431
 21
-1111.6636751580529
 31
0.0
 70
   128
 13
-1704.411636338431
 23
-1134.5379401580531
 33
0.0
 14
-1605.411636338431
 24
-1291.708593158053
 34
0.0
1001
ACAD
1000
DSTYLE
1002
{
1070
   287
1070
     4
1070
   287
1070
     4
1070
    40
1040
10.0
1070
    75
1070
     1
1070
   143
1040
0.039
1070
   172
1070
     1
1070
   271
1070
     0
1070
   279
1070
     1
1070
   288
1070
     1
1002
}
  0
LINE
  5
7BDB
  8
3
  6
CONTINUOUS
 10
-1605.411636338431
 20
-1313.708593158053
 30
0.0
 11
-1589.9463383384309
 21
-1313.708593158053
 31
0.0
  0
LINE
  5
7BDD
  8
3
  6
CONTINUOUS
 10
-1605.411636338431
 20
-1563.708593158053
 30
0.0
 11
-1599.503774338431
 21
-1563.708593158053
 31
0.0
  0
DIMENSION
  5
7BEA
  8
3
  6
CONTINUOUS
  2
*D15
 10
-1520.654901338432
 20
-1563.708593158053
 30
0.0
 11
-1520.654901338431
 21
-1455.127846158053
 31
0.0
 70
   128
 13
-1605.411636338431
 23
-1313.708593158053
 33
0.0
 14
-1605.411636338431
 24
-1563.708593158053
 34
0.0
 50
90.0
1001
ACAD
1000
DSTYLE
1002
{
1070
   287
1070
     3
1070
   287
1070
     3
1070
     3
1000
φ<>
1070
    40
1040
10.0
1070
   143
1040
0.039
1070
   172
1070
     1
1070
   271
1070
     0
1070
   279
1070
     0
1070
   288
1070
     1
1002
}
  0
LINE
  5
7BEB
  8
2
  6
CENTER
 10
-2090.356993338431
 20
-1438.708593158053
 30
0.0
 11
-1593.6920883384309
 21
-1438.708593158053
 31
0.0
  0
LINE
  5
7BEC
  8
4
  6
CONTINUOUS
 10
-1505.543371
 20
-2108.1412829999999
 30
0.0
 11
-1505.543371
 21
-2308.1412829999999
 31
0.0
  0
LINE
  5
7BED
  8
4
  6
CONTINUOUS
 10
-2205.5433710000002
 20
-2108.1412829999999
 30
0.0
 11
-2205.5433710000002
 21
-2308.1412829999999
 31
0.0
  0
LINE
  5
7BEE
  8
4
  6
CONTINUOUS
 10
-2705.5433710000002
 20
-2108.1412829999999
 30
0.0
 11
-2705.5433710000002
 21
-2308.1412829999999
 31
0.0
  0
LINE
  5
7BF1
  8
4
  6
CONTINUOUS
 10
-2705.5433710000002
 20
-2308.1412829999999
 30
0.0
 11
-1505.543371
 21
-2308.1412829999999
 31
0.0
  0
LINE
  5
7BF2
  8
4
  6
CONTINUOUS
 10
-2705.5433710000002
 20
-2208.1412829999999
 30
0.0
 11
-1505.543371
 21
-2208.1412829999999
 31
0.0
  0
TEXT
  5
7BF3
  8
4
  6
CONTINUOUS
 10
-2667.0412900000001
 20
-2176.5982570000001
 30
0.0
 40
50.0
  1
機器名称
  0
TEXT
  5
7BF4
  8
4
  6
CONTINUOUS
 10
-2669.285265
 20
-2286.496126999999
 30
0.0
 40
50.0
  1
機器型番
  0
TEXT
  5
7BF5
  8
4
  6
CONTINUOUS
 10
-2177.8646250000002
 20
-2185.5695139999998
 30
0.0
 40
45.0
  1
ミツヤニューマルチファン
  0
TEXT
  5
7BF6
  8
4
  6
CONTINUOUS
 10
-2168.8888749999992
 20
-2290.9816989999999
 30
0.0
 40
50.0
  1
NM#1 1/2-1
  0
TEXT
  5
7BF8
  8
4
  6
CONTINUOUS
 10
-2450.7576049999998
 20
-224.71244200000001
 30
0.0
 40
54.0
  1
床置ベット
  0
TEXT
  5
7BF9
  8
4
  6
CONTINUOUS
 10
-3039.3757770000002
 20
-74.260306999999997
 30
0.0
 40
72.0
  1
ベルト駆動式片吸込片持多翼ファン
  0
LINE
  5
7BFA
  8
4
  6
CONTINUOUS
 10
-3105.5433710000002
 20
-138.73252899999989
 30
0.0
 11
-1505.543371
 21
-138.73252899999989
 31
0.0
  0
LINE
  5
7BFB
  8
4
  6
CONTINUOUS
 10
-3105.5433710000002
 20
61.267470999999993
 30
0.0
 11
-1505.543371
 21
61.267470999999993
 31
0.0
  0
LINE
  5
7BFC
  8
4
  6
CONTINUOUS
 10
-2705.5433710000002
 20
-2108.1412829999999
 30
0.0
 11
-1505.543371
 21
-2108.1412829999999
 31
0.0
  0
LINE
  5
7BFD
  8
4
  6
CONTINUOUS
 10
-3105.5433710000002
 20
61.267470999999993
 30
0.0
 11
-3105.5433710000002
 21
-138.73252899999989
 31
0.0
  0
TEXT
  5
7BFE
  8
4
  6
CONTINUOUS
 10
-2920.23173
 20
-225.82180600000001
 30
0.0
 40
54.0
  1
右回転左横向
  0
TEXT
  5
7BFF
  8
4
  6
CONTINUOUS
 10
-1886.5738109999991
 20
97.919798
 30
0.0
 40
56.0
  1
No.
  0
TEXT
  5
7C00
  8
4
  6
CONTINUOUS
 10
-2044.247308
 20
-224.71244200000001
 30
0.0
 40
54.0
  1
縮尺：1/10
  0
LINE
  5
7C01
  8
4
  6
CONTINUOUS
 10
-1505.543371
 20
61.267470999999993
 30
0.0
 11
-1505.543371
 21
-138.73252899999989
 31
0.0
  0
LINE
  5
7C03
  8
4
  6
CONTINUOUS
 10
-1914.9259480000001
 20
73.122299999999996
 30
0.0
 11
-1914.9259480000001
 21
178.51097799999991
 31
0.0
  0
LINE
  5
7C04
  8
4
  6
CONTINUOUS
 10
-1914.9259480000001
 20
178.51097799999991
 30
0.0
 11
-1505.543371
 21
178.51097799999991
 31
0.0
  0
LINE
  5
7C05
  8
4
  6
CONTINUOUS
 10
-1505.543371
 20
178.51097799999991
 30
0.0
 11
-1505.543371
 21
73.122299999999996
 31
0.0
  0
LINE
  5
7C06
  8
4
  6
CONTINUOUS
 10
-1505.543371
 20
73.122299999999996
 30
0.0
 11
-1914.9259480000001
 21
73.122299999999996
 31
0.0
  0
DIMENSION
  5
7C3D
  8
3
  6
CONTINUOUS
  2
*D16
 10
-2938.4266375622642
 20
-1698.708593158053
 30
0.0
 11
-2938.4266375622628
 21
-1557.131274158053
 31
0.0
 70
   128
 13
-2820.342312562263
 23
-1438.708593158053
 33
0.0
 14
-2800.342312562263
 24
-1698.708593158053
 34
0.0
 50
90.0
1001
ACAD
1000
DSTYLE
1002
{
1070
   287
1070
     3
1070
   287
1070
     3
1070
    40
1040
10.0
1070
   143
1040
0.039
1070
   172
1070
     1
1070
   271
1070
     0
1070
   279
1070
     0
1070
   288
1070
     1
1002
}
  0
DIMENSION
  5
7CB5
  8
3
  2
*D17
 10
-2100.342312562263
 20
-1141.537114977634
 30
0.0
 11
-2490.878685202169
 21
-1141.537114977634
 31
0.0
 70
   128
 13
-2820.342312562263
 23
-1417.708593158053
 33
0.0
 14
-2100.342312562263
 24
-1673.708593158053
 34
0.0
1001
ACAD
1000
DSTYLE
1002
{
1070
   287
1070
     3
1070
   287
1070
     3
1070
    40
1040
10.0
1070
   143
1040
0.039
1070
   172
1070
     1
1070
   271
1070
     0
1070
   279
1070
     0
1070
   288
1070
     1
1002
}
  0
DIMENSION
  5
7CC5
  8
3
  2
*D18
 10
-1704.411636338431
 20
-1830.0660961580529
 30
0.0
 11
-1644.411636338431
 21
-1805.0660961580529
 31
0.0
 70
     0
 13
-1712.411636338431
 23
-1753.708593158053
 33
0.0
 14
-1704.411636338431
 24
-1766.8631511580529
 34
0.0
1001
ACAD
1000
DSTYLE
1002
{
1070
   287
1070
     3
1070
   287
1070
     3
1070
    40
1040
10.0
1070
   143
1040
0.039
1070
   172
1070
     1
1070
   271
1070
     0
1070
   279
1070
     0
1070
   288
1070
     1
1002
}
  0
ENDSEC
  0
EOF
