  0
SECTION
  2
HEADER
  9
$ACADVER
  1
AC1009
  9
$INSBASE
 10
0.0
 20
0.0
 30
0.0
  9
$EXTMIN
 10
248.2956895864188
 20
300.0
 30
0.0
  9
$EXTMAX
 10
1850.0
 20
2786.6522620000001
 30
0.0
  9
$LIMMIN
 10
0.0
 20
0.0
  9
$LIMMAX
 10
297.0
 20
210.0
  9
$ORTHOMODE
 70
     0
  9
$REGENMODE
 70
     1
  9
$FILLMODE
 70
     0
  9
$QTEXTMODE
 70
     0
  9
$MIRRTEXT
 70
     1
  9
$DRAGMODE
 70
     2
  9
$LTSCALE
 40
100.0
  9
$OSMODE
 70
    37
  9
$ATTMODE
 70
     1
  9
$TEXTSIZE
 40
180.0
  9
$TRACEWID
 40
0.05
  9
$TEXTSTYLE
  7
STANDARD
  9
$CLAYER
  8
3
  9
$CELTYPE
  6
BYLAYER
  9
$CECOLOR
 62
   256
  9
$DIMSCALE
 40
10.0
  9
$DIMASZ
 40
2.0
  9
$DIMEXO
 40
0.5
  9
$DIMDLI
 40
10.0
  9
$DIMRND
 40
0.0
  9
$DIMDLE
 40
0.0
  9
$DIMEXE
 40
1.0
  9
$DIMTP
 40
1.0
  9
$DIMTM
 40
1.0
  9
$DIMTXT
 40
3.0
  9
$DIMCEN
 40
0.0
  9
$DIMTSZ
 40
0.0
  9
$DIMTOL
 70
     0
  9
$DIMLIM
 70
     0
  9
$DIMTIH
 70
     0
  9
$DIMTOH
 70
     0
  9
$DIMSE1
 70
     0
  9
$DIMSE2
 70
     0
  9
$DIMTAD
 70
     1
  9
$DIMZIN
 70
     8
  9
$DIMBLK
  1

  9
$DIMASO
 70
     1
  9
$DIMSHO
 70
     1
  9
$DIMPOST
  1

  9
$DIMAPOST
  1

  9
$DIMALT
 70
     0
  9
$DIMALTD
 70
     2
  9
$DIMALTF
 40
0.039
  9
$DIMLFAC
 40
1.0
  9
$DIMTOFL
 70
     1
  9
$DIMTVP
 40
0.0
  9
$DIMTIX
 70
     0
  9
$DIMSOXD
 70
     0
  9
$DIMSAH
 70
     1
  9
$DIMBLK1
  1
OPEN
  9
$DIMBLK2
  1
OPEN
  9
$DIMSTYLE
  2
IGA
  9
$DIMCLRD
 70
     0
  9
$DIMCLRE
 70
     0
  9
$DIMCLRT
 70
     0
  9
$DIMTFAC
 40
10.0
  9
$DIMGAP
 40
1.0
  9
$LUNITS
 70
     2
  9
$LUPREC
 70
     3
  9
$SKETCHINC
 40
0.1
  9
$FILLETRAD
 40
50.0
  9
$AUNITS
 70
     0
  9
$AUPREC
 70
     0
  9
$MENU
  1
acad
  9
$ELEVATION
 40
0.0
  9
$PELEVATION
 40
0.0
  9
$THICKNESS
 40
0.0
  9
$LIMCHECK
 70
     0
  9
$BLIPMODE
 70
     0
  9
$CHAMFERA
 40
0.5
  9
$CHAMFERB
 40
0.5
  9
$SKPOLY
 70
     0
  9
$TDCREATE
 40
2450739.636521528
  9
$TDUPDATE
 40
2454953.863877384
  9
$TDINDWG
 40
0.0091850926
  9
$TDUSRTIMER
 40
0.0091850926
  9
$USRTIMER
 70
     1
  9
$ANGBASE
 50
0.0
  9
$ANGDIR
 70
     0
  9
$PDMODE
 70
     0
  9
$PDSIZE
 40
0.0
  9
$PLINEWID
 40
0.0
  9
$COORDS
 70
     1
  9
$SPLFRAME
 70
     0
  9
$SPLINETYPE
 70
     6
  9
$SPLINESEGS
 70
     8
  9
$ATTDIA
 70
     0
  9
$ATTREQ
 70
     1
  9
$HANDLING
 70
 10241
  9
$HANDSEED
  5
7E5F
  9
$SURFTAB1
 70
     6
  9
$SURFTAB2
 70
     6
  9
$SURFTYPE
 70
     6
  9
$SURFU
 70
     6
  9
$SURFV
 70
     6
  9
$UCSNAME
  2

  9
$UCSORG
 10
0.0
 20
0.0
 30
0.0
  9
$UCSXDIR
 10
1.0
 20
0.0
 30
0.0
  9
$UCSYDIR
 10
0.0
 20
1.0
 30
0.0
  9
$PUCSNAME
  2

  9
$PUCSORG
 10
0.0
 20
0.0
 30
0.0
  9
$PUCSXDIR
 10
1.0
 20
0.0
 30
0.0
  9
$PUCSYDIR
 10
0.0
 20
1.0
 30
0.0
  9
$USERI1
 70
     0
  9
$USERI2
 70
     0
  9
$USERI3
 70
     0
  9
$USERI4
 70
     0
  9
$USERI5
 70
     0
  9
$USERR1
 40
0.0
  9
$USERR2
 40
0.0
  9
$USERR3
 40
0.0
  9
$USERR4
 40
0.0
  9
$USERR5
 40
0.0
  9
$WORLDVIEW
 70
     1
  9
$SHADEDGE
 70
     3
  9
$SHADEDIF
 70
    70
  9
$TILEMODE
 70
     1
  9
$MAXACTVP
 70
    16
  9
$PLIMCHECK
 70
     0
  9
$PEXTMIN
 10
1.0000000000000000E+020
 20
1.0000000000000000E+020
 30
1.0000000000000000E+020
  9
$PEXTMAX
 10
-1.0000000000000000E+020
 20
-1.0000000000000000E+020
 30
-1.0000000000000000E+020
  9
$PLIMMIN
 10
0.0
 20
0.0
  9
$PLIMMAX
 10
12.0
 20
9.0
  9
$UNITMODE
 70
     0
  9
$VISRETAIN
 70
     0
  9
$PLINEGEN
 70
     0
  9
$PSLTSCALE
 70
     1
  0
ENDSEC
  0
SECTION
  2
TABLES
  0
TABLE
  2
VPORT
 70
     2
  0
VPORT
  2
*ACTIVE
 70
     0
 10
0.0
 20
0.0
 11
1.0
 21
1.0
 12
2429.6048031184891
 22
1936.842631066643
 13
0.0
 23
0.0
 14
10.0
 24
10.0
 15
10.0
 25
10.0
 16
0.0
 26
0.0
 36
1.0
 17
0.0
 27
0.0
 37
0.0
 40
3860.4308905936659
 41
1.5051150895140659
 42
50.0
 43
0.0
 44
0.0
 50
0.0
 51
0.0
 71
     0
 72
   100
 73
     1
 74
     0
 75
     0
 76
     0
 77
     0
 78
     0
  0
ENDTAB
  0
TABLE
  2
LTYPE
 70
     2
  0
LTYPE
  2
CONTINUOUS
 70
     0
  3
Solid line
 72
    65
 73
     0
 40
0.0
  0
LTYPE
  2
CENTER
 70
     0
  3
____ _ ____ _ ____ _ ____ _ ____ _ ____ _ ____ 
 72
    65
 73
     4
 40
2.0
 49
1.25
 49
-0.25
 49
0.25
 49
-0.25
  0
ENDTAB
  0
TABLE
  2
LAYER
 70
     6
  0
LAYER
  2
0
 70
     0
 62
     7
  6
CONTINUOUS
  0
LAYER
  2
3
 70
     0
 62
     2
  6
CONTINUOUS
  0
LAYER
  2
2
 70
     0
 62
     3
  6
CENTER
  0
LAYER
  2
1
 70
     0
 62
     4
  6
CONTINUOUS
  0
LAYER
  2
4
 70
     0
 62
     7
  6
CONTINUOUS
  0
LAYER
  2
DEFPOINTS
 70
     0
 62
     7
  6
CONTINUOUS
  0
ENDTAB
  0
TABLE
  2
STYLE
 70
     1
  0
STYLE
  2
STANDARD
 70
     0
 40
0.0
 41
1.0
 50
0.0
 71
     0
 42
180.0
  3
simplex.shx
  4
extfont.shx
  0
ENDTAB
  0
TABLE
  2
VIEW
 70
     0
  0
ENDTAB
  0
TABLE
  2
UCS
 70
     0
  0
ENDTAB
  0
TABLE
  2
APPID
 70
     1
  0
APPID
  2
ACAD
 70
     0
  0
ENDTAB
  0
TABLE
  2
DIMSTYLE
 70
     1
  0
DIMSTYLE
  2
IGA
 70
     0
  3

  4

  5

  6
OPEN
  7
OPEN
 40
2.0
 41
2.0
 42
0.5
 43
10.0
 44
1.0
 45
0.0
 46
0.0
 47
1.0
 48
1.0
140
3.0
141
0.0
142
0.0
143
0.03937
144
1.0
145
0.0
146
10.0
147
1.0
 71
     0
 72
     0
 73
     0
 74
     0
 75
     0
 76
     0
 77
     1
 78
     8
170
     0
171
     2
172
     0
173
     1
174
     0
175
     0
176
     0
177
     0
178
     0
  0
ENDTAB
  0
ENDSEC
  0
SECTION
  2
BLOCKS
  0
BLOCK
  8
0
  2
$MODEL_SPACE
 70
     0
 10
0.0
 20
0.0
 30
0.0
  3
$MODEL_SPACE
  1

  0
ENDBLK
  5
1B
  8
0
  0
BLOCK
 67
     1
  8
0
  2
$PAPER_SPACE
 70
     0
 10
0.0
 20
0.0
 30
0.0
  3
$PAPER_SPACE
  1

  0
ENDBLK
  5
18
 67
     1
  8
0
  0
BLOCK
  8
0
  2
_OPEN
 70
     0
 10
0.0
 20
0.0
 30
0.0
  3
_OPEN
  1

  0
LINE
  5
7B23
  8
0
  6
BYBLOCK
 62
     0
 10
-1.0
 20
0.166667
 30
0.0
 11
0.0
 21
0.0
 31
0.0
  0
LINE
  5
7B24
  8
0
  6
BYBLOCK
 62
     0
 10
0.0
 20
0.0
 30
0.0
 11
-1.0
 21
-0.166667
 31
0.0
  0
LINE
  5
7B25
  8
0
  6
BYBLOCK
 62
     0
 10
0.0
 20
0.0
 30
0.0
 11
-1.0
 21
0.0
 31
0.0
  0
ENDBLK
  5
7B26
  8
0
  0
BLOCK
  8
0
  2
*D1
 70
     1
 10
0.0
 20
0.0
 30
0.0
  3
*D1
  1

  0
LINE
  5
7DB6
  8
3
  6
CONTINUOUS
 62
     0
 10
333.06471206920031
 20
747.76705783665295
 30
0.0
 11
333.06471206920031
 21
652.30010783665296
 31
0.0
  0
LINE
  5
7DB7
  8
3
  6
CONTINUOUS
 62
     0
 10
853.06471206920037
 20
747.76705783665295
 30
0.0
 11
853.06471206920037
 21
652.30010783665296
 31
0.0
  0
LINE
  5
7DB8
  8
3
  6
CONTINUOUS
 62
     0
 10
353.06471206920031
 20
662.30010783665296
 30
0.0
 11
833.06471206920025
 21
662.30010783665296
 31
0.0
  0
INSERT
  5
7DB9
  8
3
  6
CONTINUOUS
 62
     0
  2
_OPEN
 10
333.06471206920031
 20
662.30010783665296
 30
0.0
 41
20.0
 42
20.0
 43
20.0
 50
180.0
  0
INSERT
  5
7DBA
  8
3
  6
CONTINUOUS
 62
     0
  2
_OPEN
 10
853.06471206920037
 20
662.30010783665296
 30
0.0
 41
20.0
 42
20.0
 43
20.0
  0
TEXT
  8
3
  40
30
  5
7E4D
  62
0
  72
0
  71
0
 10
531.406
 20
634.200
 30
0.000000
  1
520
  0
POINT
  5
7DBC
  8
DEFPOINTS
  6
CONTINUOUS
 62
     0
 10
333.06471206920031
 20
752.76705783665307
 30
0.0
  0
POINT
  5
7DBD
  8
DEFPOINTS
  6
CONTINUOUS
 62
     0
 10
853.06471206920037
 20
752.76705783665307
 30
0.0
  0
POINT
  5
7DBE
  8
DEFPOINTS
  6
CONTINUOUS
 62
     0
 10
853.06471206920037
 20
662.30010783665296
 30
0.0
  0
ENDBLK
  5
7B33
  8
0
  0
BLOCK
  8
0
  2
*D2
 70
     1
 10
0.0
 20
0.0
 30
0.0
  3
*D2
  1

  0
LINE
  5
7DBF
  8
3
  6
CONTINUOUS
 62
     0
 10
1043.0647120691999
 20
747.76705783665295
 30
0.0
 11
1043.0647120691999
 21
652.30010783665296
 31
0.0
  0
LINE
  5
7DC0
  8
3
  6
CONTINUOUS
 62
     0
 10
873.06471206920025
 20
662.30010783665296
 30
0.0
 11
1023.0647120692
 21
662.30010783665296
 31
0.0
  0
INSERT
  5
7DC1
  8
3
  6
CONTINUOUS
 62
     0
  2
_OPEN
 10
853.06471206920037
 20
662.30010783665296
 30
0.0
 41
20.0
 42
20.0
 43
20.0
 50
180.0
  0
INSERT
  5
7DC2
  8
3
  6
CONTINUOUS
 62
     0
  2
_OPEN
 10
1043.0647120691999
 20
662.30010783665296
 30
0.0
 41
20.0
 42
20.0
 43
20.0
  0
TEXT
  8
3
  40
30
  5
7E4E
  62
0
  72
0
  71
0
 10
888.065
 20
634.200
 30
0.000000
  1
190
  0
POINT
  5
7DC4
  8
DEFPOINTS
  6
CONTINUOUS
 62
     0
 10
853.06471206920037
 20
752.76705783665307
 30
0.0
  0
POINT
  5
7DC5
  8
DEFPOINTS
  6
CONTINUOUS
 62
     0
 10
1043.0647120691999
 20
752.76705783665307
 30
0.0
  0
POINT
  5
7DC6
  8
DEFPOINTS
  6
CONTINUOUS
 62
     0
 10
1043.0647120691999
 20
662.30010783665296
 30
0.0
  0
ENDBLK
  5
7B3F
  8
0
  0
BLOCK
  8
0
  2
*D3
 70
     1
 10
0.0
 20
0.0
 30
0.0
  3
*D3
  1

  0
LINE
  5
7DC7
  8
3
  6
CONTINUOUS
 62
     0
 10
603.06471206920037
 20
1272.7670578366531
 30
0.0
 11
603.06471206920037
 21
1328.3292838366531
 31
0.0
  0
LINE
  5
7DC8
  8
3
  6
CONTINUOUS
 62
     0
 10
853.06471206920037
 20
1272.7670578366531
 30
0.0
 11
853.06471206920037
 21
1328.3292838366531
 31
0.0
  0
LINE
  5
7DC9
  8
3
  6
CONTINUOUS
 62
     0
 10
623.06471206920037
 20
1318.3292838366531
 30
0.0
 11
833.06471206920025
 21
1318.3292838366531
 31
0.0
  0
INSERT
  5
7DCA
  8
3
  6
CONTINUOUS
 62
     0
  2
_OPEN
 10
603.06471206920037
 20
1318.3292838366531
 30
0.0
 41
20.0
 42
20.0
 43
20.0
 50
180.0
  0
INSERT
  5
7DCB
  8
3
  6
CONTINUOUS
 62
     0
  2
_OPEN
 10
853.06471206920037
 20
1318.3292838366531
 30
0.0
 41
20.0
 42
20.0
 43
20.0
  0
TEXT
  8
3
  40
30
  5
7E4F
  62
0
  72
0
  71
0
 10
666.595
 20
1290.23
 30
0.000000
  1
250
  0
POINT
  5
7DCD
  8
DEFPOINTS
  6
CONTINUOUS
 62
     0
 10
603.06471206920037
 20
1267.7670578366531
 30
0.0
  0
POINT
  5
7DCE
  8
DEFPOINTS
  6
CONTINUOUS
 62
     0
 10
853.06471206920037
 20
1267.7670578366531
 30
0.0
  0
POINT
  5
7DCF
  8
DEFPOINTS
  6
CONTINUOUS
 62
     0
 10
853.06471206920037
 20
1318.3292838366531
 30
0.0
  0
ENDBLK
  5
7B4C
  8
0
  0
BLOCK
  8
0
  2
*D4
 70
     1
 10
0.0
 20
0.0
 30
0.0
  3
*D4
  1

  0
LINE
  5
7DD0
  8
3
  6
CONTINUOUS
 62
     0
 10
593.06471206920025
 20
1252.7670578366531
 30
0.0
 11
593.06471206920025
 21
1386.4777018366531
 31
0.0
  0
LINE
  5
7DD1
  8
3
  6
CONTINUOUS
 62
     0
 10
853.06471206920037
 20
1272.7670578366531
 30
0.0
 11
853.06471206920037
 21
1386.4777018366531
 31
0.0
  0
LINE
  5
7DD2
  8
3
  6
CONTINUOUS
 62
     0
 10
613.06471206920025
 20
1376.4777018366531
 30
0.0
 11
833.06471206920025
 21
1376.4777018366531
 31
0.0
  0
INSERT
  5
7DD3
  8
3
  6
CONTINUOUS
 62
     0
  2
_OPEN
 10
593.06471206920025
 20
1376.4777018366531
 30
0.0
 41
20.0
 42
20.0
 43
20.0
 50
180.0
  0
INSERT
  5
7DD4
  8
3
  6
CONTINUOUS
 62
     0
  2
_OPEN
 10
853.06471206920037
 20
1376.4777018366531
 30
0.0
 41
20.0
 42
20.0
 43
20.0
  0
TEXT
  8
3
  40
30
  5
7E50
  62
0
  72
0
  71
0
 10
666.345
 20
1348.38
 30
0.000000
  1
260
  0
POINT
  5
7DD6
  8
DEFPOINTS
  6
CONTINUOUS
 62
     0
 10
593.06471206920025
 20
1247.7670578366531
 30
0.0
  0
POINT
  5
7DD7
  8
DEFPOINTS
  6
CONTINUOUS
 62
     0
 10
853.06471206920037
 20
1267.7670578366531
 30
0.0
  0
POINT
  5
7DD8
  8
DEFPOINTS
  6
CONTINUOUS
 62
     0
 10
853.06471206920037
 20
1376.4777018366531
 30
0.0
  0
ENDBLK
  5
7B59
  8
0
  0
BLOCK
  8
0
  2
*D5
 70
     1
 10
0.0
 20
0.0
 30
0.0
  3
*D5
  1

  0
LINE
  5
7DD9
  8
3
  6
CONTINUOUS
 62
     0
 10
1039.0540960692001
 20
1072.7670578366531
 30
0.0
 11
1039.0540960692001
 21
1386.4777018366531
 31
0.0
  0
LINE
  5
7DDA
  8
3
  6
CONTINUOUS
 62
     0
 10
873.06471206920025
 20
1376.4777018366531
 30
0.0
 11
1019.0540960692
 21
1376.4777018366531
 31
0.0
  0
INSERT
  5
7DDB
  8
3
  6
CONTINUOUS
 62
     0
  2
_OPEN
 10
853.06471206920037
 20
1376.4777018366531
 30
0.0
 41
20.0
 42
20.0
 43
20.0
 50
180.0
  0
INSERT
  5
7DDC
  8
3
  6
CONTINUOUS
 62
     0
  2
_OPEN
 10
1039.0540960692001
 20
1376.4777018366531
 30
0.0
 41
20.0
 42
20.0
 43
20.0
  0
TEXT
  8
3
  40
30
  5
7E51
  62
0
  72
0
  71
0
 10
886.059
 20
1348.38
 30
0.000000
  1
186
  0
POINT
  5
7DDE
  8
DEFPOINTS
  6
CONTINUOUS
 62
     0
 10
853.06471206920037
 20
1267.7670578366531
 30
0.0
  0
POINT
  5
7DDF
  8
DEFPOINTS
  6
CONTINUOUS
 62
     0
 10
1039.0540960692001
 20
1067.7670578366531
 30
0.0
  0
POINT
  5
7DE0
  8
DEFPOINTS
  6
CONTINUOUS
 62
     0
 10
1039.0540960692001
 20
1376.4777018366531
 30
0.0
  0
ENDBLK
  5
7B65
  8
0
  0
BLOCK
  8
0
  2
*D6
 70
     1
 10
0.0
 20
0.0
 30
0.0
  3
*D6
  1

  0
LINE
  5
7DE1
  8
3
  6
CONTINUOUS
 62
     0
 10
879.06471206920025
 20
1267.7670578366531
 30
0.0
 11
1133.186494847243
 21
1267.7670578366531
 31
0.0
  0
LINE
  5
7DE2
  8
3
  6
CONTINUOUS
 62
     0
 10
1044.0540960692001
 20
1067.7670578366531
 30
0.0
 11
1133.186494847243
 21
1067.7670578366531
 31
0.0
  0
LINE
  5
7DE3
  8
3
  6
CONTINUOUS
 62
     0
 10
1123.186494847243
 20
1247.7670578366531
 30
0.0
 11
1123.186494847243
 21
1087.7670578366531
 31
0.0
  0
INSERT
  5
7DE4
  8
3
  6
CONTINUOUS
 62
     0
  2
_OPEN
 10
1123.186494847243
 20
1267.7670578366531
 30
0.0
 41
20.0
 42
20.0
 43
20.0
 50
90.0
  0
INSERT
  5
7DE5
  8
3
  6
CONTINUOUS
 62
     0
  2
_OPEN
 10
1123.186494847243
 20
1067.7670578366531
 30
0.0
 41
20.0
 42
20.0
 43
20.0
 50
270.0
  0
TEXT
  8
3
  40
30
  5
7E52
  62
0
  72
0
  71
0
 10
1038.19
 20
1113.28
 30
0.000000
  1
200
  0
POINT
  5
7DE7
  8
DEFPOINTS
  6
CONTINUOUS
 62
     0
 10
874.06471206920025
 20
1267.7670578366531
 30
0.0
  0
POINT
  5
7DE8
  8
DEFPOINTS
  6
CONTINUOUS
 62
     0
 10
1039.0540960692001
 20
1067.7670578366531
 30
0.0
  0
POINT
  5
7DE9
  8
DEFPOINTS
  6
CONTINUOUS
 62
     0
 10
1123.186494847243
 20
1067.7670578366531
 30
0.0
  0
ENDBLK
  5
7C63
  8
0
  0
BLOCK
  8
0
  2
*D7
 70
     1
 10
0.0
 20
0.0
 30
0.0
  3
*D7
  1

  0
LINE
  5
7DEA
  8
3
  6
CONTINUOUS
 62
     0
 10
1048.0647120691999
 20
752.76705783665307
 30
0.0
 11
1133.186494847243
 21
752.76705783665307
 31
0.0
  0
LINE
  5
7DEB
  8
3
  6
CONTINUOUS
 62
     0
 10
1123.186494847243
 20
1047.7670578366531
 30
0.0
 11
1123.186494847243
 21
772.76705783665295
 31
0.0
  0
INSERT
  5
7DEC
  8
3
  6
CONTINUOUS
 62
     0
  2
_OPEN
 10
1123.186494847243
 20
1067.7670578366531
 30
0.0
 41
20.0
 42
20.0
 43
20.0
 50
90.0
  0
INSERT
  5
7DED
  8
3
  6
CONTINUOUS
 62
     0
  2
_OPEN
 10
1123.186494847243
 20
752.76705783665307
 30
0.0
 41
20.0
 42
20.0
 43
20.0
 50
270.0
  0
TEXT
  8
3
  40
30
  5
7E53
  62
0
  72
0
  71
0
 10
1038.19
 20
857.167
 30
0.000000
  1
315
  0
POINT
  5
7DEF
  8
DEFPOINTS
  6
CONTINUOUS
 62
     0
 10
1039.0540960692001
 20
1067.7670578366531
 30
0.0
  0
POINT
  5
7DF0
  8
DEFPOINTS
  6
CONTINUOUS
 62
     0
 10
1043.0647120691999
 20
752.76705783665307
 30
0.0
  0
POINT
  5
7DF1
  8
DEFPOINTS
  6
CONTINUOUS
 62
     0
 10
1123.186494847243
 20
752.76705783665307
 30
0.0
  0
ENDBLK
  5
7C6D
  8
0
  0
BLOCK
  8
0
  2
*D8
 70
     1
 10
0.0
 20
0.0
 30
0.0
  3
*D8
  1

  0
LINE
  5
7DF2
  8
3
  6
CONTINUOUS
 62
     0
 10
884.06471206920037
 20
1267.7670578366531
 30
0.0
 11
1195.361791881867
 21
1267.7670578366531
 31
0.0
  0
LINE
  5
7DF3
  8
3
  6
CONTINUOUS
 62
     0
 10
1048.0647120691999
 20
752.76705783665307
 30
0.0
 11
1195.361791881867
 21
752.76705783665307
 31
0.0
  0
LINE
  5
7DF4
  8
3
  6
CONTINUOUS
 62
     0
 10
1185.361791881867
 20
1247.7670578366531
 30
0.0
 11
1185.361791881867
 21
772.76705783665295
 31
0.0
  0
INSERT
  5
7DF5
  8
3
  6
CONTINUOUS
 62
     0
  2
_OPEN
 10
1185.361791881867
 20
1267.7670578366531
 30
0.0
 41
20.0
 42
20.0
 43
20.0
 50
90.0
  0
INSERT
  5
7DF6
  8
3
  6
CONTINUOUS
 62
     0
  2
_OPEN
 10
1185.361791881867
 20
752.76705783665307
 30
0.0
 41
20.0
 42
20.0
 43
20.0
 50
270.0
  0
TEXT
  8
3
  40
30
  5
7E54
  62
0
  72
0
  71
0
 10
1100.36
 20
955.590
 30
0.000000
  1
515
  0
POINT
  5
7DF8
  8
DEFPOINTS
  6
CONTINUOUS
 62
     0
 10
879.06471206920025
 20
1267.7670578366531
 30
0.0
  0
POINT
  5
7DF9
  8
DEFPOINTS
  6
CONTINUOUS
 62
     0
 10
1043.0647120691999
 20
752.76705783665307
 30
0.0
  0
POINT
  5
7DFA
  8
DEFPOINTS
  6
CONTINUOUS
 62
     0
 10
1185.361791881867
 20
752.76705783665307
 30
0.0
  0
ENDBLK
  5
7C58
  8
0
  0
BLOCK
  8
0
  2
*D9
 70
     1
 10
0.0
 20
0.0
 30
0.0
  3
*D9
  1

  0
LINE
  5
7DFB
  8
3
  6
CONTINUOUS
 62
     0
 10
1359.2873149654729
 20
747.76705783665295
 30
0.0
 11
1359.2873149654729
 21
671.71469283665294
 31
0.0
  0
LINE
  5
7DFC
  8
3
  6
CONTINUOUS
 62
     0
 10
1609.287314965474
 20
747.76705783665295
 30
0.0
 11
1609.287314965474
 21
671.71469283665294
 31
0.0
  0
LINE
  5
7DFD
  8
3
  6
CONTINUOUS
 62
     0
 10
1379.2873149654729
 20
681.71469283665294
 30
0.0
 11
1589.2873149654729
 21
681.71469283665294
 31
0.0
  0
INSERT
  5
7DFE
  8
3
  6
CONTINUOUS
 62
     0
  2
_OPEN
 10
1359.2873149654729
 20
681.71469283665294
 30
0.0
 41
20.0
 42
20.0
 43
20.0
 50
180.0
  0
INSERT
  5
7DFF
  8
3
  6
CONTINUOUS
 62
     0
  2
_OPEN
 10
1609.287314965474
 20
681.71469283665294
 30
0.0
 41
20.0
 42
20.0
 43
20.0
  0
TEXT
  8
3
  40
30
  5
7E55
  62
0
  72
0
  71
0
 10
1431.56
 20
653.615
 30
0.000000
  1
250
  0
POINT
  5
7E01
  8
DEFPOINTS
  6
CONTINUOUS
 62
     0
 10
1359.2873149654729
 20
752.76705783665307
 30
0.0
  0
POINT
  5
7E02
  8
DEFPOINTS
  6
CONTINUOUS
 62
     0
 10
1609.287314965474
 20
752.76705783665307
 30
0.0
  0
POINT
  5
7E03
  8
DEFPOINTS
  6
CONTINUOUS
 62
     0
 10
1609.287314965474
 20
681.71469283665294
 30
0.0
  0
ENDBLK
  5
7BA8
  8
0
  0
BLOCK
  8
0
  2
*D10
 70
     1
 10
0.0
 20
0.0
 30
0.0
  3
*D10
  1

  0
LINE
  5
7E04
  8
3
  6
CONTINUOUS
 62
     0
 10
1527.4873149654729
 20
1272.7670578366531
 30
0.0
 11
1527.4873149654729
 21
1331.7508598366519
 31
0.0
  0
LINE
  5
7E05
  8
3
  6
CONTINUOUS
 62
     0
 10
1707.0873149654731
 20
1272.7670578366531
 30
0.0
 11
1707.0873149654731
 21
1331.7508598366519
 31
0.0
  0
LINE
  5
7E06
  8
3
  6
CONTINUOUS
 62
     0
 10
1547.4873149654729
 20
1321.750859836653
 30
0.0
 11
1687.0873149654731
 21
1321.750859836653
 31
0.0
  0
INSERT
  5
7E07
  8
3
  6
CONTINUOUS
 62
     0
  2
_OPEN
 10
1527.4873149654729
 20
1321.750859836653
 30
0.0
 41
20.0
 42
20.0
 43
20.0
 50
180.0
  0
INSERT
  5
7E08
  8
3
  6
CONTINUOUS
 62
     0
  2
_OPEN
 10
1707.0873149654731
 20
1321.750859836653
 30
0.0
 41
20.0
 42
20.0
 43
20.0
  0
TEXT
  8
3
  40
30
  5
7E56
  62
0
  72
0
  71
0
 10
1547.62
 20
1293.65
 30
0.000000
  1
180
  0
POINT
  5
7E0A
  8
DEFPOINTS
  6
CONTINUOUS
 62
     0
 10
1527.4873149654729
 20
1267.7670578366531
 30
0.0
  0
POINT
  5
7E0B
  8
DEFPOINTS
  6
CONTINUOUS
 62
     0
 10
1707.0873149654731
 20
1267.7670578366531
 30
0.0
  0
POINT
  5
7E0C
  8
DEFPOINTS
  6
CONTINUOUS
 62
     0
 10
1707.0873149654731
 20
1321.750859836653
 30
0.0
  0
ENDBLK
  5
7BB5
  8
0
  0
BLOCK
  8
0
  2
*D11
 70
     1
 10
0.0
 20
0.0
 30
0.0
  3
*D11
  1

  0
LINE
  5
7E0D
  8
3
  6
CONTINUOUS
 62
     0
 10
1277.2873149654729
 20
1197.7670578366531
 30
0.0
 11
1277.2873149654729
 21
1385.0872058366531
 31
0.0
  0
LINE
  5
7E0E
  8
3
  6
CONTINUOUS
 62
     0
 10
1617.2873149654729
 20
1369.787210836653
 30
0.0
 11
1617.2873149654729
 21
1385.0872058366531
 31
0.0
  0
LINE
  5
7E0F
  8
3
  6
CONTINUOUS
 62
     0
 10
1297.287314965474
 20
1375.0872058366531
 30
0.0
 11
1597.2873149654729
 21
1375.0872058366531
 31
0.0
  0
INSERT
  5
7E10
  8
3
  6
CONTINUOUS
 62
     0
  2
_OPEN
 10
1277.2873149654729
 20
1375.0872058366531
 30
0.0
 41
20.0
 42
20.0
 43
20.0
 50
180.0
  0
INSERT
  5
7E11
  8
3
  6
CONTINUOUS
 62
     0
  2
_OPEN
 10
1617.2873149654729
 20
1375.0872058366531
 30
0.0
 41
20.0
 42
20.0
 43
20.0
  0
TEXT
  8
3
  40
30
  5
7E57
  62
0
  72
0
  71
0
 10
1375.85
 20
1371.99
 30
0.000000
  1
MAX
  0
TEXT
  8
3
  40
30
  5
7E58
  62
0
  72
0
  71
0
 10
1375.85
 20
1332.99
 30
0.000000
  1
340
  0
POINT
  5
7E13
  8
DEFPOINTS
  6
CONTINUOUS
 62
     0
 10
1277.2873149654729
 20
1192.7670578366531
 30
0.0
  0
POINT
  5
7E14
  8
DEFPOINTS
  6
CONTINUOUS
 62
     0
 10
1617.2873149654729
 20
1364.7872108366521
 30
0.0
  0
POINT
  5
7E15
  8
DEFPOINTS
  6
CONTINUOUS
 62
     0
 10
1617.2873149654729
 20
1375.0872058366531
 30
0.0
  0
ENDBLK
  5
7CBF
  8
0
  0
BLOCK
  8
0
  2
*D12
 70
     1
 10
0.0
 20
0.0
 30
0.0
  3
*D12
  1

  0
LINE
  5
7E16
  8
3
  6
CONTINUOUS
 62
     0
 10
1716.287314965474
 20
1219.7670578366531
 30
0.0
 11
1716.287314965474
 21
1385.0872058366531
 31
0.0
  0
LINE
  5
7E17
  8
3
  6
CONTINUOUS
 62
     0
 10
1637.2873149654729
 20
1375.0872058366531
 30
0.0
 11
1696.2873149654729
 21
1375.0872058366531
 31
0.0
  0
TEXT
  8
3
  40
30
  5
7E59
  62
0
  72
0
  71
0
 10
1603.34
 20
1346.99
 30
0.000000
  1
99
  0
INSERT
  5
7E19
  8
3
  6
CONTINUOUS
 62
     0
  2
_OPEN
 10
1617.2873149654729
 20
1375.0872058366531
 30
0.0
 41
20.0
 42
20.0
 43
20.0
 50
180.0
  0
INSERT
  5
7E1A
  8
3
  6
CONTINUOUS
 62
     0
  2
_OPEN
 10
1716.287314965474
 20
1375.0872058366531
 30
0.0
 41
20.0
 42
20.0
 43
20.0
  0
POINT
  5
7E1B
  8
DEFPOINTS
  6
CONTINUOUS
 62
     0
 10
1617.2873149654729
 20
1364.7872108366521
 30
0.0
  0
POINT
  5
7E1C
  8
DEFPOINTS
  6
CONTINUOUS
 62
     0
 10
1716.287314965474
 20
1214.7670578366531
 30
0.0
  0
POINT
  5
7E1D
  8
DEFPOINTS
  6
CONTINUOUS
 62
     0
 10
1716.287314965474
 20
1375.0872058366531
 30
0.0
  0
ENDBLK
  5
7C37
  8
0
  0
BLOCK
  8
0
  2
*D13
 70
     1
 10
0.0
 20
0.0
 30
0.0
  3
*D13
  1

  0
LINE
  5
7E1E
  8
3
  6
CONTINUOUS
 62
     0
 10
1721.2873149654729
 20
1192.7670578366531
 30
0.0
 11
1797.441232965474
 21
1192.7670578366531
 31
0.0
  0
LINE
  5
7E1F
  8
3
  6
CONTINUOUS
 62
     0
 10
1721.2873149654729
 20
942.76705783665295
 30
0.0
 11
1797.441232965474
 21
942.76705783665284
 31
0.0
  0
LINE
  5
7E20
  8
3
  6
CONTINUOUS
 62
     0
 10
1787.441232965474
 20
1172.7670578366531
 30
0.0
 11
1787.441232965474
 21
962.76705783665307
 31
0.0
  0
INSERT
  5
7E21
  8
3
  6
CONTINUOUS
 62
     0
  2
_OPEN
 10
1787.441232965474
 20
1192.7670578366531
 30
0.0
 41
20.0
 42
20.0
 43
20.0
 50
90.0
  0
INSERT
  5
7E22
  8
3
  6
CONTINUOUS
 62
     0
  2
_OPEN
 10
1787.441232965474
 20
942.76705783665295
 30
0.0
 41
20.0
 42
20.0
 43
20.0
 50
270.0
  0
TEXT
  8
3
  40
30
  5
7E5A
  62
0
  72
0
  71
0
 10
1702.44
 20
1020.95
 30
0.000000
  1
φ250
  0
POINT
  5
7E24
  8
DEFPOINTS
  6
CONTINUOUS
 62
     0
 10
1716.287314965474
 20
1192.7670578366531
 30
0.0
  0
POINT
  5
7E25
  8
DEFPOINTS
  6
CONTINUOUS
 62
     0
 10
1716.287314965474
 20
942.76705783665295
 30
0.0
  0
POINT
  5
7E26
  8
DEFPOINTS
  6
CONTINUOUS
 62
     0
 10
1787.441232965474
 20
942.76705783665295
 30
0.0
  0
ENDBLK
  5
7CCF
  8
0
  0
BLOCK
  8
0
  2
*D14
 70
     1
 10
0.0
 20
0.0
 30
0.0
  3
*D14
  1

  0
LINE
  5
7E27
  8
3
  6
CONTINUOUS
 62
     0
 10
333.06471206920031
 20
1794.8492318741071
 30
0.0
 11
333.06471206920031
 21
1626.284859874107
 31
0.0
  0
LINE
  5
7E28
  8
3
  6
CONTINUOUS
 62
     0
 10
1043.0647120691999
 20
1794.8492318741071
 30
0.0
 11
1043.0647120691999
 21
1626.284859874107
 31
0.0
  0
LINE
  5
7E29
  8
3
  6
CONTINUOUS
 62
     0
 10
353.06471206920031
 20
1636.284859874107
 30
0.0
 11
1023.0647120692
 21
1636.284859874107
 31
0.0
  0
INSERT
  5
7E2A
  8
3
  6
CONTINUOUS
 62
     0
  2
_OPEN
 10
333.06471206920031
 20
1636.284859874107
 30
0.0
 41
20.0
 42
20.0
 43
20.0
 50
180.0
  0
INSERT
  5
7E2B
  8
3
  6
CONTINUOUS
 62
     0
  2
_OPEN
 10
1043.0647120691999
 20
1636.284859874107
 30
0.0
 41
20.0
 42
20.0
 43
20.0
  0
TEXT
  8
3
  40
30
  5
7E5B
  62
0
  72
0
  71
0
 10
630.667
 20
1608.18
 30
0.000000
  1
710
  0
POINT
  5
7E2D
  8
DEFPOINTS
  6
CONTINUOUS
 62
     0
 10
333.06471206920031
 20
1799.8492318741071
 30
0.0
  0
POINT
  5
7E2E
  8
DEFPOINTS
  6
CONTINUOUS
 62
     0
 10
1043.0647120691999
 20
1799.8492318741071
 30
0.0
  0
POINT
  5
7E2F
  8
DEFPOINTS
  6
CONTINUOUS
 62
     0
 10
1043.0647120691999
 20
1636.284859874107
 30
0.0
  0
ENDBLK
  5
7C04
  8
0
  0
BLOCK
  8
0
  2
*D15
 70
     1
 10
0.0
 20
0.0
 30
0.0
  3
*D15
  1

  0
LINE
  5
7E30
  8
3
 62
     0
 10
328.06471206920031
 20
2049.8492318741069
 30
0.0
 11
278.29568958641931
 21
2049.8492318741069
 31
0.0
  0
LINE
  5
7E31
  8
3
 62
     0
 10
328.06471206920031
 20
1799.8492318741071
 30
0.0
 11
278.29568958641931
 21
1799.8492318741071
 31
0.0
  0
LINE
  5
7E32
  8
3
 62
     0
 10
288.29568958641931
 20
2029.8492318741071
 30
0.0
 11
288.29568958641931
 21
1819.8492318741071
 31
0.0
  0
INSERT
  5
7E33
  8
3
 62
     0
  2
_OPEN
 10
288.29568958641931
 20
2049.8492318741069
 30
0.0
 41
20.0
 42
20.0
 43
20.0
 50
90.0
  0
INSERT
  5
7E34
  8
3
 62
     0
  2
_OPEN
 10
288.29568958641931
 20
1799.8492318741071
 30
0.0
 41
20.0
 42
20.0
 43
20.0
 50
270.0
  0
TEXT
  8
3
  40
30
  5
7E5C
  62
0
  72
0
  71
0
 10
203.296
 20
1868.78
 30
0.000000
  1
250
  0
POINT
  5
7E36
  8
DEFPOINTS
 62
     0
 10
333.06471206920031
 20
2049.8492318741069
 30
0.0
  0
POINT
  5
7E37
  8
DEFPOINTS
 62
     0
 10
333.06471206920031
 20
1799.8492318741071
 30
0.0
  0
POINT
  5
7E38
  8
DEFPOINTS
 62
     0
 10
288.29568958641931
 20
1799.8492318741071
 30
0.0
  0
ENDBLK
  5
7C8A
  8
0
  0
BLOCK
  8
0
  2
*D16
 70
     1
 10
0.0
 20
0.0
 30
0.0
  3
*D16
  1

  0
LINE
  5
7E39
  8
3
 62
     0
 10
1609.287314965474
 20
747.76705783665295
 30
0.0
 11
1609.287314965474
 21
671.71469283665294
 31
0.0
  0
LINE
  5
7E3A
  8
3
 62
     0
 10
1617.2873149654729
 20
715.04772783665305
 30
0.0
 11
1617.2873149654729
 21
671.71469283665294
 31
0.0
  0
LINE
  5
7E3B
  8
3
 62
     0
 10
1589.2873149654729
 20
681.71469283665294
 30
0.0
 11
1569.287314965474
 21
681.71469283665294
 31
0.0
  0
LINE
  5
7E3C
  8
3
 62
     0
 10
1637.2873149654729
 20
681.71469283665294
 30
0.0
 11
1697.2873149654729
 21
681.71469283665294
 31
0.0
  0
LINE
  5
7E3D
  8
3
 62
     0
 10
1609.287314965474
 20
681.71469283665294
 30
0.0
 11
1617.2873149654729
 21
681.71469283665294
 31
0.0
  0
INSERT
  5
7E3E
  8
3
 62
     0
  2
_OPEN
 10
1609.287314965474
 20
681.71469283665294
 30
0.0
 41
20.0
 42
20.0
 43
20.0
  0
INSERT
  5
7E3F
  8
3
 62
     0
  2
_OPEN
 10
1617.2873149654729
 20
681.71469283665294
 30
0.0
 41
20.0
 42
20.0
 43
20.0
 50
180.0
  0
TEXT
  8
3
  40
30
  5
7E5D
  62
0
  72
0
  71
0
 10
1617.29
 20
653.615
 30
0.000000
  1
8
  0
POINT
  5
7E41
  8
DEFPOINTS
 62
     0
 10
1609.287314965474
 20
752.76705783665307
 30
0.0
  0
POINT
  5
7E42
  8
DEFPOINTS
 62
     0
 10
1617.2873149654729
 20
720.04772783665305
 30
0.0
  0
POINT
  5
7E43
  8
DEFPOINTS
 62
     0
 10
1617.2873149654729
 20
681.71469283665294
 30
0.0
  0
ENDBLK
  5
7CA7
  8
0
  0
BLOCK
  8
0
  2
*D17
 70
     1
 10
0.0
 20
0.0
 30
0.0
  3
*D17
  1

  0
LINE
  5
7E44
  8
3
 62
     0
 10
1039.0540960692001
 20
1077.7670578366531
 30
0.0
 11
1039.0540960692001
 21
1447.2054703014901
 31
0.0
  0
LINE
  5
7E45
  8
3
 62
     0
 10
333.06471206920031
 20
837.76705783665295
 30
0.0
 11
333.06471206920043
 21
1447.2054703014901
 31
0.0
  0
LINE
  5
7E46
  8
3
 62
     0
 10
1019.0540960692
 20
1437.2054703014901
 30
0.0
 11
353.06471206920043
 21
1437.2054703014901
 31
0.0
  0
INSERT
  5
7E47
  8
3
 62
     0
  2
_OPEN
 10
1039.0540960692001
 20
1437.2054703014901
 30
0.0
 41
20.0
 42
20.0
 43
20.0
  0
INSERT
  5
7E48
  8
3
 62
     0
  2
_OPEN
 10
333.06471206920043
 20
1437.2054703014901
 30
0.0
 41
20.0
 42
20.0
 43
20.0
 50
180.0
  0
TEXT
  8
3
  40
30
  5
7E5E
  62
0
  72
0
  71
0
 10
600.530
 20
1409.11
 30
0.000000
  1
706
  0
POINT
  5
7E4A
  8
DEFPOINTS
 62
     0
 10
1039.0540960692001
 20
1072.7670578366531
 30
0.0
  0
POINT
  5
7E4B
  8
DEFPOINTS
 62
     0
 10
333.06471206920031
 20
832.76705783665307
 30
0.0
  0
POINT
  5
7E4C
  8
DEFPOINTS
 62
     0
 10
333.06471206920043
 20
1437.2054703014901
 30
0.0
  0
ENDBLK
  5
7CB3
  8
0
  0
ENDSEC
  0
SECTION
  2
ENTITIES
  0
LINE
  5
7A81
  8
1
  6
CONTINUOUS
 10
1277.2873149654729
 20
812.76705783665295
 30
0.0
 11
1609.287314965474
 21
812.76705783665295
 31
0.0
  0
LINE
  5
7A82
  8
1
  6
CONTINUOUS
 10
1332.2873149654729
 20
1079.7670578366531
 30
0.0
 11
1451.3873149654739
 21
1079.7670578366531
 31
0.0
  0
LINE
  5
7A83
  8
1
  6
CONTINUOUS
 10
1332.2873149654729
 20
1055.7670578366531
 30
0.0
 11
1421.6873149654739
 21
1055.7670578366531
 31
0.0
  0
LINE
  5
7A84
  8
1
  6
CONTINUOUS
 10
1332.2873149654729
 20
888.26705783665295
 30
0.0
 11
1389.2873149654729
 21
888.26705783665295
 31
0.0
  0
LINE
  5
7A85
  8
1
  6
CONTINUOUS
 10
1332.2873149654729
 20
912.26705783665295
 30
0.0
 11
1389.2873149654729
 21
912.26705783665295
 31
0.0
  0
LINE
  5
7A86
  8
1
  6
CONTINUOUS
 10
333.06471206920031
 20
812.76705783665295
 30
0.0
 11
1043.0647120691999
 21
812.76705783665295
 31
0.0
  0
ARC
  5
7A87
  8
1
  6
CONTINUOUS
 10
490.46471206920029
 20
900.26705783665307
 30
0.0
 40
75.799999999999997
 50
322.89999999999992
 51
217.09999999999991
  0
LINE
  5
7A88
  8
1
  6
CONTINUOUS
 10
587.76471206920041
 20
832.76705783665307
 30
0.0
 11
333.06471206920031
 21
832.76705783665307
 31
0.0
  0
LINE
  5
7A89
  8
1
  6
CONTINUOUS
 10
853.26471206920041
 20
1192.7670578366531
 30
0.0
 11
398.06471206920031
 21
992.76705783665295
 31
0.0
  0
CIRCLE
  5
7A8A
  8
1
  6
CONTINUOUS
 10
490.46471206920029
 20
900.26705783665307
 30
0.0
 40
53.0
  0
LINE
  5
7A8B
  8
1
  6
CONTINUOUS
 10
511.36471206920032
 20
851.56705783665291
 30
0.0
 11
878.16471206920028
 21
1009.467057836653
 31
0.0
  0
LINE
  5
7A8C
  8
1
  6
CONTINUOUS
 10
466.96471206920029
 20
947.76705783665307
 30
0.0
 11
824.96471206920035
 21
1124.6670578366529
 31
0.0
  0
LINE
  5
7A8D
  8
2
  6
CENTER
 10
437.46471206920029
 20
900.26705783665307
 30
0.0
 11
543.46471206920035
 21
900.26705783665307
 31
0.0
  0
LINE
  5
7A8E
  8
1
  6
CONTINUOUS
 10
333.06471206920031
 20
752.76705783665307
 30
0.0
 11
1043.0647120691999
 21
752.76705783665307
 31
0.0
  0
LINE
  5
7A8F
  8
1
  6
CONTINUOUS
 10
333.06471206920031
 20
832.76705783665307
 30
0.0
 11
333.06471206920031
 21
812.76705783665295
 31
0.0
  0
LINE
  5
7A90
  8
1
  6
CONTINUOUS
 10
398.06471206920031
 20
812.76705783665295
 30
0.0
 11
398.06471206920031
 21
992.76705783665295
 31
0.0
  0
LINE
  5
7A91
  8
1
  6
CONTINUOUS
 10
333.06471206920031
 20
812.76705783665295
 30
0.0
 11
333.06471206920031
 21
752.76705783665307
 31
0.0
  0
LINE
  5
7A92
  8
1
  6
CONTINUOUS
 10
424.46471206920029
 20
832.76705783665307
 30
0.0
 11
424.46471206920029
 21
840.26705783665295
 31
0.0
  0
LINE
  5
7A93
  8
1
  6
CONTINUOUS
 10
424.46471206920029
 20
840.26705783665295
 30
0.0
 11
429.96471206920029
 21
854.56705783665302
 31
0.0
  0
LINE
  5
7A94
  8
2
  6
CENTER
 10
490.46471206920029
 20
847.26705783665295
 30
0.0
 11
490.46471206920029
 21
953.26705783665307
 31
0.0
  0
CIRCLE
  5
7A95
  8
1
  6
CONTINUOUS
 10
853.06471206920037
 20
1067.7670578366531
 30
0.0
 40
145.0
  0
CIRCLE
  5
7A96
  8
1
  6
CONTINUOUS
 10
853.06471206920037
 20
1067.7670578366531
 30
0.0
 40
125.0
  0
LINE
  5
7A97
  8
1
  6
CONTINUOUS
 10
978.06471206920048
 20
1122.7670578366531
 30
0.0
 11
853.26471206920041
 21
1192.7670578366531
 31
0.0
  0
LINE
  5
7A98
  8
1
  6
CONTINUOUS
 10
693.06471206920025
 20
752.76705783665307
 30
0.0
 11
1013.0647120692
 21
752.76705783665307
 31
0.0
  0
LINE
  5
7A99
  8
1
  6
CONTINUOUS
 10
914.6647120692005
 20
1217.7670578366531
 30
0.0
 11
1013.0647120692
 21
1133.867057836653
 31
0.0
  0
LINE
  5
7A9A
  8
1
  6
CONTINUOUS
 10
1013.0647120692
 20
1034.4670578366531
 30
0.0
 11
693.06471206920025
 21
1034.4670578366531
 31
0.0
  0
ARC
  5
7A9B
  8
1
  6
CONTINUOUS
 10
836.06471206920037
 20
1050.7670578366531
 30
0.0
 40
203.6999999999999
 50
274.60000000000002
 51
5.5
  0
ARC
  5
7A9C
  8
1
  6
CONTINUOUS
 10
867.06471206920037
 20
1053.7670578366531
 30
0.0
 40
172.59999999999991
 50
5.5
 51
91.299999999999997
  0
CIRCLE
  5
7A9D
  8
1
  6
CONTINUOUS
 10
853.06471206920037
 20
1067.7670578366531
 30
0.0
 40
63.5
  0
LINE
  5
7A9E
  8
1
  6
CONTINUOUS
 10
693.06471206920025
 20
1133.867057836653
 30
0.0
 11
693.06471206920025
 21
812.76705783665295
 31
0.0
  0
LINE
  5
7A9F
  8
2
  6
CENTER
 10
853.06471206920037
 20
2187.952528874107
 30
0.0
 11
853.06471206920037
 21
1688.7050868741071
 31
0.0
  0
ARC
  5
7AA0
  8
1
  6
CONTINUOUS
 10
833.06471206920025
 20
1087.7670578366531
 30
0.0
 40
240.90000000000001
 50
184.90000000000001
 51
274.60000000000002
  0
LINE
  5
7AA1
  8
1
  6
CONTINUOUS
 10
556.46471206920035
 20
840.26705783665295
 30
0.0
 11
550.86471206920021
 21
854.56705783665302
 31
0.0
  0
LINE
  5
7AA2
  8
1
  6
CONTINUOUS
 10
556.46471206920035
 20
832.76705783665307
 30
0.0
 11
556.46471206920035
 21
840.26705783665295
 31
0.0
  0
LINE
  5
7AA3
  8
1
  6
CONTINUOUS
 10
587.76471206920041
 20
812.76705783665295
 30
0.0
 11
587.76471206920041
 21
832.76705783665307
 31
0.0
  0
LINE
  5
7AA4
  8
1
  6
CONTINUOUS
 10
791.46471206920035
 20
1217.7670578366531
 30
0.0
 11
693.06471206920025
 21
1133.867057836653
 31
0.0
  0
LINE
  5
7AA5
  8
1
  6
CONTINUOUS
 10
874.06471206920025
 20
1267.7670578366531
 30
0.0
 11
582.06471206920037
 21
1267.7670578366531
 31
0.0
  0
LINE
  5
7AA6
  8
1
  6
CONTINUOUS
 10
623.06471206920037
 20
1247.7670578366531
 30
0.0
 11
833.06471206920025
 21
1247.7670578366531
 31
0.0
  0
LINE
  5
7AA7
  8
1
  6
CONTINUOUS
 10
593.06471206920025
 20
1247.7670578366531
 30
0.0
 11
603.06471206920037
 21
1247.7670578366531
 31
0.0
  0
LINE
  5
7AA8
  8
1
  6
CONTINUOUS
 10
603.06471206920037
 20
1267.7670578366531
 30
0.0
 11
603.06471206920037
 21
1247.7670578366531
 31
0.0
  0
LINE
  5
7AA9
  8
1
  6
CONTINUOUS
 10
593.06471206920025
 20
1247.7670578366531
 30
0.0
 11
593.06471206920025
 21
1067.367057836653
 31
0.0
  0
LINE
  5
7AAA
  8
1
  6
CONTINUOUS
 10
603.06471206920037
 20
1267.7670578366531
 30
0.0
 11
623.06471206920037
 21
1247.7670578366531
 31
0.0
  0
LINE
  5
7AAB
  8
1
  6
CONTINUOUS
 10
914.6647120692005
 20
1217.7670578366531
 30
0.0
 11
791.46471206920035
 21
1217.7670578366531
 31
0.0
  0
LINE
  5
7AAC
  8
2
  6
CENTER
 10
360.47049006920042
 20
1067.7670578366531
 30
0.0
 11
1074.8383100691999
 21
1067.7670578366531
 31
0.0
  0
LINE
  5
7AAD
  8
1
  6
CONTINUOUS
 10
853.06471206920037
 20
1267.7670578366531
 30
0.0
 11
833.06471206920025
 21
1247.7670578366531
 31
0.0
  0
LINE
  5
7AAE
  8
1
  6
CONTINUOUS
 10
853.06471206920037
 20
1247.7670578366531
 30
0.0
 11
863.06471206920025
 21
1247.7670578366531
 31
0.0
  0
LINE
  5
7AAF
  8
1
  6
CONTINUOUS
 10
853.06471206920037
 20
1267.7670578366531
 30
0.0
 11
853.06471206920037
 21
1247.7670578366531
 31
0.0
  0
LINE
  5
7AB0
  8
1
  6
CONTINUOUS
 10
863.06471206920025
 20
1247.7670578366531
 30
0.0
 11
863.06471206920025
 21
1226.367057836653
 31
0.0
  0
LINE
  5
7AB1
  8
1
  6
CONTINUOUS
 10
978.06471206920048
 20
812.76705783665295
 30
0.0
 11
978.06471206920048
 21
1122.7670578366531
 31
0.0
  0
LINE
  5
7AB2
  8
1
  6
CONTINUOUS
 10
1277.2873149654729
 20
812.76705783665295
 30
0.0
 11
1277.2873149654729
 21
1192.7670578366531
 31
0.0
  0
LINE
  5
7AB3
  8
1
  6
CONTINUOUS
 10
1352.2873149654729
 20
812.76705783665295
 30
0.0
 11
1352.2873149654729
 21
1192.7670578366531
 31
0.0
  0
LINE
  5
7AB4
  8
1
  6
CONTINUOUS
 10
1297.287314965474
 20
1131.2670578366531
 30
0.0
 11
1297.287314965474
 21
1004.267057836653
 31
0.0
  0
LINE
  5
7AB5
  8
1
  6
CONTINUOUS
 10
1332.2873149654729
 20
1131.2670578366531
 30
0.0
 11
1332.2873149654729
 21
1004.267057836653
 31
0.0
  0
LINE
  5
7AB6
  8
1
  6
CONTINUOUS
 10
1013.0647120692
 20
812.76705783665295
 30
0.0
 11
1013.0647120692
 21
1133.867057836653
 31
0.0
  0
LINE
  5
7AB7
  8
1
  6
CONTINUOUS
 10
1043.0647120691999
 20
812.76705783665295
 30
0.0
 11
1043.0647120691999
 21
752.76705783665307
 31
0.0
  0
LINE
  5
7AB8
  8
1
  6
CONTINUOUS
 10
1297.287314965474
 20
1004.267057836653
 30
0.0
 11
1332.2873149654729
 21
1004.267057836653
 31
0.0
  0
LINE
  5
7AB9
  8
1
  6
CONTINUOUS
 10
1297.287314965474
 20
953.26705783665307
 30
0.0
 11
1332.2873149654729
 21
953.26705783665307
 31
0.0
  0
LINE
  5
7ABA
  8
1
  6
CONTINUOUS
 10
1297.287314965474
 20
953.26705783665307
 30
0.0
 11
1297.287314965474
 21
847.26705783665295
 31
0.0
  0
LINE
  5
7ABB
  8
1
  6
CONTINUOUS
 10
1297.287314965474
 20
847.26705783665295
 30
0.0
 11
1332.2873149654729
 21
847.26705783665295
 31
0.0
  0
LINE
  5
7ABC
  8
1
  6
CONTINUOUS
 10
1332.2873149654729
 20
953.26705783665307
 30
0.0
 11
1332.2873149654729
 21
847.26705783665295
 31
0.0
  0
LINE
  5
7ABD
  8
1
  6
CONTINUOUS
 10
1277.2873149654729
 20
1192.7670578366531
 30
0.0
 11
1352.2873149654729
 21
1192.7670578366531
 31
0.0
  0
LINE
  5
7ABE
  8
1
  6
CONTINUOUS
 10
1297.287314965474
 20
1131.2670578366531
 30
0.0
 11
1332.2873149654729
 21
1131.2670578366531
 31
0.0
  0
LINE
  5
7ABF
  8
1
  6
CONTINUOUS
 10
1518.287314965474
 20
1214.7670578366531
 30
0.0
 11
1518.287314965474
 21
812.76705783665295
 31
0.0
  0
LINE
  5
7AC0
  8
1
  6
CONTINUOUS
 10
1389.2873149654729
 20
812.76705783665295
 30
0.0
 11
1389.2873149654729
 21
1029.567057836653
 31
0.0
  0
LINE
  5
7AC1
  8
1
  6
CONTINUOUS
 10
1527.4873149654729
 20
1267.7670578366531
 30
0.0
 11
1527.4873149654729
 21
868.86705783665286
 31
0.0
  0
LINE
  5
7AC2
  8
1
  6
CONTINUOUS
 10
1707.0873149654731
 20
868.86705783665286
 30
0.0
 11
1707.0873149654731
 21
1067.7670578366531
 31
0.0
  0
LINE
  5
7AC3
  8
1
  6
CONTINUOUS
 10
1716.287314965474
 20
1214.7670578366531
 30
0.0
 11
1716.287314965474
 21
920.76705783665295
 31
0.0
  0
LINE
  5
7AC4
  8
1
  6
CONTINUOUS
 10
1359.2873149654729
 20
752.76705783665307
 30
0.0
 11
1609.287314965474
 21
752.76705783665307
 31
0.0
  0
LINE
  5
7AC5
  8
1
  6
CONTINUOUS
 10
1539.4873149654729
 20
856.86705783665298
 30
0.0
 11
1695.0873149654731
 21
856.86705783665298
 31
0.0
  0
LINE
  5
7AC6
  8
1
  6
CONTINUOUS
 10
1359.2873149654729
 20
812.76705783665295
 30
0.0
 11
1359.2873149654729
 21
752.76705783665307
 31
0.0
  0
ARC
  5
7AC7
  8
1
  6
CONTINUOUS
 10
1539.4873149654729
 20
868.86705783665286
 30
0.0
 40
12.0
 50
180.0
 51
270.0
  0
LINE
  5
7AC8
  8
1
  6
CONTINUOUS
 10
1527.4873149654729
 20
920.76705783665295
 30
0.0
 11
1518.287314965474
 21
920.76705783665295
 31
0.0
  0
LINE
  5
7AC9
  8
1
  6
CONTINUOUS
 10
1609.287314965474
 20
812.76705783665295
 30
0.0
 11
1609.287314965474
 21
752.76705783665307
 31
0.0
  0
ARC
  5
7ACA
  8
1
  6
CONTINUOUS
 10
1695.0873149654731
 20
868.86705783665286
 30
0.0
 40
12.0
 50
270.0
 51
0.0
  0
LINE
  5
7ACB
  8
1
  6
CONTINUOUS
 10
1707.0873149654731
 20
920.76705783665295
 30
0.0
 11
1716.287314965474
 21
920.76705783665295
 31
0.0
  0
LINE
  5
7ACC
  8
1
  6
CONTINUOUS
 10
1556.4873149654729
 20
1247.7670578366531
 30
0.0
 11
1678.0873149654731
 21
1247.7670578366531
 31
0.0
  0
LINE
  5
7ACD
  8
1
  6
CONTINUOUS
 10
1506.2873149654729
 20
1267.7670578366531
 30
0.0
 11
1728.2873149654729
 21
1267.7670578366531
 31
0.0
  0
LINE
  5
7ACE
  8
1
  6
CONTINUOUS
 10
1389.2873149654729
 20
1029.567057836653
 30
0.0
 11
1518.287314965474
 21
1133.867057836653
 31
0.0
  0
LINE
  5
7ACF
  8
1
  6
CONTINUOUS
 10
1536.4873149654741
 20
1267.7670578366531
 30
0.0
 11
1556.4873149654729
 21
1247.7670578366531
 31
0.0
  0
LINE
  5
7AD0
  8
1
  6
CONTINUOUS
 10
1527.4873149654729
 20
1214.7670578366531
 30
0.0
 11
1518.287314965474
 21
1214.7670578366531
 31
0.0
  0
LINE
  5
7AD1
  8
1
  6
CONTINUOUS
 10
1518.287314965474
 20
1214.7670578366531
 30
0.0
 11
1518.287314965474
 21
1067.7670578366531
 31
0.0
  0
LINE
  5
7AD2
  8
1
  6
CONTINUOUS
 10
1698.0873149654731
 20
1267.7670578366531
 30
0.0
 11
1678.0873149654731
 21
1247.7670578366531
 31
0.0
  0
LINE
  5
7AD3
  8
1
  6
CONTINUOUS
 10
1707.0873149654731
 20
1267.7670578366531
 30
0.0
 11
1707.0873149654731
 21
1067.7670578366531
 31
0.0
  0
LINE
  5
7AD4
  8
1
  6
CONTINUOUS
 10
1707.0873149654731
 20
1214.7670578366531
 30
0.0
 11
1716.287314965474
 21
1214.7670578366531
 31
0.0
  0
LINE
  5
7AD5
  8
1
  6
CONTINUOUS
 10
567.06471206920025
 20
1824.149231874107
 30
0.0
 11
415.56471206920043
 21
1824.149231874107
 31
0.0
  0
LINE
  5
7AD6
  8
1
  6
CONTINUOUS
 10
567.06471206920025
 20
2028.149231874107
 30
0.0
 11
415.56471206920043
 21
2028.149231874107
 31
0.0
  0
LINE
  5
7AD7
  8
1
  6
CONTINUOUS
 10
602.06471206920037
 20
2049.8492318741069
 30
0.0
 11
333.06471206920031
 21
2049.8492318741069
 31
0.0
  0
LINE
  5
7AD8
  8
1
  6
CONTINUOUS
 10
543.36471206920032
 20
1772.8492318741071
 30
0.0
 11
437.36471206920032
 21
1772.8492318741071
 31
0.0
  0
LINE
  5
7AD9
  8
1
  6
CONTINUOUS
 10
543.36471206920032
 20
1737.8492318741071
 30
0.0
 11
437.36471206920032
 21
1737.8492318741071
 31
0.0
  0
LINE
  5
7ADA
  8
1
  6
CONTINUOUS
 10
841.06471206920025
 20
1799.8492318741071
 30
0.0
 11
502.36471206920032
 21
1799.8492318741071
 31
0.0
  0
LINE
  5
7ADB
  8
1
  6
CONTINUOUS
 10
978.06471206920048
 20
1717.8492318741071
 30
0.0
 11
398.06471206920031
 21
1717.8492318741071
 31
0.0
  0
LINE
  5
7ADC
  8
1
  6
CONTINUOUS
 10
978.06471206920048
 20
1792.8492318741071
 30
0.0
 11
398.06471206920031
 21
1792.8492318741071
 31
0.0
  0
LINE
  5
7ADD
  8
1
  6
CONTINUOUS
 10
478.36471206920032
 20
1772.8492318741071
 30
0.0
 11
478.36471206920032
 21
1824.149231874107
 31
0.0
  0
LINE
  5
7ADE
  8
1
  6
CONTINUOUS
 10
502.36471206920032
 20
1772.8492318741071
 30
0.0
 11
502.36471206920032
 21
1824.149231874107
 31
0.0
  0
LINE
  5
7ADF
  8
1
  6
CONTINUOUS
 10
398.06471206920031
 20
1717.8492318741071
 30
0.0
 11
398.06471206920031
 21
1792.8492318741071
 31
0.0
  0
LINE
  5
7AE0
  8
1
  6
CONTINUOUS
 10
437.36471206920032
 20
1737.8492318741071
 30
0.0
 11
437.36471206920032
 21
1772.8492318741071
 31
0.0
  0
LINE
  5
7AE1
  8
1
  6
CONTINUOUS
 10
478.36471206920032
 20
1799.8492318741071
 30
0.0
 11
333.06471206920031
 21
1799.8492318741071
 31
0.0
  0
LINE
  5
7AE2
  8
1
  6
CONTINUOUS
 10
333.06471206920031
 20
2049.8492318741069
 30
0.0
 11
333.06471206920031
 21
1799.8492318741071
 31
0.0
  0
LINE
  5
7AE3
  8
1
  6
CONTINUOUS
 10
415.56471206920043
 20
1824.149231874107
 30
0.0
 11
415.56471206920043
 21
2028.149231874107
 31
0.0
  0
LINE
  5
7AE4
  8
1
  6
CONTINUOUS
 10
1013.0647120692
 20
1829.8492318741071
 30
0.0
 11
865.06471206920025
 21
1829.8492318741071
 31
0.0
  0
LINE
  5
7AE5
  8
1
  6
CONTINUOUS
 10
1043.0647120691999
 20
1799.8492318741071
 30
0.0
 11
865.06471206920025
 21
1799.8492318741071
 31
0.0
  0
LINE
  5
7AE6
  8
1
  6
CONTINUOUS
 10
693.06471206920025
 20
1958.8492318741071
 30
0.0
 11
1013.0647120692
 21
1958.8492318741071
 31
0.0
  0
LINE
  5
7AE7
  8
1
  6
CONTINUOUS
 10
706.06471206920025
 20
2156.8492318741069
 30
0.0
 11
1000.0647120692
 21
2156.8492318741069
 31
0.0
  0
LINE
  5
7AE8
  8
1
  6
CONTINUOUS
 10
602.06471206920037
 20
2147.8492318741069
 30
0.0
 11
1051.9647120692
 21
2147.8492318741069
 31
0.0
  0
LINE
  5
7AE9
  8
1
  6
CONTINUOUS
 10
1051.9647120692
 20
1967.8492318741071
 30
0.0
 11
602.06471206920037
 21
1967.8492318741071
 31
0.0
  0
LINE
  5
7AEA
  8
1
  6
CONTINUOUS
 10
602.06471206920037
 20
1967.8492318741071
 30
0.0
 11
602.06471206920037
 21
2147.8492318741069
 31
0.0
  0
LINE
  5
7AEB
  8
1
  6
CONTINUOUS
 10
854.06471206920025
 20
2147.8492318741069
 30
0.0
 11
854.06471206920025
 21
1967.8492318741071
 31
0.0
  0
LINE
  5
7AEC
  8
1
  6
CONTINUOUS
 10
854.06471206920025
 20
2147.8492318741069
 30
0.0
 11
602.06471206920037
 21
1967.8492318741071
 31
0.0
  0
LINE
  5
7AED
  8
1
  6
CONTINUOUS
 10
602.06471206920037
 20
2147.8492318741069
 30
0.0
 11
854.06471206920025
 21
1967.8492318741071
 31
0.0
  0
LINE
  5
7AEE
  8
1
  6
CONTINUOUS
 10
841.06471206920025
 20
1829.8492318741071
 30
0.0
 11
693.06471206920025
 21
1829.8492318741071
 31
0.0
  0
LINE
  5
7AEF
  8
1
  6
CONTINUOUS
 10
543.36471206920032
 20
1737.8492318741071
 30
0.0
 11
543.36471206920032
 21
1772.8492318741071
 31
0.0
  0
LINE
  5
7AF0
  8
1
  6
CONTINUOUS
 10
567.06471206920025
 20
1824.149231874107
 30
0.0
 11
567.06471206920025
 21
2028.149231874107
 31
0.0
  0
LINE
  5
7AF1
  8
1
  6
CONTINUOUS
 10
693.06471206920025
 20
1958.8492318741071
 30
0.0
 11
693.06471206920025
 21
1829.8492318741071
 31
0.0
  0
LINE
  5
7AF2
  8
1
  6
CONTINUOUS
 10
706.06471206920025
 20
1967.8492318741071
 30
0.0
 11
706.06471206920025
 21
1958.8492318741071
 31
0.0
  0
LINE
  5
7AF3
  8
1
  6
CONTINUOUS
 10
841.06471206920025
 20
1772.8492318741071
 30
0.0
 11
841.06471206920025
 21
1958.8492318741071
 31
0.0
  0
LINE
  5
7AF4
  8
1
  6
CONTINUOUS
 10
865.06471206920025
 20
1772.8492318741071
 30
0.0
 11
865.06471206920025
 21
1958.8492318741071
 31
0.0
  0
LINE
  5
7AF5
  8
1
  6
CONTINUOUS
 10
916.56471206920048
 20
1772.8492318741071
 30
0.0
 11
789.56471206920037
 21
1772.8492318741071
 31
0.0
  0
LINE
  5
7AF6
  8
1
  6
CONTINUOUS
 10
916.56471206920048
 20
1737.8492318741071
 30
0.0
 11
789.56471206920037
 21
1737.8492318741071
 31
0.0
  0
LINE
  5
7AF7
  8
1
  6
CONTINUOUS
 10
789.56471206920037
 20
1737.8492318741071
 30
0.0
 11
789.56471206920037
 21
1772.8492318741071
 31
0.0
  0
LINE
  5
7AF8
  8
1
  6
CONTINUOUS
 10
916.56471206920048
 20
1737.8492318741071
 30
0.0
 11
916.56471206920048
 21
1772.8492318741071
 31
0.0
  0
LINE
  5
7AF9
  8
1
  6
CONTINUOUS
 10
706.06471206920025
 20
2147.8492318741069
 30
0.0
 11
706.06471206920025
 21
2156.8492318741069
 31
0.0
  0
LINE
  5
7AFA
  8
1
  6
CONTINUOUS
 10
1063.9647120692
 20
2135.8492318741069
 30
0.0
 11
1063.9647120692
 21
1979.8492318741071
 31
0.0
  0
LINE
  5
7AFB
  8
1
  6
CONTINUOUS
 10
978.06471206920048
 20
1717.8492318741071
 30
0.0
 11
978.06471206920048
 21
1792.8492318741071
 31
0.0
  0
ARC
  5
7AFC
  8
1
  6
CONTINUOUS
 10
1051.9647120692
 20
1979.8492318741071
 30
0.0
 40
12.0
 50
270.0
 51
0.0
  0
LINE
  5
7AFD
  8
1
  6
CONTINUOUS
 10
1013.0647120692
 20
1829.8492318741071
 30
0.0
 11
1013.0647120692
 21
1958.8492318741071
 31
0.0
  0
LINE
  5
7AFE
  8
1
  6
CONTINUOUS
 10
1000.0647120692
 20
1967.8492318741071
 30
0.0
 11
1000.0647120692
 21
1958.8492318741071
 31
0.0
  0
LINE
  5
7AFF
  8
1
  6
CONTINUOUS
 10
1043.0647120691999
 20
1967.8492318741071
 30
0.0
 11
1043.0647120691999
 21
1799.8492318741071
 31
0.0
  0
ARC
  5
7B00
  8
1
  6
CONTINUOUS
 10
1051.9647120692
 20
2135.8492318741069
 30
0.0
 40
12.0
 50
0.0
 51
90.0
  0
LINE
  5
7B01
  8
1
  6
CONTINUOUS
 10
1000.0647120692
 20
2147.8492318741069
 30
0.0
 11
1000.0647120692
 21
2156.8492318741069
 31
0.0
  0
LINE
  5
7B02
  8
4
  6
CONTINUOUS
 10
1850.0
 20
500.0
 30
0.0
 11
1850.0
 21
300.0
 31
0.0
  0
LINE
  5
7B03
  8
4
  6
CONTINUOUS
 10
1150.0
 20
500.0
 30
0.0
 11
1150.0
 21
300.0
 31
0.0
  0
LINE
  5
7B04
  8
4
  6
CONTINUOUS
 10
650.0
 20
500.0
 30
0.0
 11
650.0
 21
300.0
 31
0.0
  0
LINE
  5
7B07
  8
4
  6
CONTINUOUS
 10
650.0
 20
300.0
 30
0.0
 11
1850.0
 21
300.0
 31
0.0
  0
LINE
  5
7B08
  8
4
  6
CONTINUOUS
 10
650.0
 20
400.0
 30
0.0
 11
1850.0
 21
400.0
 31
0.0
  0
TEXT
  5
7B09
  8
4
  6
CONTINUOUS
 10
688.50208099999998
 20
431.543026
 30
0.0
 40
50.0
  1
機器名称
  0
TEXT
  5
7B0A
  8
4
  6
CONTINUOUS
 10
686.258106
 20
321.64515699999993
 30
0.0
 40
50.0
  1
機器型番
  0
TEXT
  5
7B0B
  8
4
  6
CONTINUOUS
 10
1177.678744999999
 20
422.57176900000002
 30
0.0
 40
45.0
  1
ミツヤニューマルチファン
  0
TEXT
  5
7B0C
  8
4
  6
CONTINUOUS
 10
1186.6544960000001
 20
317.159584
 30
0.0
 40
50.0
  1
NM#1 1/2-1
  0
TEXT
  5
7B0E
  8
4
  6
CONTINUOUS
 10
904.78576499999997
 20
2383.4288409999999
 30
0.0
 40
54.0
  1
床置ベット
  0
TEXT
  5
7B0F
  8
4
  6
CONTINUOUS
 10
316.16759300000001
 20
2533.8809759999999
 30
0.0
 40
72.0
  1
ベルト駆動式片吸込片持多翼ファン
  0
LINE
  5
7B10
  8
4
  6
CONTINUOUS
 10
250.0
 20
2469.408754
 30
0.0
 11
1850.0
 21
2469.408754
 31
0.0
  0
LINE
  5
7B11
  8
4
  6
CONTINUOUS
 10
250.0
 20
2669.408754
 30
0.0
 11
1850.0
 21
2669.408754
 31
0.0
  0
LINE
  5
7B12
  8
4
  6
CONTINUOUS
 10
650.0
 20
500.0
 30
0.0
 11
1850.0
 21
500.0
 31
0.0
  0
LINE
  5
7B13
  8
4
  6
CONTINUOUS
 10
250.0
 20
2669.408754
 30
0.0
 11
250.0
 21
2469.408754
 31
0.0
  0
TEXT
  5
7B14
  8
4
  6
CONTINUOUS
 10
468.92693300000002
 20
2382.3194779999999
 30
0.0
 40
54.0
  1
右回転上向
  0
TEXT
  5
7B15
  8
4
  6
CONTINUOUS
 10
1468.9695589999999
 20
2706.0610809999998
 30
0.0
 40
56.0
  1
No.
  0
TEXT
  5
7B16
  8
4
  6
CONTINUOUS
 10
1311.296063
 20
2383.4288409999999
 30
0.0
 40
54.0
  1
縮尺：1/10
  0
LINE
  5
7B17
  8
4
  6
CONTINUOUS
 10
1850.0
 20
2669.408754
 30
0.0
 11
1850.0
 21
2469.408754
 31
0.0
  0
LINE
  5
7B19
  8
4
  6
CONTINUOUS
 10
1440.617422
 20
2681.2635829999999
 30
0.0
 11
1440.617422
 21
2786.6522620000001
 31
0.0
  0
LINE
  5
7B1A
  8
4
  6
CONTINUOUS
 10
1440.617422
 20
2786.6522620000001
 30
0.0
 11
1850.0
 21
2786.6522620000001
 31
0.0
  0
LINE
  5
7B1B
  8
4
  6
CONTINUOUS
 10
1850.0
 20
2786.6522620000001
 30
0.0
 11
1850.0
 21
2681.2635829999999
 31
0.0
  0
LINE
  5
7B1C
  8
4
  6
CONTINUOUS
 10
1850.0
 20
2681.2635829999999
 30
0.0
 11
1440.617422
 21
2681.2635829999999
 31
0.0
  0
DIMENSION
  5
7B34
  8
3
  6
CONTINUOUS
  2
*D1
 10
853.06471206920037
 20
662.30010783665296
 30
0.0
 11
591.40598106920038
 21
662.30010783665296
 31
0.0
 70
   128
 13
333.06471206920031
 23
752.76705783665307
 33
0.0
 14
853.06471206920037
 24
752.76705783665307
 34
0.0
1001
ACAD
1000
DSTYLE
1002
{
1070
   287
1070
     3
1070
   287
1070
     3
1070
    40
1040
10.0
1070
   143
1040
0.039
1070
   172
1070
     1
1070
   271
1070
     0
1070
   279
1070
     0
1070
   288
1070
     1
1002
}
  0
DIMENSION
  5
7B40
  8
3
  6
CONTINUOUS
  2
*D2
 10
1043.0647120691999
 20
662.30010783665296
 30
0.0
 11
948.06471206920048
 21
687.30010783665296
 31
0.0
 70
     0
 13
853.06471206920037
 23
752.76705783665307
 33
0.0
 14
1043.0647120691999
 24
752.76705783665307
 34
0.0
1001
ACAD
1000
DSTYLE
1002
{
1070
   287
1070
     4
1070
   287
1070
     4
1070
    40
1040
10.0
1070
    75
1070
     1
1070
   143
1040
0.039
1070
   172
1070
     1
1070
   271
1070
     0
1070
   279
1070
     1
1070
   288
1070
     1
1002
}
  0
DIMENSION
  5
7B4D
  8
3
  6
CONTINUOUS
  2
*D3
 10
853.06471206920037
 20
1318.3292838366531
 30
0.0
 11
726.5950040692004
 21
1318.3292838366531
 31
0.0
 70
   128
 13
603.06471206920037
 23
1267.7670578366531
 33
0.0
 14
853.06471206920037
 24
1267.7670578366531
 34
0.0
1001
ACAD
1000
DSTYLE
1002
{
1070
   287
1070
     3
1070
   287
1070
     3
1070
    40
1040
10.0
1070
   143
1040
0.039
1070
   172
1070
     1
1070
   271
1070
     0
1070
   279
1070
     0
1070
   288
1070
     1
1002
}
  0
DIMENSION
  5
7B5A
  8
3
  6
CONTINUOUS
  2
*D4
 10
853.06471206920037
 20
1376.4777018366531
 30
0.0
 11
726.34519406920037
 21
1376.4777018366531
 31
0.0
 70
   128
 13
593.06471206920025
 23
1247.7670578366531
 33
0.0
 14
853.06471206920037
 24
1267.7670578366531
 34
0.0
1001
ACAD
1000
DSTYLE
1002
{
1070
   287
1070
     3
1070
   287
1070
     3
1070
    40
1040
10.0
1070
   143
1040
0.039
1070
   172
1070
     1
1070
   271
1070
     0
1070
   279
1070
     0
1070
   288
1070
     1
1002
}
  0
DIMENSION
  5
7B66
  8
3
  6
CONTINUOUS
  2
*D5
 10
1039.0540960692001
 20
1376.4777018366531
 30
0.0
 11
946.05940406920035
 21
1401.4777018366531
 31
0.0
 70
     0
 13
853.06471206920037
 23
1267.7670578366531
 33
0.0
 14
1039.0540960692001
 24
1067.7670578366531
 34
0.0
1001
ACAD
1000
DSTYLE
1002
{
1070
   287
1070
     4
1070
   287
1070
     4
1070
    40
1040
10.0
1070
    75
1070
     1
1070
   143
1040
0.039
1070
   172
1070
     1
1070
   271
1070
     0
1070
   279
1070
     1
1070
   288
1070
     1
1002
}
  0
DIMENSION
  5
7B81
  8
3
  6
CONTINUOUS
  2
*D6
 10
1123.186494847243
 20
1067.7670578366531
 30
0.0
 11
1123.186494847243
 21
1166.3797608366531
 31
0.0
 70
   128
 13
874.06471206920025
 23
1267.7670578366531
 33
0.0
 14
1039.0540960692001
 24
1067.7670578366531
 34
0.0
 50
90.0
1001
ACAD
1000
DSTYLE
1002
{
1070
   287
1070
     3
1070
   287
1070
     3
1070
    40
1040
10.0
1070
   143
1040
0.039
1070
   172
1070
     1
1070
   271
1070
     0
1070
   279
1070
     0
1070
   288
1070
     1
1002
}
  0
DIMENSION
  5
7B8D
  8
3
  6
CONTINUOUS
  2
*D7
 10
1123.186494847243
 20
752.76705783665307
 30
0.0
 11
1098.1864948472421
 21
910.26705783665307
 31
0.0
 70
     0
 13
1039.0540960692001
 23
1067.7670578366531
 33
0.0
 14
1043.0647120691999
 24
752.76705783665307
 34
0.0
 50
90.0
1001
ACAD
1000
DSTYLE
1002
{
1070
   287
1070
     4
1070
   287
1070
     4
1070
    40
1040
10.0
1070
    75
1070
     1
1070
   143
1040
0.039
1070
   172
1070
     1
1070
   271
1070
     0
1070
   279
1070
     1
1070
   288
1070
     1
1002
}
  0
DIMENSION
  5
7B9A
  8
3
  6
CONTINUOUS
  2
*D8
 10
1185.361791881867
 20
752.76705783665307
 30
0.0
 11
1185.361791881867
 21
1008.689685836653
 31
0.0
 70
   128
 13
879.06471206920025
 23
1267.7670578366531
 33
0.0
 14
1043.0647120691999
 24
752.76705783665307
 34
0.0
 50
90.0
1001
ACAD
1000
DSTYLE
1002
{
1070
   287
1070
     3
1070
   287
1070
     3
1070
    40
1040
10.0
1070
   143
1040
0.039
1070
   172
1070
     1
1070
   271
1070
     0
1070
   279
1070
     0
1070
   288
1070
     1
1002
}
  0
LINE
  5
7B9B
  8
2
  6
CENTER
 10
1617.2873149654729
 20
720.04772783665305
 30
0.0
 11
1617.2873149654729
 21
1325.394370836653
 31
0.0
  0
LINE
  5
7B9C
  8
2
  6
CENTER
 10
1249.3510609654729
 20
1067.7670578366531
 30
0.0
 11
1733.095044965474
 21
1067.7670578366531
 31
0.0
  0
DIMENSION
  5
7BA9
  8
3
  6
CONTINUOUS
  2
*D9
 10
1609.287314965474
 20
681.71469283665294
 30
0.0
 11
1491.5598109654729
 21
681.71469283665294
 31
0.0
 70
   128
 13
1359.2873149654729
 23
752.76705783665307
 33
0.0
 14
1609.287314965474
 24
752.76705783665307
 34
0.0
1001
ACAD
1000
DSTYLE
1002
{
1070
   287
1070
     3
1070
   287
1070
     3
1070
    40
1040
10.0
1070
   143
1040
0.039
1070
   172
1070
     1
1070
   271
1070
     0
1070
   279
1070
     0
1070
   288
1070
     1
1002
}
  0
DIMENSION
  5
7BB6
  8
3
  6
CONTINUOUS
  2
*D10
 10
1707.0873149654731
 20
1321.750859836653
 30
0.0
 11
1607.6242539654729
 21
1321.750859836653
 31
0.0
 70
   128
 13
1527.4873149654729
 23
1267.7670578366531
 33
0.0
 14
1707.0873149654731
 24
1267.7670578366531
 34
0.0
1001
ACAD
1000
DSTYLE
1002
{
1070
   287
1070
     3
1070
   287
1070
     3
1070
    40
1040
10.0
1070
   143
1040
0.039
1070
   172
1070
     1
1070
   271
1070
     0
1070
   279
1070
     0
1070
   288
1070
     1
1002
}
  0
DIMENSION
  5
7BC3
  8
3
  6
CONTINUOUS
  2
*D11
 10
1617.2873149654729
 20
1375.0872058366531
 30
0.0
 11
1435.8488759654731
 21
1375.0872058366531
 31
0.0
 70
   128
  1
MAX\P340
 13
1277.2873149654729
 23
1192.7670578366531
 33
0.0
 14
1617.2873149654729
 24
1364.7872108366521
 34
0.0
1001
ACAD
1000
DSTYLE
1002
{
1070
   287
1070
     3
1070
   287
1070
     3
1070
    40
1040
10.0
1070
   143
1040
0.039
1070
   172
1070
     1
1070
   271
1070
     0
1070
   279
1070
     0
1070
   288
1070
     1
1002
}
  0
DIMENSION
  5
7BD1
  8
3
  6
CONTINUOUS
  2
*D12
 10
1716.287314965474
 20
1375.0872058366531
 30
0.0
 11
1663.335188965473
 21
1375.0872058366531
 31
0.0
 70
   128
 13
1617.2873149654729
 23
1364.7872108366521
 33
0.0
 14
1716.287314965474
 24
1214.7670578366531
 34
0.0
1001
ACAD
1000
DSTYLE
1002
{
1070
   287
1070
     4
1070
   287
1070
     4
1070
    40
1040
10.0
1070
    75
1070
     1
1070
   143
1040
0.039
1070
   172
1070
     1
1070
   271
1070
     0
1070
   279
1070
     1
1070
   288
1070
     1
1002
}
  0
LINE
  5
7BE9
  8
3
  6
CONTINUOUS
 10
1716.287314965474
 20
1192.7670578366531
 30
0.0
 11
1734.480398965474
 21
1192.7670578366531
 31
0.0
  0
LINE
  5
7BEB
  8
3
  6
CONTINUOUS
 10
1716.287314965474
 20
942.76705783665295
 30
0.0
 11
1731.7874769654729
 21
942.76705783665295
 31
0.0
  0
DIMENSION
  5
7BF8
  8
3
  6
CONTINUOUS
  2
*D13
 10
1787.441232965474
 20
942.76705783665295
 30
0.0
 11
1787.4412329654731
 21
1074.0521328366531
 31
0.0
 70
   128
 13
1716.287314965474
 23
1192.7670578366531
 33
0.0
 14
1716.287314965474
 24
942.76705783665295
 34
0.0
 50
90.0
1001
ACAD
1000
DSTYLE
1002
{
1070
   287
1070
     3
1070
   287
1070
     3
1070
     3
1000
φ<>
1070
    40
1040
10.0
1070
   143
1040
0.039
1070
   172
1070
     1
1070
   271
1070
     0
1070
   279
1070
     0
1070
   288
1070
     1
1002
}
  0
DIMENSION
  5
7C05
  8
3
  6
CONTINUOUS
  2
*D14
 10
1043.0647120691999
 20
1636.284859874107
 30
0.0
 11
690.66674006920027
 21
1636.284859874107
 31
0.0
 70
   128
 13
333.06471206920031
 23
1799.8492318741071
 33
0.0
 14
1043.0647120691999
 24
1799.8492318741071
 34
0.0
1001
ACAD
1000
DSTYLE
1002
{
1070
   287
1070
     3
1070
   287
1070
     3
1070
    40
1040
10.0
1070
   143
1040
0.039
1070
   172
1070
     1
1070
   271
1070
     0
1070
   279
1070
     0
1070
   288
1070
     1
1002
}
  0
LINE
  5
7C13
  8
2
  6
CENTER
 10
853.06471206920037
 20
1290.659436836653
 30
0.0
 11
853.06471206920037
 21
718.38290183665299
 31
0.0
  0
LINE
  5
7C38
  8
2
  6
CENTER
 10
485.34605006920032
 20
2057.8492318741069
 30
0.0
 11
1118.8938730692
 21
2057.8492318741069
 31
0.0
  0
DIMENSION
  5
7C7F
  8
3
  2
*D15
 10
288.29568958641931
 20
1799.8492318741071
 30
0.0
 11
288.29568958641897
 21
1921.883902785552
 31
0.0
 70
   128
 13
333.06471206920031
 23
2049.8492318741069
 33
0.0
 14
333.06471206920031
 24
1799.8492318741071
 34
0.0
 50
90.0
1001
ACAD
1000
DSTYLE
1002
{
1070
   287
1070
     3
1070
   287
1070
     3
1070
    40
1040
10.0
1070
   143
1040
0.039
1070
   172
1070
     1
1070
   271
1070
     0
1070
   279
1070
     0
1070
   288
1070
     1
1002
}
  0
DIMENSION
  5
7C9A
  8
3
  2
*D16
 10
1617.2873149654729
 20
681.71469283665294
 30
0.0
 11
1677.2873149654729
 21
706.71469283665294
 31
0.0
 70
     0
 13
1609.287314965474
 23
752.76705783665307
 33
0.0
 14
1617.2873149654729
 24
720.04772783665305
 34
0.0
1001
ACAD
1000
DSTYLE
1002
{
1070
   287
1070
     3
1070
   287
1070
     3
1070
    40
1040
10.0
1070
   143
1040
0.039
1070
   172
1070
     1
1070
   271
1070
     0
1070
   279
1070
     0
1070
   288
1070
     1
1002
}
  0
DIMENSION
  5
7CB4
  8
3
  2
*D17
 10
333.06471206920043
 20
1437.2054703014901
 30
0.0
 11
660.5298025971606
 21
1437.2054703014901
 31
0.0
 70
   128
 13
1039.0540960692001
 23
1072.7670578366531
 33
0.0
 14
333.06471206920031
 24
832.76705783665307
 34
0.0
1001
ACAD
1000
DSTYLE
1002
{
1070
   287
1070
     3
1070
   287
1070
     3
1070
    40
1040
10.0
1070
   143
1040
0.039
1070
   172
1070
     1
1070
   271
1070
     0
1070
   279
1070
     0
1070
   288
1070
     1
1002
}
  0
ENDSEC
  0
EOF
