  0
SECTION
  2
HEADER
  9
$ACADVER
  1
AC1009
  9
$INSBASE
 10
0.0
 20
0.0
 30
0.0
  9
$EXTMIN
 10
181.40589271620951
 20
300.0
 30
0.0
  9
$EXTMAX
 10
1850.0
 20
2786.6522620000001
 30
0.0
  9
$LIMMIN
 10
0.0
 20
0.0
  9
$LIMMAX
 10
297.0
 20
210.0
  9
$ORTHOMODE
 70
     0
  9
$REGENMODE
 70
     1
  9
$FILLMODE
 70
     0
  9
$QTEXTMODE
 70
     0
  9
$MIRRTEXT
 70
     1
  9
$DRAGMODE
 70
     2
  9
$LTSCALE
 40
100.0
  9
$OSMODE
 70
    37
  9
$ATTMODE
 70
     1
  9
$TEXTSIZE
 40
180.0
  9
$TRACEWID
 40
0.05
  9
$TEXTSTYLE
  7
STANDARD
  9
$CLAYER
  8
3
  9
$CELTYPE
  6
BYLAYER
  9
$CECOLOR
 62
   256
  9
$DIMSCALE
 40
10.0
  9
$DIMASZ
 40
2.0
  9
$DIMEXO
 40
0.5
  9
$DIMDLI
 40
10.0
  9
$DIMRND
 40
0.0
  9
$DIMDLE
 40
0.0
  9
$DIMEXE
 40
1.0
  9
$DIMTP
 40
1.0
  9
$DIMTM
 40
1.0
  9
$DIMTXT
 40
3.0
  9
$DIMCEN
 40
0.0
  9
$DIMTSZ
 40
0.0
  9
$DIMTOL
 70
     0
  9
$DIMLIM
 70
     0
  9
$DIMTIH
 70
     0
  9
$DIMTOH
 70
     0
  9
$DIMSE1
 70
     0
  9
$DIMSE2
 70
     0
  9
$DIMTAD
 70
     1
  9
$DIMZIN
 70
     8
  9
$DIMBLK
  1

  9
$DIMASO
 70
     1
  9
$DIMSHO
 70
     1
  9
$DIMPOST
  1

  9
$DIMAPOST
  1

  9
$DIMALT
 70
     0
  9
$DIMALTD
 70
     2
  9
$DIMALTF
 40
0.039
  9
$DIMLFAC
 40
1.0
  9
$DIMTOFL
 70
     1
  9
$DIMTVP
 40
0.0
  9
$DIMTIX
 70
     0
  9
$DIMSOXD
 70
     0
  9
$DIMSAH
 70
     1
  9
$DIMBLK1
  1
OPEN
  9
$DIMBLK2
  1
OPEN
  9
$DIMSTYLE
  2
IGA
  9
$DIMCLRD
 70
     0
  9
$DIMCLRE
 70
     0
  9
$DIMCLRT
 70
     0
  9
$DIMTFAC
 40
10.0
  9
$DIMGAP
 40
1.0
  9
$LUNITS
 70
     2
  9
$LUPREC
 70
     3
  9
$SKETCHINC
 40
0.1
  9
$FILLETRAD
 40
50.0
  9
$AUNITS
 70
     0
  9
$AUPREC
 70
     0
  9
$MENU
  1
acad
  9
$ELEVATION
 40
0.0
  9
$PELEVATION
 40
0.0
  9
$THICKNESS
 40
0.0
  9
$LIMCHECK
 70
     0
  9
$BLIPMODE
 70
     0
  9
$CHAMFERA
 40
0.5
  9
$CHAMFERB
 40
0.5
  9
$SKPOLY
 70
     0
  9
$TDCREATE
 40
2450739.5762834479
  9
$TDUPDATE
 40
2454953.8638181132
  9
$TDINDWG
 40
0.0459402199
  9
$TDUSRTIMER
 40
0.0459402199
  9
$USRTIMER
 70
     1
  9
$ANGBASE
 50
0.0
  9
$ANGDIR
 70
     0
  9
$PDMODE
 70
     0
  9
$PDSIZE
 40
0.0
  9
$PLINEWID
 40
0.0
  9
$COORDS
 70
     1
  9
$SPLFRAME
 70
     0
  9
$SPLINETYPE
 70
     6
  9
$SPLINESEGS
 70
     8
  9
$ATTDIA
 70
     0
  9
$ATTREQ
 70
     1
  9
$HANDLING
 70
 10241
  9
$HANDSEED
  5
7E7A
  9
$SURFTAB1
 70
     6
  9
$SURFTAB2
 70
     6
  9
$SURFTYPE
 70
     6
  9
$SURFU
 70
     6
  9
$SURFV
 70
     6
  9
$UCSNAME
  2

  9
$UCSORG
 10
0.0
 20
0.0
 30
0.0
  9
$UCSXDIR
 10
1.0
 20
0.0
 30
0.0
  9
$UCSYDIR
 10
0.0
 20
1.0
 30
0.0
  9
$PUCSNAME
  2

  9
$PUCSORG
 10
0.0
 20
0.0
 30
0.0
  9
$PUCSXDIR
 10
1.0
 20
0.0
 30
0.0
  9
$PUCSYDIR
 10
0.0
 20
1.0
 30
0.0
  9
$USERI1
 70
     0
  9
$USERI2
 70
     0
  9
$USERI3
 70
     0
  9
$USERI4
 70
     0
  9
$USERI5
 70
     0
  9
$USERR1
 40
0.0
  9
$USERR2
 40
0.0
  9
$USERR3
 40
0.0
  9
$USERR4
 40
0.0
  9
$USERR5
 40
0.0
  9
$WORLDVIEW
 70
     1
  9
$SHADEDGE
 70
     3
  9
$SHADEDIF
 70
    70
  9
$TILEMODE
 70
     1
  9
$MAXACTVP
 70
    16
  9
$PLIMCHECK
 70
     0
  9
$PEXTMIN
 10
1.0000000000000000E+020
 20
1.0000000000000000E+020
 30
1.0000000000000000E+020
  9
$PEXTMAX
 10
-1.0000000000000000E+020
 20
-1.0000000000000000E+020
 30
-1.0000000000000000E+020
  9
$PLIMMIN
 10
0.0
 20
0.0
  9
$PLIMMAX
 10
12.0
 20
9.0
  9
$UNITMODE
 70
     0
  9
$VISRETAIN
 70
     0
  9
$PLINEGEN
 70
     0
  9
$PSLTSCALE
 70
     1
  0
ENDSEC
  0
SECTION
  2
TABLES
  0
TABLE
  2
VPORT
 70
     2
  0
VPORT
  2
*ACTIVE
 70
     0
 10
0.0
 20
0.0
 11
1.0
 21
1.0
 12
2457.229492426306
 22
2042.737267617091
 13
0.0
 23
0.0
 14
10.0
 24
10.0
 15
10.0
 25
10.0
 16
0.0
 26
0.0
 36
1.0
 17
0.0
 27
0.0
 37
0.0
 40
3860.4308824173359
 41
1.5051150895140659
 42
50.0
 43
0.0
 44
0.0
 50
0.0
 51
0.0
 71
     0
 72
   100
 73
     1
 74
     0
 75
     0
 76
     0
 77
     0
 78
     0
  0
ENDTAB
  0
TABLE
  2
LTYPE
 70
     2
  0
LTYPE
  2
CONTINUOUS
 70
     0
  3
Solid line
 72
    65
 73
     0
 40
0.0
  0
LTYPE
  2
CENTER
 70
     0
  3
____ _ ____ _ ____ _ ____ _ ____ _ ____ _ ____ 
 72
    65
 73
     4
 40
2.0
 49
1.25
 49
-0.25
 49
0.25
 49
-0.25
  0
ENDTAB
  0
TABLE
  2
LAYER
 70
     6
  0
LAYER
  2
0
 70
     0
 62
     7
  6
CONTINUOUS
  0
LAYER
  2
3
 70
     0
 62
     2
  6
CONTINUOUS
  0
LAYER
  2
2
 70
     0
 62
     3
  6
CENTER
  0
LAYER
  2
1
 70
     0
 62
     4
  6
CONTINUOUS
  0
LAYER
  2
4
 70
     0
 62
     7
  6
CONTINUOUS
  0
LAYER
  2
DEFPOINTS
 70
     0
 62
     7
  6
CONTINUOUS
  0
ENDTAB
  0
TABLE
  2
STYLE
 70
     1
  0
STYLE
  2
STANDARD
 70
     0
 40
0.0
 41
1.0
 50
0.0
 71
     0
 42
180.0
  3
simplex.shx
  4
extfont.shx
  0
ENDTAB
  0
TABLE
  2
VIEW
 70
     0
  0
ENDTAB
  0
TABLE
  2
UCS
 70
     0
  0
ENDTAB
  0
TABLE
  2
APPID
 70
     1
  0
APPID
  2
ACAD
 70
     0
  0
ENDTAB
  0
TABLE
  2
DIMSTYLE
 70
     1
  0
DIMSTYLE
  2
IGA
 70
     0
  3

  4

  5

  6
OPEN
  7
OPEN
 40
2.0
 41
2.0
 42
0.5
 43
10.0
 44
1.0
 45
0.0
 46
0.0
 47
1.0
 48
1.0
140
3.0
141
0.0
142
0.0
143
0.03937
144
1.0
145
0.0
146
10.0
147
1.0
 71
     0
 72
     0
 73
     0
 74
     0
 75
     0
 76
     0
 77
     1
 78
     8
170
     0
171
     2
172
     0
173
     1
174
     0
175
     0
176
     0
177
     0
178
     0
  0
ENDTAB
  0
ENDSEC
  0
SECTION
  2
BLOCKS
  0
BLOCK
  8
0
  2
$MODEL_SPACE
 70
     0
 10
0.0
 20
0.0
 30
0.0
  3
$MODEL_SPACE
  1

  0
ENDBLK
  5
1B
  8
0
  0
BLOCK
 67
     1
  8
0
  2
$PAPER_SPACE
 70
     0
 10
0.0
 20
0.0
 30
0.0
  3
$PAPER_SPACE
  1

  0
ENDBLK
  5
18
 67
     1
  8
0
  0
BLOCK
  8
0
  2
_OPEN
 70
     0
 10
0.0
 20
0.0
 30
0.0
  3
_OPEN
  1

  0
LINE
  5
7B22
  8
0
  6
BYBLOCK
 62
     0
 10
-1.0
 20
0.166667
 30
0.0
 11
0.0
 21
0.0
 31
0.0
  0
LINE
  5
7B23
  8
0
  6
BYBLOCK
 62
     0
 10
0.0
 20
0.0
 30
0.0
 11
-1.0
 21
-0.166667
 31
0.0
  0
LINE
  5
7B24
  8
0
  6
BYBLOCK
 62
     0
 10
0.0
 20
0.0
 30
0.0
 11
-1.0
 21
0.0
 31
0.0
  0
ENDBLK
  5
7B25
  8
0
  0
BLOCK
  8
0
  2
*D1
 70
     1
 10
0.0
 20
0.0
 30
0.0
  3
*D1
  1

  0
LINE
  5
7DD1
  8
3
  6
CONTINUOUS
 62
     0
 10
279.13709899999998
 20
813.79634212589337
 30
0.0
 11
279.13709899999998
 21
726.65150612589343
 31
0.0
  0
LINE
  5
7DD2
  8
3
  6
CONTINUOUS
 62
     0
 10
799.13709900000003
 20
813.79634212589337
 30
0.0
 11
799.13709900000003
 21
726.65150612589343
 31
0.0
  0
LINE
  5
7DD3
  8
3
  6
CONTINUOUS
 62
     0
 10
299.13709899999998
 20
736.65150612589343
 30
0.0
 11
779.13709900000003
 21
736.65150612589343
 31
0.0
  0
INSERT
  5
7DD4
  8
3
  6
CONTINUOUS
 62
     0
  2
_OPEN
 10
279.13709899999998
 20
736.65150612589343
 30
0.0
 41
20.0
 42
20.0
 43
20.0
 50
180.0
  0
INSERT
  5
7DD5
  8
3
  6
CONTINUOUS
 62
     0
  2
_OPEN
 10
799.13709900000003
 20
736.65150612589343
 30
0.0
 41
20.0
 42
20.0
 43
20.0
  0
TEXT
  8
3
  40
30
  5
7E68
  62
0
  72
0
  71
0
 10
472.563
 20
708.552
 30
0.000000
  1
520
  0
POINT
  5
7DD7
  8
DEFPOINTS
  6
CONTINUOUS
 62
     0
 10
279.13709899999998
 20
818.79634212589349
 30
0.0
  0
POINT
  5
7DD8
  8
DEFPOINTS
  6
CONTINUOUS
 62
     0
 10
799.13709900000003
 20
818.79634212589349
 30
0.0
  0
POINT
  5
7DD9
  8
DEFPOINTS
  6
CONTINUOUS
 62
     0
 10
799.13709900000003
 20
736.65150612589343
 30
0.0
  0
ENDBLK
  5
7B32
  8
0
  0
BLOCK
  8
0
  2
*D2
 70
     1
 10
0.0
 20
0.0
 30
0.0
  3
*D2
  1

  0
LINE
  5
7DDA
  8
3
  6
CONTINUOUS
 62
     0
 10
989.13709900000003
 20
813.79634212589337
 30
0.0
 11
989.13709900000003
 21
726.65150612589343
 31
0.0
  0
LINE
  5
7DDB
  8
3
  6
CONTINUOUS
 62
     0
 10
819.13709900000015
 20
736.65150612589343
 30
0.0
 11
969.13709900000015
 21
736.65150612589343
 31
0.0
  0
INSERT
  5
7DDC
  8
3
  6
CONTINUOUS
 62
     0
  2
_OPEN
 10
799.13709900000003
 20
736.65150612589343
 30
0.0
 41
20.0
 42
20.0
 43
20.0
 50
180.0
  0
INSERT
  5
7DDD
  8
3
  6
CONTINUOUS
 62
     0
  2
_OPEN
 10
989.13709900000003
 20
736.65150612589343
 30
0.0
 41
20.0
 42
20.0
 43
20.0
  0
TEXT
  8
3
  40
30
  5
7E69
  62
0
  72
0
  71
0
 10
834.137
 20
708.552
 30
0.000000
  1
190
  0
POINT
  5
7DDF
  8
DEFPOINTS
  6
CONTINUOUS
 62
     0
 10
799.13709900000003
 20
818.79634212589349
 30
0.0
  0
POINT
  5
7DE0
  8
DEFPOINTS
  6
CONTINUOUS
 62
     0
 10
989.13709900000003
 20
818.79634212589349
 30
0.0
  0
POINT
  5
7DE1
  8
DEFPOINTS
  6
CONTINUOUS
 62
     0
 10
989.13709900000003
 20
736.65150612589343
 30
0.0
  0
ENDBLK
  5
7B3E
  8
0
  0
BLOCK
  8
0
  2
*D3
 70
     1
 10
0.0
 20
0.0
 30
0.0
  3
*D3
  1

  0
LINE
  5
7DE2
  8
3
  6
CONTINUOUS
 62
     0
 10
1004.137099
 20
1383.796342125893
 30
0.0
 11
1071.0254124002549
 21
1383.796342125893
 31
0.0
  0
LINE
  5
7DE3
  8
3
  6
CONTINUOUS
 62
     0
 10
1004.137099
 20
1133.796342125893
 30
0.0
 11
1071.0254124002549
 21
1133.796342125893
 31
0.0
  0
LINE
  5
7DE4
  8
3
  6
CONTINUOUS
 62
     0
 10
1061.0254124002549
 20
1363.796342125893
 30
0.0
 11
1061.0254124002549
 21
1153.796342125893
 31
0.0
  0
INSERT
  5
7DE5
  8
3
  6
CONTINUOUS
 62
     0
  2
_OPEN
 10
1061.0254124002549
 20
1383.796342125893
 30
0.0
 41
20.0
 42
20.0
 43
20.0
 50
90.0
  0
INSERT
  5
7DE6
  8
3
  6
CONTINUOUS
 62
     0
  2
_OPEN
 10
1061.0254124002549
 20
1133.796342125893
 30
0.0
 41
20.0
 42
20.0
 43
20.0
 50
270.0
  0
TEXT
  8
3
  40
30
  5
7E6A
  62
0
  72
0
  71
0
 10
976.025
 20
1209.44
 30
0.000000
  1
250
  0
POINT
  5
7DE8
  8
DEFPOINTS
  6
CONTINUOUS
 62
     0
 10
999.13709900000003
 20
1383.796342125893
 30
0.0
  0
POINT
  5
7DE9
  8
DEFPOINTS
  6
CONTINUOUS
 62
     0
 10
999.13709900000003
 20
1133.796342125893
 30
0.0
  0
POINT
  5
7DEA
  8
DEFPOINTS
  6
CONTINUOUS
 62
     0
 10
1061.0254124002549
 20
1133.796342125893
 30
0.0
  0
ENDBLK
  5
7C8C
  8
0
  0
BLOCK
  8
0
  2
*D4
 70
     1
 10
0.0
 20
0.0
 30
0.0
  3
*D4
  1

  0
LINE
  5
7DEB
  8
3
  6
CONTINUOUS
 62
     0
 10
984.13709899999992
 20
1393.796342125893
 30
0.0
 11
1136.8179604002551
 21
1393.796342125893
 31
0.0
  0
LINE
  5
7DEC
  8
3
  6
CONTINUOUS
 62
     0
 10
1004.137099
 20
1133.796342125893
 30
0.0
 11
1136.8179604002551
 21
1133.796342125893
 31
0.0
  0
LINE
  5
7DED
  8
3
  6
CONTINUOUS
 62
     0
 10
1126.8179604002551
 20
1373.796342125893
 30
0.0
 11
1126.8179604002551
 21
1153.796342125893
 31
0.0
  0
INSERT
  5
7DEE
  8
3
  6
CONTINUOUS
 62
     0
  2
_OPEN
 10
1126.8179604002551
 20
1393.796342125893
 30
0.0
 41
20.0
 42
20.0
 43
20.0
 50
90.0
  0
INSERT
  5
7DEF
  8
3
  6
CONTINUOUS
 62
     0
  2
_OPEN
 10
1126.8179604002551
 20
1133.796342125893
 30
0.0
 41
20.0
 42
20.0
 43
20.0
 50
270.0
  0
TEXT
  8
3
  40
30
  5
7E6B
  62
0
  72
0
  71
0
 10
1041.82
 20
1214.29
 30
0.000000
  1
260
  0
POINT
  5
7DF1
  8
DEFPOINTS
  6
CONTINUOUS
 62
     0
 10
979.13709900000003
 20
1393.796342125893
 30
0.0
  0
POINT
  5
7DF2
  8
DEFPOINTS
  6
CONTINUOUS
 62
     0
 10
999.13709900000003
 20
1133.796342125893
 30
0.0
  0
POINT
  5
7DF3
  8
DEFPOINTS
  6
CONTINUOUS
 62
     0
 10
1126.8179604002551
 20
1133.796342125893
 30
0.0
  0
ENDBLK
  5
7C81
  8
0
  0
BLOCK
  8
0
  2
*D5
 70
     1
 10
0.0
 20
0.0
 30
0.0
  3
*D5
  1

  0
LINE
  5
7DF4
  8
3
  6
CONTINUOUS
 62
     0
 10
994.13709900000015
 20
818.79634212589349
 30
0.0
 11
1136.8179604002551
 21
818.79634212589349
 31
0.0
  0
LINE
  5
7DF5
  8
3
  6
CONTINUOUS
 62
     0
 10
1126.8179604002551
 20
1113.796342125893
 30
0.0
 11
1126.8179604002551
 21
838.79634212589337
 31
0.0
  0
INSERT
  5
7DF6
  8
3
  6
CONTINUOUS
 62
     0
  2
_OPEN
 10
1126.8179604002551
 20
1133.796342125893
 30
0.0
 41
20.0
 42
20.0
 43
20.0
 50
90.0
  0
INSERT
  5
7DF7
  8
3
  6
CONTINUOUS
 62
     0
  2
_OPEN
 10
1126.8179604002551
 20
818.79634212589349
 30
0.0
 41
20.0
 42
20.0
 43
20.0
 50
270.0
  0
TEXT
  8
3
  40
30
  5
7E6C
  62
0
  72
0
  71
0
 10
1041.82
 20
923.196
 30
0.000000
  1
315
  0
POINT
  5
7DF9
  8
DEFPOINTS
  6
CONTINUOUS
 62
     0
 10
999.13709900000003
 20
1133.796342125893
 30
0.0
  0
POINT
  5
7DFA
  8
DEFPOINTS
  6
CONTINUOUS
 62
     0
 10
989.13709900000003
 20
818.79634212589349
 30
0.0
  0
POINT
  5
7DFB
  8
DEFPOINTS
  6
CONTINUOUS
 62
     0
 10
1126.8179604002551
 20
818.79634212589349
 30
0.0
  0
ENDBLK
  5
7C6B
  8
0
  0
BLOCK
  8
0
  2
*D6
 70
     1
 10
0.0
 20
0.0
 30
0.0
  3
*D6
  1

  0
LINE
  5
7DFC
  8
3
  6
CONTINUOUS
 62
     0
 10
579.14771499999995
 20
1138.796342125893
 30
0.0
 11
579.14771499999995
 21
1452.2518281258931
 31
0.0
  0
LINE
  5
7DFD
  8
3
  6
CONTINUOUS
 62
     0
 10
799.13709900000003
 20
1398.796342125893
 30
0.0
 11
799.13709900000003
 21
1452.2518281258931
 31
0.0
  0
LINE
  5
7DFE
  8
3
  6
CONTINUOUS
 62
     0
 10
599.14771499999995
 20
1442.2518281258931
 30
0.0
 11
779.13709900000003
 21
1442.2518281258931
 31
0.0
  0
INSERT
  5
7DFF
  8
3
  6
CONTINUOUS
 62
     0
  2
_OPEN
 10
579.14771499999995
 20
1442.2518281258931
 30
0.0
 41
20.0
 42
20.0
 43
20.0
 50
180.0
  0
INSERT
  5
7E00
  8
3
  6
CONTINUOUS
 62
     0
  2
_OPEN
 10
799.13709900000003
 20
1442.2518281258931
 30
0.0
 41
20.0
 42
20.0
 43
20.0
  0
TEXT
  8
3
  40
30
  5
7E6D
  62
0
  72
0
  71
0
 10
619.149
 20
1414.15
 30
0.000000
  1
220
  0
POINT
  5
7E02
  8
DEFPOINTS
  6
CONTINUOUS
 62
     0
 10
579.14771499999995
 20
1133.796342125893
 30
0.0
  0
POINT
  5
7E03
  8
DEFPOINTS
  6
CONTINUOUS
 62
     0
 10
799.13709900000003
 20
1393.796342125893
 30
0.0
  0
POINT
  5
7E04
  8
DEFPOINTS
  6
CONTINUOUS
 62
     0
 10
799.13709900000003
 20
1442.2518281258931
 30
0.0
  0
ENDBLK
  5
7B98
  8
0
  0
BLOCK
  8
0
  2
*D7
 70
     1
 10
0.0
 20
0.0
 30
0.0
  3
*D7
  1

  0
LINE
  5
7E05
  8
3
  6
CONTINUOUS
 62
     0
 10
999.13709900000003
 20
1409.796342125893
 30
0.0
 11
999.13709900000003
 21
1452.2518281258931
 31
0.0
  0
LINE
  5
7E06
  8
3
  6
CONTINUOUS
 62
     0
 10
819.13709900000015
 20
1442.2518281258931
 30
0.0
 11
979.13709900000003
 21
1442.2518281258931
 31
0.0
  0
INSERT
  5
7E07
  8
3
  6
CONTINUOUS
 62
     0
  2
_OPEN
 10
799.13709900000003
 20
1442.2518281258931
 30
0.0
 41
20.0
 42
20.0
 43
20.0
 50
180.0
  0
INSERT
  5
7E08
  8
3
  6
CONTINUOUS
 62
     0
  2
_OPEN
 10
999.13709900000003
 20
1442.2518281258931
 30
0.0
 41
20.0
 42
20.0
 43
20.0
  0
TEXT
  8
3
  40
30
  5
7E6E
  62
0
  72
0
  71
0
 10
839.137
 20
1414.15
 30
0.000000
  1
200
  0
POINT
  5
7E0A
  8
DEFPOINTS
  6
CONTINUOUS
 62
     0
 10
799.13709900000003
 20
1393.796342125893
 30
0.0
  0
POINT
  5
7E0B
  8
DEFPOINTS
  6
CONTINUOUS
 62
     0
 10
999.13709900000003
 20
1404.796342125893
 30
0.0
  0
POINT
  5
7E0C
  8
DEFPOINTS
  6
CONTINUOUS
 62
     0
 10
999.13709900000003
 20
1442.2518281258931
 30
0.0
  0
ENDBLK
  5
7BB0
  8
0
  0
BLOCK
  8
0
  2
*D8
 70
     1
 10
0.0
 20
0.0
 30
0.0
  3
*D8
  1

  0
LINE
  5
7E0D
  8
3
  6
CONTINUOUS
 62
     0
 10
279.13709899999998
 20
1874.644350715515
 30
0.0
 11
279.13709899999998
 21
1691.4571147155141
 31
0.0
  0
LINE
  5
7E0E
  8
3
  6
CONTINUOUS
 62
     0
 10
989.13709900000003
 20
1874.644350715515
 30
0.0
 11
989.13709900000003
 21
1691.4571147155141
 31
0.0
  0
LINE
  5
7E0F
  8
3
  6
CONTINUOUS
 62
     0
 10
299.13709899999998
 20
1701.4571147155141
 30
0.0
 11
969.13709900000015
 21
1701.4571147155141
 31
0.0
  0
INSERT
  5
7E10
  8
3
  6
CONTINUOUS
 62
     0
  2
_OPEN
 10
279.13709899999998
 20
1701.4571147155141
 30
0.0
 41
20.0
 42
20.0
 43
20.0
 50
180.0
  0
INSERT
  5
7E11
  8
3
  6
CONTINUOUS
 62
     0
  2
_OPEN
 10
989.13709900000003
 20
1701.4571147155141
 30
0.0
 41
20.0
 42
20.0
 43
20.0
  0
TEXT
  8
3
  40
30
  5
7E6F
  62
0
  72
0
  71
0
 10
548.147
 20
1673.36
 30
0.000000
  1
710
  0
POINT
  5
7E13
  8
DEFPOINTS
  6
CONTINUOUS
 62
     0
 10
279.13709899999998
 20
1879.6443507155141
 30
0.0
  0
POINT
  5
7E14
  8
DEFPOINTS
  6
CONTINUOUS
 62
     0
 10
989.13709900000003
 20
1879.6443507155141
 30
0.0
  0
POINT
  5
7E15
  8
DEFPOINTS
  6
CONTINUOUS
 62
     0
 10
989.13709900000003
 20
1701.4571147155141
 30
0.0
  0
ENDBLK
  5
7BBE
  8
0
  0
BLOCK
  8
0
  2
*D9
 70
     1
 10
0.0
 20
0.0
 30
0.0
  3
*D9
  1

  0
LINE
  5
7E16
  8
3
  6
CONTINUOUS
 62
     0
 10
1546.3233678248921
 20
1389.796342125893
 30
0.0
 11
1546.3233678248921
 21
1448.5485971258929
 31
0.0
  0
LINE
  5
7E17
  8
3
  6
CONTINUOUS
 62
     0
 10
1726.3233678248921
 20
1389.796342125893
 30
0.0
 11
1726.3233678248921
 21
1448.5485971258929
 31
0.0
  0
LINE
  5
7E18
  8
3
  6
CONTINUOUS
 62
     0
 10
1566.3233678248921
 20
1438.5485971258929
 30
0.0
 11
1706.3233678248921
 21
1438.5485971258929
 31
0.0
  0
INSERT
  5
7E19
  8
3
  6
CONTINUOUS
 62
     0
  2
_OPEN
 10
1546.3233678248921
 20
1438.5485971258929
 30
0.0
 41
20.0
 42
20.0
 43
20.0
 50
180.0
  0
INSERT
  5
7E1A
  8
3
  6
CONTINUOUS
 62
     0
  2
_OPEN
 10
1726.3233678248921
 20
1438.5485971258929
 30
0.0
 41
20.0
 42
20.0
 43
20.0
  0
TEXT
  8
3
  40
30
  5
7E70
  62
0
  72
0
  71
0
 10
1568.03
 20
1410.45
 30
0.000000
  1
180
  0
POINT
  5
7E1C
  8
DEFPOINTS
  6
CONTINUOUS
 62
     0
 10
1546.3233678248921
 20
1384.796342125893
 30
0.0
  0
POINT
  5
7E1D
  8
DEFPOINTS
  6
CONTINUOUS
 62
     0
 10
1726.3233678248921
 20
1384.796342125893
 30
0.0
  0
POINT
  5
7E1E
  8
DEFPOINTS
  6
CONTINUOUS
 62
     0
 10
1726.3233678248921
 20
1438.5485971258929
 30
0.0
  0
ENDBLK
  5
7BDB
  8
0
  0
BLOCK
  8
0
  2
*D10
 70
     1
 10
0.0
 20
0.0
 30
0.0
  3
*D10
  1

  0
LINE
  5
7E1F
  8
3
  6
CONTINUOUS
 62
     0
 10
1296.3233678248921
 20
1263.796342125893
 30
0.0
 11
1296.3233678248921
 21
1513.834350125893
 31
0.0
  0
LINE
  5
7E20
  8
3
  6
CONTINUOUS
 62
     0
 10
1636.3233678248921
 20
1492.750039125893
 30
0.0
 11
1636.3233678248921
 21
1513.834350125893
 31
0.0
  0
LINE
  5
7E21
  8
3
  6
CONTINUOUS
 62
     0
 10
1316.3233678248921
 20
1503.834350125893
 30
0.0
 11
1616.3233678248921
 21
1503.834350125893
 31
0.0
  0
INSERT
  5
7E22
  8
3
  6
CONTINUOUS
 62
     0
  2
_OPEN
 10
1296.3233678248921
 20
1503.834350125893
 30
0.0
 41
20.0
 42
20.0
 43
20.0
 50
180.0
  0
INSERT
  5
7E23
  8
3
  6
CONTINUOUS
 62
     0
  2
_OPEN
 10
1636.3233678248921
 20
1503.834350125893
 30
0.0
 41
20.0
 42
20.0
 43
20.0
  0
TEXT
  8
3
  40
30
  5
7E71
  62
0
  72
0
  71
0
 10
1414.37
 20
1500.73
 30
0.000000
  1
MAX
  0
TEXT
  8
3
  40
30
  5
7E72
  62
0
  72
0
  71
0
 10
1414.37
 20
1461.73
 30
0.000000
  1
340
  0
POINT
  5
7E25
  8
DEFPOINTS
  6
CONTINUOUS
 62
     0
 10
1296.3233678248921
 20
1258.796342125893
 30
0.0
  0
POINT
  5
7E26
  8
DEFPOINTS
  6
CONTINUOUS
 62
     0
 10
1636.3233678248921
 20
1487.750039125893
 30
0.0
  0
POINT
  5
7E27
  8
DEFPOINTS
  6
CONTINUOUS
 62
     0
 10
1636.3233678248921
 20
1503.834350125893
 30
0.0
  0
ENDBLK
  5
7CDC
  8
0
  0
BLOCK
  8
0
  2
*D11
 70
     1
 10
0.0
 20
0.0
 30
0.0
  3
*D11
  1

  0
LINE
  5
7E28
  8
3
  6
CONTINUOUS
 62
     0
 10
1735.3233678248921
 20
1285.796342125893
 30
0.0
 11
1735.3233678248921
 21
1513.834350125893
 31
0.0
  0
LINE
  5
7E29
  8
3
  6
CONTINUOUS
 62
     0
 10
1656.3233678248921
 20
1503.834350125893
 30
0.0
 11
1715.3233678248921
 21
1503.834350125893
 31
0.0
  0
TEXT
  8
3
  40
30
  5
7E73
  62
0
  72
0
  71
0
 10
1619.25
 20
1475.73
 30
0.000000
  1
99
  0
INSERT
  5
7E2B
  8
3
  6
CONTINUOUS
 62
     0
  2
_OPEN
 10
1636.3233678248921
 20
1503.834350125893
 30
0.0
 41
20.0
 42
20.0
 43
20.0
 50
180.0
  0
INSERT
  5
7E2C
  8
3
  6
CONTINUOUS
 62
     0
  2
_OPEN
 10
1735.3233678248921
 20
1503.834350125893
 30
0.0
 41
20.0
 42
20.0
 43
20.0
  0
POINT
  5
7E2D
  8
DEFPOINTS
  6
CONTINUOUS
 62
     0
 10
1636.3233678248921
 20
1487.750039125893
 30
0.0
  0
POINT
  5
7E2E
  8
DEFPOINTS
  6
CONTINUOUS
 62
     0
 10
1735.3233678248921
 20
1280.796342125893
 30
0.0
  0
POINT
  5
7E2F
  8
DEFPOINTS
  6
CONTINUOUS
 62
     0
 10
1735.3233678248921
 20
1503.834350125893
 30
0.0
  0
ENDBLK
  5
7C57
  8
0
  0
BLOCK
  8
0
  2
*D12
 70
     1
 10
0.0
 20
0.0
 30
0.0
  3
*D12
  1

  0
LINE
  5
7E30
  8
3
  6
CONTINUOUS
 62
     0
 10
1740.3233678248921
 20
1258.796342125893
 30
0.0
 11
1832.239375824892
 21
1258.796342125893
 31
0.0
  0
LINE
  5
7E31
  8
3
  6
CONTINUOUS
 62
     0
 10
1740.3233678248921
 20
1008.796342125893
 30
0.0
 11
1832.239375824892
 21
1008.796342125893
 31
0.0
  0
LINE
  5
7E32
  8
3
  6
CONTINUOUS
 62
     0
 10
1822.239375824892
 20
1238.796342125893
 30
0.0
 11
1822.239375824892
 21
1028.796342125893
 31
0.0
  0
INSERT
  5
7E33
  8
3
  6
CONTINUOUS
 62
     0
  2
_OPEN
 10
1822.239375824892
 20
1258.796342125893
 30
0.0
 41
20.0
 42
20.0
 43
20.0
 50
90.0
  0
INSERT
  5
7E34
  8
3
  6
CONTINUOUS
 62
     0
  2
_OPEN
 10
1822.239375824892
 20
1008.796342125893
 30
0.0
 41
20.0
 42
20.0
 43
20.0
 50
270.0
  0
TEXT
  8
3
  40
30
  5
7E74
  62
0
  72
0
  71
0
 10
1737.24
 20
1070.93
 30
0.000000
  1
φ250
  0
POINT
  5
7E36
  8
DEFPOINTS
  6
CONTINUOUS
 62
     0
 10
1735.3233678248921
 20
1258.796342125893
 30
0.0
  0
POINT
  5
7E37
  8
DEFPOINTS
  6
CONTINUOUS
 62
     0
 10
1735.3233678248921
 20
1008.796342125893
 30
0.0
  0
POINT
  5
7E38
  8
DEFPOINTS
  6
CONTINUOUS
 62
     0
 10
1822.239375824892
 20
1008.796342125893
 30
0.0
  0
ENDBLK
  5
7CD1
  8
0
  0
BLOCK
  8
0
  2
*D13
 70
     1
 10
0.0
 20
0.0
 30
0.0
  3
*D13
  1

  0
LINE
  5
7E39
  8
3
  6
CONTINUOUS
 62
     0
 10
1378.3233678248921
 20
813.79634212589337
 30
0.0
 11
1378.3233678248921
 21
732.47827912589355
 31
0.0
  0
LINE
  5
7E3A
  8
3
  6
CONTINUOUS
 62
     0
 10
1628.3233678248921
 20
813.79634212589337
 30
0.0
 11
1628.3233678248921
 21
732.47827912589355
 31
0.0
  0
LINE
  5
7E3B
  8
3
  6
CONTINUOUS
 62
     0
 10
1398.3233678248921
 20
742.47827912589355
 30
0.0
 11
1608.3233678248921
 21
742.47827912589355
 31
0.0
  0
INSERT
  5
7E3C
  8
3
  6
CONTINUOUS
 62
     0
  2
_OPEN
 10
1378.3233678248921
 20
742.47827912589355
 30
0.0
 41
20.0
 42
20.0
 43
20.0
 50
180.0
  0
INSERT
  5
7E3D
  8
3
  6
CONTINUOUS
 62
     0
  2
_OPEN
 10
1628.3233678248921
 20
742.47827912589355
 30
0.0
 41
20.0
 42
20.0
 43
20.0
  0
TEXT
  8
3
  40
30
  5
7E75
  62
0
  72
0
  71
0
 10
1446.11
 20
714.378
 30
0.000000
  1
250
  0
POINT
  5
7E3F
  8
DEFPOINTS
  6
CONTINUOUS
 62
     0
 10
1378.3233678248921
 20
818.79634212589349
 30
0.0
  0
POINT
  5
7E40
  8
DEFPOINTS
  6
CONTINUOUS
 62
     0
 10
1628.3233678248921
 20
818.79634212589349
 30
0.0
  0
POINT
  5
7E41
  8
DEFPOINTS
  6
CONTINUOUS
 62
     0
 10
1628.3233678248921
 20
742.47827912589355
 30
0.0
  0
ENDBLK
  5
7C2A
  8
0
  0
BLOCK
  8
0
  2
*D14
 70
     1
 10
0.0
 20
0.0
 30
0.0
  3
*D14
  1

  0
LINE
  5
7E42
  8
3
  6
CONTINUOUS
 62
     0
 10
1004.137099
 20
1404.796342125893
 30
0.0
 11
1201.4518285377369
 21
1404.796342125893
 31
0.0
  0
LINE
  5
7E43
  8
3
  6
CONTINUOUS
 62
     0
 10
994.13709900000015
 20
818.79634212589349
 30
0.0
 11
1201.4518285377369
 21
818.79634212589349
 31
0.0
  0
LINE
  5
7E44
  8
3
  6
CONTINUOUS
 62
     0
 10
1191.4518285377369
 20
1384.796342125893
 30
0.0
 11
1191.4518285377369
 21
838.79634212589337
 31
0.0
  0
INSERT
  5
7E45
  8
3
  6
CONTINUOUS
 62
     0
  2
_OPEN
 10
1191.4518285377369
 20
1404.796342125893
 30
0.0
 41
20.0
 42
20.0
 43
20.0
 50
90.0
  0
INSERT
  5
7E46
  8
3
  6
CONTINUOUS
 62
     0
  2
_OPEN
 10
1191.4518285377369
 20
818.79634212589349
 30
0.0
 41
20.0
 42
20.0
 43
20.0
 50
270.0
  0
TEXT
  8
3
  40
30
  5
7E76
  62
0
  72
0
  71
0
 10
1106.45
 20
1042.31
 30
0.000000
  1
586
  0
POINT
  5
7E48
  8
DEFPOINTS
  6
CONTINUOUS
 62
     0
 10
999.13709900000003
 20
1404.796342125893
 30
0.0
  0
POINT
  5
7E49
  8
DEFPOINTS
  6
CONTINUOUS
 62
     0
 10
989.13709900000003
 20
818.79634212589349
 30
0.0
  0
POINT
  5
7E4A
  8
DEFPOINTS
  6
CONTINUOUS
 62
     0
 10
1191.4518285377369
 20
818.79634212589349
 30
0.0
  0
ENDBLK
  5
7C97
  8
0
  0
BLOCK
  8
0
  2
*D15
 70
     1
 10
0.0
 20
0.0
 30
0.0
  3
*D15
  1

  0
LINE
  5
7E4B
  8
3
 62
     0
 10
274.13709899999998
 20
2129.644350715515
 30
0.0
 11
211.40589271620991
 21
2129.644350715515
 31
0.0
  0
LINE
  5
7E4C
  8
3
 62
     0
 10
274.13709899999998
 20
1879.6443507155141
 30
0.0
 11
211.40589271620979
 21
1879.6443507155141
 31
0.0
  0
LINE
  5
7E4D
  8
3
 62
     0
 10
221.40589271620991
 20
2109.644350715515
 30
0.0
 11
221.40589271620979
 21
1899.6443507155141
 31
0.0
  0
INSERT
  5
7E4E
  8
3
 62
     0
  2
_OPEN
 10
221.40589271620991
 20
2129.644350715515
 30
0.0
 41
20.0
 42
20.0
 43
20.0
 50
90.0
  0
INSERT
  5
7E4F
  8
3
 62
     0
  2
_OPEN
 10
221.40589271620979
 20
1879.6443507155141
 30
0.0
 41
20.0
 42
20.0
 43
20.0
 50
270.0
  0
TEXT
  8
3
  40
30
  5
7E77
  62
0
  72
0
  71
0
 10
136.406
 20
1950.41
 30
0.000000
  1
250
  0
POINT
  5
7E51
  8
DEFPOINTS
 62
     0
 10
279.13709899999998
 20
2129.644350715515
 30
0.0
  0
POINT
  5
7E52
  8
DEFPOINTS
 62
     0
 10
279.13709899999998
 20
1879.6443507155141
 30
0.0
  0
POINT
  5
7E53
  8
DEFPOINTS
 62
     0
 10
221.40589271620979
 20
1879.6443507155141
 30
0.0
  0
ENDBLK
  5
7CA8
  8
0
  0
BLOCK
  8
0
  2
*D16
 70
     1
 10
0.0
 20
0.0
 30
0.0
  3
*D16
  1

  0
LINE
  5
7E54
  8
3
 62
     0
 10
1628.3233678248921
 20
813.79634212589337
 30
0.0
 11
1628.3233678248921
 21
732.47827912589355
 31
0.0
  0
LINE
  5
7E55
  8
3
 62
     0
 10
1636.3233678248921
 20
796.94582012589342
 30
0.0
 11
1636.3233678248921
 21
732.47827912589355
 31
0.0
  0
LINE
  5
7E56
  8
3
 62
     0
 10
1608.3233678248921
 20
742.47827912589355
 30
0.0
 11
1588.3233678248921
 21
742.47827912589355
 31
0.0
  0
LINE
  5
7E57
  8
3
 62
     0
 10
1656.3233678248921
 20
742.47827912589355
 30
0.0
 11
1716.3233678248921
 21
742.47827912589355
 31
0.0
  0
LINE
  5
7E58
  8
3
 62
     0
 10
1628.3233678248921
 20
742.47827912589355
 30
0.0
 11
1636.3233678248921
 21
742.47827912589355
 31
0.0
  0
INSERT
  5
7E59
  8
3
 62
     0
  2
_OPEN
 10
1628.3233678248921
 20
742.47827912589355
 30
0.0
 41
20.0
 42
20.0
 43
20.0
  0
INSERT
  5
7E5A
  8
3
 62
     0
  2
_OPEN
 10
1636.3233678248921
 20
742.47827912589355
 30
0.0
 41
20.0
 42
20.0
 43
20.0
 50
180.0
  0
TEXT
  8
3
  40
30
  5
7E78
  62
0
  72
0
  71
0
 10
1636.32
 20
714.378
 30
0.000000
  1
8
  0
POINT
  5
7E5C
  8
DEFPOINTS
 62
     0
 10
1628.3233678248921
 20
818.79634212589349
 30
0.0
  0
POINT
  5
7E5D
  8
DEFPOINTS
 62
     0
 10
1636.3233678248921
 20
801.94582012589353
 30
0.0
  0
POINT
  5
7E5E
  8
DEFPOINTS
 62
     0
 10
1636.3233678248921
 20
742.47827912589355
 30
0.0
  0
ENDBLK
  5
7CC6
  8
0
  0
BLOCK
  8
0
  2
*D17
 70
     1
 10
0.0
 20
0.0
 30
0.0
  3
*D17
  1

  0
LINE
  5
7E5F
  8
3
 62
     0
 10
999.13709900000003
 20
1409.796342125893
 30
0.0
 11
999.13709900000003
 21
1516.2217085286011
 31
0.0
  0
LINE
  5
7E60
  8
3
 62
     0
 10
279.13709899999998
 20
903.79634212589337
 30
0.0
 11
279.13709899999998
 21
1516.2217085286011
 31
0.0
  0
LINE
  5
7E61
  8
3
 62
     0
 10
979.13709900000003
 20
1506.2217085286011
 30
0.0
 11
299.13709899999998
 21
1506.2217085286011
 31
0.0
  0
INSERT
  5
7E62
  8
3
 62
     0
  2
_OPEN
 10
999.13709900000003
 20
1506.2217085286011
 30
0.0
 41
20.0
 42
20.0
 43
20.0
  0
INSERT
  5
7E63
  8
3
 62
     0
  2
_OPEN
 10
279.13709899999998
 20
1506.2217085286011
 30
0.0
 41
20.0
 42
20.0
 43
20.0
 50
180.0
  0
TEXT
  8
3
  40
30
  5
7E79
  62
0
  72
0
  71
0
 10
564.299
 20
1478.12
 30
0.000000
  1
720
  0
POINT
  5
7E65
  8
DEFPOINTS
 62
     0
 10
999.13709900000003
 20
1404.796342125893
 30
0.0
  0
POINT
  5
7E66
  8
DEFPOINTS
 62
     0
 10
279.13709899999998
 20
898.79634212589349
 30
0.0
  0
POINT
  5
7E67
  8
DEFPOINTS
 62
     0
 10
279.13709899999998
 20
1506.2217085286011
 30
0.0
  0
ENDBLK
  5
7CE8
  8
0
  0
ENDSEC
  0
SECTION
  2
ENTITIES
  0
LINE
  5
7A80
  8
1
  6
CONTINUOUS
 10
413.03709900000013
 20
1013.796342125893
 30
0.0
 11
771.03709900000001
 21
1190.6963421258929
 31
0.0
  0
LINE
  5
7A81
  8
1
  6
CONTINUOUS
 10
457.43709899999999
 20
917.59634212589356
 30
0.0
 11
824.23709900000006
 21
1075.4963421258931
 31
0.0
  0
LINE
  5
7A82
  8
1
  6
CONTINUOUS
 10
799.33709899999985
 20
1258.796342125893
 30
0.0
 11
344.13709899999998
 21
1058.796342125893
 31
0.0
  0
LINE
  5
7A83
  8
1
  6
CONTINUOUS
 10
279.13709899999998
 20
878.79634212589337
 30
0.0
 11
989.13709900000003
 21
878.79634212589337
 31
0.0
  0
LINE
  5
7A84
  8
1
  6
CONTINUOUS
 10
279.13709899999998
 20
818.79634212589349
 30
0.0
 11
989.13709900000003
 21
818.79634212589349
 31
0.0
  0
ARC
  5
7A85
  8
1
  6
CONTINUOUS
 10
782.13709900000003
 20
1150.796342125893
 30
0.0
 40
203.6999999999999
 50
184.59999999999999
 51
275.49999999999989
  0
LINE
  5
7A86
  8
1
  6
CONTINUOUS
 10
533.83709899999985
 20
898.79634212589349
 30
0.0
 11
279.13709899999998
 21
898.79634212589349
 31
0.0
  0
LINE
  5
7A87
  8
1
  6
CONTINUOUS
 10
344.13709899999998
 20
878.79634212589337
 30
0.0
 11
344.13709899999998
 21
1058.796342125893
 31
0.0
  0
LINE
  5
7A88
  8
1
  6
CONTINUOUS
 10
279.13709899999998
 20
898.79634212589349
 30
0.0
 11
279.13709899999998
 21
878.79634212589337
 31
0.0
  0
LINE
  5
7A89
  8
1
  6
CONTINUOUS
 10
279.13709899999998
 20
878.79634212589337
 30
0.0
 11
279.13709899999998
 21
818.79634212589349
 31
0.0
  0
LINE
  5
7A8A
  8
2
  6
CENTER
 10
383.53709900000013
 20
966.29634212589337
 30
0.0
 11
489.53709900000013
 21
966.29634212589337
 31
0.0
  0
CIRCLE
  5
7A8B
  8
1
  6
CONTINUOUS
 10
436.53709900000013
 20
966.29634212589337
 30
0.0
 40
53.0
  0
ARC
  5
7A8C
  8
1
  6
CONTINUOUS
 10
436.53709900000013
 20
966.29634212589337
 30
0.0
 40
75.799999999999997
 50
322.89999999999992
 51
217.09999999999991
  0
LINE
  5
7A8D
  8
2
  6
CENTER
 10
436.53709900000013
 20
913.29634212589349
 30
0.0
 11
436.53709900000013
 21
1019.296342125893
 31
0.0
  0
LINE
  5
7A8E
  8
1
  6
CONTINUOUS
 10
370.53709900000013
 20
906.29634212589349
 30
0.0
 11
376.03709900000013
 21
920.59634212589356
 31
0.0
  0
LINE
  5
7A8F
  8
1
  6
CONTINUOUS
 10
370.53709900000013
 20
898.79634212589349
 30
0.0
 11
370.53709900000013
 21
906.29634212589349
 31
0.0
  0
LINE
  5
7A90
  8
1
  6
CONTINUOUS
 10
533.83709899999985
 20
878.79634212589337
 30
0.0
 11
533.83709899999985
 21
898.79634212589349
 31
0.0
  0
LINE
  5
7A91
  8
1
  6
CONTINUOUS
 10
502.53709900000013
 20
898.79634212589349
 30
0.0
 11
502.53709900000013
 21
906.29634212589349
 31
0.0
  0
LINE
  5
7A92
  8
1
  6
CONTINUOUS
 10
502.53709900000013
 20
906.29634212589349
 30
0.0
 11
496.93709899999988
 21
920.59634212589356
 31
0.0
  0
POINT
  5
7A93
  8
1
  6
CONTINUOUS
 10
506.93709899999999
 20
966.29634212589337
 30
0.0
  0
CIRCLE
  5
7A94
  8
1
  6
CONTINUOUS
 10
799.13709900000003
 20
1133.796342125893
 30
0.0
 40
125.0
  0
CIRCLE
  5
7A95
  8
1
  6
CONTINUOUS
 10
799.13709900000003
 20
1133.796342125893
 30
0.0
 40
145.0
  0
CIRCLE
  5
7A96
  8
1
  6
CONTINUOUS
 10
799.13709900000003
 20
1133.796342125893
 30
0.0
 40
63.5
  0
LINE
  5
7A97
  8
1
  6
CONTINUOUS
 10
924.13709900000003
 20
878.79634212589337
 30
0.0
 11
924.13709900000003
 21
1188.796342125893
 31
0.0
  0
LINE
  5
7A98
  8
1
  6
CONTINUOUS
 10
959.13709899999992
 20
878.79634212589337
 30
0.0
 11
959.13709899999992
 21
1199.8963421258929
 31
0.0
  0
LINE
  5
7A99
  8
1
  6
CONTINUOUS
 10
639.13709900000003
 20
1199.8963421258929
 30
0.0
 11
639.13709900000003
 21
878.79634212589337
 31
0.0
  0
ARC
  5
7A9A
  8
1
  6
CONTINUOUS
 10
785.13709900000003
 20
1119.796342125893
 30
0.0
 40
172.59999999999991
 50
275.49999999999989
 51
1.3
  0
LINE
  5
7A9B
  8
2
  6
CENTER
 10
799.13709900000003
 20
2271.5367897155138
 30
0.0
 11
799.13709900000003
 21
1767.9845327155149
 31
0.0
  0
LINE
  5
7A9C
  8
1
  6
CONTINUOUS
 10
989.13709900000003
 20
878.79634212589337
 30
0.0
 11
989.13709900000003
 21
818.79634212589349
 31
0.0
  0
LINE
  5
7A9D
  8
1
  6
CONTINUOUS
 10
860.73709900000006
 20
1283.796342125893
 30
0.0
 11
737.53709900000001
 21
1283.796342125893
 31
0.0
  0
LINE
  5
7A9E
  8
1
  6
CONTINUOUS
 10
959.13709899999992
 20
1100.4963421258931
 30
0.0
 11
639.13709900000003
 21
1100.4963421258931
 31
0.0
  0
ARC
  5
7A9F
  8
1
  6
CONTINUOUS
 10
819.13709900000015
 20
1153.796342125893
 30
0.0
 40
240.90000000000001
 50
94.900000000000006
 51
184.59999999999999
  0
LINE
  5
7AA0
  8
2
  6
CENTER
 10
1753.4610798248921
 20
1133.796342125893
 30
0.0
 11
1274.2510948248921
 21
1133.796342125893
 31
0.0
  0
LINE
  5
7AA1
  8
1
  6
CONTINUOUS
 10
737.53709900000001
 20
1283.796342125893
 30
0.0
 11
639.13709900000003
 21
1199.8963421258929
 31
0.0
  0
LINE
  5
7AA2
  8
1
  6
CONTINUOUS
 10
999.13709900000003
 20
1383.796342125893
 30
0.0
 11
979.13709900000003
 21
1363.796342125893
 31
0.0
  0
LINE
  5
7AA3
  8
1
  6
CONTINUOUS
 10
999.13709900000003
 20
1112.796342125893
 30
0.0
 11
999.13709900000003
 21
1404.796342125893
 31
0.0
  0
LINE
  5
7AA4
  8
1
  6
CONTINUOUS
 10
924.13709900000003
 20
1188.796342125893
 30
0.0
 11
799.33709899999985
 21
1258.796342125893
 31
0.0
  0
LINE
  5
7AA5
  8
1
  6
CONTINUOUS
 10
860.73709900000006
 20
1283.796342125893
 30
0.0
 11
959.13709899999992
 21
1199.8963421258929
 31
0.0
  0
LINE
  5
7AA6
  8
1
  6
CONTINUOUS
 10
979.13709900000003
 20
1133.796342125893
 30
0.0
 11
979.13709900000003
 21
1123.796342125893
 31
0.0
  0
LINE
  5
7AA7
  8
1
  6
CONTINUOUS
 10
999.13709900000003
 20
1133.796342125893
 30
0.0
 11
979.13709900000003
 21
1133.796342125893
 31
0.0
  0
LINE
  5
7AA8
  8
1
  6
CONTINUOUS
 10
999.13709900000003
 20
1133.796342125893
 30
0.0
 11
979.13709900000003
 21
1153.796342125893
 31
0.0
  0
LINE
  5
7AA9
  8
1
  6
CONTINUOUS
 10
979.13709900000003
 20
1363.796342125893
 30
0.0
 11
979.13709900000003
 21
1153.796342125893
 31
0.0
  0
LINE
  5
7AAA
  8
1
  6
CONTINUOUS
 10
979.13709900000003
 20
1123.796342125893
 30
0.0
 11
957.73709899999994
 21
1123.796342125893
 31
0.0
  0
LINE
  5
7AAB
  8
1
  6
CONTINUOUS
 10
979.13709900000003
 20
1393.796342125893
 30
0.0
 11
798.73709899999994
 21
1393.796342125893
 31
0.0
  0
LINE
  5
7AAC
  8
1
  6
CONTINUOUS
 10
999.13709900000003
 20
1383.796342125893
 30
0.0
 11
979.13709900000003
 21
1383.796342125893
 31
0.0
  0
LINE
  5
7AAD
  8
1
  6
CONTINUOUS
 10
979.13709900000003
 20
1393.796342125893
 30
0.0
 11
979.13709900000003
 21
1383.796342125893
 31
0.0
  0
LINE
  5
7AAE
  8
1
  6
CONTINUOUS
 10
1408.3233678248921
 20
1095.596342125893
 30
0.0
 11
1537.3233678248921
 21
1199.8963421258929
 31
0.0
  0
LINE
  5
7AAF
  8
1
  6
CONTINUOUS
 10
1378.3233678248921
 20
818.79634212589349
 30
0.0
 11
1628.3233678248921
 21
818.79634212589349
 31
0.0
  0
LINE
  5
7AB0
  8
1
  6
CONTINUOUS
 10
1296.3233678248921
 20
878.79634212589337
 30
0.0
 11
1628.3233678248921
 21
878.79634212589337
 31
0.0
  0
LINE
  5
7AB1
  8
1
  6
CONTINUOUS
 10
1351.3233678248921
 20
1197.296342125893
 30
0.0
 11
1351.3233678248921
 21
1070.296342125893
 31
0.0
  0
LINE
  5
7AB2
  8
1
  6
CONTINUOUS
 10
1316.3233678248921
 20
1197.296342125893
 30
0.0
 11
1316.3233678248921
 21
1070.296342125893
 31
0.0
  0
LINE
  5
7AB3
  8
1
  6
CONTINUOUS
 10
1371.3233678248921
 20
878.79634212589337
 30
0.0
 11
1371.3233678248921
 21
1258.796342125893
 31
0.0
  0
LINE
  5
7AB4
  8
1
  6
CONTINUOUS
 10
1296.3233678248921
 20
878.79634212589337
 30
0.0
 11
1296.3233678248921
 21
1258.796342125893
 31
0.0
  0
LINE
  5
7AB5
  8
1
  6
CONTINUOUS
 10
1408.3233678248921
 20
878.79634212589337
 30
0.0
 11
1408.3233678248921
 21
1095.596342125893
 31
0.0
  0
LINE
  5
7AB6
  8
1
  6
CONTINUOUS
 10
1351.3233678248921
 20
978.29634212589337
 30
0.0
 11
1408.3233678248921
 21
978.29634212589337
 31
0.0
  0
LINE
  5
7AB7
  8
1
  6
CONTINUOUS
 10
1351.3233678248921
 20
954.29634212589326
 30
0.0
 11
1408.3233678248921
 21
954.29634212589326
 31
0.0
  0
LINE
  5
7AB8
  8
1
  6
CONTINUOUS
 10
1351.3233678248921
 20
1019.296342125893
 30
0.0
 11
1351.3233678248921
 21
913.29634212589349
 31
0.0
  0
LINE
  5
7AB9
  8
1
  6
CONTINUOUS
 10
1316.3233678248921
 20
913.29634212589349
 30
0.0
 11
1351.3233678248921
 21
913.29634212589349
 31
0.0
  0
LINE
  5
7ABA
  8
1
  6
CONTINUOUS
 10
1316.3233678248921
 20
1019.296342125893
 30
0.0
 11
1316.3233678248921
 21
913.29634212589349
 31
0.0
  0
LINE
  5
7ABB
  8
1
  6
CONTINUOUS
 10
1316.3233678248921
 20
1019.296342125893
 30
0.0
 11
1351.3233678248921
 21
1019.296342125893
 31
0.0
  0
LINE
  5
7ABC
  8
1
  6
CONTINUOUS
 10
1316.3233678248921
 20
1070.296342125893
 30
0.0
 11
1351.3233678248921
 21
1070.296342125893
 31
0.0
  0
LINE
  5
7ABD
  8
1
  6
CONTINUOUS
 10
1378.3233678248921
 20
878.79634212589337
 30
0.0
 11
1378.3233678248921
 21
818.79634212589349
 31
0.0
  0
LINE
  5
7ABE
  8
1
  6
CONTINUOUS
 10
1351.3233678248921
 20
1121.796342125893
 30
0.0
 11
1440.723367824892
 21
1121.796342125893
 31
0.0
  0
LINE
  5
7ABF
  8
1
  6
CONTINUOUS
 10
1351.3233678248921
 20
1145.796342125893
 30
0.0
 11
1470.423367824892
 21
1145.796342125893
 31
0.0
  0
LINE
  5
7AC0
  8
1
  6
CONTINUOUS
 10
1296.3233678248921
 20
1258.796342125893
 30
0.0
 11
1371.3233678248921
 21
1258.796342125893
 31
0.0
  0
LINE
  5
7AC1
  8
1
  6
CONTINUOUS
 10
1316.3233678248921
 20
1197.296342125893
 30
0.0
 11
1351.3233678248921
 21
1197.296342125893
 31
0.0
  0
LINE
  5
7AC2
  8
1
  6
CONTINUOUS
 10
1546.3233678248921
 20
1384.796342125893
 30
0.0
 11
1546.3233678248921
 21
934.8963421258934
 31
0.0
  0
LINE
  5
7AC3
  8
1
  6
CONTINUOUS
 10
1726.3233678248921
 20
934.8963421258934
 30
0.0
 11
1726.3233678248921
 21
1384.796342125893
 31
0.0
  0
LINE
  5
7AC4
  8
1
  6
CONTINUOUS
 10
1537.3233678248921
 20
1280.796342125893
 30
0.0
 11
1537.3233678248921
 21
878.79634212589337
 31
0.0
  0
LINE
  5
7AC5
  8
1
  6
CONTINUOUS
 10
1735.3233678248921
 20
1280.796342125893
 30
0.0
 11
1735.3233678248921
 21
986.79634212589326
 31
0.0
  0
LINE
  5
7AC6
  8
1
  6
CONTINUOUS
 10
1557.3233678248921
 20
922.89634212589351
 30
0.0
 11
1715.3233678248921
 21
922.89634212589351
 31
0.0
  0
ARC
  5
7AC7
  8
1
  6
CONTINUOUS
 10
1558.3233678248921
 20
934.8963421258934
 30
0.0
 40
12.0
 50
180.0
 51
270.0
  0
ARC
  5
7AC8
  8
1
  6
CONTINUOUS
 10
1557.3233678248921
 20
934.8963421258934
 30
0.0
 40
12.0
 50
180.0
 51
270.0
  0
LINE
  5
7AC9
  8
1
  6
CONTINUOUS
 10
1546.3233678248921
 20
986.79634212589326
 30
0.0
 11
1537.3233678248921
 21
986.79634212589326
 31
0.0
  0
LINE
  5
7ACA
  8
1
  6
CONTINUOUS
 10
1628.3233678248921
 20
878.79634212589337
 30
0.0
 11
1628.3233678248921
 21
818.79634212589349
 31
0.0
  0
ARC
  5
7ACB
  8
1
  6
CONTINUOUS
 10
1714.3233678248921
 20
934.8963421258934
 30
0.0
 40
12.0
 50
270.0
 51
0.0
  0
LINE
  5
7ACC
  8
1
  6
CONTINUOUS
 10
1726.3233678248921
 20
986.79634212589326
 30
0.0
 11
1735.3233678248921
 21
986.79634212589326
 31
0.0
  0
LINE
  5
7ACD
  8
1
  6
CONTINUOUS
 10
1546.3233678248921
 20
1132.796342125893
 30
0.0
 11
1726.3233678248921
 21
1384.796342125893
 31
0.0
  0
LINE
  5
7ACE
  8
1
  6
CONTINUOUS
 10
1546.3233678248921
 20
1384.796342125893
 30
0.0
 11
1726.3233678248921
 21
1132.796342125893
 31
0.0
  0
LINE
  5
7ACF
  8
1
  6
CONTINUOUS
 10
1726.3233678248921
 20
1384.796342125893
 30
0.0
 11
1546.3233678248921
 21
1384.796342125893
 31
0.0
  0
LINE
  5
7AD0
  8
1
  6
CONTINUOUS
 10
1546.3233678248921
 20
1132.796342125893
 30
0.0
 11
1726.3233678248921
 21
1132.796342125893
 31
0.0
  0
LINE
  5
7AD1
  8
1
  6
CONTINUOUS
 10
1546.3233678248921
 20
1280.796342125893
 30
0.0
 11
1537.3233678248921
 21
1280.796342125893
 31
0.0
  0
LINE
  5
7AD2
  8
1
  6
CONTINUOUS
 10
1726.3233678248921
 20
1280.796342125893
 30
0.0
 11
1735.3233678248921
 21
1280.796342125893
 31
0.0
  0
LINE
  5
7AD3
  8
1
  6
CONTINUOUS
 10
787.13709900000003
 20
1879.6443507155141
 30
0.0
 11
448.43709899999999
 21
1879.6443507155141
 31
0.0
  0
LINE
  5
7AD4
  8
1
  6
CONTINUOUS
 10
924.13709900000003
 20
1872.6443507155141
 30
0.0
 11
344.13709899999998
 21
1872.6443507155141
 31
0.0
  0
LINE
  5
7AD5
  8
1
  6
CONTINUOUS
 10
924.13709900000003
 20
1797.644350715515
 30
0.0
 11
344.13709899999998
 21
1797.644350715515
 31
0.0
  0
LINE
  5
7AD6
  8
1
  6
CONTINUOUS
 10
588.23709899999994
 20
2129.644350715515
 30
0.0
 11
279.13709899999998
 21
2129.644350715515
 31
0.0
  0
LINE
  5
7AD7
  8
1
  6
CONTINUOUS
 10
424.43709899999999
 20
1879.6443507155141
 30
0.0
 11
279.13709899999998
 21
1879.6443507155141
 31
0.0
  0
LINE
  5
7AD8
  8
1
  6
CONTINUOUS
 10
344.13709899999998
 20
1797.644350715515
 30
0.0
 11
344.13709899999998
 21
1872.6443507155141
 31
0.0
  0
LINE
  5
7AD9
  8
1
  6
CONTINUOUS
 10
279.13709899999998
 20
2129.644350715515
 30
0.0
 11
279.13709899999998
 21
1879.6443507155141
 31
0.0
  0
LINE
  5
7ADA
  8
1
  6
CONTINUOUS
 10
424.43709899999999
 20
1852.6443507155141
 30
0.0
 11
424.43709899999999
 21
1903.944350715514
 31
0.0
  0
LINE
  5
7ADB
  8
1
  6
CONTINUOUS
 10
448.43709899999999
 20
1852.6443507155141
 30
0.0
 11
448.43709899999999
 21
1903.944350715514
 31
0.0
  0
LINE
  5
7ADC
  8
1
  6
CONTINUOUS
 10
489.43709899999988
 20
1817.6443507155141
 30
0.0
 11
383.43709899999999
 21
1817.6443507155141
 31
0.0
  0
LINE
  5
7ADD
  8
1
  6
CONTINUOUS
 10
489.43709899999988
 20
1852.6443507155141
 30
0.0
 11
383.43709899999999
 21
1852.6443507155141
 31
0.0
  0
LINE
  5
7ADE
  8
1
  6
CONTINUOUS
 10
383.43709899999999
 20
1817.6443507155141
 30
0.0
 11
383.43709899999999
 21
1852.6443507155141
 31
0.0
  0
LINE
  5
7ADF
  8
1
  6
CONTINUOUS
 10
489.43709899999988
 20
1817.6443507155141
 30
0.0
 11
489.43709899999988
 21
1852.6443507155141
 31
0.0
  0
LINE
  5
7AE0
  8
1
  6
CONTINUOUS
 10
513.13709900000003
 20
2107.9443507155138
 30
0.0
 11
361.63709899999998
 21
2107.9443507155138
 31
0.0
  0
LINE
  5
7AE1
  8
1
  6
CONTINUOUS
 10
513.13709900000003
 20
1903.944350715514
 30
0.0
 11
361.63709899999998
 21
1903.944350715514
 31
0.0
  0
LINE
  5
7AE2
  8
1
  6
CONTINUOUS
 10
361.63709899999998
 20
1903.944350715514
 30
0.0
 11
361.63709899999998
 21
2107.9443507155138
 31
0.0
  0
LINE
  5
7AE3
  8
1
  6
CONTINUOUS
 10
513.13709900000003
 20
1903.944350715514
 30
0.0
 11
513.13709900000003
 21
2107.9443507155138
 31
0.0
  0
LINE
  5
7AE4
  8
1
  6
CONTINUOUS
 10
979.13709900000003
 20
2198.4443507155152
 30
0.0
 11
979.13709900000003
 21
2076.8443507155139
 31
0.0
  0
LINE
  5
7AE5
  8
1
  6
CONTINUOUS
 10
588.23709899999994
 20
2215.4443507155138
 30
0.0
 11
588.23709899999994
 21
2059.8443507155139
 31
0.0
  0
LINE
  5
7AE6
  8
1
  6
CONTINUOUS
 10
999.13709900000003
 20
2248.644350715515
 30
0.0
 11
999.13709900000003
 21
2026.6443507155141
 31
0.0
  0
LINE
  5
7AE7
  8
1
  6
CONTINUOUS
 10
787.13709900000003
 20
1909.6443507155141
 30
0.0
 11
639.13709900000003
 21
1909.6443507155141
 31
0.0
  0
LINE
  5
7AE8
  8
1
  6
CONTINUOUS
 10
862.63709899999992
 20
1817.6443507155141
 30
0.0
 11
735.63709900000003
 21
1817.6443507155141
 31
0.0
  0
LINE
  5
7AE9
  8
1
  6
CONTINUOUS
 10
862.63709899999992
 20
1852.6443507155141
 30
0.0
 11
735.63709900000003
 21
1852.6443507155141
 31
0.0
  0
LINE
  5
7AEA
  8
1
  6
CONTINUOUS
 10
959.13709899999992
 20
2038.6443507155141
 30
0.0
 11
639.13709900000003
 21
2038.6443507155141
 31
0.0
  0
LINE
  5
7AEB
  8
1
  6
CONTINUOUS
 10
999.13709900000003
 20
2047.8443507155141
 30
0.0
 11
600.23709900000006
 21
2047.8443507155141
 31
0.0
  0
LINE
  5
7AEC
  8
1
  6
CONTINUOUS
 10
735.63709900000003
 20
1817.6443507155141
 30
0.0
 11
735.63709900000003
 21
1852.6443507155141
 31
0.0
  0
LINE
  5
7AED
  8
1
  6
CONTINUOUS
 10
639.13709900000003
 20
2038.6443507155141
 30
0.0
 11
639.13709900000003
 21
1909.6443507155141
 31
0.0
  0
LINE
  5
7AEE
  8
1
  6
CONTINUOUS
 10
652.13709900000003
 20
2047.8443507155141
 30
0.0
 11
652.13709900000003
 21
2038.6443507155141
 31
0.0
  0
ARC
  5
7AEF
  8
1
  6
CONTINUOUS
 10
600.23709900000006
 20
2059.8443507155139
 30
0.0
 40
12.0
 50
180.0
 51
270.0
  0
LINE
  5
7AF0
  8
1
  6
CONTINUOUS
 10
811.13709900000015
 20
1852.6443507155141
 30
0.0
 11
811.13709900000015
 21
2038.6443507155141
 31
0.0
  0
LINE
  5
7AF1
  8
1
  6
CONTINUOUS
 10
787.13709900000003
 20
1852.6443507155141
 30
0.0
 11
787.13709900000003
 21
2038.6443507155141
 31
0.0
  0
LINE
  5
7AF2
  8
1
  6
CONTINUOUS
 10
862.63709899999992
 20
1817.6443507155141
 30
0.0
 11
862.63709899999992
 21
1852.6443507155141
 31
0.0
  0
LINE
  5
7AF3
  8
1
  6
CONTINUOUS
 10
924.13709900000003
 20
1797.644350715515
 30
0.0
 11
924.13709900000003
 21
1872.6443507155141
 31
0.0
  0
LINE
  5
7AF4
  8
1
  6
CONTINUOUS
 10
959.13709899999992
 20
1909.6443507155141
 30
0.0
 11
811.13709900000015
 21
1909.6443507155141
 31
0.0
  0
LINE
  5
7AF5
  8
1
  6
CONTINUOUS
 10
989.13709900000003
 20
1879.6443507155141
 30
0.0
 11
811.13709900000015
 21
1879.6443507155141
 31
0.0
  0
LINE
  5
7AF6
  8
1
  6
CONTINUOUS
 10
959.13709899999992
 20
1909.6443507155141
 30
0.0
 11
959.13709899999992
 21
2038.6443507155141
 31
0.0
  0
LINE
  5
7AF7
  8
1
  6
CONTINUOUS
 10
989.13709900000003
 20
2046.8443507155141
 30
0.0
 11
989.13709900000003
 21
1879.6443507155141
 31
0.0
  0
LINE
  5
7AF8
  8
1
  6
CONTINUOUS
 10
946.13709900000003
 20
2047.8443507155141
 30
0.0
 11
946.13709900000003
 21
2038.6443507155141
 31
0.0
  0
LINE
  5
7AF9
  8
1
  6
CONTINUOUS
 10
999.13709900000003
 20
2056.8443507155139
 30
0.0
 11
979.13709900000003
 21
2076.8443507155139
 31
0.0
  0
LINE
  5
7AFA
  8
1
  6
CONTINUOUS
 10
652.13709900000003
 20
2236.6443507155141
 30
0.0
 11
946.13709900000003
 21
2236.6443507155141
 31
0.0
  0
LINE
  5
7AFB
  8
1
  6
CONTINUOUS
 10
999.13709900000003
 20
2227.4443507155152
 30
0.0
 11
600.23709900000006
 21
2227.4443507155152
 31
0.0
  0
LINE
  5
7AFC
  8
1
  6
CONTINUOUS
 10
652.13709900000003
 20
2228.4443507155138
 30
0.0
 11
652.13709900000003
 21
2236.6443507155141
 31
0.0
  0
ARC
  5
7AFD
  8
1
  6
CONTINUOUS
 10
600.23709900000006
 20
2215.4443507155138
 30
0.0
 40
12.0
 50
90.0
 51
180.0
  0
LINE
  5
7AFE
  8
1
  6
CONTINUOUS
 10
946.13709900000003
 20
2228.4443507155138
 30
0.0
 11
946.13709900000003
 21
2236.6443507155141
 31
0.0
  0
LINE
  5
7AFF
  8
1
  6
CONTINUOUS
 10
999.13709900000003
 20
2218.4443507155138
 30
0.0
 11
979.13709900000003
 21
2198.4443507155152
 31
0.0
  0
LINE
  5
7B00
  8
4
  6
CONTINUOUS
 10
1850.0
 20
500.0
 30
0.0
 11
1850.0
 21
300.0
 31
0.0
  0
LINE
  5
7B01
  8
4
  6
CONTINUOUS
 10
1150.0
 20
500.0
 30
0.0
 11
1150.0
 21
300.0
 31
0.0
  0
LINE
  5
7B02
  8
4
  6
CONTINUOUS
 10
650.0
 20
500.0
 30
0.0
 11
650.0
 21
300.0
 31
0.0
  0
LINE
  5
7B05
  8
4
  6
CONTINUOUS
 10
650.0
 20
300.0
 30
0.0
 11
1850.0
 21
300.0
 31
0.0
  0
LINE
  5
7B06
  8
4
  6
CONTINUOUS
 10
650.0
 20
400.0
 30
0.0
 11
1850.0
 21
400.0
 31
0.0
  0
TEXT
  5
7B07
  8
4
  6
CONTINUOUS
 10
688.50208099999998
 20
431.543026
 30
0.0
 40
50.0
  1
機器名称
  0
TEXT
  5
7B08
  8
4
  6
CONTINUOUS
 10
686.258106
 20
321.64515699999993
 30
0.0
 40
50.0
  1
機器型番
  0
TEXT
  5
7B09
  8
4
  6
CONTINUOUS
 10
1177.678744999999
 20
422.57176900000002
 30
0.0
 40
45.0
  1
ミツヤニューマルチファン
  0
TEXT
  5
7B0A
  8
4
  6
CONTINUOUS
 10
1186.6544960000001
 20
317.159584
 30
0.0
 40
50.0
  1
NM#1 1/2-1
  0
TEXT
  5
7B0C
  8
4
  6
CONTINUOUS
 10
904.78576499999997
 20
2383.4288409999999
 30
0.0
 40
54.0
  1
床置ベット
  0
TEXT
  5
7B0D
  8
4
  6
CONTINUOUS
 10
316.16759300000001
 20
2533.8809759999999
 30
0.0
 40
72.0
  1
ベルト駆動式片吸込片持多翼ファン
  0
LINE
  5
7B0E
  8
4
  6
CONTINUOUS
 10
250.0
 20
2469.408754
 30
0.0
 11
1850.0
 21
2469.408754
 31
0.0
  0
LINE
  5
7B0F
  8
4
  6
CONTINUOUS
 10
250.0
 20
2669.408754
 30
0.0
 11
1850.0
 21
2669.408754
 31
0.0
  0
LINE
  5
7B10
  8
4
  6
CONTINUOUS
 10
650.0
 20
500.0
 30
0.0
 11
1850.0
 21
500.0
 31
0.0
  0
LINE
  5
7B11
  8
4
  6
CONTINUOUS
 10
250.0
 20
2669.408754
 30
0.0
 11
250.0
 21
2469.408754
 31
0.0
  0
TEXT
  5
7B12
  8
4
  6
CONTINUOUS
 10
468.92693300000002
 20
2382.3194779999999
 30
0.0
 40
54.0
  1
右回転右横向
  0
TEXT
  5
7B13
  8
4
  6
CONTINUOUS
 10
1468.9695589999999
 20
2706.0610809999998
 30
0.0
 40
56.0
  1
No.
  0
TEXT
  5
7B14
  8
4
  6
CONTINUOUS
 10
1311.296063
 20
2383.4288409999999
 30
0.0
 40
54.0
  1
縮尺：1/10
  0
LINE
  5
7B15
  8
4
  6
CONTINUOUS
 10
1850.0
 20
2669.408754
 30
0.0
 11
1850.0
 21
2469.408754
 31
0.0
  0
LINE
  5
7B17
  8
4
  6
CONTINUOUS
 10
1440.617422
 20
2681.2635829999999
 30
0.0
 11
1440.617422
 21
2786.6522620000001
 31
0.0
  0
LINE
  5
7B18
  8
4
  6
CONTINUOUS
 10
1440.617422
 20
2786.6522620000001
 30
0.0
 11
1850.0
 21
2786.6522620000001
 31
0.0
  0
LINE
  5
7B19
  8
4
  6
CONTINUOUS
 10
1850.0
 20
2786.6522620000001
 30
0.0
 11
1850.0
 21
2681.2635829999999
 31
0.0
  0
LINE
  5
7B1A
  8
4
  6
CONTINUOUS
 10
1850.0
 20
2681.2635829999999
 30
0.0
 11
1440.617422
 21
2681.2635829999999
 31
0.0
  0
LINE
  5
7B1F
  8
2
  6
CENTER
 10
1636.3233678248921
 20
1443.776636125893
 30
0.0
 11
1636.3233678248921
 21
801.94582012589353
 31
0.0
  0
DIMENSION
  5
7B33
  8
3
  6
CONTINUOUS
  2
*D1
 10
799.13709900000003
 20
736.65150612589343
 30
0.0
 11
532.56329900000003
 21
736.65150612589343
 31
0.0
 70
   128
 13
279.13709899999998
 23
818.79634212589349
 33
0.0
 14
799.13709900000003
 24
818.79634212589349
 34
0.0
1001
ACAD
1000
DSTYLE
1002
{
1070
   287
1070
     3
1070
   287
1070
     3
1070
    40
1040
10.0
1070
   143
1040
0.039
1070
   172
1070
     1
1070
   271
1070
     0
1070
   279
1070
     0
1070
   288
1070
     1
1002
}
  0
DIMENSION
  5
7B3F
  8
3
  6
CONTINUOUS
  2
*D2
 10
989.13709900000003
 20
736.65150612589343
 30
0.0
 11
894.13709900000015
 21
761.65150612589343
 31
0.0
 70
     0
 13
799.13709900000003
 23
818.79634212589349
 33
0.0
 14
989.13709900000003
 24
818.79634212589349
 34
0.0
1001
ACAD
1000
DSTYLE
1002
{
1070
   287
1070
     4
1070
   287
1070
     4
1070
    40
1040
10.0
1070
    75
1070
     1
1070
   143
1040
0.039
1070
   172
1070
     1
1070
   271
1070
     0
1070
   279
1070
     1
1070
   288
1070
     1
1002
}
  0
DIMENSION
  5
7B4C
  8
3
  6
CONTINUOUS
  2
*D3
 10
1061.0254124002549
 20
1133.796342125893
 30
0.0
 11
1061.0254124002549
 21
1262.5417571258929
 31
0.0
 70
   128
 13
999.13709900000003
 23
1383.796342125893
 33
0.0
 14
999.13709900000003
 24
1133.796342125893
 34
0.0
 50
90.0
1001
ACAD
1000
DSTYLE
1002
{
1070
   287
1070
     3
1070
   287
1070
     3
1070
    40
1040
10.0
1070
   143
1040
0.039
1070
   172
1070
     1
1070
   271
1070
     0
1070
   279
1070
     0
1070
   288
1070
     1
1002
}
  0
DIMENSION
  5
7B59
  8
3
  6
CONTINUOUS
  2
*D4
 10
1126.8179604002551
 20
1133.796342125893
 30
0.0
 11
1126.8179604002551
 21
1267.3940811258931
 31
0.0
 70
   128
 13
979.13709900000003
 23
1393.796342125893
 33
0.0
 14
999.13709900000003
 24
1133.796342125893
 34
0.0
 50
90.0
1001
ACAD
1000
DSTYLE
1002
{
1070
   287
1070
     3
1070
   287
1070
     3
1070
    40
1040
10.0
1070
   143
1040
0.039
1070
   172
1070
     1
1070
   271
1070
     0
1070
   279
1070
     0
1070
   288
1070
     1
1002
}
  0
DIMENSION
  5
7B7F
  8
3
  6
CONTINUOUS
  2
*D5
 10
1126.8179604002551
 20
818.79634212589349
 30
0.0
 11
1101.8179604002551
 21
976.2963421258936
 31
0.0
 70
     0
 13
999.13709900000003
 23
1133.796342125893
 33
0.0
 14
989.13709900000003
 24
818.79634212589349
 34
0.0
 50
90.0
1001
ACAD
1000
DSTYLE
1002
{
1070
   287
1070
     4
1070
   287
1070
     4
1070
    40
1040
10.0
1070
    75
1070
     1
1070
   143
1040
0.039
1070
   172
1070
     1
1070
   271
1070
     0
1070
   279
1070
     1
1070
   288
1070
     1
1002
}
  0
DIMENSION
  5
7B99
  8
3
  6
CONTINUOUS
  2
*D6
 10
799.13709900000003
 20
1442.2518281258931
 30
0.0
 11
679.14900699999998
 21
1442.2518281258931
 31
0.0
 70
   128
 13
579.14771499999995
 23
1133.796342125893
 33
0.0
 14
799.13709900000003
 24
1393.796342125893
 34
0.0
1001
ACAD
1000
DSTYLE
1002
{
1070
   287
1070
     3
1070
   287
1070
     3
1070
    40
1040
10.0
1070
   143
1040
0.039
1070
   172
1070
     1
1070
   271
1070
     0
1070
   279
1070
     0
1070
   288
1070
     1
1002
}
  0
DIMENSION
  5
7BB1
  8
3
  6
CONTINUOUS
  2
*D7
 10
999.13709900000003
 20
1442.2518281258931
 30
0.0
 11
899.13709900000003
 21
1467.2518281258931
 31
0.0
 70
     0
 13
799.13709900000003
 23
1393.796342125893
 33
0.0
 14
999.13709900000003
 24
1404.796342125893
 34
0.0
1001
ACAD
1000
DSTYLE
1002
{
1070
   287
1070
     4
1070
   287
1070
     4
1070
    40
1040
10.0
1070
    75
1070
     1
1070
   143
1040
0.039
1070
   172
1070
     1
1070
   271
1070
     0
1070
   279
1070
     1
1070
   288
1070
     1
1002
}
  0
LINE
  5
7BB2
  8
2
  6
CENTER
 10
1041.2287789999989
 20
1133.796342125893
 30
0.0
 11
461.74443100000002
 21
1133.796342125893
 31
0.0
  0
DIMENSION
  5
7BBF
  8
3
  6
CONTINUOUS
  2
*D8
 10
989.13709900000003
 20
1701.4571147155141
 30
0.0
 11
608.14657799999998
 21
1701.4571147155141
 31
0.0
 70
   128
 13
279.13709899999998
 23
1879.6443507155141
 33
0.0
 14
989.13709900000003
 24
1879.6443507155141
 34
0.0
1001
ACAD
1000
DSTYLE
1002
{
1070
   287
1070
     3
1070
   287
1070
     3
1070
    40
1040
10.0
1070
   143
1040
0.039
1070
   172
1070
     1
1070
   271
1070
     0
1070
   279
1070
     0
1070
   288
1070
     1
1002
}
  0
LINE
  5
7BCE
  8
2
  6
CENTER
 10
559.97722399999998
 20
2137.644350715515
 30
0.0
 11
1035.9300880000001
 21
2137.644350715515
 31
0.0
  0
LINE
  5
7BCF
  8
2
  6
CENTER
 10
799.13709900000003
 20
1414.891489125893
 30
0.0
 11
799.13709900000003
 21
805.4682561258935
 31
0.0
  0
DIMENSION
  5
7BDC
  8
3
  6
CONTINUOUS
  2
*D9
 10
1726.3233678248921
 20
1438.5485971258929
 30
0.0
 11
1628.0287878248921
 21
1438.5485971258929
 31
0.0
 70
   128
 13
1546.3233678248921
 23
1384.796342125893
 33
0.0
 14
1726.3233678248921
 24
1384.796342125893
 34
0.0
1001
ACAD
1000
DSTYLE
1002
{
1070
   287
1070
     3
1070
   287
1070
     3
1070
    40
1040
10.0
1070
   143
1040
0.039
1070
   172
1070
     1
1070
   271
1070
     0
1070
   279
1070
     0
1070
   288
1070
     1
1002
}
  0
DIMENSION
  5
7BE9
  8
3
  6
CONTINUOUS
  2
*D10
 10
1636.3233678248921
 20
1503.834350125893
 30
0.0
 11
1474.365663824892
 21
1503.834350125893
 31
0.0
 70
   128
  1
MAX\P340
 13
1296.3233678248921
 23
1258.796342125893
 33
0.0
 14
1636.3233678248921
 24
1487.750039125893
 34
0.0
1001
ACAD
1000
DSTYLE
1002
{
1070
   287
1070
     3
1070
   287
1070
     3
1070
    40
1040
10.0
1070
   143
1040
0.039
1070
   172
1070
     1
1070
   271
1070
     0
1070
   279
1070
     0
1070
   288
1070
     1
1002
}
  0
DIMENSION
  5
7BF7
  8
3
  6
CONTINUOUS
  2
*D11
 10
1735.3233678248921
 20
1503.834350125893
 30
0.0
 11
1679.249825824892
 21
1503.834350125893
 31
0.0
 70
   128
 13
1636.3233678248921
 23
1487.750039125893
 33
0.0
 14
1735.3233678248921
 24
1280.796342125893
 34
0.0
1001
ACAD
1000
DSTYLE
1002
{
1070
   287
1070
     4
1070
   287
1070
     4
1070
    40
1040
10.0
1070
    75
1070
     1
1070
   143
1040
0.039
1070
   172
1070
     1
1070
   271
1070
     0
1070
   279
1070
     1
1070
   288
1070
     1
1002
}
  0
LINE
  5
7C0F
  8
3
  6
CONTINUOUS
 10
1735.3233678248921
 20
1258.796342125893
 30
0.0
 11
1749.884316824892
 21
1258.796342125893
 31
0.0
  0
LINE
  5
7C11
  8
3
  6
CONTINUOUS
 10
1735.3233678248921
 20
1008.796342125893
 30
0.0
 11
1748.239888824892
 21
1008.796342125893
 31
0.0
  0
DIMENSION
  5
7C1E
  8
3
  6
CONTINUOUS
  2
*D12
 10
1822.239375824892
 20
1008.796342125893
 30
0.0
 11
1822.239375824892
 21
1124.0301041258931
 31
0.0
 70
   128
 13
1735.3233678248921
 23
1258.796342125893
 33
0.0
 14
1735.3233678248921
 24
1008.796342125893
 34
0.0
 50
90.0
1001
ACAD
1000
DSTYLE
1002
{
1070
   287
1070
     3
1070
   287
1070
     3
1070
     3
1000
φ<>
1070
    40
1040
10.0
1070
   143
1040
0.039
1070
   172
1070
     1
1070
   271
1070
     0
1070
   279
1070
     0
1070
   288
1070
     1
1002
}
  0
DIMENSION
  5
7C2B
  8
3
  6
CONTINUOUS
  2
*D13
 10
1628.3233678248921
 20
742.47827912589355
 30
0.0
 11
1506.105183824892
 21
742.47827912589355
 31
0.0
 70
   128
 13
1378.3233678248921
 23
818.79634212589349
 33
0.0
 14
1628.3233678248921
 24
818.79634212589349
 34
0.0
1001
ACAD
1000
DSTYLE
1002
{
1070
   287
1070
     3
1070
   287
1070
     3
1070
    40
1040
10.0
1070
   143
1040
0.039
1070
   172
1070
     1
1070
   271
1070
     0
1070
   279
1070
     0
1070
   288
1070
     1
1002
}
  0
DIMENSION
  5
7C42
  8
3
  6
CONTINUOUS
  2
*D14
 10
1191.4518285377369
 20
818.79634212589349
 30
0.0
 11
1191.4518285377369
 21
1095.411360125893
 31
0.0
 70
   128
 13
999.13709900000003
 23
1404.796342125893
 33
0.0
 14
989.13709900000003
 24
818.79634212589349
 34
0.0
 50
90.0
1001
ACAD
1000
DSTYLE
1002
{
1070
   287
1070
     3
1070
   287
1070
     3
1070
    40
1040
10.0
1070
   143
1040
0.039
1070
   172
1070
     1
1070
   271
1070
     0
1070
   279
1070
     0
1070
   288
1070
     1
1002
}
  0
DIMENSION
  5
7CA9
  8
3
  2
*D15
 10
221.40589271620979
 20
1879.6443507155141
 30
0.0
 11
221.40589271620951
 21
2003.5139579956681
 31
0.0
 70
   128
 13
279.13709899999998
 23
2129.644350715515
 33
0.0
 14
279.13709899999998
 24
1879.6443507155141
 34
0.0
 50
90.0
1001
ACAD
1000
DSTYLE
1002
{
1070
   287
1070
     3
1070
   287
1070
     3
1070
    40
1040
10.0
1070
   143
1040
0.039
1070
   172
1070
     1
1070
   271
1070
     0
1070
   279
1070
     0
1070
   288
1070
     1
1002
}
  0
DIMENSION
  5
7CB9
  8
3
  2
*D16
 10
1636.3233678248921
 20
742.47827912589355
 30
0.0
 11
1696.3233678248921
 21
767.47827912589355
 31
0.0
 70
     0
 13
1628.3233678248921
 23
818.79634212589349
 33
0.0
 14
1636.3233678248921
 24
801.94582012589353
 34
0.0
1001
ACAD
1000
DSTYLE
1002
{
1070
   287
1070
     3
1070
   287
1070
     3
1070
    40
1040
10.0
1070
   143
1040
0.039
1070
   172
1070
     1
1070
   271
1070
     0
1070
   279
1070
     0
1070
   288
1070
     1
1002
}
  0
DIMENSION
  5
7CE9
  8
3
  2
*D17
 10
279.13709899999998
 20
1506.2217085286011
 30
0.0
 11
624.29868918262582
 21
1506.2217085286011
 31
0.0
 70
   128
 13
999.13709900000003
 23
1404.796342125893
 33
0.0
 14
279.13709899999998
 24
898.79634212589349
 34
0.0
1001
ACAD
1000
DSTYLE
1002
{
1070
   287
1070
     3
1070
   287
1070
     3
1070
    40
1040
10.0
1070
   143
1040
0.039
1070
   172
1070
     1
1070
   271
1070
     0
1070
   279
1070
     0
1070
   288
1070
     1
1002
}
  0
ENDSEC
  0
EOF
