  0
SECTION
  2
HEADER
  9
$ACADVER
  1
AC1009
  9
$INSBASE
 10
0.0
 20
0.0
 30
0.0
  9
$EXTMIN
 10
250.0
 20
300.0
 30
0.0
  9
$EXTMAX
 10
1850.0
 20
2786.6522620000001
 30
0.0
  9
$LIMMIN
 10
0.0
 20
0.0
  9
$LIMMAX
 10
297.0
 20
210.0
  9
$ORTHOMODE
 70
     0
  9
$REGENMODE
 70
     1
  9
$FILLMODE
 70
     0
  9
$QTEXTMODE
 70
     0
  9
$MIRRTEXT
 70
     1
  9
$DRAGMODE
 70
     2
  9
$LTSCALE
 40
100.0
  9
$OSMODE
 70
    37
  9
$ATTMODE
 70
     1
  9
$TEXTSIZE
 40
180.0
  9
$TRACEWID
 40
0.05
  9
$TEXTSTYLE
  7
STANDARD
  9
$CLAYER
  8
3
  9
$CELTYPE
  6
BYLAYER
  9
$CECOLOR
 62
   256
  9
$DIMSCALE
 40
10.0
  9
$DIMASZ
 40
2.0
  9
$DIMEXO
 40
0.5
  9
$DIMDLI
 40
10.0
  9
$DIMRND
 40
0.0
  9
$DIMDLE
 40
0.0
  9
$DIMEXE
 40
1.0
  9
$DIMTP
 40
1.0
  9
$DIMTM
 40
1.0
  9
$DIMTXT
 40
3.0
  9
$DIMCEN
 40
0.0
  9
$DIMTSZ
 40
0.0
  9
$DIMTOL
 70
     0
  9
$DIMLIM
 70
     0
  9
$DIMTIH
 70
     0
  9
$DIMTOH
 70
     0
  9
$DIMSE1
 70
     0
  9
$DIMSE2
 70
     0
  9
$DIMTAD
 70
     1
  9
$DIMZIN
 70
     8
  9
$DIMBLK
  1

  9
$DIMASO
 70
     1
  9
$DIMSHO
 70
     1
  9
$DIMPOST
  1

  9
$DIMAPOST
  1

  9
$DIMALT
 70
     0
  9
$DIMALTD
 70
     2
  9
$DIMALTF
 40
0.039
  9
$DIMLFAC
 40
1.0
  9
$DIMTOFL
 70
     1
  9
$DIMTVP
 40
0.0
  9
$DIMTIX
 70
     0
  9
$DIMSOXD
 70
     0
  9
$DIMSAH
 70
     1
  9
$DIMBLK1
  1
OPEN
  9
$DIMBLK2
  1
OPEN
  9
$DIMSTYLE
  2
IGA
  9
$DIMCLRD
 70
     0
  9
$DIMCLRE
 70
     0
  9
$DIMCLRT
 70
     0
  9
$DIMTFAC
 40
10.0
  9
$DIMGAP
 40
1.0
  9
$LUNITS
 70
     2
  9
$LUPREC
 70
     3
  9
$SKETCHINC
 40
0.1
  9
$FILLETRAD
 40
50.0
  9
$AUNITS
 70
     0
  9
$AUPREC
 70
     0
  9
$MENU
  1
acad
  9
$ELEVATION
 40
0.0
  9
$PELEVATION
 40
0.0
  9
$THICKNESS
 40
0.0
  9
$LIMCHECK
 70
     0
  9
$BLIPMODE
 70
     0
  9
$CHAMFERA
 40
0.5
  9
$CHAMFERB
 40
0.5
  9
$SKPOLY
 70
     0
  9
$TDCREATE
 40
2450739.5952263889
  9
$TDUPDATE
 40
2454953.8636977891
  9
$TDINDWG
 40
0.005016088
  9
$TDUSRTIMER
 40
0.005016088
  9
$USRTIMER
 70
     1
  9
$ANGBASE
 50
0.0
  9
$ANGDIR
 70
     0
  9
$PDMODE
 70
     0
  9
$PDSIZE
 40
0.0
  9
$PLINEWID
 40
0.0
  9
$COORDS
 70
     1
  9
$SPLFRAME
 70
     0
  9
$SPLINETYPE
 70
     6
  9
$SPLINESEGS
 70
     8
  9
$ATTDIA
 70
     0
  9
$ATTREQ
 70
     1
  9
$HANDLING
 70
 10241
  9
$HANDSEED
  5
7E76
  9
$SURFTAB1
 70
     6
  9
$SURFTAB2
 70
     6
  9
$SURFTYPE
 70
     6
  9
$SURFU
 70
     6
  9
$SURFV
 70
     6
  9
$UCSNAME
  2

  9
$UCSORG
 10
0.0
 20
0.0
 30
0.0
  9
$UCSXDIR
 10
1.0
 20
0.0
 30
0.0
  9
$UCSYDIR
 10
0.0
 20
1.0
 30
0.0
  9
$PUCSNAME
  2

  9
$PUCSORG
 10
0.0
 20
0.0
 30
0.0
  9
$PUCSXDIR
 10
1.0
 20
0.0
 30
0.0
  9
$PUCSYDIR
 10
0.0
 20
1.0
 30
0.0
  9
$USERI1
 70
     0
  9
$USERI2
 70
     0
  9
$USERI3
 70
     0
  9
$USERI4
 70
     0
  9
$USERI5
 70
     0
  9
$USERR1
 40
0.0
  9
$USERR2
 40
0.0
  9
$USERR3
 40
0.0
  9
$USERR4
 40
0.0
  9
$USERR5
 40
0.0
  9
$WORLDVIEW
 70
     1
  9
$SHADEDGE
 70
     3
  9
$SHADEDIF
 70
    70
  9
$TILEMODE
 70
     1
  9
$MAXACTVP
 70
    16
  9
$PLIMCHECK
 70
     0
  9
$PEXTMIN
 10
1.0000000000000000E+020
 20
1.0000000000000000E+020
 30
1.0000000000000000E+020
  9
$PEXTMAX
 10
-1.0000000000000000E+020
 20
-1.0000000000000000E+020
 30
-1.0000000000000000E+020
  9
$PLIMMIN
 10
0.0
 20
0.0
  9
$PLIMMAX
 10
12.0
 20
9.0
  9
$UNITMODE
 70
     0
  9
$VISRETAIN
 70
     0
  9
$PLINEGEN
 70
     0
  9
$PSLTSCALE
 70
     1
  0
ENDSEC
  0
SECTION
  2
TABLES
  0
TABLE
  2
VPORT
 70
     2
  0
VPORT
  2
*ACTIVE
 70
     0
 10
0.0
 20
0.0
 11
1.0
 21
1.0
 12
2929.5947787257251
 22
1964.4673228933721
 13
0.0
 23
0.0
 14
10.0
 24
10.0
 15
10.0
 25
10.0
 16
0.0
 26
0.0
 36
1.0
 17
0.0
 27
0.0
 37
0.0
 40
3860.4308917189128
 41
1.5051150895140659
 42
50.0
 43
0.0
 44
0.0
 50
0.0
 51
0.0
 71
     0
 72
   100
 73
     1
 74
     0
 75
     0
 76
     0
 77
     0
 78
     0
  0
ENDTAB
  0
TABLE
  2
LTYPE
 70
     2
  0
LTYPE
  2
CONTINUOUS
 70
     0
  3
Solid line
 72
    65
 73
     0
 40
0.0
  0
LTYPE
  2
CENTER
 70
     0
  3
____ _ ____ _ ____ _ ____ _ ____ _ ____ _ ____ 
 72
    65
 73
     4
 40
2.0
 49
1.25
 49
-0.25
 49
0.25
 49
-0.25
  0
ENDTAB
  0
TABLE
  2
LAYER
 70
     6
  0
LAYER
  2
0
 70
     0
 62
     7
  6
CONTINUOUS
  0
LAYER
  2
3
 70
     0
 62
     2
  6
CONTINUOUS
  0
LAYER
  2
2
 70
     0
 62
     3
  6
CENTER
  0
LAYER
  2
1
 70
     0
 62
     4
  6
CONTINUOUS
  0
LAYER
  2
4
 70
     0
 62
     7
  6
CONTINUOUS
  0
LAYER
  2
DEFPOINTS
 70
     0
 62
     7
  6
CONTINUOUS
  0
ENDTAB
  0
TABLE
  2
STYLE
 70
     1
  0
STYLE
  2
STANDARD
 70
     0
 40
0.0
 41
1.0
 50
0.0
 71
     0
 42
180.0
  3
simplex.shx
  4
extfont.shx
  0
ENDTAB
  0
TABLE
  2
VIEW
 70
     0
  0
ENDTAB
  0
TABLE
  2
UCS
 70
     0
  0
ENDTAB
  0
TABLE
  2
APPID
 70
     1
  0
APPID
  2
ACAD
 70
     0
  0
ENDTAB
  0
TABLE
  2
DIMSTYLE
 70
     1
  0
DIMSTYLE
  2
IGA
 70
     0
  3

  4

  5

  6
OPEN
  7
OPEN
 40
2.0
 41
2.0
 42
0.5
 43
10.0
 44
1.0
 45
0.0
 46
0.0
 47
1.0
 48
1.0
140
3.0
141
0.0
142
0.0
143
0.03937
144
1.0
145
0.0
146
10.0
147
1.0
 71
     0
 72
     0
 73
     0
 74
     0
 75
     0
 76
     0
 77
     1
 78
     8
170
     0
171
     2
172
     0
173
     1
174
     0
175
     0
176
     0
177
     0
178
     0
  0
ENDTAB
  0
ENDSEC
  0
SECTION
  2
BLOCKS
  0
BLOCK
  8
0
  2
$MODEL_SPACE
 70
     0
 10
0.0
 20
0.0
 30
0.0
  3
$MODEL_SPACE
  1

  0
ENDBLK
  5
1B
  8
0
  0
BLOCK
 67
     1
  8
0
  2
$PAPER_SPACE
 70
     0
 10
0.0
 20
0.0
 30
0.0
  3
$PAPER_SPACE
  1

  0
ENDBLK
  5
18
 67
     1
  8
0
  0
BLOCK
  8
0
  2
_OPEN
 70
     0
 10
0.0
 20
0.0
 30
0.0
  3
_OPEN
  1

  0
LINE
  5
7B22
  8
0
  6
BYBLOCK
 62
     0
 10
-1.0
 20
0.166667
 30
0.0
 11
0.0
 21
0.0
 31
0.0
  0
LINE
  5
7B23
  8
0
  6
BYBLOCK
 62
     0
 10
0.0
 20
0.0
 30
0.0
 11
-1.0
 21
-0.166667
 31
0.0
  0
LINE
  5
7B24
  8
0
  6
BYBLOCK
 62
     0
 10
0.0
 20
0.0
 30
0.0
 11
-1.0
 21
0.0
 31
0.0
  0
ENDBLK
  5
7B25
  8
0
  0
BLOCK
  8
0
  2
*D1
 70
     1
 10
0.0
 20
0.0
 30
0.0
  3
*D1
  1

  0
LINE
  5
7DCD
  8
3
  6
CONTINUOUS
 62
     0
 10
351.28617945822151
 20
826.26689567330686
 30
0.0
 11
351.28617945822151
 21
743.167688673307
 31
0.0
  0
LINE
  5
7DCE
  8
3
  6
CONTINUOUS
 62
     0
 10
541.28617945822168
 20
826.26689567330686
 30
0.0
 11
541.28617945822168
 21
743.167688673307
 31
0.0
  0
LINE
  5
7DCF
  8
3
  6
CONTINUOUS
 62
     0
 10
371.28617945822151
 20
753.167688673307
 30
0.0
 11
521.28617945822168
 21
753.167688673307
 31
0.0
  0
INSERT
  5
7DD0
  8
3
  6
CONTINUOUS
 62
     0
  2
_OPEN
 10
351.28617945822151
 20
753.167688673307
 30
0.0
 41
20.0
 42
20.0
 43
20.0
 50
180.0
  0
INSERT
  5
7DD1
  8
3
  6
CONTINUOUS
 62
     0
  2
_OPEN
 10
541.28617945822168
 20
753.167688673307
 30
0.0
 41
20.0
 42
20.0
 43
20.0
  0
TEXT
  8
3
  40
30
  5
7E64
  62
0
  72
0
  71
0
 10
388.349
 20
725.068
 30
0.000000
  1
190
  0
POINT
  5
7DD3
  8
DEFPOINTS
  6
CONTINUOUS
 62
     0
 10
351.28617945822151
 20
831.26689567330698
 30
0.0
  0
POINT
  5
7DD4
  8
DEFPOINTS
  6
CONTINUOUS
 62
     0
 10
541.28617945822168
 20
831.26689567330698
 30
0.0
  0
POINT
  5
7DD5
  8
DEFPOINTS
  6
CONTINUOUS
 62
     0
 10
541.28617945822168
 20
753.167688673307
 30
0.0
  0
ENDBLK
  5
7B32
  8
0
  0
BLOCK
  8
0
  2
*D2
 70
     1
 10
0.0
 20
0.0
 30
0.0
  3
*D2
  1

  0
LINE
  5
7DD6
  8
3
  6
CONTINUOUS
 62
     0
 10
1061.2861794582211
 20
826.26689567330686
 30
0.0
 11
1061.2861794582211
 21
743.167688673307
 31
0.0
  0
LINE
  5
7DD7
  8
3
  6
CONTINUOUS
 62
     0
 10
561.28617945822157
 20
753.167688673307
 30
0.0
 11
1041.2861794582211
 21
753.167688673307
 31
0.0
  0
INSERT
  5
7DD8
  8
3
  6
CONTINUOUS
 62
     0
  2
_OPEN
 10
541.28617945822168
 20
753.167688673307
 30
0.0
 41
20.0
 42
20.0
 43
20.0
 50
180.0
  0
INSERT
  5
7DD9
  8
3
  6
CONTINUOUS
 62
     0
  2
_OPEN
 10
1061.2861794582211
 20
753.167688673307
 30
0.0
 41
20.0
 42
20.0
 43
20.0
  0
TEXT
  8
3
  40
30
  5
7E65
  62
0
  72
0
  71
0
 10
741.286
 20
725.068
 30
0.000000
  1
520
  0
POINT
  5
7DDB
  8
DEFPOINTS
  6
CONTINUOUS
 62
     0
 10
541.28617945822168
 20
831.26689567330698
 30
0.0
  0
POINT
  5
7DDC
  8
DEFPOINTS
  6
CONTINUOUS
 62
     0
 10
1061.2861794582211
 20
831.26689567330698
 30
0.0
  0
POINT
  5
7DDD
  8
DEFPOINTS
  6
CONTINUOUS
 62
     0
 10
1061.2861794582211
 20
753.167688673307
 30
0.0
  0
ENDBLK
  5
7B3E
  8
0
  0
BLOCK
  8
0
  2
*D3
 70
     1
 10
0.0
 20
0.0
 30
0.0
  3
*D3
  1

  0
LINE
  5
7DDE
  8
3
  6
CONTINUOUS
 62
     0
 10
541.28617945822168
 20
1351.2668956733071
 30
0.0
 11
541.28617945822168
 21
1402.128673673307
 31
0.0
  0
LINE
  5
7DDF
  8
3
  6
CONTINUOUS
 62
     0
 10
791.28617945822168
 20
1351.2668956733071
 30
0.0
 11
791.28617945822168
 21
1402.128673673307
 31
0.0
  0
LINE
  5
7DE0
  8
3
  6
CONTINUOUS
 62
     0
 10
561.28617945822157
 20
1392.128673673307
 30
0.0
 11
771.28617945822168
 21
1392.128673673307
 31
0.0
  0
INSERT
  5
7DE1
  8
3
  6
CONTINUOUS
 62
     0
  2
_OPEN
 10
541.28617945822168
 20
1392.128673673307
 30
0.0
 41
20.0
 42
20.0
 43
20.0
 50
180.0
  0
INSERT
  5
7DE2
  8
3
  6
CONTINUOUS
 62
     0
  2
_OPEN
 10
791.28617945822168
 20
1392.128673673307
 30
0.0
 41
20.0
 42
20.0
 43
20.0
  0
TEXT
  8
3
  40
30
  5
7E66
  62
0
  72
0
  71
0
 10
610.338
 20
1364.03
 30
0.000000
  1
250
  0
POINT
  5
7DE4
  8
DEFPOINTS
  6
CONTINUOUS
 62
     0
 10
541.28617945822168
 20
1346.2668956733071
 30
0.0
  0
POINT
  5
7DE5
  8
DEFPOINTS
  6
CONTINUOUS
 62
     0
 10
791.28617945822168
 20
1346.2668956733071
 30
0.0
  0
POINT
  5
7DE6
  8
DEFPOINTS
  6
CONTINUOUS
 62
     0
 10
791.28617945822168
 20
1392.128673673307
 30
0.0
  0
ENDBLK
  5
7B4B
  8
0
  0
BLOCK
  8
0
  2
*D4
 70
     1
 10
0.0
 20
0.0
 30
0.0
  3
*D4
  1

  0
LINE
  5
7DE7
  8
3
  6
CONTINUOUS
 62
     0
 10
355.2967954582216
 20
1151.2668956733071
 30
0.0
 11
355.2967954582216
 21
1453.6997306733069
 31
0.0
  0
LINE
  5
7DE8
  8
3
  6
CONTINUOUS
 62
     0
 10
541.28617945822168
 20
1351.2668956733071
 30
0.0
 11
541.28617945822168
 21
1453.6997306733069
 31
0.0
  0
LINE
  5
7DE9
  8
3
  6
CONTINUOUS
 62
     0
 10
375.29679545822148
 20
1443.6997306733069
 30
0.0
 11
521.28617945822168
 21
1443.6997306733069
 31
0.0
  0
INSERT
  5
7DEA
  8
3
  6
CONTINUOUS
 62
     0
  2
_OPEN
 10
355.2967954582216
 20
1443.6997306733069
 30
0.0
 41
20.0
 42
20.0
 43
20.0
 50
180.0
  0
INSERT
  5
7DEB
  8
3
  6
CONTINUOUS
 62
     0
  2
_OPEN
 10
541.28617945822168
 20
1443.6997306733069
 30
0.0
 41
20.0
 42
20.0
 43
20.0
  0
TEXT
  8
3
  40
30
  5
7E67
  62
0
  72
0
  71
0
 10
379.581
 20
1415.60
 30
0.000000
  1
186
  0
POINT
  5
7DED
  8
DEFPOINTS
  6
CONTINUOUS
 62
     0
 10
355.2967954582216
 20
1146.2668956733071
 30
0.0
  0
POINT
  5
7DEE
  8
DEFPOINTS
  6
CONTINUOUS
 62
     0
 10
541.28617945822168
 20
1346.2668956733071
 30
0.0
  0
POINT
  5
7DEF
  8
DEFPOINTS
  6
CONTINUOUS
 62
     0
 10
541.28617945822168
 20
1443.6997306733069
 30
0.0
  0
ENDBLK
  5
7B58
  8
0
  0
BLOCK
  8
0
  2
*D5
 70
     1
 10
0.0
 20
0.0
 30
0.0
  3
*D5
  1

  0
LINE
  5
7DF0
  8
3
  6
CONTINUOUS
 62
     0
 10
801.28617945822168
 20
1331.2668956733071
 30
0.0
 11
801.28617945822168
 21
1453.6997306733069
 31
0.0
  0
LINE
  5
7DF1
  8
3
  6
CONTINUOUS
 62
     0
 10
561.28617945822157
 20
1443.6997306733069
 30
0.0
 11
781.28617945822157
 21
1443.6997306733069
 31
0.0
  0
INSERT
  5
7DF2
  8
3
  6
CONTINUOUS
 62
     0
  2
_OPEN
 10
541.28617945822168
 20
1443.6997306733069
 30
0.0
 41
20.0
 42
20.0
 43
20.0
 50
180.0
  0
INSERT
  5
7DF3
  8
3
  6
CONTINUOUS
 62
     0
  2
_OPEN
 10
801.28617945822168
 20
1443.6997306733069
 30
0.0
 41
20.0
 42
20.0
 43
20.0
  0
TEXT
  8
3
  40
30
  5
7E68
  62
0
  72
0
  71
0
 10
611.286
 20
1415.60
 30
0.000000
  1
260
  0
POINT
  5
7DF5
  8
DEFPOINTS
  6
CONTINUOUS
 62
     0
 10
541.28617945822168
 20
1346.2668956733071
 30
0.0
  0
POINT
  5
7DF6
  8
DEFPOINTS
  6
CONTINUOUS
 62
     0
 10
801.28617945822168
 20
1326.2668956733071
 30
0.0
  0
POINT
  5
7DF7
  8
DEFPOINTS
  6
CONTINUOUS
 62
     0
 10
801.28617945822168
 20
1443.6997306733069
 30
0.0
  0
ENDBLK
  5
7B64
  8
0
  0
BLOCK
  8
0
  2
*D6
 70
     1
 10
0.0
 20
0.0
 30
0.0
  3
*D6
  1

  0
LINE
  5
7DF8
  8
3
  6
CONTINUOUS
 62
     0
 10
817.28617945822157
 20
1346.2668956733071
 30
0.0
 11
1195.0300612362651
 21
1346.2668956733071
 31
0.0
  0
LINE
  5
7DF9
  8
3
  6
CONTINUOUS
 62
     0
 10
1066.2861794582211
 20
831.26689567330698
 30
0.0
 11
1195.0300612362651
 21
831.26689567330698
 31
0.0
  0
LINE
  5
7DFA
  8
3
  6
CONTINUOUS
 62
     0
 10
1185.0300612362651
 20
1326.2668956733071
 30
0.0
 11
1185.0300612362651
 21
851.26689567330686
 31
0.0
  0
INSERT
  5
7DFB
  8
3
  6
CONTINUOUS
 62
     0
  2
_OPEN
 10
1185.0300612362651
 20
1346.2668956733071
 30
0.0
 41
20.0
 42
20.0
 43
20.0
 50
90.0
  0
INSERT
  5
7DFC
  8
3
  6
CONTINUOUS
 62
     0
  2
_OPEN
 10
1185.0300612362651
 20
831.26689567330698
 30
0.0
 41
20.0
 42
20.0
 43
20.0
 50
270.0
  0
TEXT
  8
3
  40
30
  5
7E69
  62
0
  72
0
  71
0
 10
1100.03
 20
1038.67
 30
0.000000
  1
515
  0
POINT
  5
7DFE
  8
DEFPOINTS
  6
CONTINUOUS
 62
     0
 10
812.28617945822168
 20
1346.2668956733071
 30
0.0
  0
POINT
  5
7DFF
  8
DEFPOINTS
  6
CONTINUOUS
 62
     0
 10
1061.2861794582211
 20
831.26689567330698
 30
0.0
  0
POINT
  5
7E00
  8
DEFPOINTS
  6
CONTINUOUS
 62
     0
 10
1185.0300612362651
 20
831.26689567330698
 30
0.0
  0
ENDBLK
  5
7CA1
  8
0
  0
BLOCK
  8
0
  2
*D7
 70
     1
 10
0.0
 20
0.0
 30
0.0
  3
*D7
  1

  0
LINE
  5
7E01
  8
3
  6
CONTINUOUS
 62
     0
 10
351.28617945822151
 20
1795.2810996796959
 30
0.0
 11
351.28617945822151
 21
1618.4566036796971
 31
0.0
  0
LINE
  5
7E02
  8
3
  6
CONTINUOUS
 62
     0
 10
1061.2861794582211
 20
1795.2810996796959
 30
0.0
 11
1061.2861794582211
 21
1618.4566036796971
 31
0.0
  0
LINE
  5
7E03
  8
3
  6
CONTINUOUS
 62
     0
 10
371.28617945822151
 20
1628.4566036796959
 30
0.0
 11
1041.2861794582211
 21
1628.4566036796959
 31
0.0
  0
INSERT
  5
7E04
  8
3
  6
CONTINUOUS
 62
     0
  2
_OPEN
 10
351.28617945822151
 20
1628.4566036796959
 30
0.0
 41
20.0
 42
20.0
 43
20.0
 50
180.0
  0
INSERT
  5
7E05
  8
3
  6
CONTINUOUS
 62
     0
  2
_OPEN
 10
1061.2861794582211
 20
1628.4566036796959
 30
0.0
 41
20.0
 42
20.0
 43
20.0
  0
TEXT
  8
3
  40
30
  5
7E6A
  62
0
  72
0
  71
0
 10
656.633
 20
1600.36
 30
0.000000
  1
710
  0
POINT
  5
7E07
  8
DEFPOINTS
  6
CONTINUOUS
 62
     0
 10
351.28617945822151
 20
1800.2810996796959
 30
0.0
  0
POINT
  5
7E08
  8
DEFPOINTS
  6
CONTINUOUS
 62
     0
 10
1061.2861794582211
 20
1800.2810996796959
 30
0.0
  0
POINT
  5
7E09
  8
DEFPOINTS
  6
CONTINUOUS
 62
     0
 10
1061.2861794582211
 20
1628.4566036796959
 30
0.0
  0
ENDBLK
  5
7B97
  8
0
  0
BLOCK
  8
0
  2
*D8
 70
     1
 10
0.0
 20
0.0
 30
0.0
  3
*D8
  1

  0
LINE
  5
7E0A
  8
3
  6
CONTINUOUS
 62
     0
 10
1066.2861794582211
 20
2050.2810996796961
 30
0.0
 11
1166.7592394582221
 21
2050.2810996796961
 31
0.0
  0
LINE
  5
7E0B
  8
3
  6
CONTINUOUS
 62
     0
 10
1066.2861794582211
 20
1800.2810996796959
 30
0.0
 11
1166.7592394582221
 21
1800.2810996796959
 31
0.0
  0
LINE
  5
7E0C
  8
3
  6
CONTINUOUS
 62
     0
 10
1156.7592394582221
 20
2030.2810996796959
 30
0.0
 11
1156.7592394582221
 21
1820.2810996796959
 31
0.0
  0
INSERT
  5
7E0D
  8
3
  6
CONTINUOUS
 62
     0
  2
_OPEN
 10
1156.7592394582221
 20
2050.2810996796961
 30
0.0
 41
20.0
 42
20.0
 43
20.0
 50
90.0
  0
INSERT
  5
7E0E
  8
3
  6
CONTINUOUS
 62
     0
  2
_OPEN
 10
1156.7592394582221
 20
1800.2810996796959
 30
0.0
 41
20.0
 42
20.0
 43
20.0
 50
270.0
  0
TEXT
  8
3
  40
30
  5
7E6B
  62
0
  72
0
  71
0
 10
1071.76
 20
1874.90
 30
0.000000
  1
250
  0
POINT
  5
7E10
  8
DEFPOINTS
  6
CONTINUOUS
 62
     0
 10
1061.2861794582211
 20
2050.2810996796961
 30
0.0
  0
POINT
  5
7E11
  8
DEFPOINTS
  6
CONTINUOUS
 62
     0
 10
1061.2861794582211
 20
1800.2810996796959
 30
0.0
  0
POINT
  5
7E12
  8
DEFPOINTS
  6
CONTINUOUS
 62
     0
 10
1156.7592394582221
 20
1800.2810996796959
 30
0.0
  0
ENDBLK
  5
7BA4
  8
0
  0
BLOCK
  8
0
  2
*D9
 70
     1
 10
0.0
 20
0.0
 30
0.0
  3
*D9
  1

  0
LINE
  5
7E13
  8
3
  6
CONTINUOUS
 62
     0
 10
1374.6192426253349
 20
826.26689567330686
 30
0.0
 11
1374.6192426253349
 21
750.52076567330698
 31
0.0
  0
LINE
  5
7E14
  8
3
  6
CONTINUOUS
 62
     0
 10
1624.619242625334
 20
826.26689567330686
 30
0.0
 11
1624.619242625334
 21
750.52076567330698
 31
0.0
  0
LINE
  5
7E15
  8
3
  6
CONTINUOUS
 62
     0
 10
1394.6192426253349
 20
760.52076567330687
 30
0.0
 11
1604.619242625334
 21
760.52076567330687
 31
0.0
  0
INSERT
  5
7E16
  8
3
  6
CONTINUOUS
 62
     0
  2
_OPEN
 10
1374.6192426253349
 20
760.52076567330687
 30
0.0
 41
20.0
 42
20.0
 43
20.0
 50
180.0
  0
INSERT
  5
7E17
  8
3
  6
CONTINUOUS
 62
     0
  2
_OPEN
 10
1624.619242625334
 20
760.52076567330687
 30
0.0
 41
20.0
 42
20.0
 43
20.0
  0
TEXT
  8
3
  40
30
  5
7E6C
  62
0
  72
0
  71
0
 10
1446.47
 20
732.421
 30
0.000000
  1
250
  0
POINT
  5
7E19
  8
DEFPOINTS
  6
CONTINUOUS
 62
     0
 10
1374.6192426253349
 20
831.26689567330698
 30
0.0
  0
POINT
  5
7E1A
  8
DEFPOINTS
  6
CONTINUOUS
 62
     0
 10
1624.619242625334
 20
831.26689567330698
 30
0.0
  0
POINT
  5
7E1B
  8
DEFPOINTS
  6
CONTINUOUS
 62
     0
 10
1624.619242625334
 20
760.52076567330687
 30
0.0
  0
ENDBLK
  5
7BB5
  8
0
  0
BLOCK
  8
0
  2
*D10
 70
     1
 10
0.0
 20
0.0
 30
0.0
  3
*D10
  1

  0
LINE
  5
7E1C
  8
3
  6
CONTINUOUS
 62
     0
 10
1736.6192426253349
 20
1271.2668956733071
 30
0.0
 11
1816.7988676253351
 21
1271.2668956733071
 31
0.0
  0
LINE
  5
7E1D
  8
3
  6
CONTINUOUS
 62
     0
 10
1736.6192426253349
 20
1021.266895673307
 30
0.0
 11
1816.7988676253351
 21
1021.266895673306
 31
0.0
  0
LINE
  5
7E1E
  8
3
  6
CONTINUOUS
 62
     0
 10
1806.798867625334
 20
1251.2668956733071
 30
0.0
 11
1806.798867625334
 21
1041.2668956733071
 31
0.0
  0
INSERT
  5
7E1F
  8
3
  6
CONTINUOUS
 62
     0
  2
_OPEN
 10
1806.798867625334
 20
1271.2668956733071
 30
0.0
 41
20.0
 42
20.0
 43
20.0
 50
90.0
  0
INSERT
  5
7E20
  8
3
  6
CONTINUOUS
 62
     0
  2
_OPEN
 10
1806.798867625334
 20
1021.266895673306
 30
0.0
 41
20.0
 42
20.0
 43
20.0
 50
270.0
  0
TEXT
  8
3
  40
30
  5
7E6D
  62
0
  72
0
  71
0
 10
1721.80
 20
1086.37
 30
0.000000
  1
φ250
  0
POINT
  5
7E22
  8
DEFPOINTS
  6
CONTINUOUS
 62
     0
 10
1731.619242625334
 20
1271.2668956733071
 30
0.0
  0
POINT
  5
7E23
  8
DEFPOINTS
  6
CONTINUOUS
 62
     0
 10
1731.619242625334
 20
1021.266895673307
 30
0.0
  0
POINT
  5
7E24
  8
DEFPOINTS
  6
CONTINUOUS
 62
     0
 10
1806.798867625334
 20
1021.266895673306
 30
0.0
  0
ENDBLK
  5
7CB1
  8
0
  0
BLOCK
  8
0
  2
*D11
 70
     1
 10
0.0
 20
0.0
 30
0.0
  3
*D11
  1

  0
LINE
  5
7E25
  8
3
  6
CONTINUOUS
 62
     0
 10
1542.8192426253349
 20
1351.2668956733071
 30
0.0
 11
1542.8192426253349
 21
1401.129642673307
 31
0.0
  0
LINE
  5
7E26
  8
3
  6
CONTINUOUS
 62
     0
 10
1722.4192426253351
 20
1351.2668956733071
 30
0.0
 11
1722.4192426253351
 21
1401.129642673307
 31
0.0
  0
LINE
  5
7E27
  8
3
  6
CONTINUOUS
 62
     0
 10
1562.8192426253349
 20
1391.129642673307
 30
0.0
 11
1702.4192426253351
 21
1391.129642673307
 31
0.0
  0
INSERT
  5
7E28
  8
3
  6
CONTINUOUS
 62
     0
  2
_OPEN
 10
1542.8192426253349
 20
1391.129642673307
 30
0.0
 41
20.0
 42
20.0
 43
20.0
 50
180.0
  0
INSERT
  5
7E29
  8
3
  6
CONTINUOUS
 62
     0
  2
_OPEN
 10
1722.4192426253351
 20
1391.129642673307
 30
0.0
 41
20.0
 42
20.0
 43
20.0
  0
TEXT
  8
3
  40
30
  5
7E6E
  62
0
  72
0
  71
0
 10
1575.83
 20
1363.03
 30
0.000000
  1
180
  0
POINT
  5
7E2B
  8
DEFPOINTS
  6
CONTINUOUS
 62
     0
 10
1542.8192426253349
 20
1346.2668956733071
 30
0.0
  0
POINT
  5
7E2C
  8
DEFPOINTS
  6
CONTINUOUS
 62
     0
 10
1722.4192426253351
 20
1346.2668956733071
 30
0.0
  0
POINT
  5
7E2D
  8
DEFPOINTS
  6
CONTINUOUS
 62
     0
 10
1722.4192426253351
 20
1391.129642673307
 30
0.0
  0
ENDBLK
  5
7C0A
  8
0
  0
BLOCK
  8
0
  2
*D12
 70
     1
 10
0.0
 20
0.0
 30
0.0
  3
*D12
  1

  0
LINE
  5
7E2E
  8
3
  6
CONTINUOUS
 62
     0
 10
1292.6192426253349
 20
1276.2668956733071
 30
0.0
 11
1292.6192426253349
 21
1472.5543916733061
 31
0.0
  0
LINE
  5
7E2F
  8
3
  6
CONTINUOUS
 62
     0
 10
1632.619242625334
 20
1449.7030596733059
 30
0.0
 11
1632.619242625334
 21
1472.5543916733061
 31
0.0
  0
LINE
  5
7E30
  8
3
  6
CONTINUOUS
 62
     0
 10
1312.6192426253349
 20
1462.554391673307
 30
0.0
 11
1612.6192426253349
 21
1462.554391673307
 31
0.0
  0
INSERT
  5
7E31
  8
3
  6
CONTINUOUS
 62
     0
  2
_OPEN
 10
1292.6192426253349
 20
1462.554391673307
 30
0.0
 41
20.0
 42
20.0
 43
20.0
 50
180.0
  0
INSERT
  5
7E32
  8
3
  6
CONTINUOUS
 62
     0
  2
_OPEN
 10
1632.619242625334
 20
1462.554391673307
 30
0.0
 41
20.0
 42
20.0
 43
20.0
  0
TEXT
  8
3
  40
30
  5
7E6F
  62
0
  72
0
  71
0
 10
1405.64
 20
1459.45
 30
0.000000
  1
MAX
  0
TEXT
  8
3
  40
30
  5
7E70
  62
0
  72
0
  71
0
 10
1405.64
 20
1420.45
 30
0.000000
  1
340
  0
POINT
  5
7E34
  8
DEFPOINTS
  6
CONTINUOUS
 62
     0
 10
1292.6192426253349
 20
1271.2668956733071
 30
0.0
  0
POINT
  5
7E35
  8
DEFPOINTS
  6
CONTINUOUS
 62
     0
 10
1632.619242625334
 20
1444.7030596733059
 30
0.0
  0
POINT
  5
7E36
  8
DEFPOINTS
  6
CONTINUOUS
 62
     0
 10
1632.619242625334
 20
1462.554391673307
 30
0.0
  0
ENDBLK
  5
7CD9
  8
0
  0
BLOCK
  8
0
  2
*D13
 70
     1
 10
0.0
 20
0.0
 30
0.0
  3
*D13
  1

  0
LINE
  5
7E37
  8
3
  6
CONTINUOUS
 62
     0
 10
1731.619242625334
 20
1298.2668956733071
 30
0.0
 11
1731.619242625334
 21
1472.5543916733061
 31
0.0
  0
LINE
  5
7E38
  8
3
  6
CONTINUOUS
 62
     0
 10
1652.619242625334
 20
1462.554391673307
 30
0.0
 11
1711.619242625334
 21
1462.554391673307
 31
0.0
  0
TEXT
  8
3
  40
30
  5
7E71
  62
0
  72
0
  71
0
 10
1619.01
 20
1434.45
 30
0.000000
  1
99
  0
INSERT
  5
7E3A
  8
3
  6
CONTINUOUS
 62
     0
  2
_OPEN
 10
1632.619242625334
 20
1462.554391673307
 30
0.0
 41
20.0
 42
20.0
 43
20.0
 50
180.0
  0
INSERT
  5
7E3B
  8
3
  6
CONTINUOUS
 62
     0
  2
_OPEN
 10
1731.619242625334
 20
1462.554391673307
 30
0.0
 41
20.0
 42
20.0
 43
20.0
  0
POINT
  5
7E3C
  8
DEFPOINTS
  6
CONTINUOUS
 62
     0
 10
1632.619242625334
 20
1444.7030596733059
 30
0.0
  0
POINT
  5
7E3D
  8
DEFPOINTS
  6
CONTINUOUS
 62
     0
 10
1731.619242625334
 20
1293.2668956733071
 30
0.0
  0
POINT
  5
7E3E
  8
DEFPOINTS
  6
CONTINUOUS
 62
     0
 10
1731.619242625334
 20
1462.554391673307
 30
0.0
  0
ENDBLK
  5
7C8C
  8
0
  0
BLOCK
  8
0
  2
*D14
 70
     1
 10
0.0
 20
0.0
 30
0.0
  3
*D14
  1

  0
LINE
  5
7E3F
  8
3
  6
CONTINUOUS
 62
     0
 10
822.28617945822157
 20
1346.2668956733071
 30
0.0
 11
1127.259688458221
 21
1346.2668956733071
 31
0.0
  0
LINE
  5
7E40
  8
3
  6
CONTINUOUS
 62
     0
 10
806.28617945822157
 20
1146.2668956733071
 30
0.0
 11
1127.259688458221
 21
1146.2668956733071
 31
0.0
  0
LINE
  5
7E41
  8
3
  6
CONTINUOUS
 62
     0
 10
1117.259688458221
 20
1326.2668956733071
 30
0.0
 11
1117.259688458221
 21
1166.2668956733071
 31
0.0
  0
INSERT
  5
7E42
  8
3
  6
CONTINUOUS
 62
     0
  2
_OPEN
 10
1117.259688458221
 20
1346.2668956733071
 30
0.0
 41
20.0
 42
20.0
 43
20.0
 50
90.0
  0
INSERT
  5
7E43
  8
3
  6
CONTINUOUS
 62
     0
  2
_OPEN
 10
1117.259688458221
 20
1146.2668956733071
 30
0.0
 41
20.0
 42
20.0
 43
20.0
 50
270.0
  0
TEXT
  8
3
  40
30
  5
7E72
  62
0
  72
0
  71
0
 10
1032.26
 20
1176.33
 30
0.000000
  1
200
  0
POINT
  5
7E45
  8
DEFPOINTS
  6
CONTINUOUS
 62
     0
 10
817.28617945822157
 20
1346.2668956733071
 30
0.0
  0
POINT
  5
7E46
  8
DEFPOINTS
  6
CONTINUOUS
 62
     0
 10
801.28617945822168
 20
1146.2668956733071
 30
0.0
  0
POINT
  5
7E47
  8
DEFPOINTS
  6
CONTINUOUS
 62
     0
 10
1117.259688458221
 20
1146.2668956733071
 30
0.0
  0
ENDBLK
  5
7C65
  8
0
  0
BLOCK
  8
0
  2
*D15
 70
     1
 10
0.0
 20
0.0
 30
0.0
  3
*D15
  1

  0
LINE
  5
7E48
  8
3
  6
CONTINUOUS
 62
     0
 10
1066.2861794582211
 20
831.26689567330698
 30
0.0
 11
1127.259688458221
 21
831.26689567330698
 31
0.0
  0
LINE
  5
7E49
  8
3
  6
CONTINUOUS
 62
     0
 10
1117.259688458221
 20
1126.2668956733071
 30
0.0
 11
1117.259688458221
 21
851.26689567330686
 31
0.0
  0
INSERT
  5
7E4A
  8
3
  6
CONTINUOUS
 62
     0
  2
_OPEN
 10
1117.259688458221
 20
1146.2668956733071
 30
0.0
 41
20.0
 42
20.0
 43
20.0
 50
90.0
  0
INSERT
  5
7E4B
  8
3
  6
CONTINUOUS
 62
     0
  2
_OPEN
 10
1117.259688458221
 20
831.26689567330698
 30
0.0
 41
20.0
 42
20.0
 43
20.0
 50
270.0
  0
TEXT
  8
3
  40
30
  5
7E73
  62
0
  72
0
  71
0
 10
1032.26
 20
935.667
 30
0.000000
  1
315
  0
POINT
  5
7E4D
  8
DEFPOINTS
  6
CONTINUOUS
 62
     0
 10
801.28617945822168
 20
1146.2668956733071
 30
0.0
  0
POINT
  5
7E4E
  8
DEFPOINTS
  6
CONTINUOUS
 62
     0
 10
1061.2861794582211
 20
831.26689567330698
 30
0.0
  0
POINT
  5
7E4F
  8
DEFPOINTS
  6
CONTINUOUS
 62
     0
 10
1117.259688458221
 20
831.26689567330698
 30
0.0
  0
ENDBLK
  5
7C71
  8
0
  0
BLOCK
  8
0
  2
*D16
 70
     1
 10
0.0
 20
0.0
 30
0.0
  3
*D16
  1

  0
LINE
  5
7E50
  8
3
 62
     0
 10
1624.619242625334
 20
826.26689567330686
 30
0.0
 11
1624.619242625334
 21
750.52076567330698
 31
0.0
  0
LINE
  5
7E51
  8
3
 62
     0
 10
1632.619242625334
 20
815.38198267330688
 30
0.0
 11
1632.619242625334
 21
750.52076567330698
 31
0.0
  0
LINE
  5
7E52
  8
3
 62
     0
 10
1604.619242625334
 20
760.52076567330687
 30
0.0
 11
1584.619242625334
 21
760.52076567330687
 31
0.0
  0
LINE
  5
7E53
  8
3
 62
     0
 10
1652.619242625334
 20
760.52076567330687
 30
0.0
 11
1712.6192426253349
 21
760.52076567330687
 31
0.0
  0
LINE
  5
7E54
  8
3
 62
     0
 10
1624.619242625334
 20
760.52076567330687
 30
0.0
 11
1632.619242625334
 21
760.52076567330687
 31
0.0
  0
INSERT
  5
7E55
  8
3
 62
     0
  2
_OPEN
 10
1624.619242625334
 20
760.52076567330687
 30
0.0
 41
20.0
 42
20.0
 43
20.0
  0
INSERT
  5
7E56
  8
3
 62
     0
  2
_OPEN
 10
1632.619242625334
 20
760.52076567330687
 30
0.0
 41
20.0
 42
20.0
 43
20.0
 50
180.0
  0
TEXT
  8
3
  40
30
  5
7E74
  62
0
  72
0
  71
0
 10
1632.62
 20
732.421
 30
0.000000
  1
8
  0
POINT
  5
7E58
  8
DEFPOINTS
 62
     0
 10
1624.619242625334
 20
831.26689567330698
 30
0.0
  0
POINT
  5
7E59
  8
DEFPOINTS
 62
     0
 10
1632.619242625334
 20
820.38198267330699
 30
0.0
  0
POINT
  5
7E5A
  8
DEFPOINTS
 62
     0
 10
1632.619242625334
 20
760.52076567330687
 30
0.0
  0
ENDBLK
  5
7CCE
  8
0
  0
BLOCK
  8
0
  2
*D17
 70
     1
 10
0.0
 20
0.0
 30
0.0
  3
*D17
  1

  0
LINE
  5
7E5B
  8
3
 62
     0
 10
355.2967954582216
 20
1458.699730673306
 30
0.0
 11
355.2967954582216
 21
1518.6317640934519
 31
0.0
  0
LINE
  5
7E5C
  8
3
 62
     0
 10
1061.2861794582211
 20
916.26689567330686
 30
0.0
 11
1061.2861794582211
 21
1518.6317640934519
 31
0.0
  0
LINE
  5
7E5D
  8
3
 62
     0
 10
375.2967954582216
 20
1508.6317640934519
 30
0.0
 11
1041.2861794582211
 21
1508.6317640934519
 31
0.0
  0
INSERT
  5
7E5E
  8
3
 62
     0
  2
_OPEN
 10
355.2967954582216
 20
1508.6317640934519
 30
0.0
 41
20.0
 42
20.0
 43
20.0
 50
180.0
  0
INSERT
  5
7E5F
  8
3
 62
     0
  2
_OPEN
 10
1061.2861794582211
 20
1508.6317640934519
 30
0.0
 41
20.0
 42
20.0
 43
20.0
  0
TEXT
  8
3
  40
30
  5
7E75
  62
0
  72
0
  71
0
 10
677.632
 20
1480.53
 30
0.000000
  1
706
  0
POINT
  5
7E61
  8
DEFPOINTS
 62
     0
 10
355.2967954582216
 20
1453.6997306733069
 30
0.0
  0
POINT
  5
7E62
  8
DEFPOINTS
 62
     0
 10
1061.2861794582211
 20
911.26689567330698
 30
0.0
  0
POINT
  5
7E63
  8
DEFPOINTS
 62
     0
 10
1061.2861794582211
 20
1508.6317640934519
 30
0.0
  0
ENDBLK
  5
7CE5
  8
0
  0
ENDSEC
  0
SECTION
  2
ENTITIES
  0
CIRCLE
  5
7A80
  8
1
  6
CONTINUOUS
 10
541.28617945822168
 20
1146.2668956733071
 30
0.0
 40
145.0
  0
LINE
  5
7A81
  8
1
  6
CONTINUOUS
 10
771.28617945822168
 20
1326.2668956733071
 30
0.0
 11
561.28617945822157
 21
1326.2668956733071
 31
0.0
  0
ARC
  5
7A82
  8
1
  6
CONTINUOUS
 10
561.28617945822157
 20
1166.2668956733071
 30
0.0
 40
240.90000000000001
 50
265.39999999999992
 51
355.10000000000002
  0
LINE
  5
7A83
  8
1
  6
CONTINUOUS
 10
520.28617945822168
 20
1346.2668956733071
 30
0.0
 11
812.28617945822168
 21
1346.2668956733071
 31
0.0
  0
LINE
  5
7A84
  8
1
  6
CONTINUOUS
 10
792.28617945822168
 20
2148.2810996796961
 30
0.0
 11
342.38617945822159
 21
2148.2810996796961
 31
0.0
  0
LINE
  5
7A85
  8
1
  6
CONTINUOUS
 10
342.38617945822159
 20
1968.2810996796959
 30
0.0
 11
792.28617945822168
 21
1968.2810996796959
 31
0.0
  0
LINE
  5
7A86
  8
1
  6
CONTINUOUS
 10
688.28617945822168
 20
2157.2810996796961
 30
0.0
 11
394.28617945822151
 21
2157.2810996796961
 31
0.0
  0
LINE
  5
7A87
  8
1
  6
CONTINUOUS
 10
701.28617945822157
 20
1959.2810996796959
 30
0.0
 11
381.28617945822151
 21
1959.2810996796959
 31
0.0
  0
LINE
  5
7A88
  8
1
  6
CONTINUOUS
 10
381.28617945822151
 20
1112.9668956733069
 30
0.0
 11
701.28617945822157
 21
1112.9668956733069
 31
0.0
  0
LINE
  5
7A89
  8
1
  6
CONTINUOUS
 10
602.88617945822159
 20
1296.2668956733071
 30
0.0
 11
701.28617945822157
 21
1212.366895673307
 31
0.0
  0
LINE
  5
7A8A
  8
1
  6
CONTINUOUS
 10
701.28617945822157
 20
831.26689567330698
 30
0.0
 11
381.28617945822151
 21
831.26689567330698
 31
0.0
  0
LINE
  5
7A8B
  8
1
  6
CONTINUOUS
 10
1061.2861794582211
 20
831.26689567330698
 30
0.0
 11
351.28617945822151
 21
831.26689567330698
 31
0.0
  0
LINE
  5
7A8C
  8
1
  6
CONTINUOUS
 10
927.38617945822148
 20
1026.266895673306
 30
0.0
 11
569.38617945822159
 21
1203.166895673307
 31
0.0
  0
LINE
  5
7A8D
  8
1
  6
CONTINUOUS
 10
882.98617945822161
 20
930.06689567330693
 30
0.0
 11
516.18617945822155
 21
1087.9668956733069
 31
0.0
  0
LINE
  5
7A8E
  8
1
  6
CONTINUOUS
 10
541.08617945822175
 20
1271.2668956733071
 30
0.0
 11
996.28617945822145
 21
1071.266895673306
 31
0.0
  0
LINE
  5
7A8F
  8
1
  6
CONTINUOUS
 10
1061.2861794582211
 20
891.26689567330686
 30
0.0
 11
351.28617945822151
 21
891.26689567330686
 31
0.0
  0
LINE
  5
7A90
  8
1
  6
CONTINUOUS
 10
416.28617945822162
 20
1793.2810996796959
 30
0.0
 11
996.28617945822145
 21
1793.2810996796959
 31
0.0
  0
LINE
  5
7A91
  8
1
  6
CONTINUOUS
 10
416.28617945822162
 20
1718.2810996796959
 30
0.0
 11
996.28617945822145
 21
1718.2810996796959
 31
0.0
  0
LINE
  5
7A92
  8
1
  6
CONTINUOUS
 10
553.28617945822157
 20
1830.2810996796959
 30
0.0
 11
701.28617945822157
 21
1830.2810996796959
 31
0.0
  0
LINE
  5
7A93
  8
1
  6
CONTINUOUS
 10
553.28617945822157
 20
1800.2810996796959
 30
0.0
 11
891.98617945822161
 21
1800.2810996796959
 31
0.0
  0
CIRCLE
  5
7A94
  8
1
  6
CONTINUOUS
 10
541.28617945822168
 20
1146.2668956733071
 30
0.0
 40
125.0
  0
ARC
  5
7A95
  8
1
  6
CONTINUOUS
 10
558.28617945822168
 20
1129.2668956733071
 30
0.0
 40
203.6999999999999
 50
174.5
 51
265.39999999999992
  0
LINE
  5
7A96
  8
2
  6
CENTER
 10
541.28617945822168
 20
2196.994223679696
 30
0.0
 11
541.28617945822168
 21
1688.902516679696
 31
0.0
  0
LINE
  5
7A97
  8
1
  6
CONTINUOUS
 10
381.28617945822151
 20
891.26689567330686
 30
0.0
 11
381.28617945822151
 21
1212.366895673307
 31
0.0
  0
CIRCLE
  5
7A98
  8
1
  6
CONTINUOUS
 10
541.28617945822168
 20
1146.2668956733071
 30
0.0
 40
63.5
  0
LINE
  5
7A99
  8
1
  6
CONTINUOUS
 10
416.28617945822162
 20
891.26689567330686
 30
0.0
 11
416.28617945822162
 21
1201.2668956733071
 31
0.0
  0
LINE
  5
7A9A
  8
1
  6
CONTINUOUS
 10
351.28617945822151
 20
891.26689567330686
 30
0.0
 11
351.28617945822151
 21
831.26689567330698
 31
0.0
  0
ARC
  5
7A9B
  8
1
  6
CONTINUOUS
 10
527.28617945822157
 20
1132.2668956733071
 30
0.0
 40
172.59999999999991
 50
88.700000000000003
 51
174.5
  0
LINE
  5
7A9C
  8
1
  6
CONTINUOUS
 10
479.6861794582216
 20
1296.2668956733071
 30
0.0
 11
381.28617945822151
 21
1212.366895673307
 31
0.0
  0
LINE
  5
7A9D
  8
1
  6
CONTINUOUS
 10
416.28617945822162
 20
1201.2668956733071
 30
0.0
 11
541.08617945822175
 21
1271.2668956733071
 31
0.0
  0
LINE
  5
7A9E
  8
2
  6
CENTER
 10
1745.637785625335
 20
1146.2668956733071
 30
0.0
 11
1270.876140625335
 21
1146.2668956733071
 31
0.0
  0
LINE
  5
7A9F
  8
1
  6
CONTINUOUS
 10
479.6861794582216
 20
1296.2668956733071
 30
0.0
 11
602.88617945822159
 21
1296.2668956733071
 31
0.0
  0
LINE
  5
7AA0
  8
1
  6
CONTINUOUS
 10
541.28617945822168
 20
1346.2668956733071
 30
0.0
 11
561.28617945822157
 21
1326.2668956733071
 31
0.0
  0
LINE
  5
7AA1
  8
1
  6
CONTINUOUS
 10
531.28617945822157
 20
1326.2668956733071
 30
0.0
 11
531.28617945822157
 21
1304.866895673307
 31
0.0
  0
LINE
  5
7AA2
  8
1
  6
CONTINUOUS
 10
541.28617945822168
 20
1346.2668956733071
 30
0.0
 11
541.28617945822168
 21
1326.2668956733071
 31
0.0
  0
LINE
  5
7AA3
  8
1
  6
CONTINUOUS
 10
541.28617945822168
 20
1326.2668956733071
 30
0.0
 11
531.28617945822157
 21
1326.2668956733071
 31
0.0
  0
LINE
  5
7AA4
  8
1
  6
CONTINUOUS
 10
540.28617945822157
 20
2149.2810996796961
 30
0.0
 11
540.28617945822157
 21
1968.2810996796959
 31
0.0
  0
LINE
  5
7AA5
  8
1
  6
CONTINUOUS
 10
330.3861794582217
 20
2137.2810996796961
 30
0.0
 11
330.3861794582217
 21
1979.2810996796959
 31
0.0
  0
LINE
  5
7AA6
  8
1
  6
CONTINUOUS
 10
351.28617945822151
 20
1800.2810996796959
 30
0.0
 11
529.28617945822168
 21
1800.2810996796959
 31
0.0
  0
LINE
  5
7AA7
  8
1
  6
CONTINUOUS
 10
381.28617945822151
 20
1830.2810996796959
 30
0.0
 11
529.28617945822168
 21
1830.2810996796959
 31
0.0
  0
LINE
  5
7AA8
  8
1
  6
CONTINUOUS
 10
416.28617945822162
 20
1718.2810996796959
 30
0.0
 11
416.28617945822162
 21
1793.2810996796959
 31
0.0
  0
ARC
  5
7AA9
  8
1
  6
CONTINUOUS
 10
342.38617945822159
 20
1980.2810996796959
 30
0.0
 40
12.0
 50
180.0
 51
270.0
  0
LINE
  5
7AAA
  8
1
  6
CONTINUOUS
 10
394.28617945822151
 20
1968.2810996796959
 30
0.0
 11
394.28617945822151
 21
1959.2810996796959
 31
0.0
  0
LINE
  5
7AAB
  8
1
  6
CONTINUOUS
 10
351.28617945822151
 20
1967.2810996796959
 30
0.0
 11
351.28617945822151
 21
1800.2810996796959
 31
0.0
  0
LINE
  5
7AAC
  8
1
  6
CONTINUOUS
 10
381.28617945822151
 20
1830.2810996796959
 30
0.0
 11
381.28617945822151
 21
1959.2810996796959
 31
0.0
  0
LINE
  5
7AAD
  8
1
  6
CONTINUOUS
 10
529.28617945822168
 20
1773.2810996796959
 30
0.0
 11
529.28617945822168
 21
1959.2810996796959
 31
0.0
  0
LINE
  5
7AAE
  8
1
  6
CONTINUOUS
 10
553.28617945822157
 20
1773.2810996796959
 30
0.0
 11
553.28617945822157
 21
1959.2810996796959
 31
0.0
  0
LINE
  5
7AAF
  8
1
  6
CONTINUOUS
 10
477.78617945822162
 20
1738.2810996796959
 30
0.0
 11
604.78617945822168
 21
1738.2810996796959
 31
0.0
  0
LINE
  5
7AB0
  8
1
  6
CONTINUOUS
 10
477.78617945822162
 20
1773.2810996796959
 30
0.0
 11
604.78617945822168
 21
1773.2810996796959
 31
0.0
  0
LINE
  5
7AB1
  8
1
  6
CONTINUOUS
 10
477.78617945822162
 20
1738.2810996796959
 30
0.0
 11
477.78617945822162
 21
1773.2810996796959
 31
0.0
  0
LINE
  5
7AB2
  8
1
  6
CONTINUOUS
 10
604.78617945822168
 20
1738.2810996796959
 30
0.0
 11
604.78617945822168
 21
1773.2810996796959
 31
0.0
  0
ARC
  5
7AB3
  8
1
  6
CONTINUOUS
 10
342.38617945822159
 20
2136.2810996796961
 30
0.0
 40
12.0
 50
90.0
 51
180.0
  0
ARC
  5
7AB4
  8
1
  6
CONTINUOUS
 10
342.38617945822159
 20
2137.2810996796961
 30
0.0
 40
12.0
 50
90.0
 51
180.0
  0
LINE
  5
7AB5
  8
1
  6
CONTINUOUS
 10
394.28617945822151
 20
2149.0810996796959
 30
0.0
 11
394.28617945822151
 21
2157.2810996796961
 31
0.0
  0
LINE
  5
7AB6
  8
1
  6
CONTINUOUS
 10
701.28617945822157
 20
1212.366895673307
 30
0.0
 11
701.28617945822157
 21
891.26689567330686
 31
0.0
  0
LINE
  5
7AB7
  8
2
  6
CENTER
 10
956.98617945822161
 20
978.76689567330686
 30
0.0
 11
850.9861794582215
 21
978.76689567330686
 31
0.0
  0
CIRCLE
  5
7AB8
  8
1
  6
CONTINUOUS
 10
903.98617945822173
 20
978.76689567330686
 30
0.0
 40
53.0
  0
LINE
  5
7AB9
  8
1
  6
CONTINUOUS
 10
806.58617945822164
 20
911.26689567330698
 30
0.0
 11
1061.2861794582211
 21
911.26689567330698
 31
0.0
  0
ARC
  5
7ABA
  8
1
  6
CONTINUOUS
 10
903.98617945822173
 20
978.76689567330686
 30
0.0
 40
75.799999999999997
 50
322.89999999999992
 51
217.09999999999991
  0
LINE
  5
7ABB
  8
1
  6
CONTINUOUS
 10
806.58617945822164
 20
891.26689567330686
 30
0.0
 11
806.58617945822164
 21
911.26689567330698
 31
0.0
  0
LINE
  5
7ABC
  8
1
  6
CONTINUOUS
 10
837.98617945822161
 20
911.26689567330698
 30
0.0
 11
837.98617945822161
 21
918.76689567330698
 31
0.0
  0
LINE
  5
7ABD
  8
1
  6
CONTINUOUS
 10
837.98617945822161
 20
918.76689567330698
 30
0.0
 11
843.48617945822161
 21
933.06689567330704
 31
0.0
  0
LINE
  5
7ABE
  8
2
  6
CENTER
 10
903.98617945822173
 20
925.76689567330698
 30
0.0
 11
903.98617945822173
 21
1031.7668956733071
 31
0.0
  0
LINE
  5
7ABF
  8
1
  6
CONTINUOUS
 10
996.28617945822145
 20
891.26689567330686
 30
0.0
 11
996.28617945822145
 21
1071.266895673306
 31
0.0
  0
LINE
  5
7AC0
  8
1
  6
CONTINUOUS
 10
969.98617945822173
 20
918.76689567330698
 30
0.0
 11
964.38617945822159
 21
933.06689567330704
 31
0.0
  0
LINE
  5
7AC1
  8
1
  6
CONTINUOUS
 10
969.98617945822173
 20
911.26689567330698
 30
0.0
 11
969.98617945822173
 21
918.76689567330698
 31
0.0
  0
LINE
  5
7AC2
  8
1
  6
CONTINUOUS
 10
1061.2861794582211
 20
891.26689567330686
 30
0.0
 11
1061.2861794582211
 21
831.26689567330698
 31
0.0
  0
LINE
  5
7AC3
  8
1
  6
CONTINUOUS
 10
1061.2861794582211
 20
911.26689567330698
 30
0.0
 11
1061.2861794582211
 21
891.26689567330686
 31
0.0
  0
LINE
  5
7AC4
  8
1
  6
CONTINUOUS
 10
791.28617945822168
 20
1346.2668956733071
 30
0.0
 11
771.28617945822168
 21
1326.2668956733071
 31
0.0
  0
LINE
  5
7AC5
  8
1
  6
CONTINUOUS
 10
801.28617945822168
 20
1326.2668956733071
 30
0.0
 11
801.28617945822168
 21
1145.866895673307
 31
0.0
  0
LINE
  5
7AC6
  8
1
  6
CONTINUOUS
 10
791.28617945822168
 20
1346.2668956733071
 30
0.0
 11
791.28617945822168
 21
1326.2668956733071
 31
0.0
  0
LINE
  5
7AC7
  8
1
  6
CONTINUOUS
 10
801.28617945822168
 20
1326.2668956733071
 30
0.0
 11
791.28617945822168
 21
1326.2668956733071
 31
0.0
  0
LINE
  5
7AC8
  8
1
  6
CONTINUOUS
 10
792.28617945822168
 20
1967.2810996796959
 30
0.0
 11
792.28617945822168
 21
2149.2810996796961
 31
0.0
  0
LINE
  5
7AC9
  8
1
  6
CONTINUOUS
 10
850.9861794582215
 20
1738.2810996796959
 30
0.0
 11
956.98617945822161
 21
1738.2810996796959
 31
0.0
  0
LINE
  5
7ACA
  8
1
  6
CONTINUOUS
 10
850.9861794582215
 20
1773.2810996796959
 30
0.0
 11
956.98617945822161
 21
1773.2810996796959
 31
0.0
  0
LINE
  5
7ACB
  8
1
  6
CONTINUOUS
 10
792.28617945822168
 20
2050.2810996796961
 30
0.0
 11
1061.2861794582211
 21
2050.2810996796961
 31
0.0
  0
LINE
  5
7ACC
  8
1
  6
CONTINUOUS
 10
827.28617945822168
 20
2028.5810996796961
 30
0.0
 11
978.78617945822157
 21
2028.5810996796961
 31
0.0
  0
LINE
  5
7ACD
  8
1
  6
CONTINUOUS
 10
827.28617945822168
 20
1824.5810996796961
 30
0.0
 11
978.78617945822157
 21
1824.5810996796961
 31
0.0
  0
LINE
  5
7ACE
  8
1
  6
CONTINUOUS
 10
891.98617945822161
 20
1773.2810996796959
 30
0.0
 11
891.98617945822161
 21
1824.5810996796961
 31
0.0
  0
LINE
  5
7ACF
  8
1
  6
CONTINUOUS
 10
850.9861794582215
 20
1738.2810996796959
 30
0.0
 11
850.9861794582215
 21
1773.2810996796959
 31
0.0
  0
LINE
  5
7AD0
  8
1
  6
CONTINUOUS
 10
688.28617945822168
 20
1968.2810996796959
 30
0.0
 11
688.28617945822168
 21
1959.2810996796959
 31
0.0
  0
LINE
  5
7AD1
  8
1
  6
CONTINUOUS
 10
701.28617945822157
 20
1959.2810996796959
 30
0.0
 11
701.28617945822157
 21
1830.2810996796959
 31
0.0
  0
LINE
  5
7AD2
  8
1
  6
CONTINUOUS
 10
827.28617945822168
 20
1824.5810996796961
 30
0.0
 11
827.28617945822168
 21
2028.5810996796961
 31
0.0
  0
LINE
  5
7AD3
  8
1
  6
CONTINUOUS
 10
915.98617945822161
 20
1773.2810996796959
 30
0.0
 11
915.98617945822161
 21
1824.5810996796961
 31
0.0
  0
LINE
  5
7AD4
  8
1
  6
CONTINUOUS
 10
956.98617945822161
 20
1738.2810996796959
 30
0.0
 11
956.98617945822161
 21
1773.2810996796959
 31
0.0
  0
LINE
  5
7AD5
  8
1
  6
CONTINUOUS
 10
996.28617945822145
 20
1718.2810996796959
 30
0.0
 11
996.28617945822145
 21
1793.2810996796959
 31
0.0
  0
LINE
  5
7AD6
  8
1
  6
CONTINUOUS
 10
915.98617945822161
 20
1800.2810996796959
 30
0.0
 11
1061.2861794582211
 21
1800.2810996796959
 31
0.0
  0
LINE
  5
7AD7
  8
1
  6
CONTINUOUS
 10
978.78617945822157
 20
1824.5810996796961
 30
0.0
 11
978.78617945822157
 21
2028.5810996796961
 31
0.0
  0
LINE
  5
7AD8
  8
1
  6
CONTINUOUS
 10
1061.2861794582211
 20
2050.2810996796961
 30
0.0
 11
1061.2861794582211
 21
1800.2810996796959
 31
0.0
  0
LINE
  5
7AD9
  8
1
  6
CONTINUOUS
 10
688.28617945822168
 20
2149.0810996796959
 30
0.0
 11
688.28617945822168
 21
2157.2810996796961
 31
0.0
  0
LINE
  5
7ADA
  8
1
  6
CONTINUOUS
 10
1292.6192426253349
 20
891.26689567330686
 30
0.0
 11
1624.619242625334
 21
891.26689567330686
 31
0.0
  0
LINE
  5
7ADB
  8
1
  6
CONTINUOUS
 10
1347.6192426253349
 20
1158.2668956733071
 30
0.0
 11
1466.719242625335
 21
1158.2668956733071
 31
0.0
  0
LINE
  5
7ADC
  8
1
  6
CONTINUOUS
 10
1347.6192426253349
 20
1134.2668956733071
 30
0.0
 11
1437.019242625335
 21
1134.2668956733071
 31
0.0
  0
LINE
  5
7ADD
  8
1
  6
CONTINUOUS
 10
1347.6192426253349
 20
966.76689567330698
 30
0.0
 11
1404.6192426253349
 21
966.76689567330698
 31
0.0
  0
LINE
  5
7ADE
  8
1
  6
CONTINUOUS
 10
1347.6192426253349
 20
990.76689567330698
 30
0.0
 11
1404.6192426253349
 21
990.76689567330698
 31
0.0
  0
LINE
  5
7ADF
  8
1
  6
CONTINUOUS
 10
1367.6192426253349
 20
891.26689567330686
 30
0.0
 11
1367.6192426253349
 21
1271.2668956733071
 31
0.0
  0
LINE
  5
7AE0
  8
1
  6
CONTINUOUS
 10
1347.6192426253349
 20
1209.7668956733071
 30
0.0
 11
1347.6192426253349
 21
1082.766895673306
 31
0.0
  0
LINE
  5
7AE1
  8
1
  6
CONTINUOUS
 10
1312.6192426253349
 20
1082.766895673306
 30
0.0
 11
1347.6192426253349
 21
1082.766895673306
 31
0.0
  0
LINE
  5
7AE2
  8
1
  6
CONTINUOUS
 10
1312.6192426253349
 20
1031.7668956733071
 30
0.0
 11
1347.6192426253349
 21
1031.7668956733071
 31
0.0
  0
LINE
  5
7AE3
  8
1
  6
CONTINUOUS
 10
1312.6192426253349
 20
925.76689567330698
 30
0.0
 11
1347.6192426253349
 21
925.76689567330698
 31
0.0
  0
LINE
  5
7AE4
  8
1
  6
CONTINUOUS
 10
1347.6192426253349
 20
1031.7668956733071
 30
0.0
 11
1347.6192426253349
 21
925.76689567330698
 31
0.0
  0
LINE
  5
7AE5
  8
1
  6
CONTINUOUS
 10
1292.6192426253349
 20
1271.2668956733071
 30
0.0
 11
1367.6192426253349
 21
1271.2668956733071
 31
0.0
  0
LINE
  5
7AE6
  8
1
  6
CONTINUOUS
 10
1312.6192426253349
 20
1209.7668956733071
 30
0.0
 11
1347.6192426253349
 21
1209.7668956733071
 31
0.0
  0
LINE
  5
7AE7
  8
1
  6
CONTINUOUS
 10
1533.6192426253349
 20
1293.2668956733071
 30
0.0
 11
1533.6192426253349
 21
891.26689567330686
 31
0.0
  0
LINE
  5
7AE8
  8
1
  6
CONTINUOUS
 10
1404.6192426253349
 20
891.26689567330686
 30
0.0
 11
1404.6192426253349
 21
1108.066895673307
 31
0.0
  0
LINE
  5
7AEC
  8
1
  6
CONTINUOUS
 10
1374.6192426253349
 20
831.26689567330698
 30
0.0
 11
1624.619242625334
 21
831.26689567330698
 31
0.0
  0
LINE
  5
7AEE
  8
1
  6
CONTINUOUS
 10
1374.6192426253349
 20
891.26689567330686
 30
0.0
 11
1374.6192426253349
 21
831.26689567330698
 31
0.0
  0
LINE
  5
7AF1
  8
1
  6
CONTINUOUS
 10
1624.619242625334
 20
891.26689567330686
 30
0.0
 11
1624.619242625334
 21
831.26689567330698
 31
0.0
  0
LINE
  5
7AF6
  8
1
  6
CONTINUOUS
 10
1404.6192426253349
 20
1108.066895673307
 30
0.0
 11
1533.6192426253349
 21
1212.366895673307
 31
0.0
  0
LINE
  5
7AFD
  8
1
  6
CONTINUOUS
 10
1292.6192426253349
 20
891.26689567330686
 30
0.0
 11
1292.6192426253349
 21
1271.2668956733071
 31
0.0
  0
LINE
  5
7AFE
  8
1
  6
CONTINUOUS
 10
1312.6192426253349
 20
1209.7668956733071
 30
0.0
 11
1312.6192426253349
 21
1082.766895673306
 31
0.0
  0
LINE
  5
7AFF
  8
1
  6
CONTINUOUS
 10
1312.6192426253349
 20
1031.7668956733071
 30
0.0
 11
1312.6192426253349
 21
925.76689567330698
 31
0.0
  0
LINE
  5
7B00
  8
4
  6
CONTINUOUS
 10
1850.0
 20
500.0
 30
0.0
 11
1850.0
 21
300.0
 31
0.0
  0
LINE
  5
7B01
  8
4
  6
CONTINUOUS
 10
1150.0
 20
500.0
 30
0.0
 11
1150.0
 21
300.0
 31
0.0
  0
LINE
  5
7B02
  8
4
  6
CONTINUOUS
 10
650.0
 20
500.0
 30
0.0
 11
650.0
 21
300.0
 31
0.0
  0
LINE
  5
7B05
  8
4
  6
CONTINUOUS
 10
650.0
 20
300.0
 30
0.0
 11
1850.0
 21
300.0
 31
0.0
  0
LINE
  5
7B06
  8
4
  6
CONTINUOUS
 10
650.0
 20
400.0
 30
0.0
 11
1850.0
 21
400.0
 31
0.0
  0
TEXT
  5
7B07
  8
4
  6
CONTINUOUS
 10
688.50208099999998
 20
431.543026
 30
0.0
 40
50.0
  1
機器名称
  0
TEXT
  5
7B08
  8
4
  6
CONTINUOUS
 10
686.258106
 20
321.64515699999993
 30
0.0
 40
50.0
  1
機器型番
  0
TEXT
  5
7B09
  8
4
  6
CONTINUOUS
 10
1177.678744999999
 20
422.57176900000002
 30
0.0
 40
45.0
  1
ミツヤニューマルチファン
  0
TEXT
  5
7B0A
  8
4
  6
CONTINUOUS
 10
1186.6544960000001
 20
317.159584
 30
0.0
 40
50.0
  1
NM#1 1/2-1
  0
TEXT
  5
7B0C
  8
4
  6
CONTINUOUS
 10
904.78576499999997
 20
2383.4288409999999
 30
0.0
 40
54.0
  1
床置ベット
  0
TEXT
  5
7B0D
  8
4
  6
CONTINUOUS
 10
316.16759300000001
 20
2533.8809759999999
 30
0.0
 40
72.0
  1
ベルト駆動式片吸込片持多翼ファン
  0
LINE
  5
7B0E
  8
4
  6
CONTINUOUS
 10
250.0
 20
2469.408754
 30
0.0
 11
1850.0
 21
2469.408754
 31
0.0
  0
LINE
  5
7B0F
  8
4
  6
CONTINUOUS
 10
250.0
 20
2669.408754
 30
0.0
 11
1850.0
 21
2669.408754
 31
0.0
  0
LINE
  5
7B10
  8
4
  6
CONTINUOUS
 10
650.0
 20
500.0
 30
0.0
 11
1850.0
 21
500.0
 31
0.0
  0
LINE
  5
7B11
  8
4
  6
CONTINUOUS
 10
250.0
 20
2669.408754
 30
0.0
 11
250.0
 21
2469.408754
 31
0.0
  0
TEXT
  5
7B12
  8
4
  6
CONTINUOUS
 10
468.92693300000002
 20
2382.3194779999999
 30
0.0
 40
54.0
  1
左回転上向
  0
TEXT
  5
7B13
  8
4
  6
CONTINUOUS
 10
1468.9695589999999
 20
2706.0610809999998
 30
0.0
 40
56.0
  1
No.
  0
TEXT
  5
7B14
  8
4
  6
CONTINUOUS
 10
1311.296063
 20
2383.4288409999999
 30
0.0
 40
54.0
  1
縮尺：1/10
  0
LINE
  5
7B15
  8
4
  6
CONTINUOUS
 10
1850.0
 20
2669.408754
 30
0.0
 11
1850.0
 21
2469.408754
 31
0.0
  0
LINE
  5
7B17
  8
4
  6
CONTINUOUS
 10
1440.617422
 20
2681.2635829999999
 30
0.0
 11
1440.617422
 21
2786.6522620000001
 31
0.0
  0
LINE
  5
7B18
  8
4
  6
CONTINUOUS
 10
1440.617422
 20
2786.6522620000001
 30
0.0
 11
1850.0
 21
2786.6522620000001
 31
0.0
  0
LINE
  5
7B19
  8
4
  6
CONTINUOUS
 10
1850.0
 20
2786.6522620000001
 30
0.0
 11
1850.0
 21
2681.2635829999999
 31
0.0
  0
LINE
  5
7B1A
  8
4
  6
CONTINUOUS
 10
1850.0
 20
2681.2635829999999
 30
0.0
 11
1440.617422
 21
2681.2635829999999
 31
0.0
  0
LINE
  5
7B1F
  8
2
  6
CENTER
 10
304.08379645822168
 20
1964.5995260063889
 30
0.0
 11
840.78055945822155
 21
1964.5995260063889
 31
0.0
  0
DIMENSION
  5
7B33
  8
3
  6
CONTINUOUS
  2
*D1
 10
541.28617945822168
 20
753.167688673307
 30
0.0
 11
448.34862745822159
 21
753.167688673307
 31
0.0
 70
   128
 13
351.28617945822151
 23
831.26689567330698
 33
0.0
 14
541.28617945822168
 24
831.26689567330698
 34
0.0
1001
ACAD
1000
DSTYLE
1002
{
1070
   287
1070
     3
1070
   287
1070
     3
1070
    40
1040
10.0
1070
   143
1040
0.039
1070
   172
1070
     1
1070
   271
1070
     0
1070
   279
1070
     0
1070
   288
1070
     1
1002
}
  0
DIMENSION
  5
7B3F
  8
3
  6
CONTINUOUS
  2
*D2
 10
1061.2861794582211
 20
753.167688673307
 30
0.0
 11
801.28617945822157
 21
778.167688673307
 31
0.0
 70
     0
 13
541.28617945822168
 23
831.26689567330698
 33
0.0
 14
1061.2861794582211
 24
831.26689567330698
 34
0.0
1001
ACAD
1000
DSTYLE
1002
{
1070
   287
1070
     4
1070
   287
1070
     4
1070
    40
1040
10.0
1070
    75
1070
     1
1070
   143
1040
0.039
1070
   172
1070
     1
1070
   271
1070
     0
1070
   279
1070
     1
1070
   288
1070
     1
1002
}
  0
DIMENSION
  5
7B4C
  8
3
  6
CONTINUOUS
  2
*D3
 10
791.28617945822168
 20
1392.128673673307
 30
0.0
 11
670.33757445822164
 21
1392.128673673307
 31
0.0
 70
   128
 13
541.28617945822168
 23
1346.2668956733071
 33
0.0
 14
791.28617945822168
 24
1346.2668956733071
 34
0.0
1001
ACAD
1000
DSTYLE
1002
{
1070
   287
1070
     3
1070
   287
1070
     3
1070
    40
1040
10.0
1070
   143
1040
0.039
1070
   172
1070
     1
1070
   271
1070
     0
1070
   279
1070
     0
1070
   288
1070
     1
1002
}
  0
DIMENSION
  5
7B59
  8
3
  6
CONTINUOUS
  2
*D4
 10
541.28617945822168
 20
1443.6997306733069
 30
0.0
 11
439.58117845822159
 21
1443.6997306733069
 31
0.0
 70
   128
 13
355.2967954582216
 23
1146.2668956733071
 33
0.0
 14
541.28617945822168
 24
1346.2668956733071
 34
0.0
1001
ACAD
1000
DSTYLE
1002
{
1070
   287
1070
     3
1070
   287
1070
     3
1070
    40
1040
10.0
1070
   143
1040
0.039
1070
   172
1070
     1
1070
   271
1070
     0
1070
   279
1070
     0
1070
   288
1070
     1
1002
}
  0
DIMENSION
  5
7B65
  8
3
  6
CONTINUOUS
  2
*D5
 10
801.28617945822168
 20
1443.6997306733069
 30
0.0
 11
671.28617945822168
 21
1468.699730673306
 31
0.0
 70
     0
 13
541.28617945822168
 23
1346.2668956733071
 33
0.0
 14
801.28617945822168
 24
1326.2668956733071
 34
0.0
1001
ACAD
1000
DSTYLE
1002
{
1070
   287
1070
     4
1070
   287
1070
     4
1070
    40
1040
10.0
1070
    75
1070
     1
1070
   143
1040
0.039
1070
   172
1070
     1
1070
   271
1070
     0
1070
   279
1070
     1
1070
   288
1070
     1
1002
}
  0
DIMENSION
  5
7B8B
  8
3
  6
CONTINUOUS
  2
*D6
 10
1185.0300612362651
 20
831.26689567330698
 30
0.0
 11
1185.0300612362639
 21
1091.7727646733069
 31
0.0
 70
   128
 13
812.28617945822168
 23
1346.2668956733071
 33
0.0
 14
1061.2861794582211
 24
831.26689567330698
 34
0.0
 50
90.0
1001
ACAD
1000
DSTYLE
1002
{
1070
   287
1070
     3
1070
   287
1070
     3
1070
    40
1040
10.0
1070
   143
1040
0.039
1070
   172
1070
     1
1070
   271
1070
     0
1070
   279
1070
     0
1070
   288
1070
     1
1002
}
  0
DIMENSION
  5
7B98
  8
3
  6
CONTINUOUS
  2
*D7
 10
1061.2861794582211
 20
1628.4566036796959
 30
0.0
 11
716.63285045822158
 21
1628.4566036796959
 31
0.0
 70
   128
 13
351.28617945822151
 23
1800.2810996796959
 33
0.0
 14
1061.2861794582211
 24
1800.2810996796959
 34
0.0
1001
ACAD
1000
DSTYLE
1002
{
1070
   287
1070
     3
1070
   287
1070
     3
1070
    40
1040
10.0
1070
   143
1040
0.039
1070
   172
1070
     1
1070
   271
1070
     0
1070
   279
1070
     0
1070
   288
1070
     1
1002
}
  0
DIMENSION
  5
7BA5
  8
3
  6
CONTINUOUS
  2
*D8
 10
1156.7592394582221
 20
1800.2810996796959
 30
0.0
 11
1156.7592394582221
 21
1928.0043436796959
 31
0.0
 70
   128
 13
1061.2861794582211
 23
2050.2810996796961
 33
0.0
 14
1061.2861794582211
 24
1800.2810996796959
 34
0.0
 50
90.0
1001
ACAD
1000
DSTYLE
1002
{
1070
   287
1070
     3
1070
   287
1070
     3
1070
    40
1040
10.0
1070
   143
1040
0.039
1070
   172
1070
     1
1070
   271
1070
     0
1070
   279
1070
     0
1070
   288
1070
     1
1002
}
  0
LINE
  5
7BA6
  8
2
  6
CENTER
 10
541.28617945822168
 20
1366.255513673307
 30
0.0
 11
541.28617945822168
 21
807.74353367330696
 31
0.0
  0
LINE
  5
7BA7
  8
2
  6
CENTER
 10
1632.619242625334
 20
1394.1051616733071
 30
0.0
 11
1632.619242625334
 21
820.38198267330699
 31
0.0
  0
LINE
  5
7BA9
  8
2
  6
CENTER
 10
1045.761359458221
 20
1146.2668956733071
 30
0.0
 11
333.99987345822149
 21
1146.2668956733071
 31
0.0
  0
DIMENSION
  5
7BB6
  8
3
  6
CONTINUOUS
  2
*D9
 10
1624.619242625334
 20
760.52076567330687
 30
0.0
 11
1506.465938625335
 21
760.52076567330687
 31
0.0
 70
   128
 13
1374.6192426253349
 23
831.26689567330698
 33
0.0
 14
1624.619242625334
 24
831.26689567330698
 34
0.0
1001
ACAD
1000
DSTYLE
1002
{
1070
   287
1070
     3
1070
   287
1070
     3
1070
    40
1040
10.0
1070
   143
1040
0.039
1070
   172
1070
     1
1070
   271
1070
     0
1070
   279
1070
     0
1070
   288
1070
     1
1002
}
  0
DIMENSION
  5
7BC7
  8
3
  6
CONTINUOUS
  2
*D10
 10
1806.798867625334
 20
1021.266895673306
 30
0.0
 11
1806.798867625334
 21
1139.468542673306
 31
0.0
 70
   128
 13
1731.619242625334
 23
1271.2668956733071
 33
0.0
 14
1731.619242625334
 24
1021.266895673307
 34
0.0
 50
90.0
1001
ACAD
1000
DSTYLE
1002
{
1070
   287
1070
     3
1070
   287
1070
     3
1070
     3
1000
φ<>
1070
    40
1040
10.0
1070
   143
1040
0.039
1070
   172
1070
     1
1070
   271
1070
     0
1070
   279
1070
     0
1070
   288
1070
     1
1002
}
  0
LINE
  5
7BEE
  8
1
  6
CONTINUOUS
 10
1542.8192426253349
 20
1346.2668956733071
 30
0.0
 11
1542.8192426253349
 21
947.36689567330689
 31
0.0
  0
LINE
  5
7BEF
  8
1
  6
CONTINUOUS
 10
1722.4192426253351
 20
947.36689567330689
 30
0.0
 11
1722.4192426253351
 21
1146.2668956733071
 31
0.0
  0
LINE
  5
7BF0
  8
1
  6
CONTINUOUS
 10
1731.619242625334
 20
1293.2668956733071
 30
0.0
 11
1731.619242625334
 21
999.26689567330686
 31
0.0
  0
LINE
  5
7BF1
  8
1
  6
CONTINUOUS
 10
1554.8192426253349
 20
935.366895673307
 30
0.0
 11
1710.4192426253339
 21
935.366895673307
 31
0.0
  0
ARC
  5
7BF2
  8
1
  6
CONTINUOUS
 10
1554.8192426253349
 20
947.36689567330689
 30
0.0
 40
12.0
 50
180.0
 51
270.0
  0
LINE
  5
7BF3
  8
1
  6
CONTINUOUS
 10
1542.8192426253349
 20
999.26689567330686
 30
0.0
 11
1533.6192426253349
 21
999.26689567330686
 31
0.0
  0
ARC
  5
7BF4
  8
1
  6
CONTINUOUS
 10
1710.4192426253339
 20
947.36689567330689
 30
0.0
 40
12.0
 50
270.0
 51
0.0
  0
LINE
  5
7BF5
  8
1
  6
CONTINUOUS
 10
1722.4192426253351
 20
999.26689567330686
 30
0.0
 11
1731.619242625334
 21
999.26689567330686
 31
0.0
  0
LINE
  5
7BF6
  8
1
  6
CONTINUOUS
 10
1571.8192426253349
 20
1326.2668956733071
 30
0.0
 11
1693.4192426253351
 21
1326.2668956733071
 31
0.0
  0
LINE
  5
7BF7
  8
1
  6
CONTINUOUS
 10
1521.6192426253349
 20
1346.2668956733071
 30
0.0
 11
1743.619242625334
 21
1346.2668956733071
 31
0.0
  0
LINE
  5
7BF8
  8
1
  6
CONTINUOUS
 10
1551.8192426253349
 20
1346.2668956733071
 30
0.0
 11
1571.8192426253349
 21
1326.2668956733071
 31
0.0
  0
LINE
  5
7BF9
  8
1
  6
CONTINUOUS
 10
1542.8192426253349
 20
1293.2668956733071
 30
0.0
 11
1533.6192426253349
 21
1293.2668956733071
 31
0.0
  0
LINE
  5
7BFA
  8
1
  6
CONTINUOUS
 10
1533.6192426253349
 20
1293.2668956733071
 30
0.0
 11
1533.6192426253349
 21
1146.2668956733071
 31
0.0
  0
LINE
  5
7BFC
  8
1
  6
CONTINUOUS
 10
1713.4192426253339
 20
1346.2668956733071
 30
0.0
 11
1693.4192426253351
 21
1326.2668956733071
 31
0.0
  0
LINE
  5
7BFD
  8
1
  6
CONTINUOUS
 10
1722.4192426253351
 20
1346.2668956733071
 30
0.0
 11
1722.4192426253351
 21
1146.2668956733071
 31
0.0
  0
LINE
  5
7BFE
  8
1
  6
CONTINUOUS
 10
1722.4192426253351
 20
1293.2668956733071
 30
0.0
 11
1731.619242625334
 21
1293.2668956733071
 31
0.0
  0
DIMENSION
  5
7C0B
  8
3
  6
CONTINUOUS
  2
*D11
 10
1722.4192426253351
 20
1391.129642673307
 30
0.0
 11
1635.8302296253351
 21
1391.129642673307
 31
0.0
 70
   128
 13
1542.8192426253349
 23
1346.2668956733071
 33
0.0
 14
1722.4192426253351
 24
1346.2668956733071
 34
0.0
1001
ACAD
1000
DSTYLE
1002
{
1070
   287
1070
     3
1070
   287
1070
     3
1070
    40
1040
10.0
1070
   143
1040
0.039
1070
   172
1070
     1
1070
   271
1070
     0
1070
   279
1070
     0
1070
   288
1070
     1
1002
}
  0
DIMENSION
  5
7C18
  8
3
  6
CONTINUOUS
  2
*D12
 10
1632.619242625334
 20
1462.554391673307
 30
0.0
 11
1465.6411556253349
 21
1462.554391673307
 31
0.0
 70
   128
  1
MAX\P340
 13
1292.6192426253349
 23
1271.2668956733071
 33
0.0
 14
1632.619242625334
 24
1444.7030596733059
 34
0.0
1001
ACAD
1000
DSTYLE
1002
{
1070
   287
1070
     3
1070
   287
1070
     3
1070
    40
1040
10.0
1070
   143
1040
0.039
1070
   172
1070
     1
1070
   271
1070
     0
1070
   279
1070
     0
1070
   288
1070
     1
1002
}
  0
DIMENSION
  5
7C26
  8
3
  6
CONTINUOUS
  2
*D13
 10
1731.619242625334
 20
1462.554391673307
 30
0.0
 11
1679.009190625334
 21
1462.554391673307
 31
0.0
 70
   128
 13
1632.619242625334
 23
1444.7030596733059
 33
0.0
 14
1731.619242625334
 24
1293.2668956733071
 34
0.0
1001
ACAD
1000
DSTYLE
1002
{
1070
   287
1070
     4
1070
   287
1070
     4
1070
    40
1040
10.0
1070
    75
1070
     1
1070
   143
1040
0.039
1070
   172
1070
     1
1070
   271
1070
     0
1070
   279
1070
     1
1070
   288
1070
     1
1002
}
  0
DIMENSION
  5
7C66
  8
3
  6
CONTINUOUS
  2
*D14
 10
1117.259688458221
 20
1146.2668956733071
 30
0.0
 11
1117.259688458221
 21
1229.4251336733071
 31
0.0
 70
   128
 13
817.28617945822157
 23
1346.2668956733071
 33
0.0
 14
801.28617945822168
 24
1146.2668956733071
 34
0.0
 50
90.0
1001
ACAD
1000
DSTYLE
1002
{
1070
   287
1070
     3
1070
   287
1070
     3
1070
    40
1040
10.0
1070
   143
1040
0.039
1070
   172
1070
     1
1070
   271
1070
     0
1070
   279
1070
     0
1070
   288
1070
     1
1002
}
  0
DIMENSION
  5
7C72
  8
3
  6
CONTINUOUS
  2
*D15
 10
1117.259688458221
 20
831.26689567330698
 30
0.0
 11
1092.259688458221
 21
988.7668956733072
 31
0.0
 70
     0
 13
801.28617945822168
 23
1146.2668956733071
 33
0.0
 14
1061.2861794582211
 24
831.26689567330698
 34
0.0
 50
90.0
1001
ACAD
1000
DSTYLE
1002
{
1070
   287
1070
     4
1070
   287
1070
     4
1070
    40
1040
10.0
1070
    75
1070
     1
1070
   143
1040
0.039
1070
   172
1070
     1
1070
   271
1070
     0
1070
   279
1070
     1
1070
   288
1070
     1
1002
}
  0
DIMENSION
  5
7CC1
  8
3
  2
*D16
 10
1632.619242625334
 20
760.52076567330687
 30
0.0
 11
1692.619242625334
 21
785.52076567330687
 31
0.0
 70
     0
 13
1624.619242625334
 23
831.26689567330698
 33
0.0
 14
1632.619242625334
 24
820.38198267330699
 34
0.0
1001
ACAD
1000
DSTYLE
1002
{
1070
   287
1070
     3
1070
   287
1070
     3
1070
    40
1040
10.0
1070
   143
1040
0.039
1070
   172
1070
     1
1070
   271
1070
     0
1070
   279
1070
     0
1070
   288
1070
     1
1002
}
  0
DIMENSION
  5
7CE6
  8
3
  2
*D17
 10
1061.2861794582211
 20
1508.6317640934519
 30
0.0
 11
737.63177065504351
 21
1508.6317640934519
 31
0.0
 70
   128
 13
355.2967954582216
 23
1453.6997306733069
 33
0.0
 14
1061.2861794582211
 24
911.26689567330698
 34
0.0
1001
ACAD
1000
DSTYLE
1002
{
1070
   287
1070
     3
1070
   287
1070
     3
1070
    40
1040
10.0
1070
   143
1040
0.039
1070
   172
1070
     1
1070
   271
1070
     0
1070
   279
1070
     0
1070
   288
1070
     1
1002
}
  0
ENDSEC
  0
EOF
