  0
SECTION
  2
HEADER
  9
$ACADVER
  1
AC1009
  9
$INSBASE
 10
0.0
 20
0.0
 30
0.0
  9
$EXTMIN
 10
250.0
 20
300.0
 30
0.0
  9
$EXTMAX
 10
1850.0
 20
2786.6522620000001
 30
0.0
  9
$LIMMIN
 10
0.0
 20
0.0
  9
$LIMMAX
 10
297.0
 20
210.0
  9
$ORTHOMODE
 70
     0
  9
$REGENMODE
 70
     1
  9
$FILLMODE
 70
     0
  9
$QTEXTMODE
 70
     0
  9
$MIRRTEXT
 70
     1
  9
$DRAGMODE
 70
     2
  9
$LTSCALE
 40
100.0
  9
$OSMODE
 70
    37
  9
$ATTMODE
 70
     1
  9
$TEXTSIZE
 40
180.0
  9
$TRACEWID
 40
0.05
  9
$TEXTSTYLE
  7
STANDARD
  9
$CLAYER
  8
3
  9
$CELTYPE
  6
BYLAYER
  9
$CECOLOR
 62
   256
  9
$DIMSCALE
 40
10.0
  9
$DIMASZ
 40
2.0
  9
$DIMEXO
 40
0.5
  9
$DIMDLI
 40
10.0
  9
$DIMRND
 40
0.0
  9
$DIMDLE
 40
0.0
  9
$DIMEXE
 40
1.0
  9
$DIMTP
 40
1.0
  9
$DIMTM
 40
1.0
  9
$DIMTXT
 40
3.0
  9
$DIMCEN
 40
0.0
  9
$DIMTSZ
 40
0.0
  9
$DIMTOL
 70
     0
  9
$DIMLIM
 70
     0
  9
$DIMTIH
 70
     0
  9
$DIMTOH
 70
     0
  9
$DIMSE1
 70
     0
  9
$DIMSE2
 70
     0
  9
$DIMTAD
 70
     1
  9
$DIMZIN
 70
     8
  9
$DIMBLK
  1

  9
$DIMASO
 70
     1
  9
$DIMSHO
 70
     1
  9
$DIMPOST
  1

  9
$DIMAPOST
  1

  9
$DIMALT
 70
     0
  9
$DIMALTD
 70
     2
  9
$DIMALTF
 40
0.039
  9
$DIMLFAC
 40
1.0
  9
$DIMTOFL
 70
     1
  9
$DIMTVP
 40
0.0
  9
$DIMTIX
 70
     0
  9
$DIMSOXD
 70
     0
  9
$DIMSAH
 70
     1
  9
$DIMBLK1
  1
OPEN
  9
$DIMBLK2
  1
OPEN
  9
$DIMSTYLE
  2
IGA
  9
$DIMCLRD
 70
     0
  9
$DIMCLRE
 70
     0
  9
$DIMCLRT
 70
     0
  9
$DIMTFAC
 40
10.0
  9
$DIMGAP
 40
1.0
  9
$LUNITS
 70
     2
  9
$LUPREC
 70
     3
  9
$SKETCHINC
 40
0.1
  9
$FILLETRAD
 40
50.0
  9
$AUNITS
 70
     0
  9
$AUPREC
 70
     0
  9
$MENU
  1
acad
  9
$ELEVATION
 40
0.0
  9
$PELEVATION
 40
0.0
  9
$THICKNESS
 40
0.0
  9
$LIMCHECK
 70
     0
  9
$BLIPMODE
 70
     0
  9
$CHAMFERA
 40
0.5
  9
$CHAMFERB
 40
0.5
  9
$SKPOLY
 70
     0
  9
$TDCREATE
 40
2450739.4867122681
  9
$TDUPDATE
 40
2454953.86363853
  9
$TDINDWG
 40
0.0050720833
  9
$TDUSRTIMER
 40
0.0050720833
  9
$USRTIMER
 70
     1
  9
$ANGBASE
 50
0.0
  9
$ANGDIR
 70
     0
  9
$PDMODE
 70
     0
  9
$PDSIZE
 40
0.0
  9
$PLINEWID
 40
0.0
  9
$COORDS
 70
     1
  9
$SPLFRAME
 70
     0
  9
$SPLINETYPE
 70
     6
  9
$SPLINESEGS
 70
     8
  9
$ATTDIA
 70
     0
  9
$ATTREQ
 70
     1
  9
$HANDLING
 70
 10241
  9
$HANDSEED
  5
7E11
  9
$SURFTAB1
 70
     6
  9
$SURFTAB2
 70
     6
  9
$SURFTYPE
 70
     6
  9
$SURFU
 70
     6
  9
$SURFV
 70
     6
  9
$UCSNAME
  2

  9
$UCSORG
 10
0.0
 20
0.0
 30
0.0
  9
$UCSXDIR
 10
1.0
 20
0.0
 30
0.0
  9
$UCSYDIR
 10
0.0
 20
1.0
 30
0.0
  9
$PUCSNAME
  2

  9
$PUCSORG
 10
0.0
 20
0.0
 30
0.0
  9
$PUCSXDIR
 10
1.0
 20
0.0
 30
0.0
  9
$PUCSYDIR
 10
0.0
 20
1.0
 30
0.0
  9
$USERI1
 70
     0
  9
$USERI2
 70
     0
  9
$USERI3
 70
     0
  9
$USERI4
 70
     0
  9
$USERI5
 70
     0
  9
$USERR1
 40
0.0
  9
$USERR2
 40
0.0
  9
$USERR3
 40
0.0
  9
$USERR4
 40
0.0
  9
$USERR5
 40
0.0
  9
$WORLDVIEW
 70
     1
  9
$SHADEDGE
 70
     3
  9
$SHADEDIF
 70
    70
  9
$TILEMODE
 70
     1
  9
$MAXACTVP
 70
    16
  9
$PLIMCHECK
 70
     0
  9
$PEXTMIN
 10
1.0000000000000000E+020
 20
1.0000000000000000E+020
 30
1.0000000000000000E+020
  9
$PEXTMAX
 10
-1.0000000000000000E+020
 20
-1.0000000000000000E+020
 30
-1.0000000000000000E+020
  9
$PLIMMIN
 10
0.0
 20
0.0
  9
$PLIMMAX
 10
12.0
 20
9.0
  9
$UNITMODE
 70
     0
  9
$VISRETAIN
 70
     0
  9
$PLINEGEN
 70
     0
  9
$PSLTSCALE
 70
     1
  0
ENDSEC
  0
SECTION
  2
TABLES
  0
TABLE
  2
VPORT
 70
     2
  0
VPORT
  2
*ACTIVE
 70
     0
 10
0.0
 20
0.0
 11
1.0
 21
1.0
 12
2915.7824248380512
 22
1973.675547966488
 13
0.0
 23
0.0
 14
10.0
 24
10.0
 15
10.0
 25
10.0
 16
0.0
 26
0.0
 36
1.0
 17
0.0
 27
0.0
 37
0.0
 40
3860.4308917189128
 41
1.5051150895140659
 42
50.0
 43
0.0
 44
0.0
 50
0.0
 51
0.0
 71
     0
 72
   100
 73
     1
 74
     0
 75
     0
 76
     0
 77
     0
 78
     0
  0
ENDTAB
  0
TABLE
  2
LTYPE
 70
     2
  0
LTYPE
  2
CONTINUOUS
 70
     0
  3
Solid line
 72
    65
 73
     0
 40
0.0
  0
LTYPE
  2
CENTER
 70
     0
  3
____ _ ____ _ ____ _ ____ _ ____ _ ____ _ ____ 
 72
    65
 73
     4
 40
2.0
 49
1.25
 49
-0.25
 49
0.25
 49
-0.25
  0
ENDTAB
  0
TABLE
  2
LAYER
 70
     6
  0
LAYER
  2
0
 70
     0
 62
     7
  6
CONTINUOUS
  0
LAYER
  2
3
 70
     0
 62
     2
  6
CONTINUOUS
  0
LAYER
  2
2
 70
     0
 62
     3
  6
CENTER
  0
LAYER
  2
1
 70
     0
 62
     4
  6
CONTINUOUS
  0
LAYER
  2
4
 70
     0
 62
     7
  6
CONTINUOUS
  0
LAYER
  2
DEFPOINTS
 70
     0
 62
     7
  6
CONTINUOUS
  0
ENDTAB
  0
TABLE
  2
STYLE
 70
     1
  0
STYLE
  2
STANDARD
 70
     0
 40
0.0
 41
1.0
 50
0.0
 71
     0
 42
180.0
  3
simplex.shx
  4
extfont.shx
  0
ENDTAB
  0
TABLE
  2
VIEW
 70
     0
  0
ENDTAB
  0
TABLE
  2
UCS
 70
     0
  0
ENDTAB
  0
TABLE
  2
APPID
 70
     1
  0
APPID
  2
ACAD
 70
     0
  0
ENDTAB
  0
TABLE
  2
DIMSTYLE
 70
     1
  0
DIMSTYLE
  2
IGA
 70
     0
  3

  4

  5

  6
OPEN
  7
OPEN
 40
2.0
 41
2.0
 42
0.5
 43
10.0
 44
1.0
 45
0.0
 46
0.0
 47
1.0
 48
1.0
140
3.0
141
0.0
142
0.0
143
0.03937
144
1.0
145
0.0
146
10.0
147
1.0
 71
     0
 72
     0
 73
     0
 74
     0
 75
     0
 76
     0
 77
     1
 78
     8
170
     0
171
     2
172
     0
173
     1
174
     0
175
     0
176
     0
177
     0
178
     0
  0
ENDTAB
  0
ENDSEC
  0
SECTION
  2
BLOCKS
  0
BLOCK
  8
0
  2
$MODEL_SPACE
 70
     0
 10
0.0
 20
0.0
 30
0.0
  3
$MODEL_SPACE
  1

  0
ENDBLK
  5
1B
  8
0
  0
BLOCK
 67
     1
  8
0
  2
$PAPER_SPACE
 70
     0
 10
0.0
 20
0.0
 30
0.0
  3
$PAPER_SPACE
  1

  0
ENDBLK
  5
18
 67
     1
  8
0
  0
BLOCK
  8
0
  2
_OPEN
 70
     0
 10
0.0
 20
0.0
 30
0.0
  3
_OPEN
  1

  0
LINE
  5
7B26
  8
0
  6
BYBLOCK
 62
     0
 10
-1.0
 20
0.166667
 30
0.0
 11
0.0
 21
0.0
 31
0.0
  0
LINE
  5
7B27
  8
0
  6
BYBLOCK
 62
     0
 10
0.0
 20
0.0
 30
0.0
 11
-1.0
 21
-0.166667
 31
0.0
  0
LINE
  5
7B28
  8
0
  6
BYBLOCK
 62
     0
 10
0.0
 20
0.0
 30
0.0
 11
-1.0
 21
0.0
 31
0.0
  0
ENDBLK
  5
7B29
  8
0
  0
BLOCK
  8
0
  2
*D1
 70
     1
 10
0.0
 20
0.0
 30
0.0
  3
*D1
  1

  0
LINE
  5
7D68
  8
3
  6
CONTINUOUS
 62
     0
 10
491.92576200000002
 20
1814.988980254383
 30
0.0
 11
491.92576200000002
 21
1620.7942502543831
 31
0.0
  0
LINE
  5
7D69
  8
3
  6
CONTINUOUS
 62
     0
 10
1201.9257620000001
 20
1814.988980254383
 30
0.0
 11
1201.9257620000001
 21
1620.7942502543831
 31
0.0
  0
LINE
  5
7D6A
  8
3
  6
CONTINUOUS
 62
     0
 10
511.92576199999991
 20
1630.794250254384
 30
0.0
 11
1181.9257619999989
 21
1630.794250254384
 31
0.0
  0
INSERT
  5
7D6B
  8
3
  6
CONTINUOUS
 62
     0
  2
_OPEN
 10
491.92576200000002
 20
1630.794250254384
 30
0.0
 41
20.0
 42
20.0
 43
20.0
 50
180.0
  0
INSERT
  5
7D6C
  8
3
  6
CONTINUOUS
 62
     0
  2
_OPEN
 10
1201.9257620000001
 20
1630.794250254384
 30
0.0
 41
20.0
 42
20.0
 43
20.0
  0
TEXT
  8
3
  40
30
  5
7DFF
  62
0
  72
0
  71
0
 10
785.275
 20
1602.69
 30
0.000000
  1
710
  0
POINT
  5
7D6E
  8
DEFPOINTS
  6
CONTINUOUS
 62
     0
 10
491.92576200000002
 20
1819.988980254383
 30
0.0
  0
POINT
  5
7D6F
  8
DEFPOINTS
  6
CONTINUOUS
 62
     0
 10
1201.9257620000001
 20
1819.988980254383
 30
0.0
  0
POINT
  5
7D70
  8
DEFPOINTS
  6
CONTINUOUS
 62
     0
 10
1201.9257620000001
 20
1630.794250254384
 30
0.0
  0
ENDBLK
  5
7B36
  8
0
  0
BLOCK
  8
0
  2
*D2
 70
     1
 10
0.0
 20
0.0
 30
0.0
  3
*D2
  1

  0
LINE
  5
7D71
  8
3
  6
CONTINUOUS
 62
     0
 10
1206.9257620000001
 20
2069.9889802543839
 30
0.0
 11
1297.746382
 21
2069.9889802543839
 31
0.0
  0
LINE
  5
7D72
  8
3
  6
CONTINUOUS
 62
     0
 10
1206.9257620000001
 20
1819.988980254383
 30
0.0
 11
1297.746382
 21
1819.988980254383
 31
0.0
  0
LINE
  5
7D73
  8
3
  6
CONTINUOUS
 62
     0
 10
1287.746382
 20
2049.9889802543839
 30
0.0
 11
1287.746382
 21
1839.988980254383
 31
0.0
  0
INSERT
  5
7D74
  8
3
  6
CONTINUOUS
 62
     0
  2
_OPEN
 10
1287.746382
 20
2069.9889802543839
 30
0.0
 41
20.0
 42
20.0
 43
20.0
 50
90.0
  0
INSERT
  5
7D75
  8
3
  6
CONTINUOUS
 62
     0
  2
_OPEN
 10
1287.746382
 20
1819.988980254383
 30
0.0
 41
20.0
 42
20.0
 43
20.0
 50
270.0
  0
TEXT
  8
3
  40
30
  5
7E00
  62
0
  72
0
  71
0
 10
1202.75
 20
1902.27
 30
0.000000
  1
250
  0
POINT
  5
7D77
  8
DEFPOINTS
  6
CONTINUOUS
 62
     0
 10
1201.9257620000001
 20
2069.9889802543839
 30
0.0
  0
POINT
  5
7D78
  8
DEFPOINTS
  6
CONTINUOUS
 62
     0
 10
1201.9257620000001
 20
1819.988980254383
 30
0.0
  0
POINT
  5
7D79
  8
DEFPOINTS
  6
CONTINUOUS
 62
     0
 10
1287.746382
 20
1819.988980254383
 30
0.0
  0
ENDBLK
  5
7B43
  8
0
  0
BLOCK
  8
0
  2
*D3
 70
     1
 10
0.0
 20
0.0
 30
0.0
  3
*D3
  1

  0
LINE
  5
7D7A
  8
3
  6
CONTINUOUS
 62
     0
 10
491.92576200000002
 20
698.12296781584814
 30
0.0
 11
491.92576200000002
 21
616.38522881584811
 31
0.0
  0
LINE
  5
7D7B
  8
3
  6
CONTINUOUS
 62
     0
 10
681.92576199999985
 20
698.12296781584814
 30
0.0
 11
681.92576199999985
 21
616.38522881584811
 31
0.0
  0
LINE
  5
7D7C
  8
3
  6
CONTINUOUS
 62
     0
 10
511.92576200000002
 20
626.38522881584811
 30
0.0
 11
661.92576199999985
 21
626.38522881584811
 31
0.0
  0
INSERT
  5
7D7D
  8
3
  6
CONTINUOUS
 62
     0
  2
_OPEN
 10
491.92576200000002
 20
626.38522881584811
 30
0.0
 41
20.0
 42
20.0
 43
20.0
 50
180.0
  0
INSERT
  5
7D7E
  8
3
  6
CONTINUOUS
 62
     0
  2
_OPEN
 10
681.92576199999985
 20
626.38522881584811
 30
0.0
 41
20.0
 42
20.0
 43
20.0
  0
TEXT
  8
3
  40
30
  5
7E01
  62
0
  72
0
  71
0
 10
527.966
 20
598.285
 30
0.000000
  1
190
  0
POINT
  5
7D80
  8
DEFPOINTS
  6
CONTINUOUS
 62
     0
 10
491.92576200000002
 20
703.12296781584814
 30
0.0
  0
POINT
  5
7D81
  8
DEFPOINTS
  6
CONTINUOUS
 62
     0
 10
681.92576199999985
 20
703.12296781584814
 30
0.0
  0
POINT
  5
7D82
  8
DEFPOINTS
  6
CONTINUOUS
 62
     0
 10
681.92576199999985
 20
626.38522881584811
 30
0.0
  0
ENDBLK
  5
7B50
  8
0
  0
BLOCK
  8
0
  2
*D4
 70
     1
 10
0.0
 20
0.0
 30
0.0
  3
*D4
  1

  0
LINE
  5
7D83
  8
3
  6
CONTINUOUS
 62
     0
 10
1201.9257620000001
 20
698.12296781584814
 30
0.0
 11
1201.9257620000001
 21
616.38522881584811
 31
0.0
  0
LINE
  5
7D84
  8
3
  6
CONTINUOUS
 62
     0
 10
701.92576199999985
 20
626.38522881584811
 30
0.0
 11
1181.9257619999989
 21
626.38522881584811
 31
0.0
  0
INSERT
  5
7D85
  8
3
  6
CONTINUOUS
 62
     0
  2
_OPEN
 10
681.92576199999985
 20
626.38522881584811
 30
0.0
 41
20.0
 42
20.0
 43
20.0
 50
180.0
  0
INSERT
  5
7D86
  8
3
  6
CONTINUOUS
 62
     0
  2
_OPEN
 10
1201.9257620000001
 20
626.38522881584811
 30
0.0
 41
20.0
 42
20.0
 43
20.0
  0
TEXT
  8
3
  40
30
  5
7E02
  62
0
  72
0
  71
0
 10
881.926
 20
598.285
 30
0.000000
  1
520
  0
POINT
  5
7D88
  8
DEFPOINTS
  6
CONTINUOUS
 62
     0
 10
681.92576199999985
 20
703.12296781584814
 30
0.0
  0
POINT
  5
7D89
  8
DEFPOINTS
  6
CONTINUOUS
 62
     0
 10
1201.9257620000001
 20
703.12296781584814
 30
0.0
  0
POINT
  5
7D8A
  8
DEFPOINTS
  6
CONTINUOUS
 62
     0
 10
1201.9257620000001
 20
626.38522881584811
 30
0.0
  0
ENDBLK
  5
7B5C
  8
0
  0
BLOCK
  8
0
  2
*D5
 70
     1
 10
0.0
 20
0.0
 30
0.0
  3
*D5
  1

  0
LINE
  5
7D8B
  8
3
  6
CONTINUOUS
 62
     0
 10
476.92576200000008
 20
1268.1229678158479
 30
0.0
 11
424.82427400000017
 21
1268.1229678158479
 31
0.0
  0
LINE
  5
7D8C
  8
3
  6
CONTINUOUS
 62
     0
 10
476.92576200000008
 20
1018.122967815848
 30
0.0
 11
424.82427400000017
 21
1018.122967815848
 31
0.0
  0
LINE
  5
7D8D
  8
3
  6
CONTINUOUS
 62
     0
 10
434.82427400000017
 20
1248.1229678158479
 30
0.0
 11
434.82427400000017
 21
1038.1229678158479
 31
0.0
  0
INSERT
  5
7D8E
  8
3
  6
CONTINUOUS
 62
     0
  2
_OPEN
 10
434.82427400000017
 20
1268.1229678158479
 30
0.0
 41
20.0
 42
20.0
 43
20.0
 50
90.0
  0
INSERT
  5
7D8F
  8
3
  6
CONTINUOUS
 62
     0
  2
_OPEN
 10
434.82427400000017
 20
1018.122967815848
 30
0.0
 41
20.0
 42
20.0
 43
20.0
 50
270.0
  0
TEXT
  8
3
  40
30
  5
7E03
  62
0
  72
0
  71
0
 10
349.824
 20
1094.50
 30
0.000000
  1
250
  0
POINT
  5
7D91
  8
DEFPOINTS
  6
CONTINUOUS
 62
     0
 10
481.92576200000008
 20
1268.1229678158479
 30
0.0
  0
POINT
  5
7D92
  8
DEFPOINTS
  6
CONTINUOUS
 62
     0
 10
481.92576200000008
 20
1018.122967815848
 30
0.0
  0
POINT
  5
7D93
  8
DEFPOINTS
  6
CONTINUOUS
 62
     0
 10
434.82427400000017
 20
1018.122967815848
 30
0.0
  0
ENDBLK
  5
7B69
  8
0
  0
BLOCK
  8
0
  2
*D6
 70
     1
 10
0.0
 20
0.0
 30
0.0
  3
*D6
  1

  0
LINE
  5
7D94
  8
3
  6
CONTINUOUS
 62
     0
 10
496.92576200000002
 20
1278.1229678158479
 30
0.0
 11
369.3627190000002
 21
1278.1229678158479
 31
0.0
  0
LINE
  5
7D95
  8
3
  6
CONTINUOUS
 62
     0
 10
476.92576200000008
 20
1018.122967815848
 30
0.0
 11
369.36271900000008
 21
1018.122967815848
 31
0.0
  0
LINE
  5
7D96
  8
3
  6
CONTINUOUS
 62
     0
 10
379.3627190000002
 20
1258.1229678158479
 30
0.0
 11
379.36271900000008
 21
1038.1229678158479
 31
0.0
  0
INSERT
  5
7D97
  8
3
  6
CONTINUOUS
 62
     0
  2
_OPEN
 10
379.3627190000002
 20
1278.1229678158479
 30
0.0
 41
20.0
 42
20.0
 43
20.0
 50
90.0
  0
INSERT
  5
7D98
  8
3
  6
CONTINUOUS
 62
     0
  2
_OPEN
 10
379.36271900000008
 20
1018.122967815848
 30
0.0
 41
20.0
 42
20.0
 43
20.0
 50
270.0
  0
TEXT
  8
3
  40
30
  5
7E04
  62
0
  72
0
  71
0
 10
294.363
 20
1099.92
 30
0.000000
  1
260
  0
POINT
  5
7D9A
  8
DEFPOINTS
  6
CONTINUOUS
 62
     0
 10
501.92576200000008
 20
1278.1229678158479
 30
0.0
  0
POINT
  5
7D9B
  8
DEFPOINTS
  6
CONTINUOUS
 62
     0
 10
481.92576200000008
 20
1018.122967815848
 30
0.0
  0
POINT
  5
7D9C
  8
DEFPOINTS
  6
CONTINUOUS
 62
     0
 10
379.36271900000008
 20
1018.122967815848
 30
0.0
  0
ENDBLK
  5
7B76
  8
0
  0
BLOCK
  8
0
  2
*D7
 70
     1
 10
0.0
 20
0.0
 30
0.0
  3
*D7
  1

  0
LINE
  5
7D9D
  8
3
  6
CONTINUOUS
 62
     0
 10
486.92576200000002
 20
703.12296781584814
 30
0.0
 11
369.36271899999991
 21
703.12296781584814
 31
0.0
  0
LINE
  5
7D9E
  8
3
  6
CONTINUOUS
 62
     0
 10
379.36271900000003
 20
998.12296781584814
 30
0.0
 11
379.36271899999991
 21
723.12296781584814
 31
0.0
  0
INSERT
  5
7D9F
  8
3
  6
CONTINUOUS
 62
     0
  2
_OPEN
 10
379.36271900000003
 20
1018.122967815848
 30
0.0
 41
20.0
 42
20.0
 43
20.0
 50
90.0
  0
INSERT
  5
7DA0
  8
3
  6
CONTINUOUS
 62
     0
  2
_OPEN
 10
379.36271899999991
 20
703.12296781584814
 30
0.0
 41
20.0
 42
20.0
 43
20.0
 50
270.0
  0
TEXT
  8
3
  40
30
  5
7E05
  62
0
  72
0
  71
0
 10
294.363
 20
807.523
 30
0.000000
  1
315
  0
POINT
  5
7DA2
  8
DEFPOINTS
  6
CONTINUOUS
 62
     0
 10
481.92576200000008
 20
1018.122967815848
 30
0.0
  0
POINT
  5
7DA3
  8
DEFPOINTS
  6
CONTINUOUS
 62
     0
 10
491.92576200000002
 20
703.12296781584814
 30
0.0
  0
POINT
  5
7DA4
  8
DEFPOINTS
  6
CONTINUOUS
 62
     0
 10
379.36271899999991
 20
703.12296781584814
 30
0.0
  0
ENDBLK
  5
7B82
  8
0
  0
BLOCK
  8
0
  2
*D8
 70
     1
 10
0.0
 20
0.0
 30
0.0
  3
*D8
  1

  0
LINE
  5
7DA5
  8
3
  6
CONTINUOUS
 62
     0
 10
481.92576200000008
 20
1294.1229678158479
 30
0.0
 11
481.92576200000008
 21
1343.1509588158481
 31
0.0
  0
LINE
  5
7DA6
  8
3
  6
CONTINUOUS
 62
     0
 10
681.92576199999985
 20
1283.1229678158479
 30
0.0
 11
681.92576199999985
 21
1343.1509588158481
 31
0.0
  0
LINE
  5
7DA7
  8
3
  6
CONTINUOUS
 62
     0
 10
501.92576200000008
 20
1333.1509588158481
 30
0.0
 11
661.92576199999985
 21
1333.1509588158481
 31
0.0
  0
INSERT
  5
7DA8
  8
3
  6
CONTINUOUS
 62
     0
  2
_OPEN
 10
481.92576200000008
 20
1333.1509588158481
 30
0.0
 41
20.0
 42
20.0
 43
20.0
 50
180.0
  0
INSERT
  5
7DA9
  8
3
  6
CONTINUOUS
 62
     0
  2
_OPEN
 10
681.92576199999985
 20
1333.1509588158481
 30
0.0
 41
20.0
 42
20.0
 43
20.0
  0
TEXT
  8
3
  40
30
  5
7E06
  62
0
  72
0
  71
0
 10
521.193
 20
1305.05
 30
0.000000
  1
200
  0
POINT
  5
7DAB
  8
DEFPOINTS
  6
CONTINUOUS
 62
     0
 10
481.92576200000008
 20
1289.1229678158479
 30
0.0
  0
POINT
  5
7DAC
  8
DEFPOINTS
  6
CONTINUOUS
 62
     0
 10
681.92576199999985
 20
1278.1229678158479
 30
0.0
  0
POINT
  5
7DAD
  8
DEFPOINTS
  6
CONTINUOUS
 62
     0
 10
681.92576199999985
 20
1333.1509588158481
 30
0.0
  0
ENDBLK
  5
7B9D
  8
0
  0
BLOCK
  8
0
  2
*D9
 70
     1
 10
0.0
 20
0.0
 30
0.0
  3
*D9
  1

  0
LINE
  5
7DAE
  8
3
  6
CONTINUOUS
 62
     0
 10
901.91514600000005
 20
1023.122967815848
 30
0.0
 11
901.91514600000005
 21
1343.1509588158481
 31
0.0
  0
LINE
  5
7DAF
  8
3
  6
CONTINUOUS
 62
     0
 10
701.92576199999985
 20
1333.1509588158481
 30
0.0
 11
881.91514600000005
 21
1333.1509588158481
 31
0.0
  0
INSERT
  5
7DB0
  8
3
  6
CONTINUOUS
 62
     0
  2
_OPEN
 10
681.92576199999985
 20
1333.1509588158481
 30
0.0
 41
20.0
 42
20.0
 43
20.0
 50
180.0
  0
INSERT
  5
7DB1
  8
3
  6
CONTINUOUS
 62
     0
  2
_OPEN
 10
901.91514600000005
 20
1333.1509588158481
 30
0.0
 41
20.0
 42
20.0
 43
20.0
  0
TEXT
  8
3
  40
30
  5
7E07
  62
0
  72
0
  71
0
 10
731.920
 20
1305.05
 30
0.000000
  1
220
  0
POINT
  5
7DB3
  8
DEFPOINTS
  6
CONTINUOUS
 62
     0
 10
681.92576199999985
 20
1278.1229678158479
 30
0.0
  0
POINT
  5
7DB4
  8
DEFPOINTS
  6
CONTINUOUS
 62
     0
 10
901.91514600000005
 20
1018.122967815848
 30
0.0
  0
POINT
  5
7DB5
  8
DEFPOINTS
  6
CONTINUOUS
 62
     0
 10
901.91514600000005
 20
1333.1509588158481
 30
0.0
  0
ENDBLK
  5
7BA9
  8
0
  0
BLOCK
  8
0
  2
*D10
 70
     1
 10
0.0
 20
0.0
 30
0.0
  3
*D10
  1

  0
LINE
  5
7DB6
  8
3
  6
CONTINUOUS
 62
     0
 10
1366.6532219308481
 20
698.12296781584814
 30
0.0
 11
1366.6532219308481
 21
625.46449081584819
 31
0.0
  0
LINE
  5
7DB7
  8
3
  6
CONTINUOUS
 62
     0
 10
1616.6532219308481
 20
698.12296781584814
 30
0.0
 11
1616.6532219308481
 21
625.46449081584819
 31
0.0
  0
LINE
  5
7DB8
  8
3
  6
CONTINUOUS
 62
     0
 10
1386.6532219308481
 20
635.46449081584819
 30
0.0
 11
1596.6532219308481
 21
635.46449081584819
 31
0.0
  0
INSERT
  5
7DB9
  8
3
  6
CONTINUOUS
 62
     0
  2
_OPEN
 10
1366.6532219308481
 20
635.46449081584819
 30
0.0
 41
20.0
 42
20.0
 43
20.0
 50
180.0
  0
INSERT
  5
7DBA
  8
3
  6
CONTINUOUS
 62
     0
  2
_OPEN
 10
1616.6532219308481
 20
635.46449081584819
 30
0.0
 41
20.0
 42
20.0
 43
20.0
  0
TEXT
  8
3
  40
30
  5
7E08
  62
0
  72
0
  71
0
 10
1432.82
 20
607.364
 30
0.000000
  1
250
  0
POINT
  5
7DBC
  8
DEFPOINTS
  6
CONTINUOUS
 62
     0
 10
1366.6532219308481
 20
703.12296781584814
 30
0.0
  0
POINT
  5
7DBD
  8
DEFPOINTS
  6
CONTINUOUS
 62
     0
 10
1616.6532219308481
 20
703.12296781584814
 30
0.0
  0
POINT
  5
7DBE
  8
DEFPOINTS
  6
CONTINUOUS
 62
     0
 10
1616.6532219308481
 20
635.46449081584819
 30
0.0
  0
ENDBLK
  5
7BB6
  8
0
  0
BLOCK
  8
0
  2
*D11
 70
     1
 10
0.0
 20
0.0
 30
0.0
  3
*D11
  1

  0
LINE
  5
7DBF
  8
3
  6
CONTINUOUS
 62
     0
 10
1534.6532219308481
 20
1274.1229678158479
 30
0.0
 11
1534.6532219308481
 21
1324.0434948158479
 31
0.0
  0
LINE
  5
7DC0
  8
3
  6
CONTINUOUS
 62
     0
 10
1714.6532219308481
 20
1274.1229678158479
 30
0.0
 11
1714.6532219308481
 21
1324.0434948158479
 31
0.0
  0
LINE
  5
7DC1
  8
3
  6
CONTINUOUS
 62
     0
 10
1554.6532219308481
 20
1314.0434948158479
 30
0.0
 11
1694.6532219308481
 21
1314.0434948158479
 31
0.0
  0
INSERT
  5
7DC2
  8
3
  6
CONTINUOUS
 62
     0
  2
_OPEN
 10
1534.6532219308481
 20
1314.0434948158479
 30
0.0
 41
20.0
 42
20.0
 43
20.0
 50
180.0
  0
INSERT
  5
7DC3
  8
3
  6
CONTINUOUS
 62
     0
  2
_OPEN
 10
1714.6532219308481
 20
1314.0434948158479
 30
0.0
 41
20.0
 42
20.0
 43
20.0
  0
TEXT
  8
3
  40
30
  5
7E09
  62
0
  72
0
  71
0
 10
1559.60
 20
1285.94
 30
0.000000
  1
180
  0
POINT
  5
7DC5
  8
DEFPOINTS
  6
CONTINUOUS
 62
     0
 10
1534.6532219308481
 20
1269.1229678158479
 30
0.0
  0
POINT
  5
7DC6
  8
DEFPOINTS
  6
CONTINUOUS
 62
     0
 10
1714.6532219308481
 20
1269.1229678158479
 30
0.0
  0
POINT
  5
7DC7
  8
DEFPOINTS
  6
CONTINUOUS
 62
     0
 10
1714.6532219308481
 20
1314.0434948158479
 30
0.0
  0
ENDBLK
  5
7BC3
  8
0
  0
BLOCK
  8
0
  2
*D12
 70
     1
 10
0.0
 20
0.0
 30
0.0
  3
*D12
  1

  0
LINE
  5
7DC8
  8
3
  6
CONTINUOUS
 62
     0
 10
1284.6532219308481
 20
1148.1229678158479
 30
0.0
 11
1284.6532219308481
 21
1391.8821148158479
 31
0.0
  0
LINE
  5
7DC9
  8
3
  6
CONTINUOUS
 62
     0
 10
1624.6532219308481
 20
1365.583004815848
 30
0.0
 11
1624.6532219308481
 21
1391.8821148158479
 31
0.0
  0
LINE
  5
7DCA
  8
3
  6
CONTINUOUS
 62
     0
 10
1304.6532219308481
 20
1381.8821148158479
 30
0.0
 11
1604.6532219308481
 21
1381.8821148158479
 31
0.0
  0
INSERT
  5
7DCB
  8
3
  6
CONTINUOUS
 62
     0
  2
_OPEN
 10
1284.6532219308481
 20
1381.8821148158479
 30
0.0
 41
20.0
 42
20.0
 43
20.0
 50
180.0
  0
INSERT
  5
7DCC
  8
3
  6
CONTINUOUS
 62
     0
  2
_OPEN
 10
1624.6532219308481
 20
1381.8821148158479
 30
0.0
 41
20.0
 42
20.0
 43
20.0
  0
TEXT
  8
3
  40
30
  5
7E0A
  62
0
  72
0
  71
0
 10
1394.44
 20
1378.78
 30
0.000000
  1
MAX
  0
TEXT
  8
3
  40
30
  5
7E0B
  62
0
  72
0
  71
0
 10
1394.44
 20
1339.78
 30
0.000000
  1
340
  0
POINT
  5
7DCE
  8
DEFPOINTS
  6
CONTINUOUS
 62
     0
 10
1284.6532219308481
 20
1143.1229678158479
 30
0.0
  0
POINT
  5
7DCF
  8
DEFPOINTS
  6
CONTINUOUS
 62
     0
 10
1624.6532219308481
 20
1360.583004815848
 30
0.0
  0
POINT
  5
7DD0
  8
DEFPOINTS
  6
CONTINUOUS
 62
     0
 10
1624.6532219308481
 20
1381.8821148158479
 30
0.0
  0
ENDBLK
  5
7C4C
  8
0
  0
BLOCK
  8
0
  2
*D13
 70
     1
 10
0.0
 20
0.0
 30
0.0
  3
*D13
  1

  0
LINE
  5
7DD1
  8
3
  6
CONTINUOUS
 62
     0
 10
1723.6532219308481
 20
1170.1229678158479
 30
0.0
 11
1723.6532219308481
 21
1391.8821148158479
 31
0.0
  0
LINE
  5
7DD2
  8
3
  6
CONTINUOUS
 62
     0
 10
1644.6532219308481
 20
1381.8821148158479
 30
0.0
 11
1703.6532219308481
 21
1381.8821148158479
 31
0.0
  0
TEXT
  8
3
  40
30
  5
7E0C
  62
0
  72
0
  71
0
 10
1615.01
 20
1352.22
 30
0.000000
  1
99
  0
INSERT
  5
7DD4
  8
3
  6
CONTINUOUS
 62
     0
  2
_OPEN
 10
1624.6532219308481
 20
1381.8821148158479
 30
0.0
 41
20.0
 42
20.0
 43
20.0
 50
180.0
  0
INSERT
  5
7DD5
  8
3
  6
CONTINUOUS
 62
     0
  2
_OPEN
 10
1723.6532219308481
 20
1381.8821148158479
 30
0.0
 41
20.0
 42
20.0
 43
20.0
  0
POINT
  5
7DD6
  8
DEFPOINTS
  6
CONTINUOUS
 62
     0
 10
1624.6532219308481
 20
1360.583004815848
 30
0.0
  0
POINT
  5
7DD7
  8
DEFPOINTS
  6
CONTINUOUS
 62
     0
 10
1723.6532219308481
 20
1165.1229678158479
 30
0.0
  0
POINT
  5
7DD8
  8
DEFPOINTS
  6
CONTINUOUS
 62
     0
 10
1723.6532219308481
 20
1381.8821148158479
 30
0.0
  0
ENDBLK
  5
7C32
  8
0
  0
BLOCK
  8
0
  2
*D14
 70
     1
 10
0.0
 20
0.0
 30
0.0
  3
*D14
  1

  0
LINE
  5
7DD9
  8
3
  6
CONTINUOUS
 62
     0
 10
1728.6532219308481
 20
1143.1229678158479
 30
0.0
 11
1808.9370289308481
 21
1143.1229678158479
 31
0.0
  0
LINE
  5
7DDA
  8
3
  6
CONTINUOUS
 62
     0
 10
1728.6532219308481
 20
893.12296781584826
 30
0.0
 11
1808.9370289308481
 21
893.12296781584803
 31
0.0
  0
LINE
  5
7DDB
  8
3
  6
CONTINUOUS
 62
     0
 10
1798.9370289308481
 20
1123.1229678158479
 30
0.0
 11
1798.9370289308481
 21
913.12296781584791
 31
0.0
  0
INSERT
  5
7DDC
  8
3
  6
CONTINUOUS
 62
     0
  2
_OPEN
 10
1798.9370289308481
 20
1143.1229678158479
 30
0.0
 41
20.0
 42
20.0
 43
20.0
 50
90.0
  0
INSERT
  5
7DDD
  8
3
  6
CONTINUOUS
 62
     0
  2
_OPEN
 10
1798.9370289308481
 20
893.12296781584803
 30
0.0
 41
20.0
 42
20.0
 43
20.0
 50
270.0
  0
TEXT
  8
3
  40
30
  5
7E0D
  62
0
  72
0
  71
0
 10
1713.94
 20
966.805
 30
0.000000
  1
φ250
  0
POINT
  5
7DDF
  8
DEFPOINTS
  6
CONTINUOUS
 62
     0
 10
1723.6532219308481
 20
1143.1229678158479
 30
0.0
  0
POINT
  5
7DE0
  8
DEFPOINTS
  6
CONTINUOUS
 62
     0
 10
1723.6532219308481
 20
893.12296781584826
 30
0.0
  0
POINT
  5
7DE1
  8
DEFPOINTS
  6
CONTINUOUS
 62
     0
 10
1798.9370289308481
 20
893.12296781584803
 30
0.0
  0
ENDBLK
  5
7C57
  8
0
  0
BLOCK
  8
0
  2
*D15
 70
     1
 10
0.0
 20
0.0
 30
0.0
  3
*D15
  1

  0
LINE
  5
7DE2
  8
3
  6
CONTINUOUS
 62
     0
 10
476.92576200000008
 20
1289.1229678158479
 30
0.0
 11
299.44604500000031
 21
1289.1229678158479
 31
0.0
  0
LINE
  5
7DE3
  8
3
  6
CONTINUOUS
 62
     0
 10
486.92576200000002
 20
703.12296781584814
 30
0.0
 11
299.4460450000002
 21
703.12296781584814
 31
0.0
  0
LINE
  5
7DE4
  8
3
  6
CONTINUOUS
 62
     0
 10
309.44604500000031
 20
1269.1229678158479
 30
0.0
 11
309.4460450000002
 21
723.12296781584814
 31
0.0
  0
INSERT
  5
7DE5
  8
3
  6
CONTINUOUS
 62
     0
  2
_OPEN
 10
309.44604500000031
 20
1289.1229678158479
 30
0.0
 41
20.0
 42
20.0
 43
20.0
 50
90.0
  0
INSERT
  5
7DE6
  8
3
  6
CONTINUOUS
 62
     0
  2
_OPEN
 10
309.4460450000002
 20
703.12296781584814
 30
0.0
 41
20.0
 42
20.0
 43
20.0
 50
270.0
  0
TEXT
  8
3
  40
30
  5
7E0E
  62
0
  72
0
  71
0
 10
224.446
 20
934.261
 30
0.000000
  1
586
  0
POINT
  5
7DE8
  8
DEFPOINTS
  6
CONTINUOUS
 62
     0
 10
481.92576200000008
 20
1289.1229678158479
 30
0.0
  0
POINT
  5
7DE9
  8
DEFPOINTS
  6
CONTINUOUS
 62
     0
 10
491.92576200000002
 20
703.12296781584814
 30
0.0
  0
POINT
  5
7DEA
  8
DEFPOINTS
  6
CONTINUOUS
 62
     0
 10
309.4460450000002
 20
703.12296781584814
 30
0.0
  0
ENDBLK
  5
7C1C
  8
0
  0
BLOCK
  8
0
  2
*D16
 70
     1
 10
0.0
 20
0.0
 30
0.0
  3
*D16
  1

  0
LINE
  5
7DEB
  8
3
 62
     0
 10
1616.6532219308481
 20
698.12296781584814
 30
0.0
 11
1616.6532219308481
 21
625.46449081584819
 31
0.0
  0
LINE
  5
7DEC
  8
3
 62
     0
 10
1624.6532219308481
 20
681.54102181584813
 30
0.0
 11
1624.6532219308481
 21
625.46449081584819
 31
0.0
  0
LINE
  5
7DED
  8
3
 62
     0
 10
1596.6532219308481
 20
635.46449081584819
 30
0.0
 11
1576.6532219308481
 21
635.46449081584819
 31
0.0
  0
LINE
  5
7DEE
  8
3
 62
     0
 10
1644.6532219308481
 20
635.46449081584819
 30
0.0
 11
1704.6532219308481
 21
635.46449081584819
 31
0.0
  0
LINE
  5
7DEF
  8
3
 62
     0
 10
1616.6532219308481
 20
635.46449081584819
 30
0.0
 11
1624.6532219308481
 21
635.46449081584819
 31
0.0
  0
INSERT
  5
7DF0
  8
3
 62
     0
  2
_OPEN
 10
1616.6532219308481
 20
635.46449081584819
 30
0.0
 41
20.0
 42
20.0
 43
20.0
  0
INSERT
  5
7DF1
  8
3
 62
     0
  2
_OPEN
 10
1624.6532219308481
 20
635.46449081584819
 30
0.0
 41
20.0
 42
20.0
 43
20.0
 50
180.0
  0
TEXT
  8
3
  40
30
  5
7E0F
  62
0
  72
0
  71
0
 10
1624.65
 20
607.364
 30
0.000000
  1
8
  0
POINT
  5
7DF3
  8
DEFPOINTS
 62
     0
 10
1616.6532219308481
 20
703.12296781584814
 30
0.0
  0
POINT
  5
7DF4
  8
DEFPOINTS
 62
     0
 10
1624.6532219308481
 20
686.54102181584813
 30
0.0
  0
POINT
  5
7DF5
  8
DEFPOINTS
 62
     0
 10
1624.6532219308481
 20
635.46449081584819
 30
0.0
  0
ENDBLK
  5
7C74
  8
0
  0
BLOCK
  8
0
  2
*D17
 70
     1
 10
0.0
 20
0.0
 30
0.0
  3
*D17
  1

  0
LINE
  5
7DF6
  8
3
 62
     0
 10
481.92576200000008
 20
1294.1229678158479
 30
0.0
 11
481.92576200000008
 21
1405.640759516833
 31
0.0
  0
LINE
  5
7DF7
  8
3
 62
     0
 10
1201.9257620000001
 20
788.12296781584814
 30
0.0
 11
1201.9257620000001
 21
1405.640759516833
 31
0.0
  0
LINE
  5
7DF8
  8
3
 62
     0
 10
501.92576200000008
 20
1395.6407595168321
 30
0.0
 11
1181.9257619999989
 21
1395.6407595168321
 31
0.0
  0
INSERT
  5
7DF9
  8
3
 62
     0
  2
_OPEN
 10
481.92576200000008
 20
1395.6407595168321
 30
0.0
 41
20.0
 42
20.0
 43
20.0
 50
180.0
  0
INSERT
  5
7DFA
  8
3
 62
     0
  2
_OPEN
 10
1201.9257620000001
 20
1395.6407595168321
 30
0.0
 41
20.0
 42
20.0
 43
20.0
  0
TEXT
  8
3
  40
30
  5
7E10
  62
0
  72
0
  71
0
 10
819.137
 20
1367.54
 30
0.000000
  1
720
  0
POINT
  5
7DFC
  8
DEFPOINTS
 62
     0
 10
481.92576200000008
 20
1289.1229678158479
 30
0.0
  0
POINT
  5
7DFD
  8
DEFPOINTS
 62
     0
 10
1201.9257620000001
 20
783.12296781584814
 30
0.0
  0
POINT
  5
7DFE
  8
DEFPOINTS
 62
     0
 10
1201.9257620000001
 20
1395.6407595168321
 30
0.0
  0
ENDBLK
  5
7C80
  8
0
  0
ENDSEC
  0
SECTION
  2
ENTITIES
  0
LINE
  5
7A80
  8
1
  6
CONTINUOUS
 10
481.92576200000002
 20
1988.1889802543831
 30
0.0
 11
880.82576199999994
 21
1988.1889802543831
 31
0.0
  0
LINE
  5
7A81
  8
1
  6
CONTINUOUS
 10
481.92576200000002
 20
2167.7889802543832
 30
0.0
 11
880.82576199999994
 21
2167.7889802543832
 31
0.0
  0
LINE
  5
7A82
  8
1
  6
CONTINUOUS
 10
481.92576200000008
 20
1268.1229678158479
 30
0.0
 11
501.92576200000008
 21
1248.1229678158479
 31
0.0
  0
LINE
  5
7A83
  8
1
  6
CONTINUOUS
 10
481.92576200000008
 20
1018.122967815848
 30
0.0
 11
501.92576200000008
 21
1038.1229678158479
 31
0.0
  0
LINE
  5
7A84
  8
1
  6
CONTINUOUS
 10
481.92576200000002
 20
1997.1889802543831
 30
0.0
 11
501.92576200000002
 21
2017.1889802543831
 31
0.0
  0
LINE
  5
7A85
  8
1
  6
CONTINUOUS
 10
481.92576200000002
 20
2158.7889802543832
 30
0.0
 11
501.92576200000002
 21
2138.7889802543832
 31
0.0
  0
LINE
  5
7A86
  8
1
  6
CONTINUOUS
 10
481.92576200000008
 20
1268.1229678158479
 30
0.0
 11
501.92576200000008
 21
1268.1229678158479
 31
0.0
  0
LINE
  5
7A87
  8
1
  6
CONTINUOUS
 10
481.92576200000008
 20
1018.122967815848
 30
0.0
 11
501.92576200000008
 21
1018.122967815848
 31
0.0
  0
LINE
  5
7A88
  8
1
  6
CONTINUOUS
 10
481.92576200000008
 20
997.12296781584814
 30
0.0
 11
481.92576200000008
 21
1289.1229678158479
 31
0.0
  0
LINE
  5
7A89
  8
1
  6
CONTINUOUS
 10
481.92576200000002
 20
2188.9889802543839
 30
0.0
 11
481.92576200000002
 21
1966.9889802543839
 31
0.0
  0
ARC
  5
7A8A
  8
1
  6
CONTINUOUS
 10
698.92576199999985
 20
1035.1229678158479
 30
0.0
 40
203.6999999999999
 50
264.5
 51
355.39999999999992
  0
ARC
  5
7A8B
  8
1
  6
CONTINUOUS
 10
661.92576199999985
 20
1038.1229678158479
 30
0.0
 40
240.90000000000001
 50
355.39999999999992
 51
85.099999999999994
  0
LINE
  5
7A8C
  8
1
  6
CONTINUOUS
 10
1201.9257620000001
 20
703.12296781584814
 30
0.0
 11
491.92576200000002
 21
703.12296781584814
 31
0.0
  0
LINE
  5
7A8D
  8
1
  6
CONTINUOUS
 10
1201.9257620000001
 20
763.12296781584814
 30
0.0
 11
491.92576200000002
 21
763.12296781584814
 31
0.0
  0
LINE
  5
7A8E
  8
1
  6
CONTINUOUS
 10
681.72576200000003
 20
1143.1229678158479
 30
0.0
 11
1136.9257619999989
 21
943.12296781584826
 31
0.0
  0
LINE
  5
7A8F
  8
1
  6
CONTINUOUS
 10
1023.625761999999
 20
801.9229678158481
 30
0.0
 11
656.82576199999994
 21
959.82296781584819
 31
0.0
  0
LINE
  5
7A90
  8
1
  6
CONTINUOUS
 10
1068.025762
 20
898.12296781584814
 30
0.0
 11
710.02576199999987
 21
1075.022967815848
 31
0.0
  0
CIRCLE
  5
7A91
  8
1
  6
CONTINUOUS
 10
681.92576199999985
 20
1018.122967815848
 30
0.0
 40
145.0
  0
CIRCLE
  5
7A92
  8
1
  6
CONTINUOUS
 10
681.92576199999985
 20
1018.122967815848
 30
0.0
 40
125.0
  0
LINE
  5
7A93
  8
2
  6
CENTER
 10
681.92576199999996
 20
2211.3164142543828
 30
0.0
 11
681.92576199999996
 21
1679.4818952543831
 31
0.0
  0
ARC
  5
7A94
  8
1
  6
CONTINUOUS
 10
695.92576199999985
 20
1004.122967815848
 30
0.0
 40
172.59999999999991
 50
178.69999999999999
 51
264.5
  0
LINE
  5
7A95
  8
1
  6
CONTINUOUS
 10
841.92576199999974
 20
1084.2229678158481
 30
0.0
 11
841.92576199999974
 21
763.12296781584814
 31
0.0
  0
LINE
  5
7A96
  8
1
  6
CONTINUOUS
 10
521.92576199999985
 20
763.12296781584814
 30
0.0
 11
521.92576199999985
 21
1084.2229678158481
 31
0.0
  0
LINE
  5
7A97
  8
1
  6
CONTINUOUS
 10
556.92576199999985
 20
763.12296781584814
 30
0.0
 11
556.92576199999985
 21
1073.1229678158479
 31
0.0
  0
CIRCLE
  5
7A98
  8
1
  6
CONTINUOUS
 10
681.92576199999985
 20
1018.122967815848
 30
0.0
 40
63.5
  0
LINE
  5
7A99
  8
1
  6
CONTINUOUS
 10
491.92576200000002
 20
763.12296781584814
 30
0.0
 11
491.92576200000002
 21
703.12296781584814
 31
0.0
  0
LINE
  5
7A9A
  8
2
  6
CENTER
 10
460.13360599999982
 20
1018.122967815848
 30
0.0
 11
1020.972699
 21
1018.122967815848
 31
0.0
  0
LINE
  5
7A9B
  8
1
  6
CONTINUOUS
 10
521.92576199999985
 20
984.82296781584819
 30
0.0
 11
841.92576199999974
 21
984.82296781584819
 31
0.0
  0
LINE
  5
7A9C
  8
1
  6
CONTINUOUS
 10
620.32576199999994
 20
1168.1229678158479
 30
0.0
 11
743.52576199999987
 21
1168.1229678158479
 31
0.0
  0
LINE
  5
7A9D
  8
1
  6
CONTINUOUS
 10
620.32576199999994
 20
1168.1229678158479
 30
0.0
 11
521.92576199999985
 21
1084.2229678158481
 31
0.0
  0
LINE
  5
7A9E
  8
1
  6
CONTINUOUS
 10
556.92576199999985
 20
1073.1229678158479
 30
0.0
 11
681.72576200000003
 21
1143.1229678158479
 31
0.0
  0
LINE
  5
7A9F
  8
1
  6
CONTINUOUS
 10
501.92576200000008
 20
1008.122967815848
 30
0.0
 11
523.32576199999994
 21
1008.122967815848
 31
0.0
  0
LINE
  5
7AA0
  8
1
  6
CONTINUOUS
 10
501.92576200000008
 20
1248.1229678158479
 30
0.0
 11
501.92576200000008
 21
1038.1229678158479
 31
0.0
  0
LINE
  5
7AA1
  8
1
  6
CONTINUOUS
 10
501.92576200000008
 20
1018.122967815848
 30
0.0
 11
501.92576200000008
 21
1008.122967815848
 31
0.0
  0
LINE
  5
7AA2
  8
1
  6
CONTINUOUS
 10
501.92576200000008
 20
1278.1229678158479
 30
0.0
 11
682.32576199999994
 21
1278.1229678158479
 31
0.0
  0
LINE
  5
7AA3
  8
1
  6
CONTINUOUS
 10
501.92576200000008
 20
1278.1229678158479
 30
0.0
 11
501.92576200000008
 21
1268.1229678158479
 31
0.0
  0
LINE
  5
7AA4
  8
1
  6
CONTINUOUS
 10
743.52576199999987
 20
1168.1229678158479
 30
0.0
 11
841.92576199999974
 21
1084.2229678158481
 31
0.0
  0
LINE
  5
7AA5
  8
1
  6
CONTINUOUS
 10
947.22576200000003
 20
783.12296781584814
 30
0.0
 11
1201.9257620000001
 21
783.12296781584814
 31
0.0
  0
ARC
  5
7AA6
  8
1
  6
CONTINUOUS
 10
1044.5257619999991
 20
850.62296781584814
 30
0.0
 40
75.799999999999997
 50
322.89999999999992
 51
217.09999999999991
  0
CIRCLE
  5
7AA7
  8
1
  6
CONTINUOUS
 10
1044.5257619999991
 20
850.62296781584814
 30
0.0
 40
53.0
  0
LINE
  5
7AA8
  8
2
  6
CENTER
 10
1097.525762
 20
850.62296781584814
 30
0.0
 11
991.52576199999976
 21
850.62296781584814
 31
0.0
  0
POINT
  5
7AA9
  8
1
  6
CONTINUOUS
 10
974.12576199999978
 20
850.62296781584814
 30
0.0
  0
LINE
  5
7AAA
  8
1
  6
CONTINUOUS
 10
978.52576199999965
 20
790.62296781584814
 30
0.0
 11
984.12576199999978
 21
804.92296781584798
 31
0.0
  0
LINE
  5
7AAB
  8
1
  6
CONTINUOUS
 10
978.52576199999965
 20
783.12296781584814
 30
0.0
 11
978.52576199999965
 21
790.62296781584814
 31
0.0
  0
LINE
  5
7AAC
  8
1
  6
CONTINUOUS
 10
947.22576200000003
 20
763.12296781584814
 30
0.0
 11
947.22576200000003
 21
783.12296781584814
 31
0.0
  0
LINE
  5
7AAD
  8
1
  6
CONTINUOUS
 10
1110.5257619999991
 20
783.12296781584814
 30
0.0
 11
1110.5257619999991
 21
790.62296781584814
 31
0.0
  0
LINE
  5
7AAE
  8
1
  6
CONTINUOUS
 10
1110.5257619999991
 20
790.62296781584814
 30
0.0
 11
1105.025762
 21
804.92296781584798
 31
0.0
  0
LINE
  5
7AAF
  8
2
  6
CENTER
 10
1044.5257619999991
 20
797.62296781584814
 30
0.0
 11
1044.5257619999991
 21
903.62296781584803
 31
0.0
  0
LINE
  5
7AB0
  8
1
  6
CONTINUOUS
 10
1201.9257620000001
 20
763.12296781584814
 30
0.0
 11
1201.9257620000001
 21
703.12296781584814
 31
0.0
  0
LINE
  5
7AB1
  8
1
  6
CONTINUOUS
 10
1201.9257620000001
 20
783.12296781584814
 30
0.0
 11
1201.9257620000001
 21
763.12296781584814
 31
0.0
  0
LINE
  5
7AB2
  8
1
  6
CONTINUOUS
 10
1136.9257619999989
 20
763.12296781584814
 30
0.0
 11
1136.9257619999989
 21
943.12296781584826
 31
0.0
  0
LINE
  5
7AB3
  8
1
  6
CONTINUOUS
 10
892.82576200000005
 20
2069.9889802543839
 30
0.0
 11
1201.9257620000001
 21
2069.9889802543839
 31
0.0
  0
LINE
  5
7AB4
  8
1
  6
CONTINUOUS
 10
556.92576199999996
 20
1737.988980254383
 30
0.0
 11
1136.9257619999989
 21
1737.988980254383
 31
0.0
  0
LINE
  5
7AB5
  8
1
  6
CONTINUOUS
 10
556.92576199999996
 20
1812.988980254383
 30
0.0
 11
1136.9257619999989
 21
1812.988980254383
 31
0.0
  0
LINE
  5
7AB6
  8
1
  6
CONTINUOUS
 10
693.92576199999985
 20
1819.988980254383
 30
0.0
 11
1032.6257619999999
 21
1819.988980254383
 31
0.0
  0
LINE
  5
7AB7
  8
1
  6
CONTINUOUS
 10
892.82576200000005
 20
2155.7889802543832
 30
0.0
 11
892.82576200000005
 21
2000.1889802543831
 31
0.0
  0
LINE
  5
7AB8
  8
1
  6
CONTINUOUS
 10
501.92576200000002
 20
2138.7889802543832
 30
0.0
 11
501.92576200000002
 21
2017.1889802543831
 31
0.0
  0
LINE
  5
7AB9
  8
1
  6
CONTINUOUS
 10
521.92576199999985
 20
1978.988980254383
 30
0.0
 11
841.92576199999985
 21
1978.988980254383
 31
0.0
  0
LINE
  5
7ABA
  8
1
  6
CONTINUOUS
 10
618.42576199999985
 20
1792.988980254383
 30
0.0
 11
745.42576199999985
 21
1792.988980254383
 31
0.0
  0
LINE
  5
7ABB
  8
1
  6
CONTINUOUS
 10
618.42576199999985
 20
1757.988980254383
 30
0.0
 11
745.42576199999985
 21
1757.988980254383
 31
0.0
  0
LINE
  5
7ABC
  8
1
  6
CONTINUOUS
 10
693.92576199999985
 20
1849.988980254383
 30
0.0
 11
841.92576199999985
 21
1849.988980254383
 31
0.0
  0
LINE
  5
7ABD
  8
1
  6
CONTINUOUS
 10
693.92576199999985
 20
1792.988980254383
 30
0.0
 11
693.92576199999985
 21
1978.988980254383
 31
0.0
  0
LINE
  5
7ABE
  8
1
  6
CONTINUOUS
 10
669.92576199999996
 20
1792.988980254383
 30
0.0
 11
669.92576199999996
 21
1978.988980254383
 31
0.0
  0
LINE
  5
7ABF
  8
1
  6
CONTINUOUS
 10
556.92576199999996
 20
1737.988980254383
 30
0.0
 11
556.92576199999996
 21
1812.988980254383
 31
0.0
  0
LINE
  5
7AC0
  8
1
  6
CONTINUOUS
 10
618.42576199999985
 20
1757.988980254383
 30
0.0
 11
618.42576199999985
 21
1792.988980254383
 31
0.0
  0
LINE
  5
7AC1
  8
1
  6
CONTINUOUS
 10
491.92576200000002
 20
1819.988980254383
 30
0.0
 11
669.92576199999996
 21
1819.988980254383
 31
0.0
  0
LINE
  5
7AC2
  8
1
  6
CONTINUOUS
 10
521.92576199999985
 20
1849.988980254383
 30
0.0
 11
669.92576199999996
 21
1849.988980254383
 31
0.0
  0
LINE
  5
7AC3
  8
1
  6
CONTINUOUS
 10
534.92576199999985
 20
1988.1889802543831
 30
0.0
 11
534.92576199999985
 21
1978.988980254383
 31
0.0
  0
LINE
  5
7AC4
  8
1
  6
CONTINUOUS
 10
491.92576200000002
 20
1987.1889802543831
 30
0.0
 11
491.92576200000002
 21
1819.988980254383
 31
0.0
  0
LINE
  5
7AC5
  8
1
  6
CONTINUOUS
 10
521.92576199999985
 20
1849.988980254383
 30
0.0
 11
521.92576199999985
 21
1978.988980254383
 31
0.0
  0
LINE
  5
7AC6
  8
1
  6
CONTINUOUS
 10
745.42576199999985
 20
1757.988980254383
 30
0.0
 11
745.42576199999985
 21
1792.988980254383
 31
0.0
  0
LINE
  5
7AC7
  8
1
  6
CONTINUOUS
 10
828.92576199999985
 20
1988.1889802543831
 30
0.0
 11
828.92576199999985
 21
1978.988980254383
 31
0.0
  0
ARC
  5
7AC8
  8
1
  6
CONTINUOUS
 10
880.82576199999994
 20
2000.1889802543831
 30
0.0
 40
12.0
 50
270.0
 51
0.0
  0
LINE
  5
7AC9
  8
1
  6
CONTINUOUS
 10
841.92576199999985
 20
1978.988980254383
 30
0.0
 11
841.92576199999985
 21
1849.988980254383
 31
0.0
  0
LINE
  5
7ACA
  8
1
  6
CONTINUOUS
 10
828.92576199999985
 20
2176.9889802543839
 30
0.0
 11
534.92576199999985
 21
2176.9889802543839
 31
0.0
  0
LINE
  5
7ACB
  8
1
  6
CONTINUOUS
 10
534.92576199999985
 20
2168.7889802543832
 30
0.0
 11
534.92576199999985
 21
2176.9889802543839
 31
0.0
  0
ARC
  5
7ACC
  8
1
  6
CONTINUOUS
 10
880.82576199999994
 20
2155.7889802543832
 30
0.0
 40
12.0
 50
0.0
 51
90.0
  0
LINE
  5
7ACD
  8
1
  6
CONTINUOUS
 10
828.92576199999985
 20
2168.7889802543832
 30
0.0
 11
828.92576199999985
 21
2176.9889802543839
 31
0.0
  0
LINE
  5
7ACE
  8
1
  6
CONTINUOUS
 10
1056.6257619999999
 20
1819.988980254383
 30
0.0
 11
1201.9257620000001
 21
1819.988980254383
 31
0.0
  0
LINE
  5
7ACF
  8
1
  6
CONTINUOUS
 10
1032.6257619999999
 20
1792.988980254383
 30
0.0
 11
1032.6257619999999
 21
1844.2889802543839
 31
0.0
  0
LINE
  5
7AD0
  8
1
  6
CONTINUOUS
 10
1056.6257619999999
 20
1792.988980254383
 30
0.0
 11
1056.6257619999999
 21
1844.2889802543839
 31
0.0
  0
LINE
  5
7AD1
  8
1
  6
CONTINUOUS
 10
991.6257619999999
 20
1792.988980254383
 30
0.0
 11
1097.625761999999
 21
1792.988980254383
 31
0.0
  0
LINE
  5
7AD2
  8
1
  6
CONTINUOUS
 10
991.6257619999999
 20
1757.988980254383
 30
0.0
 11
1097.625761999999
 21
1757.988980254383
 31
0.0
  0
LINE
  5
7AD3
  8
1
  6
CONTINUOUS
 10
991.6257619999999
 20
1757.988980254383
 30
0.0
 11
991.6257619999999
 21
1792.988980254383
 31
0.0
  0
LINE
  5
7AD4
  8
1
  6
CONTINUOUS
 10
1097.625761999999
 20
1757.988980254383
 30
0.0
 11
1097.625761999999
 21
1792.988980254383
 31
0.0
  0
LINE
  5
7AD5
  8
1
  6
CONTINUOUS
 10
967.92576199999985
 20
1844.2889802543839
 30
0.0
 11
1119.4257619999989
 21
1844.2889802543839
 31
0.0
  0
LINE
  5
7AD6
  8
1
  6
CONTINUOUS
 10
967.92576199999985
 20
2048.2889802543832
 30
0.0
 11
1119.4257619999989
 21
2048.2889802543832
 31
0.0
  0
LINE
  5
7AD7
  8
1
  6
CONTINUOUS
 10
967.92576199999985
 20
1844.2889802543839
 30
0.0
 11
967.92576199999985
 21
2048.2889802543832
 31
0.0
  0
LINE
  5
7AD8
  8
1
  6
CONTINUOUS
 10
1119.4257619999989
 20
1844.2889802543839
 30
0.0
 11
1119.4257619999989
 21
2048.2889802543832
 31
0.0
  0
LINE
  5
7AD9
  8
1
  6
CONTINUOUS
 10
1136.9257619999989
 20
1737.988980254383
 30
0.0
 11
1136.9257619999989
 21
1812.988980254383
 31
0.0
  0
LINE
  5
7ADA
  8
1
  6
CONTINUOUS
 10
1201.9257620000001
 20
2069.9889802543839
 30
0.0
 11
1201.9257620000001
 21
1819.988980254383
 31
0.0
  0
LINE
  5
7ADB
  8
1
  6
CONTINUOUS
 10
1396.6532219308481
 20
979.92296781584798
 30
0.0
 11
1525.6532219308481
 21
1084.2229678158481
 31
0.0
  0
LINE
  5
7ADC
  8
1
  6
CONTINUOUS
 10
1366.6532219308481
 20
703.12296781584814
 30
0.0
 11
1616.6532219308481
 21
703.12296781584814
 31
0.0
  0
LINE
  5
7ADD
  8
1
  6
CONTINUOUS
 10
1284.6532219308481
 20
763.12296781584814
 30
0.0
 11
1616.6532219308481
 21
763.12296781584814
 31
0.0
  0
LINE
  5
7ADE
  8
1
  6
CONTINUOUS
 10
1339.6532219308481
 20
1081.6229678158479
 30
0.0
 11
1339.6532219308481
 21
954.62296781584803
 31
0.0
  0
LINE
  5
7ADF
  8
1
  6
CONTINUOUS
 10
1304.6532219308481
 20
1081.6229678158479
 30
0.0
 11
1304.6532219308481
 21
954.62296781584803
 31
0.0
  0
LINE
  5
7AE0
  8
1
  6
CONTINUOUS
 10
1359.6532219308481
 20
763.12296781584814
 30
0.0
 11
1359.6532219308481
 21
1143.1229678158479
 31
0.0
  0
LINE
  5
7AE1
  8
1
  6
CONTINUOUS
 10
1284.6532219308481
 20
763.12296781584814
 30
0.0
 11
1284.6532219308481
 21
1143.1229678158479
 31
0.0
  0
LINE
  5
7AE2
  8
1
  6
CONTINUOUS
 10
1396.6532219308481
 20
763.12296781584814
 30
0.0
 11
1396.6532219308481
 21
979.92296781584798
 31
0.0
  0
LINE
  5
7AE3
  8
1
  6
CONTINUOUS
 10
1339.6532219308481
 20
862.62296781584803
 30
0.0
 11
1396.6532219308481
 21
862.62296781584803
 31
0.0
  0
LINE
  5
7AE4
  8
1
  6
CONTINUOUS
 10
1339.6532219308481
 20
838.62296781584826
 30
0.0
 11
1396.6532219308481
 21
838.62296781584826
 31
0.0
  0
LINE
  5
7AE5
  8
1
  6
CONTINUOUS
 10
1339.6532219308481
 20
903.62296781584803
 30
0.0
 11
1339.6532219308481
 21
797.62296781584814
 31
0.0
  0
LINE
  5
7AE6
  8
1
  6
CONTINUOUS
 10
1304.6532219308481
 20
797.62296781584814
 30
0.0
 11
1339.6532219308481
 21
797.62296781584814
 31
0.0
  0
LINE
  5
7AE7
  8
1
  6
CONTINUOUS
 10
1304.6532219308481
 20
903.62296781584803
 30
0.0
 11
1304.6532219308481
 21
797.62296781584814
 31
0.0
  0
LINE
  5
7AE8
  8
1
  6
CONTINUOUS
 10
1304.6532219308481
 20
903.62296781584803
 30
0.0
 11
1339.6532219308481
 21
903.62296781584803
 31
0.0
  0
LINE
  5
7AE9
  8
1
  6
CONTINUOUS
 10
1304.6532219308481
 20
954.62296781584803
 30
0.0
 11
1339.6532219308481
 21
954.62296781584803
 31
0.0
  0
LINE
  5
7AEA
  8
1
  6
CONTINUOUS
 10
1366.6532219308481
 20
763.12296781584814
 30
0.0
 11
1366.6532219308481
 21
703.12296781584814
 31
0.0
  0
LINE
  5
7AEB
  8
1
  6
CONTINUOUS
 10
1339.6532219308481
 20
1006.122967815848
 30
0.0
 11
1429.0532219308479
 21
1006.122967815848
 31
0.0
  0
LINE
  5
7AEC
  8
1
  6
CONTINUOUS
 10
1339.6532219308481
 20
1030.1229678158479
 30
0.0
 11
1458.753221930848
 21
1030.1229678158479
 31
0.0
  0
LINE
  5
7AED
  8
1
  6
CONTINUOUS
 10
1284.6532219308481
 20
1143.1229678158479
 30
0.0
 11
1359.6532219308481
 21
1143.1229678158479
 31
0.0
  0
LINE
  5
7AEE
  8
1
  6
CONTINUOUS
 10
1304.6532219308481
 20
1081.6229678158479
 30
0.0
 11
1339.6532219308481
 21
1081.6229678158479
 31
0.0
  0
LINE
  5
7AEF
  8
1
  6
CONTINUOUS
 10
1714.6532219308481
 20
819.22296781584805
 30
0.0
 11
1714.6532219308481
 21
1269.1229678158479
 31
0.0
  0
LINE
  5
7AF0
  8
1
  6
CONTINUOUS
 10
1534.6532219308481
 20
1269.1229678158479
 30
0.0
 11
1534.6532219308481
 21
819.22296781584805
 31
0.0
  0
LINE
  5
7AF1
  8
1
  6
CONTINUOUS
 10
1525.6532219308481
 20
1165.1229678158479
 30
0.0
 11
1525.6532219308481
 21
763.12296781584814
 31
0.0
  0
LINE
  5
7AF2
  8
1
  6
CONTINUOUS
 10
1723.6532219308481
 20
1165.1229678158479
 30
0.0
 11
1723.6532219308481
 21
871.12296781584814
 31
0.0
  0
LINE
  5
7AF3
  8
1
  6
CONTINUOUS
 10
1545.6532219308481
 20
807.22296781584816
 30
0.0
 11
1703.6532219308481
 21
807.22296781584816
 31
0.0
  0
LINE
  5
7AF4
  8
1
  6
CONTINUOUS
 10
1534.6532219308481
 20
871.12296781584814
 30
0.0
 11
1525.6532219308481
 21
871.12296781584814
 31
0.0
  0
ARC
  5
7AF5
  8
1
  6
CONTINUOUS
 10
1546.6532219308481
 20
819.22296781584805
 30
0.0
 40
12.0
 50
180.0
 51
270.0
  0
ARC
  5
7AF6
  8
1
  6
CONTINUOUS
 10
1545.6532219308481
 20
819.22296781584805
 30
0.0
 40
12.0
 50
180.0
 51
270.0
  0
LINE
  5
7AF7
  8
1
  6
CONTINUOUS
 10
1616.6532219308481
 20
763.12296781584814
 30
0.0
 11
1616.6532219308481
 21
703.12296781584814
 31
0.0
  0
LINE
  5
7AF8
  8
1
  6
CONTINUOUS
 10
1714.6532219308481
 20
871.12296781584814
 30
0.0
 11
1723.6532219308481
 21
871.12296781584814
 31
0.0
  0
ARC
  5
7AF9
  8
1
  6
CONTINUOUS
 10
1702.6532219308481
 20
819.22296781584805
 30
0.0
 40
12.0
 50
270.0
 51
0.0
  0
LINE
  5
7AFA
  8
1
  6
CONTINUOUS
 10
1534.6532219308481
 20
1017.122967815848
 30
0.0
 11
1714.6532219308481
 21
1269.1229678158479
 31
0.0
  0
LINE
  5
7AFB
  8
1
  6
CONTINUOUS
 10
1534.6532219308481
 20
1269.1229678158479
 30
0.0
 11
1714.6532219308481
 21
1017.122967815848
 31
0.0
  0
LINE
  5
7AFC
  8
1
  6
CONTINUOUS
 10
1534.6532219308481
 20
1017.122967815848
 30
0.0
 11
1714.6532219308481
 21
1017.122967815848
 31
0.0
  0
LINE
  5
7AFD
  8
1
  6
CONTINUOUS
 10
1714.6532219308481
 20
1269.1229678158479
 30
0.0
 11
1534.6532219308481
 21
1269.1229678158479
 31
0.0
  0
LINE
  5
7AFE
  8
1
  6
CONTINUOUS
 10
1534.6532219308481
 20
1165.1229678158479
 30
0.0
 11
1525.6532219308481
 21
1165.1229678158479
 31
0.0
  0
LINE
  5
7AFF
  8
1
  6
CONTINUOUS
 10
1714.6532219308481
 20
1165.1229678158479
 30
0.0
 11
1723.6532219308481
 21
1165.1229678158479
 31
0.0
  0
LINE
  5
7B00
  8
4
  6
CONTINUOUS
 10
1850.0
 20
500.0
 30
0.0
 11
1850.0
 21
300.0
 31
0.0
  0
LINE
  5
7B01
  8
4
  6
CONTINUOUS
 10
1150.0
 20
500.0
 30
0.0
 11
1150.0
 21
300.0
 31
0.0
  0
LINE
  5
7B02
  8
4
  6
CONTINUOUS
 10
650.0
 20
500.0
 30
0.0
 11
650.0
 21
300.0
 31
0.0
  0
LINE
  5
7B05
  8
4
  6
CONTINUOUS
 10
650.0
 20
300.0
 30
0.0
 11
1850.0
 21
300.0
 31
0.0
  0
LINE
  5
7B06
  8
4
  6
CONTINUOUS
 10
650.0
 20
400.0
 30
0.0
 11
1850.0
 21
400.0
 31
0.0
  0
TEXT
  5
7B07
  8
4
  6
CONTINUOUS
 10
688.50208099999998
 20
431.543026
 30
0.0
 40
50.0
  1
機器名称
  0
TEXT
  5
7B08
  8
4
  6
CONTINUOUS
 10
686.258106
 20
321.64515699999993
 30
0.0
 40
50.0
  1
機器型番
  0
TEXT
  5
7B09
  8
4
  6
CONTINUOUS
 10
1177.678744999999
 20
422.57176900000002
 30
0.0
 40
45.0
  1
ミツヤニューマルチファン
  0
TEXT
  5
7B0A
  8
4
  6
CONTINUOUS
 10
1186.6544960000001
 20
317.159584
 30
0.0
 40
50.0
  1
NM#1 1/2-1
  0
TEXT
  5
7B0C
  8
4
  6
CONTINUOUS
 10
904.78576499999997
 20
2383.4288409999999
 30
0.0
 40
54.0
  1
床置ベット
  0
TEXT
  5
7B0D
  8
4
  6
CONTINUOUS
 10
316.16759300000001
 20
2533.8809759999999
 30
0.0
 40
72.0
  1
ベルト駆動式片吸込片持多翼ファン
  0
LINE
  5
7B0E
  8
4
  6
CONTINUOUS
 10
250.0
 20
2469.408754
 30
0.0
 11
1850.0
 21
2469.408754
 31
0.0
  0
LINE
  5
7B0F
  8
4
  6
CONTINUOUS
 10
250.0
 20
2669.408754
 30
0.0
 11
1850.0
 21
2669.408754
 31
0.0
  0
LINE
  5
7B10
  8
4
  6
CONTINUOUS
 10
650.0
 20
500.0
 30
0.0
 11
1850.0
 21
500.0
 31
0.0
  0
LINE
  5
7B11
  8
4
  6
CONTINUOUS
 10
250.0
 20
2669.408754
 30
0.0
 11
250.0
 21
2469.408754
 31
0.0
  0
TEXT
  5
7B12
  8
4
  6
CONTINUOUS
 10
468.92693300000002
 20
2382.3194779999999
 30
0.0
 40
54.0
  1
左回転左横向
  0
TEXT
  5
7B13
  8
4
  6
CONTINUOUS
 10
1468.9695589999999
 20
2706.0610809999998
 30
0.0
 40
56.0
  1
No.
  0
TEXT
  5
7B14
  8
4
  6
CONTINUOUS
 10
1311.296063
 20
2383.4288409999999
 30
0.0
 40
54.0
  1
縮尺：1/10
  0
LINE
  5
7B15
  8
4
  6
CONTINUOUS
 10
1850.0
 20
2669.408754
 30
0.0
 11
1850.0
 21
2469.408754
 31
0.0
  0
LINE
  5
7B17
  8
4
  6
CONTINUOUS
 10
1440.617422
 20
2681.2635829999999
 30
0.0
 11
1440.617422
 21
2786.6522620000001
 31
0.0
  0
LINE
  5
7B18
  8
4
  6
CONTINUOUS
 10
1440.617422
 20
2786.6522620000001
 30
0.0
 11
1850.0
 21
2786.6522620000001
 31
0.0
  0
LINE
  5
7B19
  8
4
  6
CONTINUOUS
 10
1850.0
 20
2786.6522620000001
 30
0.0
 11
1850.0
 21
2681.2635829999999
 31
0.0
  0
LINE
  5
7B1A
  8
4
  6
CONTINUOUS
 10
1850.0
 20
2681.2635829999999
 30
0.0
 11
1440.617422
 21
2681.2635829999999
 31
0.0
  0
LINE
  5
7B1F
  8
2
  6
CENTER
 10
1624.6532219308481
 20
1319.617862815848
 30
0.0
 11
1624.6532219308481
 21
686.54102181584813
 31
0.0
  0
LINE
  5
7B20
  8
2
  6
CENTER
 10
1020.972699
 20
1018.122967815848
 30
0.0
 11
1026.0245769999999
 21
1018.122967815848
 31
0.0
  0
LINE
  5
7B21
  8
2
  6
CENTER
 10
1251.0167639308479
 20
1018.122967815848
 30
0.0
 11
1745.711748930848
 21
1018.122967815848
 31
0.0
  0
LINE
  5
7B22
  8
2
  6
CENTER
 10
931.556825
 20
2077.988980254383
 30
0.0
 11
440.34557300000012
 21
2077.988980254383
 31
0.0
  0
LINE
  5
7B23
  8
2
  6
CENTER
 10
681.92576199999985
 20
1341.269124815848
 30
0.0
 11
681.92576199999985
 21
688.82301781584806
 31
0.0
  0
DIMENSION
  5
7B37
  8
3
  6
CONTINUOUS
  2
*D1
 10
1201.9257620000001
 20
1630.794250254384
 30
0.0
 11
845.27499600000021
 21
1630.794250254384
 31
0.0
 70
   128
 13
491.92576200000002
 23
1819.988980254383
 33
0.0
 14
1201.9257620000001
 24
1819.988980254383
 34
0.0
1001
ACAD
1000
DSTYLE
1002
{
1070
   287
1070
     3
1070
   287
1070
     3
1070
    40
1040
10.0
1070
   143
1040
0.039
1070
   172
1070
     1
1070
   271
1070
     0
1070
   279
1070
     0
1070
   288
1070
     1
1002
}
  0
DIMENSION
  5
7B44
  8
3
  6
CONTINUOUS
  2
*D2
 10
1287.746382
 20
1819.988980254383
 30
0.0
 11
1287.746382
 21
1955.3703382543829
 31
0.0
 70
   128
 13
1201.9257620000001
 23
2069.9889802543839
 33
0.0
 14
1201.9257620000001
 24
1819.988980254383
 34
0.0
 50
90.0
1001
ACAD
1000
DSTYLE
1002
{
1070
   287
1070
     3
1070
   287
1070
     3
1070
    40
1040
10.0
1070
   143
1040
0.039
1070
   172
1070
     1
1070
   271
1070
     0
1070
   279
1070
     0
1070
   288
1070
     1
1002
}
  0
DIMENSION
  5
7B51
  8
3
  6
CONTINUOUS
  2
*D3
 10
681.92576199999985
 20
626.38522881584811
 30
0.0
 11
587.96589799999992
 21
626.38522881584811
 31
0.0
 70
   128
 13
491.92576200000002
 23
703.12296781584814
 33
0.0
 14
681.92576199999985
 24
703.12296781584814
 34
0.0
1001
ACAD
1000
DSTYLE
1002
{
1070
   287
1070
     3
1070
   287
1070
     3
1070
    40
1040
10.0
1070
   143
1040
0.039
1070
   172
1070
     1
1070
   271
1070
     0
1070
   279
1070
     0
1070
   288
1070
     1
1002
}
  0
DIMENSION
  5
7B5D
  8
3
  6
CONTINUOUS
  2
*D4
 10
1201.9257620000001
 20
626.38522881584811
 30
0.0
 11
941.92576199999974
 21
651.38522881584811
 31
0.0
 70
     0
 13
681.92576199999985
 23
703.12296781584814
 33
0.0
 14
1201.9257620000001
 24
703.12296781584814
 34
0.0
1001
ACAD
1000
DSTYLE
1002
{
1070
   287
1070
     4
1070
   287
1070
     4
1070
    40
1040
10.0
1070
    75
1070
     1
1070
   143
1040
0.039
1070
   172
1070
     1
1070
   271
1070
     0
1070
   279
1070
     1
1070
   288
1070
     1
1002
}
  0
DIMENSION
  5
7B6A
  8
3
  6
CONTINUOUS
  2
*D5
 10
434.82427400000017
 20
1018.122967815848
 30
0.0
 11
434.824274
 21
1147.6047658158479
 31
0.0
 70
   128
 13
481.92576200000008
 23
1268.1229678158479
 33
0.0
 14
481.92576200000008
 24
1018.122967815848
 34
0.0
 50
90.0
1001
ACAD
1000
DSTYLE
1002
{
1070
   287
1070
     3
1070
   287
1070
     3
1070
    40
1040
10.0
1070
   143
1040
0.039
1070
   172
1070
     1
1070
   271
1070
     0
1070
   279
1070
     0
1070
   288
1070
     1
1002
}
  0
DIMENSION
  5
7B77
  8
3
  6
CONTINUOUS
  2
*D6
 10
379.36271900000008
 20
1018.122967815848
 30
0.0
 11
379.36271899999991
 21
1153.0204098158481
 31
0.0
 70
   128
 13
501.92576200000008
 23
1278.1229678158479
 33
0.0
 14
481.92576200000008
 24
1018.122967815848
 34
0.0
 50
90.0
1001
ACAD
1000
DSTYLE
1002
{
1070
   287
1070
     3
1070
   287
1070
     3
1070
    40
1040
10.0
1070
   143
1040
0.039
1070
   172
1070
     1
1070
   271
1070
     0
1070
   279
1070
     0
1070
   288
1070
     1
1002
}
  0
DIMENSION
  5
7B83
  8
3
  6
CONTINUOUS
  2
*D7
 10
379.36271899999991
 20
703.12296781584814
 30
0.0
 11
354.3627189999998
 21
860.62296781584826
 31
0.0
 70
     0
 13
481.92576200000008
 23
1018.122967815848
 33
0.0
 14
491.92576200000002
 24
703.12296781584814
 34
0.0
 50
90.0
1001
ACAD
1000
DSTYLE
1002
{
1070
   287
1070
     4
1070
   287
1070
     4
1070
    40
1040
10.0
1070
    75
1070
     1
1070
   143
1040
0.039
1070
   172
1070
     1
1070
   271
1070
     0
1070
   279
1070
     1
1070
   288
1070
     1
1002
}
  0
DIMENSION
  5
7B9E
  8
3
  6
CONTINUOUS
  2
*D8
 10
681.92576199999985
 20
1333.1509588158481
 30
0.0
 11
581.19274099999996
 21
1333.1509588158481
 31
0.0
 70
   128
 13
481.92576200000008
 23
1289.1229678158479
 33
0.0
 14
681.92576199999985
 24
1278.1229678158479
 34
0.0
1001
ACAD
1000
DSTYLE
1002
{
1070
   287
1070
     3
1070
   287
1070
     3
1070
    40
1040
10.0
1070
   143
1040
0.039
1070
   172
1070
     1
1070
   271
1070
     0
1070
   279
1070
     0
1070
   288
1070
     1
1002
}
  0
DIMENSION
  5
7BAA
  8
3
  6
CONTINUOUS
  2
*D9
 10
901.91514600000005
 20
1333.1509588158481
 30
0.0
 11
791.92045399999995
 21
1358.1509588158481
 31
0.0
 70
     0
 13
681.92576199999985
 23
1278.1229678158479
 33
0.0
 14
901.91514600000005
 24
1018.122967815848
 34
0.0
1001
ACAD
1000
DSTYLE
1002
{
1070
   287
1070
     4
1070
   287
1070
     4
1070
    40
1040
10.0
1070
    75
1070
     1
1070
   143
1040
0.039
1070
   172
1070
     1
1070
   271
1070
     0
1070
   279
1070
     1
1070
   288
1070
     1
1002
}
  0
DIMENSION
  5
7BB7
  8
3
  6
CONTINUOUS
  2
*D10
 10
1616.6532219308481
 20
635.46449081584819
 30
0.0
 11
1492.8191529308481
 21
635.46449081584819
 31
0.0
 70
   128
 13
1366.6532219308481
 23
703.12296781584814
 33
0.0
 14
1616.6532219308481
 24
703.12296781584814
 34
0.0
1001
ACAD
1000
DSTYLE
1002
{
1070
   287
1070
     3
1070
   287
1070
     3
1070
    40
1040
10.0
1070
   143
1040
0.039
1070
   172
1070
     1
1070
   271
1070
     0
1070
   279
1070
     0
1070
   288
1070
     1
1002
}
  0
DIMENSION
  5
7BC4
  8
3
  6
CONTINUOUS
  2
*D11
 10
1714.6532219308481
 20
1314.0434948158479
 30
0.0
 11
1619.6049439308481
 21
1314.0434948158479
 31
0.0
 70
   128
 13
1534.6532219308481
 23
1269.1229678158479
 33
0.0
 14
1714.6532219308481
 24
1269.1229678158479
 34
0.0
1001
ACAD
1000
DSTYLE
1002
{
1070
   287
1070
     3
1070
   287
1070
     3
1070
    40
1040
10.0
1070
   143
1040
0.039
1070
   172
1070
     1
1070
   271
1070
     0
1070
   279
1070
     0
1070
   288
1070
     1
1002
}
  0
DIMENSION
  5
7BD1
  8
3
  6
CONTINUOUS
  2
*D12
 10
1624.6532219308481
 20
1381.8821148158479
 30
0.0
 11
1454.4363229308481
 21
1381.8821148158479
 31
0.0
 70
   128
  1
MAX\P340
 13
1284.6532219308481
 23
1143.1229678158479
 33
0.0
 14
1624.6532219308481
 24
1360.583004815848
 34
0.0
1001
ACAD
1000
DSTYLE
1002
{
1070
   287
1070
     3
1070
   287
1070
     3
1070
    40
1040
10.0
1070
   143
1040
0.039
1070
   172
1070
     1
1070
   271
1070
     0
1070
   279
1070
     0
1070
   288
1070
     1
1002
}
  0
DIMENSION
  5
7BDF
  8
3
  6
CONTINUOUS
  2
*D13
 10
1723.6532219308481
 20
1381.8821148158479
 30
0.0
 11
1675.008856930848
 21
1380.3184248158479
 31
0.0
 70
   128
 13
1624.6532219308481
 23
1360.583004815848
 33
0.0
 14
1723.6532219308481
 24
1165.1229678158479
 34
0.0
1001
ACAD
1000
DSTYLE
1002
{
1070
   287
1070
     4
1070
   287
1070
     4
1070
    40
1040
10.0
1070
    75
1070
     1
1070
   143
1040
0.039
1070
   172
1070
     1
1070
   271
1070
     0
1070
   279
1070
     1
1070
   288
1070
     1
1002
}
  0
LINE
  5
7BF7
  8
3
  6
CONTINUOUS
 10
1723.6532219308481
 20
1143.1229678158479
 30
0.0
 11
1740.888113930848
 21
1143.1229678158479
 31
0.0
  0
LINE
  5
7BF9
  8
3
  6
CONTINUOUS
 10
1723.6532219308481
 20
893.12296781584826
 30
0.0
 11
1738.2495189308479
 21
893.12296781584826
 31
0.0
  0
DIMENSION
  5
7C06
  8
3
  6
CONTINUOUS
  2
*D14
 10
1798.9370289308481
 20
893.12296781584803
 30
0.0
 11
1798.9370289308481
 21
1019.904941815848
 31
0.0
 70
   128
 13
1723.6532219308481
 23
1143.1229678158479
 33
0.0
 14
1723.6532219308481
 24
893.12296781584826
 34
0.0
 50
90.0
1001
ACAD
1000
DSTYLE
1002
{
1070
   287
1070
     3
1070
   287
1070
     3
1070
     3
1000
φ<>
1070
    40
1040
10.0
1070
   143
1040
0.039
1070
   172
1070
     1
1070
   271
1070
     0
1070
   279
1070
     0
1070
   288
1070
     1
1002
}
  0
DIMENSION
  5
7C1D
  8
3
  6
CONTINUOUS
  2
*D15
 10
309.4460450000002
 20
703.12296781584814
 30
0.0
 11
309.44604500000008
 21
987.36108381584825
 31
0.0
 70
   128
 13
481.92576200000008
 23
1289.1229678158479
 33
0.0
 14
491.92576200000002
 24
703.12296781584814
 34
0.0
 50
90.0
1001
ACAD
1000
DSTYLE
1002
{
1070
   287
1070
     3
1070
   287
1070
     3
1070
    40
1040
10.0
1070
   143
1040
0.039
1070
   172
1070
     1
1070
   271
1070
     0
1070
   279
1070
     0
1070
   288
1070
     1
1002
}
  0
DIMENSION
  5
7C67
  8
3
  2
*D16
 10
1624.6532219308481
 20
635.46449081584819
 30
0.0
 11
1684.6532219308481
 21
660.46449081584819
 31
0.0
 70
     0
 13
1616.6532219308481
 23
703.12296781584814
 33
0.0
 14
1624.6532219308481
 24
686.54102181584813
 34
0.0
1001
ACAD
1000
DSTYLE
1002
{
1070
   287
1070
     3
1070
   287
1070
     3
1070
    40
1040
10.0
1070
   143
1040
0.039
1070
   172
1070
     1
1070
   271
1070
     0
1070
   279
1070
     0
1070
   288
1070
     1
1002
}
  0
DIMENSION
  5
7C81
  8
3
  2
*D17
 10
1201.9257620000001
 20
1395.6407595168321
 30
0.0
 11
879.13698693178947
 21
1395.6407595168321
 31
0.0
 70
   128
 13
481.92576200000008
 23
1289.1229678158479
 33
0.0
 14
1201.9257620000001
 24
783.12296781584814
 34
0.0
1001
ACAD
1000
DSTYLE
1002
{
1070
   287
1070
     3
1070
   287
1070
     3
1070
    40
1040
10.0
1070
   143
1040
0.039
1070
   172
1070
     1
1070
   271
1070
     0
1070
   279
1070
     0
1070
   288
1070
     1
1002
}
  0
ENDSEC
  0
EOF
