  0
SECTION
  2
HEADER
  9
$ACADVER
  1
AC1027
  9
$ACADMAINTVER
 70
    81
  9
$DWGCODEPAGE
  3
ANSI_932
  9
$LASTSAVEDBY
  1
reiko.miyawaki
  9
$REQUIREDVERSIONS
160
                 0
  9
$INSBASE
 10
0.0
 20
0.0
 30
0.0
  9
$EXTMIN
 10
204.7331600360673
 20
300.0
 30
0.0
  9
$EXTMAX
 10
1880.468293
 20
2786.652262
 30
0.0
  9
$LIMMIN
 10
0.0
 20
0.0
  9
$LIMMAX
 10
297.0
 20
210.0
  9
$ORTHOMODE
 70
     1
  9
$REGENMODE
 70
     1
  9
$FILLMODE
 70
     0
  9
$QTEXTMODE
 70
     0
  9
$MIRRTEXT
 70
     1
  9
$LTSCALE
 40
100.0
  9
$ATTMODE
 70
     1
  9
$TEXTSIZE
 40
180.0
  9
$TRACEWID
 40
0.05
  9
$TEXTSTYLE
  7
STANDARD
  9
$CLAYER
  8
3
  9
$CELTYPE
  6
BYLAYER
  9
$CECOLOR
 62
   256
  9
$CELTSCALE
 40
1.0
  9
$DISPSILH
 70
     0
  9
$DIMSCALE
 40
10.0
  9
$DIMASZ
 40
2.0
  9
$DIMEXO
 40
0.5
  9
$DIMDLI
 40
10.0
  9
$DIMRND
 40
0.0
  9
$DIMDLE
 40
0.0
  9
$DIMEXE
 40
1.0
  9
$DIMTP
 40
1.0
  9
$DIMTM
 40
1.0
  9
$DIMTXT
 40
3.0
  9
$DIMCEN
 40
0.0
  9
$DIMTSZ
 40
0.0
  9
$DIMTOL
 70
     0
  9
$DIMLIM
 70
     0
  9
$DIMTIH
 70
     0
  9
$DIMTOH
 70
     0
  9
$DIMSE1
 70
     0
  9
$DIMSE2
 70
     0
  9
$DIMTAD
 70
     1
  9
$DIMZIN
 70
     8
  9
$DIMBLK
  1

  9
$DIMASO
 70
     1
  9
$DIMSHO
 70
     1
  9
$DIMPOST
  1
(<>)
  9
$DIMAPOST
  1

  9
$DIMALT
 70
     0
  9
$DIMALTD
 70
     2
  9
$DIMALTF
 40
0.039
  9
$DIMLFAC
 40
1.0
  9
$DIMTOFL
 70
     1
  9
$DIMTVP
 40
0.0
  9
$DIMTIX
 70
     0
  9
$DIMSOXD
 70
     0
  9
$DIMSAH
 70
     1
  9
$DIMBLK1
  1
OPEN
  9
$DIMBLK2
  1
OPEN
  9
$DIMSTYLE
  2
IGA
  9
$DIMCLRD
 70
     0
  9
$DIMCLRE
 70
     0
  9
$DIMCLRT
 70
     0
  9
$DIMTFAC
 40
10.0
  9
$DIMGAP
 40
1.0
  9
$DIMJUST
 70
     0
  9
$DIMSD1
 70
     0
  9
$DIMSD2
 70
     0
  9
$DIMTOLJ
 70
     1
  9
$DIMTZIN
 70
     8
  9
$DIMALTZ
 70
     0
  9
$DIMALTTZ
 70
     0
  9
$DIMUPT
 70
     0
  9
$DIMDEC
 70
     0
  9
$DIMTDEC
 70
     0
  9
$DIMALTU
 70
     2
  9
$DIMALTTD
 70
     2
  9
$DIMTXSTY
  7
STANDARD
  9
$DIMAUNIT
 70
     0
  9
$DIMADEC
 70
     0
  9
$DIMALTRND
 40
0.0
  9
$DIMAZIN
 70
     0
  9
$DIMDSEP
 70
    46
  9
$DIMATFIT
 70
     3
  9
$DIMFRAC
 70
     0
  9
$DIMLDRBLK
  1
OPEN
  9
$DIMLUNIT
 70
     2
  9
$DIMLWD
 70
    -2
  9
$DIMLWE
 70
    -2
  9
$DIMTMOVE
 70
     0
  9
$DIMFXL
 40
1.0
  9
$DIMFXLON
 70
     0
  9
$DIMJOGANG
 40
0.7853981633974483
  9
$DIMTFILL
 70
     0
  9
$DIMTFILLCLR
 70
     0
  9
$DIMARCSYM
 70
     0
  9
$DIMLTYPE
  6

  9
$DIMLTEX1
  6

  9
$DIMLTEX2
  6

  9
$DIMTXTDIRECTION
 70
     0
  9
$LUNITS
 70
     2
  9
$LUPREC
 70
     3
  9
$SKETCHINC
 40
0.1
  9
$FILLETRAD
 40
50.0
  9
$AUNITS
 70
     0
  9
$AUPREC
 70
     0
  9
$MENU
  1
acad
  9
$ELEVATION
 40
0.0
  9
$PELEVATION
 40
0.0
  9
$THICKNESS
 40
0.0
  9
$LIMCHECK
 70
     0
  9
$CHAMFERA
 40
0.5
  9
$CHAMFERB
 40
0.5
  9
$CHAMFERC
 40
20.0
  9
$CHAMFERD
 40
0.0
  9
$SKPOLY
 70
     0
  9
$TDCREATE
 40
2450744.658029630
  9
$TDUCREATE
 40
2450744.283029630
  9
$TDUPDATE
 40
2459024.547528646
  9
$TDUUPDATE
 40
2459024.172528646
  9
$TDINDWG
 40
0.0452615162
  9
$TDUSRTIMER
 40
0.0452615162
  9
$USRTIMER
 70
     1
  9
$ANGBASE
 50
0.0
  9
$ANGDIR
 70
     0
  9
$PDMODE
 70
     0
  9
$PDSIZE
 40
0.0
  9
$PLINEWID
 40
0.0
  9
$SPLFRAME
 70
     0
  9
$SPLINETYPE
 70
     6
  9
$SPLINESEGS
 70
     8
  9
$HANDSEED
  5
807B
  9
$SURFTAB1
 70
     6
  9
$SURFTAB2
 70
     6
  9
$SURFTYPE
 70
     6
  9
$SURFU
 70
     6
  9
$SURFV
 70
     6
  9
$UCSBASE
  2

  9
$UCSNAME
  2

  9
$UCSORG
 10
0.0
 20
0.0
 30
0.0
  9
$UCSXDIR
 10
1.0
 20
0.0
 30
0.0
  9
$UCSYDIR
 10
0.0
 20
1.0
 30
0.0
  9
$UCSORTHOREF
  2

  9
$UCSORTHOVIEW
 70
     0
  9
$UCSORGTOP
 10
0.0
 20
0.0
 30
0.0
  9
$UCSORGBOTTOM
 10
0.0
 20
0.0
 30
0.0
  9
$UCSORGLEFT
 10
0.0
 20
0.0
 30
0.0
  9
$UCSORGRIGHT
 10
0.0
 20
0.0
 30
0.0
  9
$UCSORGFRONT
 10
0.0
 20
0.0
 30
0.0
  9
$UCSORGBACK
 10
0.0
 20
0.0
 30
0.0
  9
$PUCSBASE
  2

  9
$PUCSNAME
  2

  9
$PUCSORG
 10
0.0
 20
0.0
 30
0.0
  9
$PUCSXDIR
 10
1.0
 20
0.0
 30
0.0
  9
$PUCSYDIR
 10
0.0
 20
1.0
 30
0.0
  9
$PUCSORTHOREF
  2

  9
$PUCSORTHOVIEW
 70
     0
  9
$PUCSORGTOP
 10
0.0
 20
0.0
 30
0.0
  9
$PUCSORGBOTTOM
 10
0.0
 20
0.0
 30
0.0
  9
$PUCSORGLEFT
 10
0.0
 20
0.0
 30
0.0
  9
$PUCSORGRIGHT
 10
0.0
 20
0.0
 30
0.0
  9
$PUCSORGFRONT
 10
0.0
 20
0.0
 30
0.0
  9
$PUCSORGBACK
 10
0.0
 20
0.0
 30
0.0
  9
$USERI1
 70
     0
  9
$USERI2
 70
     0
  9
$USERI3
 70
     0
  9
$USERI4
 70
     0
  9
$USERI5
 70
     0
  9
$USERR1
 40
0.0
  9
$USERR2
 40
0.0
  9
$USERR3
 40
0.0
  9
$USERR4
 40
0.0
  9
$USERR5
 40
0.0
  9
$WORLDVIEW
 70
     1
  9
$SHADEDGE
 70
     3
  9
$SHADEDIF
 70
    70
  9
$TILEMODE
 70
     1
  9
$MAXACTVP
 70
    16
  9
$PINSBASE
 10
0.0
 20
0.0
 30
0.0
  9
$PLIMCHECK
 70
     0
  9
$PEXTMIN
 10
1.000000000000000E+20
 20
1.000000000000000E+20
 30
1.000000000000000E+20
  9
$PEXTMAX
 10
-1.000000000000000E+20
 20
-1.000000000000000E+20
 30
-1.000000000000000E+20
  9
$PLIMMIN
 10
0.0
 20
0.0
  9
$PLIMMAX
 10
12.0
 20
9.0
  9
$UNITMODE
 70
     0
  9
$VISRETAIN
 70
     0
  9
$PLINEGEN
 70
     0
  9
$PSLTSCALE
 70
     1
  9
$TREEDEPTH
 70
  3020
  9
$CMLSTYLE
  2
STANDARD
  9
$CMLJUST
 70
     0
  9
$CMLSCALE
 40
20.0
  9
$PROXYGRAPHICS
 70
     1
  9
$MEASUREMENT
 70
     0
  9
$CELWEIGHT
370
    -1
  9
$ENDCAPS
280
     0
  9
$JOINSTYLE
280
     0
  9
$LWDISPLAY
290
     0
  9
$INSUNITS
 70
     0
  9
$HYPERLINKBASE
  1

  9
$STYLESHEET
  1

  9
$XEDIT
290
     1
  9
$CEPSNTYPE
380
     0
  9
$PSTYLEMODE
290
     1
  9
$FINGERPRINTGUID
  2
{0FB2EFC9-6FE2-4C1C-A79E-C9C87948CC6D}
  9
$VERSIONGUID
  2
{59CA7FA5-F33F-4417-8FCD-3EA2312B71E9}
  9
$EXTNAMES
290
     1
  9
$PSVPSCALE
 40
0.0
  9
$OLESTARTUP
290
     0
  9
$SORTENTS
280
   127
  9
$INDEXCTL
280
     0
  9
$HIDETEXT
280
     0
  9
$XCLIPFRAME
280
     2
  9
$HALOGAP
280
     0
  9
$OBSCOLOR
 70
   257
  9
$OBSLTYPE
280
     0
  9
$INTERSECTIONDISPLAY
280
     0
  9
$INTERSECTIONCOLOR
 70
   257
  9
$DIMASSOC
280
     1
  9
$PROJECTNAME
  1

  9
$CAMERADISPLAY
290
     0
  9
$LENSLENGTH
 40
50.0
  9
$CAMERAHEIGHT
 40
0.0
  9
$STEPSPERSEC
 40
2.0
  9
$STEPSIZE
 40
6.0
  9
$3DDWFPREC
 40
2.0
  9
$PSOLWIDTH
 40
0.25
  9
$PSOLHEIGHT
 40
4.0
  9
$LOFTANG1
 40
1.570796326794896
  9
$LOFTANG2
 40
1.570796326794896
  9
$LOFTMAG1
 40
0.0
  9
$LOFTMAG2
 40
0.0
  9
$LOFTPARAM
 70
     7
  9
$LOFTNORMALS
280
     1
  9
$LATITUDE
 40
37.795
  9
$LONGITUDE
 40
-122.394
  9
$NORTHDIRECTION
 40
0.0
  9
$TIMEZONE
 70
 -8000
  9
$LIGHTGLYPHDISPLAY
280
     1
  9
$TILEMODELIGHTSYNCH
280
     1
  9
$CMATERIAL
347
7F72
  9
$SOLIDHIST
280
     0
  9
$SHOWHIST
280
     1
  9
$DWFFRAME
280
     2
  9
$DGNFRAME
280
     0
  9
$REALWORLDSCALE
290
     1
  9
$INTERFERECOLOR
 62
     1
  9
$INTERFEREOBJVS
345
7F94
  9
$INTERFEREVPVS
346
7F91
  9
$CSHADOW
280
     0
  9
$SHADOWPLANELOCATION
 40
0.0
  0
ENDSEC
  0
SECTION
  2
CLASSES
  0
CLASS
  1
ACDBDICTIONARYWDFLT
  2
AcDbDictionaryWithDefault
  3
ObjectDBX Classes
 90
        0
 91
        1
280
     0
281
     0
  0
CLASS
  1
DICTIONARYVAR
  2
AcDbDictionaryVar
  3
ObjectDBX Classes
 90
        0
 91
       10
280
     0
281
     0
  0
CLASS
  1
MATERIAL
  2
AcDbMaterial
  3
ObjectDBX Classes
 90
     1153
 91
        3
280
     0
281
     0
  0
CLASS
  1
VISUALSTYLE
  2
AcDbVisualStyle
  3
ObjectDBX Classes
 90
     4095
 91
       24
280
     0
281
     0
  0
CLASS
  1
TABLESTYLE
  2
AcDbTableStyle
  3
ObjectDBX Classes
 90
     4095
 91
        1
280
     0
281
     0
  0
CLASS
  1
SCALE
  2
AcDbScale
  3
ObjectDBX Classes
 90
     1153
 91
       17
280
     0
281
     0
  0
CLASS
  1
MLEADERSTYLE
  2
AcDbMLeaderStyle
  3
ACDB_MLEADERSTYLE_CLASS
 90
     4095
 91
        1
280
     0
281
     0
  0
CLASS
  1
ACDBSECTIONVIEWSTYLE
  2
AcDbSectionViewStyle
  3
ObjectDBX Classes
 90
     1025
 91
        1
280
     0
281
     0
  0
CLASS
  1
ACDBDETAILVIEWSTYLE
  2
AcDbDetailViewStyle
  3
ObjectDBX Classes
 90
     1025
 91
        1
280
     0
281
     0
  0
CLASS
  1
CELLSTYLEMAP
  2
AcDbCellStyleMap
  3
ObjectDBX Classes
 90
     1152
 91
        1
280
     0
281
     0
  0
ENDSEC
  0
SECTION
  2
TABLES
  0
TABLE
  2
VPORT
  5
8
330
0
100
AcDbSymbolTable
 70
     1
  0
VPORT
  5
7F6F
330
8
100
AcDbSymbolTableRecord
100
AcDbViewportTableRecord
  2
*Active
 70
     0
 10
0.0
 20
0.0
 11
1.0
 21
1.0
 12
1293.823286444584
 22
1543.306646673051
 13
0.0
 23
0.0
 14
10.0
 24
10.0
 15
10.0
 25
10.0
 16
0.0
 26
0.0
 36
1.0
 17
0.0
 27
0.0
 37
0.0
 40
2418.19923326815
 41
1.957107843137254
 42
50.0
 43
0.0
 44
0.0
 50
0.0
 51
0.0
 71
     0
 72
   100
 73
     1
 74
     0
 75
     0
 76
     0
 77
     0
 78
     0
281
     0
 65
     1
110
0.0
120
0.0
130
0.0
111
1.0
121
0.0
131
0.0
112
0.0
122
1.0
132
0.0
 79
     0
146
0.0
348
7F90
 60
     3
 61
     5
292
     1
282
     1
141
0.0
142
0.0
 63
   250
421
  3355443
1001
ACAD_NAV_VCDISPLAY
1070
     3
  0
ENDTAB
  0
TABLE
  2
LTYPE
  5
5
330
0
100
AcDbSymbolTable
 70
     2
  0
LTYPE
  5
13
330
5
100
AcDbSymbolTableRecord
100
AcDbLinetypeTableRecord
  2
BYBLOCK
 70
     0
  3

 72
    65
 73
     0
 40
0.0
  0
LTYPE
  5
14
330
5
100
AcDbSymbolTableRecord
100
AcDbLinetypeTableRecord
  2
BYLAYER
 70
     0
  3

 72
    65
 73
     0
 40
0.0
  0
LTYPE
  5
15
330
5
100
AcDbSymbolTableRecord
100
AcDbLinetypeTableRecord
  2
CONTINUOUS
 70
     0
  3
Solid line
 72
    65
 73
     0
 40
0.0
  0
LTYPE
  5
1F
330
5
100
AcDbSymbolTableRecord
100
AcDbLinetypeTableRecord
  2
CENTER
 70
     0
  3
____ _ ____ _ ____ _ ____ _ ____ _ ____ _ ____ 
 72
    65
 73
     4
 40
2.0
 49
1.25
 74
     0
 49
-0.25
 74
     0
 49
0.25
 74
     0
 49
-0.25
 74
     0
  0
ENDTAB
  0
TABLE
  2
LAYER
  5
2
102
{ACAD_XDICTIONARY
360
7FC2
102
}
330
0
100
AcDbSymbolTable
 70
     6
  0
LAYER
  5
F
102
{ACAD_XDICTIONARY
360
8022
102
}
330
2
100
AcDbSymbolTableRecord
100
AcDbLayerTableRecord
  2
0
 70
     0
 62
    -7
  6
CONTINUOUS
370
    -3
390
7E8B
347
7F82
348
0
  0
LAYER
  5
31
102
{ACAD_XDICTIONARY
360
8024
102
}
330
2
100
AcDbSymbolTableRecord
100
AcDbLayerTableRecord
  2
3
 70
     0
 62
     2
  6
CONTINUOUS
370
    -3
390
7E8B
347
7F82
348
0
  0
LAYER
  5
76D0
102
{ACAD_XDICTIONARY
360
8026
102
}
330
2
100
AcDbSymbolTableRecord
100
AcDbLayerTableRecord
  2
2
 70
     0
 62
     3
  6
CENTER
370
    -3
390
7E8B
347
7F82
348
0
  0
LAYER
  5
76D1
102
{ACAD_XDICTIONARY
360
8028
102
}
330
2
100
AcDbSymbolTableRecord
100
AcDbLayerTableRecord
  2
1
 70
     0
 62
     4
  6
CONTINUOUS
370
    -3
390
7E8B
347
7F82
348
0
  0
LAYER
  5
76D2
102
{ACAD_XDICTIONARY
360
802A
102
}
330
2
100
AcDbSymbolTableRecord
100
AcDbLayerTableRecord
  2
4
 70
     0
 62
     7
  6
CONTINUOUS
370
    -3
390
7E8B
347
7F82
348
0
  0
LAYER
  5
7B67
330
2
100
AcDbSymbolTableRecord
100
AcDbLayerTableRecord
  2
DEFPOINTS
 70
     0
 62
     7
  6
CONTINUOUS
290
     0
370
    -3
390
7E8B
347
7F82
348
0
  0
ENDTAB
  0
TABLE
  2
STYLE
  5
3
330
0
100
AcDbSymbolTable
 70
     1
  0
STYLE
  5
10
330
3
100
AcDbSymbolTableRecord
100
AcDbTextStyleTableRecord
  2
STANDARD
 70
     0
 40
0.0
 41
1.0
 50
0.0
 71
     0
 42
180.0
  3
simplex.shx
  4
extfont.shx
  0
ENDTAB
  0
TABLE
  2
VIEW
  5
6
330
0
100
AcDbSymbolTable
 70
     0
  0
ENDTAB
  0
TABLE
  2
UCS
  5
7
330
0
100
AcDbSymbolTable
 70
     0
  0
ENDTAB
  0
TABLE
  2
APPID
  5
9
330
0
100
AcDbSymbolTable
 70
     4
  0
APPID
  5
11
330
9
100
AcDbSymbolTableRecord
100
AcDbRegAppTableRecord
  2
ACAD
 70
     0
  0
APPID
  5
7FC1
330
9
100
AcDbSymbolTableRecord
100
AcDbRegAppTableRecord
  2
ACAD_NAV_VCDISPLAY
 70
     0
  0
APPID
  5
8045
330
9
100
AcDbSymbolTableRecord
100
AcDbRegAppTableRecord
  2
AcadAnnoMonitorAlertIconDisabled
 70
     0
  0
APPID
  5
8046
330
9
100
AcDbSymbolTableRecord
100
AcDbRegAppTableRecord
  2
ACAD_EXEMPT_FROM_CAD_STANDARDS
 70
     0
  0
ENDTAB
  0
TABLE
  2
DIMSTYLE
  5
A
330
0
100
AcDbSymbolTable
 70
     1
100
AcDbDimStyleTable
 71
     0
  0
DIMSTYLE
105
1D
102
{ACAD_REACTORS
330
7B85
330
7B92
330
7B9E
330
7C0C
330
7C18
330
7C25
330
7C32
330
7C5E
330
7C6B
330
7C79
330
7CA4
330
7D00
330
7E32
330
7E3F
330
7E4C
330
7E59
330
7E68
330
7E75
330
7E82
102
}
330
A
100
AcDbSymbolTableRecord
100
AcDbDimStyleTableRecord
  2
IGA
 70
     0
 40
2.0
 41
2.0
 42
0.5
 43
10.0
 44
1.0
 47
1.0
 48
1.0
 73
     0
 74
     0
 77
     1
 78
     8
140
3.0
141
0.0
143
0.03937
146
10.0
147
1.0
173
     1
271
     1
272
     0
279
     2
284
     8
340
10
341
7B59
343
7B59
344
7B59
  0
ENDTAB
  0
TABLE
  2
BLOCK_RECORD
  5
1
330
0
100
AcDbSymbolTable
 70
    21
  0
BLOCK_RECORD
  5
19
102
{ACAD_XDICTIONARY
360
7EB9
102
}
330
1
100
AcDbSymbolTableRecord
100
AcDbBlockTableRecord
  2
*MODEL_SPACE
340
7E8E
 70
     0
280
     1
281
     0
  0
BLOCK_RECORD
  5
16
102
{ACAD_XDICTIONARY
360
7EB7
102
}
330
1
100
AcDbSymbolTableRecord
100
AcDbBlockTableRecord
  2
*PAPER_SPACE
340
7E8F
 70
     0
280
     1
281
     0
  0
BLOCK_RECORD
  5
7B59
330
1
100
AcDbSymbolTableRecord
100
AcDbBlockTableRecord
  2
_OPEN
340
0
102
{BLKREFS
331
7EC2
331
7EC3
331
7ECB
331
7ECC
331
7ED3
331
7ED4
331
7EDC
331
7EDD
331
7EE4
331
7EE5
331
7EED
331
7EEE
331
7EF6
331
7EF7
331
7EFF
331
7F00
331
7F11
331
7F12
331
7F19
331
7F1A
331
7F22
331
7F23
331
7FD0
331
7FD1
331
7FD9
331
7FDA
331
7FE2
331
7FE3
331
7FEB
331
7FEC
331
7FF4
331
7FF5
331
8012
331
801B
331
8054
331
8055
102
}
 70
     0
280
     1
281
     0
  0
BLOCK_RECORD
  5
7B79
330
1
100
AcDbSymbolTableRecord
100
AcDbBlockTableRecord
  2
*D1
340
0
 70
     0
280
     1
281
     0
  0
BLOCK_RECORD
  5
7B86
330
1
100
AcDbSymbolTableRecord
100
AcDbBlockTableRecord
  2
*D2
340
0
 70
     0
280
     1
281
     0
  0
BLOCK_RECORD
  5
7B93
330
1
100
AcDbSymbolTableRecord
100
AcDbBlockTableRecord
  2
*D3
340
0
 70
     0
280
     1
281
     0
  0
BLOCK_RECORD
  5
7C00
330
1
100
AcDbSymbolTableRecord
100
AcDbBlockTableRecord
  2
*D4
340
0
 70
     0
280
     1
281
     0
  0
BLOCK_RECORD
  5
7C0D
330
1
100
AcDbSymbolTableRecord
100
AcDbBlockTableRecord
  2
*D5
340
0
 70
     0
280
     1
281
     0
  0
BLOCK_RECORD
  5
7C19
330
1
100
AcDbSymbolTableRecord
100
AcDbBlockTableRecord
  2
*D6
340
0
 70
     0
280
     1
281
     0
  0
BLOCK_RECORD
  5
7C26
330
1
100
AcDbSymbolTableRecord
100
AcDbBlockTableRecord
  2
*D7
340
0
 70
     0
280
     1
281
     0
  0
BLOCK_RECORD
  5
7C52
330
1
100
AcDbSymbolTableRecord
100
AcDbBlockTableRecord
  2
*D8
340
0
 70
     0
280
     1
281
     0
  0
BLOCK_RECORD
  5
7C5F
330
1
100
AcDbSymbolTableRecord
100
AcDbBlockTableRecord
  2
*D9
340
0
 70
     0
280
     1
281
     0
  0
BLOCK_RECORD
  5
7C6C
330
1
100
AcDbSymbolTableRecord
100
AcDbBlockTableRecord
  2
*D10
340
0
 70
     0
280
     1
281
     0
  0
BLOCK_RECORD
  5
7C98
330
1
100
AcDbSymbolTableRecord
100
AcDbBlockTableRecord
  2
*D11
340
0
 70
     0
280
     1
281
     0
  0
BLOCK_RECORD
  5
7CF4
330
1
100
AcDbSymbolTableRecord
100
AcDbBlockTableRecord
  2
*D12
340
0
 70
     0
280
     1
281
     0
  0
BLOCK_RECORD
  5
7DEB
330
1
100
AcDbSymbolTableRecord
100
AcDbBlockTableRecord
  2
_DOT
340
0
102
{BLKREFS
331
8011
331
801A
102
}
 70
     0
280
     1
281
     0
  0
BLOCK_RECORD
  5
7E26
330
1
100
AcDbSymbolTableRecord
100
AcDbBlockTableRecord
  2
*D14
340
0
 70
     0
280
     1
281
     0
  0
BLOCK_RECORD
  5
7E33
330
1
100
AcDbSymbolTableRecord
100
AcDbBlockTableRecord
  2
*D15
340
0
 70
     0
280
     1
281
     0
  0
BLOCK_RECORD
  5
7E40
330
1
100
AcDbSymbolTableRecord
100
AcDbBlockTableRecord
  2
*D16
340
0
 70
     0
280
     1
281
     0
  0
BLOCK_RECORD
  5
7E4D
330
1
100
AcDbSymbolTableRecord
100
AcDbBlockTableRecord
  2
*D17
340
0
 70
     0
280
     1
281
     0
  0
BLOCK_RECORD
  5
7E5A
330
1
100
AcDbSymbolTableRecord
100
AcDbBlockTableRecord
  2
*D18
340
0
 70
     0
280
     1
281
     0
  0
BLOCK_RECORD
  5
7E69
330
1
100
AcDbSymbolTableRecord
100
AcDbBlockTableRecord
  2
*D19
340
0
 70
     0
280
     1
281
     0
  0
BLOCK_RECORD
  5
7E76
330
1
100
AcDbSymbolTableRecord
100
AcDbBlockTableRecord
  2
*D20
340
0
 70
     0
280
     1
281
     0
  0
ENDTAB
  0
ENDSEC
  0
SECTION
  2
BLOCKS
  0
BLOCK
  5
1A
330
19
100
AcDbEntity
  8
0
100
AcDbBlockBegin
  2
*MODEL_SPACE
 70
     0
 10
0.0
 20
0.0
 30
0.0
  3
*MODEL_SPACE
  1

  0
ENDBLK
  5
1B
330
19
100
AcDbEntity
  8
0
100
AcDbBlockEnd
  0
BLOCK
  5
17
330
16
100
AcDbEntity
 67
     1
  8
0
100
AcDbBlockBegin
  2
*PAPER_SPACE
 70
     0
 10
0.0
 20
0.0
 30
0.0
  3
*PAPER_SPACE
  1

  0
ENDBLK
  5
18
330
16
100
AcDbEntity
 67
     1
  8
0
100
AcDbBlockEnd
  0
BLOCK
  5
7B5A
330
7B59
100
AcDbEntity
  8
0
100
AcDbBlockBegin
  2
_OPEN
 70
     0
 10
0.0
 20
0.0
 30
0.0
  3
_OPEN
  1

  0
LINE
  5
7B5B
330
7B59
100
AcDbEntity
  8
0
  6
ByBlock
 62
     0
100
AcDbLine
 10
-1.0
 20
0.166667
 30
0.0
 11
0.0
 21
0.0
 31
0.0
  0
LINE
  5
7B5C
330
7B59
100
AcDbEntity
  8
0
  6
ByBlock
 62
     0
100
AcDbLine
 10
0.0
 20
0.0
 30
0.0
 11
-1.0
 21
-0.166667
 31
0.0
  0
LINE
  5
7B5D
330
7B59
100
AcDbEntity
  8
0
  6
ByBlock
 62
     0
100
AcDbLine
 10
0.0
 20
0.0
 30
0.0
 11
-1.0
 21
0.0
 31
0.0
  0
ENDBLK
  5
7B5E
330
7B59
100
AcDbEntity
  8
0
100
AcDbBlockEnd
  0
BLOCK
  5
7D6E
330
7B79
100
AcDbEntity
  8
0
100
AcDbBlockBegin
  2
*D1
 70
     1
 10
0.0
 20
0.0
 30
0.0
  3
*D1
  1

  0
LINE
  5
7EBF
330
7B79
100
AcDbEntity
  8
3
  6
Continuous
 62
     0
440
 16777216
100
AcDbLine
 10
521.9641099999998
 20
1162.640653559477
 30
0.0
 11
479.4021550000002
 21
1162.640653559477
 31
0.0
  0
LINE
  5
7EC0
330
7B79
100
AcDbEntity
  8
3
  6
Continuous
 62
     0
440
 16777216
100
AcDbLine
 10
521.9641099999998
 20
912.6406535594767
 30
0.0
 11
479.4021550000001
 21
912.6406535594767
 31
0.0
  0
LINE
  5
7EC1
330
7B79
100
AcDbEntity
  8
3
  6
Continuous
 62
     0
440
 16777216
100
AcDbLine
 10
489.4021550000001
 20
1142.640653559477
 30
0.0
 11
489.4021550000001
 21
932.6406535594767
 31
0.0
  0
INSERT
  5
7EC2
330
7B79
100
AcDbEntity
  8
3
  6
Continuous
 62
     0
440
 16777216
100
AcDbBlockReference
  2
_OPEN
 10
489.4021550000002
 20
1162.640653559477
 30
0.0
 41
20.0
 42
20.0
 43
20.0
 50
90.0
  0
INSERT
  5
7EC3
330
7B79
100
AcDbEntity
  8
3
  6
Continuous
 62
     0
440
 16777216
100
AcDbBlockReference
  2
_OPEN
 10
489.4021550000001
 20
912.6406535594767
 30
0.0
 41
20.0
 42
20.0
 43
20.0
 50
270.0
  0
MTEXT
  5
7EC4
330
7B79
100
AcDbEntity
  8
3
  6
Continuous
 62
     0
440
 16777216
100
AcDbMText
 10
464.4021549999999
 20
1044.259863559477
 30
0.0
 40
30.0
 41
0.0
 46
0.0
 71
     5
 72
     5
  1
\A1;250
 11
0.0000000000000001
 21
1.0
 31
0.0
 73
     1
 44
1.0
  0
POINT
  5
7EC5
330
7B79
100
AcDbEntity
  8
DEFPOINTS
  6
Continuous
 62
     0
440
 16777216
100
AcDbPoint
 10
526.9641099999999
 20
1162.640653559477
 30
0.0
  0
POINT
  5
7EC6
330
7B79
100
AcDbEntity
  8
DEFPOINTS
  6
Continuous
 62
     0
440
 16777216
100
AcDbPoint
 10
526.9641099999999
 20
912.6406535594767
 30
0.0
  0
POINT
  5
7EC7
330
7B79
100
AcDbEntity
  8
DEFPOINTS
  6
Continuous
 62
     0
440
 16777216
100
AcDbPoint
 10
489.4021550000001
 20
912.6406535594767
 30
0.0
  0
ENDBLK
  5
7D78
330
7B79
100
AcDbEntity
  8
0
100
AcDbBlockEnd
  0
BLOCK
  5
7D79
330
7B86
100
AcDbEntity
  8
0
100
AcDbBlockBegin
  2
*D2
 70
     1
 10
0.0
 20
0.0
 30
0.0
  3
*D2
  1

  0
LINE
  5
7EC8
330
7B86
100
AcDbEntity
  8
3
  6
Continuous
 62
     0
440
 16777216
100
AcDbLine
 10
721.9641099999998
 20
1348.630037559477
 30
0.0
 11
352.5278820000001
 21
1348.630037559477
 31
0.0
  0
LINE
  5
7EC9
330
7B86
100
AcDbEntity
  8
3
  6
Continuous
 62
     0
440
 16777216
100
AcDbLine
 10
521.9641099999998
 20
1162.640653559477
 30
0.0
 11
352.5278820000001
 21
1162.640653559477
 31
0.0
  0
LINE
  5
7ECA
330
7B86
100
AcDbEntity
  8
3
  6
Continuous
 62
     0
440
 16777216
100
AcDbLine
 10
362.5278820000001
 20
1328.630037559477
 30
0.0
 11
362.5278820000001
 21
1182.640653559477
 31
0.0
  0
INSERT
  5
7ECB
330
7B86
100
AcDbEntity
  8
3
  6
Continuous
 62
     0
440
 16777216
100
AcDbBlockReference
  2
_OPEN
 10
362.5278820000001
 20
1348.630037559477
 30
0.0
 41
20.0
 42
20.0
 43
20.0
 50
90.0
  0
INSERT
  5
7ECC
330
7B86
100
AcDbEntity
  8
3
  6
Continuous
 62
     0
440
 16777216
100
AcDbBlockReference
  2
_OPEN
 10
362.5278820000001
 20
1162.640653559477
 30
0.0
 41
20.0
 42
20.0
 43
20.0
 50
270.0
  0
MTEXT
  5
7ECD
330
7B86
100
AcDbEntity
  8
3
  6
Continuous
 62
     0
440
 16777216
100
AcDbMText
 10
337.5278819999999
 20
1245.957514559477
 30
0.0
 40
30.0
 41
0.0
 46
0.0
 71
     5
 72
     5
  1
\A1;186
 11
0.0000000000000001
 21
1.0
 31
0.0
 73
     1
 44
1.0
  0
POINT
  5
7ECE
330
7B86
100
AcDbEntity
  8
DEFPOINTS
  6
Continuous
 62
     0
440
 16777216
100
AcDbPoint
 10
726.9641099999999
 20
1348.630037559477
 30
0.0
  0
POINT
  5
7ECF
330
7B86
100
AcDbEntity
  8
DEFPOINTS
  6
Continuous
 62
     0
440
 16777216
100
AcDbPoint
 10
526.9641099999999
 20
1162.640653559477
 30
0.0
  0
POINT
  5
7ED0
330
7B86
100
AcDbEntity
  8
DEFPOINTS
  6
Continuous
 62
     0
440
 16777216
100
AcDbPoint
 10
362.5278820000001
 20
1162.640653559477
 30
0.0
  0
ENDBLK
  5
7D83
330
7B86
100
AcDbEntity
  8
0
100
AcDbBlockEnd
  0
BLOCK
  5
7D84
330
7B93
100
AcDbEntity
  8
0
100
AcDbBlockBegin
  2
*D3
 70
     1
 10
0.0
 20
0.0
 30
0.0
  3
*D3
  1

  0
LINE
  5
7ED1
330
7B93
100
AcDbEntity
  8
3
  6
Continuous
 62
     0
440
 16777216
100
AcDbLine
 10
531.9641099999999
 20
847.6406535594769
 30
0.0
 11
352.5278819999999
 21
847.6406535594769
 31
0.0
  0
LINE
  5
7ED2
330
7B93
100
AcDbEntity
  8
3
  6
Continuous
 62
     0
440
 16777216
100
AcDbLine
 10
362.5278819999999
 20
1142.640653559477
 30
0.0
 11
362.5278819999999
 21
867.6406535594768
 31
0.0
  0
INSERT
  5
7ED3
330
7B93
100
AcDbEntity
  8
3
  6
Continuous
 62
     0
440
 16777216
100
AcDbBlockReference
  2
_OPEN
 10
362.527882
 20
1162.640653559477
 30
0.0
 41
20.0
 42
20.0
 43
20.0
 50
90.0
  0
INSERT
  5
7ED4
330
7B93
100
AcDbEntity
  8
3
  6
Continuous
 62
     0
440
 16777216
100
AcDbBlockReference
  2
_OPEN
 10
362.5278819999999
 20
847.6406535594769
 30
0.0
 41
20.0
 42
20.0
 43
20.0
 50
270.0
  0
MTEXT
  5
7ED5
330
7B93
100
AcDbEntity
  8
3
  6
Continuous
 62
     0
440
 16777216
100
AcDbMText
 10
337.5278819999997
 20
1005.140653559477
 30
0.0
 40
30.0
 41
0.0
 46
0.0
 71
     5
 72
     5
  1
\A1;315
 11
0.0000000000000001
 21
1.0
 31
0.0
 73
     1
 44
1.0
  0
POINT
  5
7ED6
330
7B93
100
AcDbEntity
  8
DEFPOINTS
  6
Continuous
 62
     0
440
 16777216
100
AcDbPoint
 10
526.9641099999999
 20
1162.640653559477
 30
0.0
  0
POINT
  5
7ED7
330
7B93
100
AcDbEntity
  8
DEFPOINTS
  6
Continuous
 62
     0
440
 16777216
100
AcDbPoint
 10
536.9641099999999
 20
847.6406535594769
 30
0.0
  0
POINT
  5
7ED8
330
7B93
100
AcDbEntity
  8
DEFPOINTS
  6
Continuous
 62
     0
440
 16777216
100
AcDbPoint
 10
362.5278819999999
 20
847.6406535594769
 30
0.0
  0
ENDBLK
  5
7D8D
330
7B93
100
AcDbEntity
  8
0
100
AcDbBlockEnd
  0
BLOCK
  5
7C01
330
7C00
100
AcDbEntity
  8
0
100
AcDbBlockBegin
  2
*D4
 70
     1
 10
0.0
 20
0.0
 30
0.0
  3
*D4
  1

  0
LINE
  5
7ED9
330
7C00
100
AcDbEntity
  8
3
  6
Continuous
 62
     0
440
 16777216
100
AcDbLine
 10
526.9641099999999
 20
1188.640653559477
 30
0.0
 11
526.9641099999999
 21
1413.742835559476
 31
0.0
  0
LINE
  5
7EDA
330
7C00
100
AcDbEntity
  8
3
  6
Continuous
 62
     0
440
 16777216
100
AcDbLine
 10
726.9641099999999
 20
1353.630037559476
 30
0.0
 11
726.9641099999999
 21
1413.742835559476
 31
0.0
  0
LINE
  5
7EDB
330
7C00
100
AcDbEntity
  8
3
  6
Continuous
 62
     0
440
 16777216
100
AcDbLine
 10
546.9641099999998
 20
1403.742835559477
 30
0.0
 11
706.9641099999999
 21
1403.742835559477
 31
0.0
  0
INSERT
  5
7EDC
330
7C00
100
AcDbEntity
  8
3
  6
Continuous
 62
     0
440
 16777216
100
AcDbBlockReference
  2
_OPEN
 10
526.9641099999999
 20
1403.742835559477
 30
0.0
 41
20.0
 42
20.0
 43
20.0
 50
180.0
  0
INSERT
  5
7EDD
330
7C00
100
AcDbEntity
  8
3
  6
Continuous
 62
     0
440
 16777216
100
AcDbBlockReference
  2
_OPEN
 10
726.9641099999999
 20
1403.742835559477
 30
0.0
 41
20.0
 42
20.0
 43
20.0
  0
MTEXT
  5
7EDE
330
7C00
100
AcDbEntity
  8
3
  6
Continuous
 62
     0
440
 16777216
100
AcDbMText
 10
615.6123360000001
 20
1428.742835559477
 30
0.0
 40
30.0
 41
0.0
 46
0.0
 71
     5
 72
     5
  1
\A1;200
 73
     1
 44
1.0
  0
POINT
  5
7EDF
330
7C00
100
AcDbEntity
  8
DEFPOINTS
  6
Continuous
 62
     0
440
 16777216
100
AcDbPoint
 10
526.9641099999999
 20
1183.640653559477
 30
0.0
  0
POINT
  5
7EE0
330
7C00
100
AcDbEntity
  8
DEFPOINTS
  6
Continuous
 62
     0
440
 16777216
100
AcDbPoint
 10
726.9641099999999
 20
1348.630037559477
 30
0.0
  0
POINT
  5
7EE1
330
7C00
100
AcDbEntity
  8
DEFPOINTS
  6
Continuous
 62
     0
440
 16777216
100
AcDbPoint
 10
726.9641099999999
 20
1403.742835559477
 30
0.0
  0
ENDBLK
  5
7C0B
330
7C00
100
AcDbEntity
  8
0
100
AcDbBlockEnd
  0
BLOCK
  5
7C0E
330
7C0D
100
AcDbEntity
  8
0
100
AcDbBlockBegin
  2
*D5
 70
     1
 10
0.0
 20
0.0
 30
0.0
  3
*D5
  1

  0
LINE
  5
7EE2
330
7C0D
100
AcDbEntity
  8
3
  6
Continuous
 62
     0
440
 16777216
100
AcDbLine
 10
946.9534939999999
 20
1167.640653559476
 30
0.0
 11
946.9534939999999
 21
1413.742835559476
 31
0.0
  0
LINE
  5
7EE3
330
7C0D
100
AcDbEntity
  8
3
  6
Continuous
 62
     0
440
 16777216
100
AcDbLine
 10
746.9641099999998
 20
1403.742835559477
 30
0.0
 11
926.9534939999998
 21
1403.742835559477
 31
0.0
  0
INSERT
  5
7EE4
330
7C0D
100
AcDbEntity
  8
3
  6
Continuous
 62
     0
440
 16777216
100
AcDbBlockReference
  2
_OPEN
 10
726.9641099999999
 20
1403.742835559477
 30
0.0
 41
20.0
 42
20.0
 43
20.0
 50
180.0
  0
INSERT
  5
7EE5
330
7C0D
100
AcDbEntity
  8
3
  6
Continuous
 62
     0
440
 16777216
100
AcDbBlockReference
  2
_OPEN
 10
946.9534939999999
 20
1403.742835559477
 30
0.0
 41
20.0
 42
20.0
 43
20.0
  0
MTEXT
  5
7EE6
330
7C0D
100
AcDbEntity
  8
3
  6
Continuous
 62
     0
440
 16777216
100
AcDbMText
 10
836.9588019999998
 20
1428.742835559477
 30
0.0
 40
30.0
 41
0.0
 46
0.0
 71
     5
 72
     5
  1
\A1;220
 73
     1
 44
1.0
  0
POINT
  5
7EE7
330
7C0D
100
AcDbEntity
  8
DEFPOINTS
  6
Continuous
 62
     0
440
 16777216
100
AcDbPoint
 10
726.9641099999999
 20
1348.630037559477
 30
0.0
  0
POINT
  5
7EE8
330
7C0D
100
AcDbEntity
  8
DEFPOINTS
  6
Continuous
 62
     0
440
 16777216
100
AcDbPoint
 10
946.9534939999999
 20
1162.640653559477
 30
0.0
  0
POINT
  5
7EE9
330
7C0D
100
AcDbEntity
  8
DEFPOINTS
  6
Continuous
 62
     0
440
 16777216
100
AcDbPoint
 10
946.9534939999999
 20
1403.742835559477
 30
0.0
  0
ENDBLK
  5
7C17
330
7C0D
100
AcDbEntity
  8
0
100
AcDbBlockEnd
  0
BLOCK
  5
7C1A
330
7C19
100
AcDbEntity
  8
0
100
AcDbBlockBegin
  2
*D6
 70
     1
 10
0.0
 20
0.0
 30
0.0
  3
*D6
  1

  0
LINE
  5
7EEA
330
7C19
100
AcDbEntity
  8
3
  6
Continuous
 62
     0
440
 16777216
100
AcDbLine
 10
506.9641099999999
 20
1765.925633951863
 30
0.0
 11
506.9641099999999
 21
1638.925192951863
 31
0.0
  0
LINE
  5
7EEB
330
7C19
100
AcDbEntity
  8
3
  6
Continuous
 62
     0
440
 16777216
100
AcDbLine
 10
1276.96411
 20
1765.925633951863
 30
0.0
 11
1276.96411
 21
1638.925192951863
 31
0.0
  0
LINE
  5
7EEC
330
7C19
100
AcDbEntity
  8
3
  6
Continuous
 62
     0
440
 16777216
100
AcDbLine
 10
526.9641099999999
 20
1648.925192951864
 30
0.0
 11
1256.96411
 21
1648.925192951864
 31
0.0
  0
INSERT
  5
7EED
330
7C19
100
AcDbEntity
  8
3
  6
Continuous
 62
     0
440
 16777216
100
AcDbBlockReference
  2
_OPEN
 10
506.9641099999999
 20
1648.925192951864
 30
0.0
 41
20.0
 42
20.0
 43
20.0
 50
180.0
  0
INSERT
  5
7EEE
330
7C19
100
AcDbEntity
  8
3
  6
Continuous
 62
     0
440
 16777216
100
AcDbBlockReference
  2
_OPEN
 10
1276.96411
 20
1648.925192951864
 30
0.0
 41
20.0
 42
20.0
 43
20.0
  0
MTEXT
  5
7EEF
330
7C19
100
AcDbEntity
  8
3
  6
Continuous
 62
     0
440
 16777216
100
AcDbMText
 10
862.1171180000001
 20
1673.925192951864
 30
0.0
 40
30.0
 41
0.0
 46
0.0
 71
     5
 72
     5
  1
\A1;770
 73
     1
 44
1.0
  0
POINT
  5
7EF0
330
7C19
100
AcDbEntity
  8
DEFPOINTS
  6
Continuous
 62
     0
440
 16777216
100
AcDbPoint
 10
506.9641099999999
 20
1770.925633951863
 30
0.0
  0
POINT
  5
7EF1
330
7C19
100
AcDbEntity
  8
DEFPOINTS
  6
Continuous
 62
     0
440
 16777216
100
AcDbPoint
 10
1276.96411
 20
1770.925633951863
 30
0.0
  0
POINT
  5
7EF2
330
7C19
100
AcDbEntity
  8
DEFPOINTS
  6
Continuous
 62
     0
440
 16777216
100
AcDbPoint
 10
1276.96411
 20
1648.925192951864
 30
0.0
  0
ENDBLK
  5
7C24
330
7C19
100
AcDbEntity
  8
0
100
AcDbBlockEnd
  0
BLOCK
  5
7CA7
330
7C26
100
AcDbEntity
  8
0
100
AcDbBlockBegin
  2
*D7
 70
     1
 10
0.0
 20
0.0
 30
0.0
  3
*D7
  1

  0
LINE
  5
7EF3
330
7C26
100
AcDbEntity
  8
3
  6
Continuous
 62
     0
440
 16777216
100
AcDbLine
 10
1281.96411
 20
2250.925633951864
 30
0.0
 11
1397.939216
 21
2250.925633951864
 31
0.0
  0
LINE
  5
7EF4
330
7C26
100
AcDbEntity
  8
3
  6
Continuous
 62
     0
440
 16777216
100
AcDbLine
 10
1281.96411
 20
1770.925633951863
 30
0.0
 11
1397.939216
 21
1770.925633951863
 31
0.0
  0
LINE
  5
7EF5
330
7C26
100
AcDbEntity
  8
3
  6
Continuous
 62
     0
440
 16777216
100
AcDbLine
 10
1387.939216
 20
2230.925633951864
 30
0.0
 11
1387.939216
 21
1790.925633951863
 31
0.0
  0
INSERT
  5
7EF6
330
7C26
100
AcDbEntity
  8
3
  6
Continuous
 62
     0
440
 16777216
100
AcDbBlockReference
  2
_OPEN
 10
1387.939216
 20
2250.925633951864
 30
0.0
 41
20.0
 42
20.0
 43
20.0
 50
90.0
  0
INSERT
  5
7EF7
330
7C26
100
AcDbEntity
  8
3
  6
Continuous
 62
     0
440
 16777216
100
AcDbBlockReference
  2
_OPEN
 10
1387.939216
 20
1770.925633951863
 30
0.0
 41
20.0
 42
20.0
 43
20.0
 50
270.0
  0
MTEXT
  5
7EF8
330
7C26
100
AcDbEntity
  8
3
  6
Continuous
 62
     0
440
 16777216
100
AcDbMText
 10
1362.939216
 20
2000.213125951864
 30
0.0
 40
30.0
 41
0.0
 46
0.0
 71
     5
 72
     5
  1
\A1;480
 11
0.0000000000000001
 21
1.0
 31
0.0
 73
     1
 44
1.0
  0
POINT
  5
7EF9
330
7C26
100
AcDbEntity
  8
DEFPOINTS
  6
Continuous
 62
     0
440
 16777216
100
AcDbPoint
 10
1276.96411
 20
2250.925633951864
 30
0.0
  0
POINT
  5
7EFA
330
7C26
100
AcDbEntity
  8
DEFPOINTS
  6
Continuous
 62
     0
440
 16777216
100
AcDbPoint
 10
1276.96411
 20
1770.925633951863
 30
0.0
  0
POINT
  5
7EFB
330
7C26
100
AcDbEntity
  8
DEFPOINTS
  6
Continuous
 62
     0
440
 16777216
100
AcDbPoint
 10
1387.939216
 20
1770.925633951863
 30
0.0
  0
ENDBLK
  5
7CB1
330
7C26
100
AcDbEntity
  8
0
100
AcDbBlockEnd
  0
BLOCK
  5
7C53
330
7C52
100
AcDbEntity
  8
0
100
AcDbBlockBegin
  2
*D8
 70
     1
 10
0.0
 20
0.0
 30
0.0
  3
*D8
  1

  0
LINE
  5
7EFC
330
7C52
100
AcDbEntity
  8
3
  6
Continuous
 62
     0
440
 16777216
100
AcDbLine
 10
1604.527137
 20
1366.540653559477
 30
0.0
 11
1604.527137
 21
1435.176478559476
 31
0.0
  0
LINE
  5
7EFD
330
7C52
100
AcDbEntity
  8
3
  6
Continuous
 62
     0
440
 16777216
100
AcDbLine
 10
1784.527137
 20
1366.540653559477
 30
0.0
 11
1784.527137
 21
1435.176478559476
 31
0.0
  0
LINE
  5
7EFE
330
7C52
100
AcDbEntity
  8
3
  6
Continuous
 62
     0
440
 16777216
100
AcDbLine
 10
1624.527137
 20
1425.176478559477
 30
0.0
 11
1764.527137
 21
1425.176478559477
 31
0.0
  0
INSERT
  5
7EFF
330
7C52
100
AcDbEntity
  8
3
  6
Continuous
 62
     0
440
 16777216
100
AcDbBlockReference
  2
_OPEN
 10
1604.527137
 20
1425.176478559477
 30
0.0
 41
20.0
 42
20.0
 43
20.0
 50
180.0
  0
INSERT
  5
7F00
330
7C52
100
AcDbEntity
  8
3
  6
Continuous
 62
     0
440
 16777216
100
AcDbBlockReference
  2
_OPEN
 10
1784.527137
 20
1425.176478559477
 30
0.0
 41
20.0
 42
20.0
 43
20.0
  0
MTEXT
  5
7F01
330
7C52
100
AcDbEntity
  8
3
  6
Continuous
 62
     0
440
 16777216
100
AcDbMText
 10
1684.800909
 20
1450.176478559477
 30
0.0
 40
30.0
 41
0.0
 46
0.0
 71
     5
 72
     5
  1
\A1;180
 73
     1
 44
1.0
  0
POINT
  5
7F02
330
7C52
100
AcDbEntity
  8
DEFPOINTS
  6
Continuous
 62
     0
440
 16777216
100
AcDbPoint
 10
1604.527137
 20
1361.540653559477
 30
0.0
  0
POINT
  5
7F03
330
7C52
100
AcDbEntity
  8
DEFPOINTS
  6
Continuous
 62
     0
440
 16777216
100
AcDbPoint
 10
1784.527137
 20
1361.540653559477
 30
0.0
  0
POINT
  5
7F04
330
7C52
100
AcDbEntity
  8
DEFPOINTS
  6
Continuous
 62
     0
440
 16777216
100
AcDbPoint
 10
1784.527137
 20
1425.176478559477
 30
0.0
  0
ENDBLK
  5
7C5D
330
7C52
100
AcDbEntity
  8
0
100
AcDbBlockEnd
  0
BLOCK
  5
7DBB
330
7C5F
100
AcDbEntity
  8
0
100
AcDbBlockBegin
  2
*D9
 70
     1
 10
0.0
 20
0.0
 30
0.0
  3
*D9
  1

  0
LINE
  5
8051
330
7C5F
100
AcDbEntity
  8
3
  6
Continuous
 62
     0
440
 16777216
370
    -2
100
AcDbLine
 10
1354.527137
 20
1292.640653559477
 30
0.0
 11
1354.527137
 21
1496.105980559477
 31
0.0
  0
LINE
  5
8052
330
7C5F
100
AcDbEntity
  8
3
  6
Continuous
 62
     0
440
 16777216
370
    -2
100
AcDbLine
 10
1694.527137
 20
1480.452825559477
 30
0.0
 11
1694.527137
 21
1496.105980559477
 31
0.0
  0
LINE
  5
8053
330
7C5F
100
AcDbEntity
  8
3
  6
Continuous
 62
     0
440
 16777216
370
    -2
100
AcDbLine
 10
1374.527137
 20
1486.105980559477
 30
0.0
 11
1674.527137
 21
1486.105980559477
 31
0.0
  0
INSERT
  5
8054
330
7C5F
100
AcDbEntity
  8
3
  6
Continuous
 62
     0
440
 16777216
370
    -2
100
AcDbBlockReference
  2
_OPEN
 10
1354.527137
 20
1486.105980559477
 30
0.0
 41
20.0
 42
20.0
 43
20.0
 50
180.0
  0
INSERT
  5
8055
330
7C5F
100
AcDbEntity
  8
3
  6
Continuous
 62
     0
440
 16777216
370
    -2
100
AcDbBlockReference
  2
_OPEN
 10
1694.527137
 20
1486.105980559477
 30
0.0
 41
20.0
 42
20.0
 43
20.0
  0
MTEXT
  5
8056
330
7C5F
100
AcDbEntity
  8
3
  6
Continuous
 62
     0
440
 16777216
100
AcDbMText
 10
1529.157574
 20
1518.96312341662
 30
0.0
 40
30.0
 41
0.0
 46
0.0
 71
     5
 72
     1
  1
\A1;(340)
 73
     1
 44
1.0
  0
POINT
  5
8057
330
7C5F
100
AcDbEntity
  8
DEFPOINTS
  6
Continuous
 62
     0
440
 16777216
100
AcDbPoint
 10
1354.527137
 20
1287.640653559477
 30
0.0
  0
POINT
  5
8058
330
7C5F
100
AcDbEntity
  8
DEFPOINTS
  6
Continuous
 62
     0
440
 16777216
100
AcDbPoint
 10
1694.527137
 20
1475.452825559477
 30
0.0
  0
POINT
  5
8059
330
7C5F
100
AcDbEntity
  8
DEFPOINTS
  6
Continuous
 62
     0
440
 16777216
100
AcDbPoint
 10
1694.527137
 20
1486.105980559477
 30
0.0
  0
ENDBLK
  5
7DC5
330
7C5F
100
AcDbEntity
  8
0
100
AcDbBlockEnd
  0
BLOCK
  5
7D06
330
7C6C
100
AcDbEntity
  8
0
100
AcDbBlockBegin
  2
*D10
 70
     1
 10
0.0
 20
0.0
 30
0.0
  3
*D10
  1

  0
LINE
  5
7F0E
330
7C6C
100
AcDbEntity
  8
3
  6
Continuous
 62
     0
440
 16777216
100
AcDbLine
 10
1793.527137
 20
1314.640653559477
 30
0.0
 11
1793.527137
 21
1496.105980559477
 31
0.0
  0
LINE
  5
7F0F
330
7C6C
100
AcDbEntity
  8
3
  6
Continuous
 62
     0
440
 16777216
100
AcDbLine
 10
1714.527137
 20
1486.105980559477
 30
0.0
 11
1773.527137
 21
1486.105980559477
 31
0.0
  0
MTEXT
  5
7F10
330
7C6C
100
AcDbEntity
  8
3
  6
Continuous
 62
     0
440
 16777216
100
AcDbMText
 10
1739.486406
 20
1511.105980559477
 30
0.0
 40
30.0
 41
0.0
 46
0.0
 71
     5
 72
     5
  1
\A1;99
 73
     1
 44
1.0
  0
INSERT
  5
7F11
330
7C6C
100
AcDbEntity
  8
3
  6
Continuous
 62
     0
440
 16777216
100
AcDbBlockReference
  2
_OPEN
 10
1694.527137
 20
1486.105980559477
 30
0.0
 41
20.0
 42
20.0
 43
20.0
 50
180.0
  0
INSERT
  5
7F12
330
7C6C
100
AcDbEntity
  8
3
  6
Continuous
 62
     0
440
 16777216
100
AcDbBlockReference
  2
_OPEN
 10
1793.527137
 20
1486.105980559477
 30
0.0
 41
20.0
 42
20.0
 43
20.0
  0
POINT
  5
7F13
330
7C6C
100
AcDbEntity
  8
DEFPOINTS
  6
Continuous
 62
     0
440
 16777216
100
AcDbPoint
 10
1694.527137
 20
1475.452825559477
 30
0.0
  0
POINT
  5
7F14
330
7C6C
100
AcDbEntity
  8
DEFPOINTS
  6
Continuous
 62
     0
440
 16777216
100
AcDbPoint
 10
1793.527137
 20
1309.640653559476
 30
0.0
  0
POINT
  5
7F15
330
7C6C
100
AcDbEntity
  8
DEFPOINTS
  6
Continuous
 62
     0
440
 16777216
100
AcDbPoint
 10
1793.527137
 20
1486.105980559477
 30
0.0
  0
ENDBLK
  5
7D0F
330
7C6C
100
AcDbEntity
  8
0
100
AcDbBlockEnd
  0
BLOCK
  5
7DC6
330
7C98
100
AcDbEntity
  8
0
100
AcDbBlockBegin
  2
*D11
 70
     1
 10
0.0
 20
0.0
 30
0.0
  3
*D11
  1

  0
LINE
  5
7F16
330
7C98
100
AcDbEntity
  8
3
  6
Continuous
 62
     0
440
 16777216
100
AcDbLine
 10
1798.527137
 20
1287.640653559477
 30
0.0
 11
1880.468293
 21
1287.640653559477
 31
0.0
  0
LINE
  5
7F17
330
7C98
100
AcDbEntity
  8
3
  6
Continuous
 62
     0
440
 16777216
100
AcDbLine
 10
1798.527137
 20
1037.640653559477
 30
0.0
 11
1880.468293
 21
1037.640653559477
 31
0.0
  0
LINE
  5
7F18
330
7C98
100
AcDbEntity
  8
3
  6
Continuous
 62
     0
440
 16777216
100
AcDbLine
 10
1870.468293
 20
1267.640653559477
 30
0.0
 11
1870.468293
 21
1057.640653559476
 31
0.0
  0
INSERT
  5
7F19
330
7C98
100
AcDbEntity
  8
3
  6
Continuous
 62
     0
440
 16777216
100
AcDbBlockReference
  2
_OPEN
 10
1870.468293
 20
1287.640653559477
 30
0.0
 41
20.0
 42
20.0
 43
20.0
 50
90.0
  0
INSERT
  5
7F1A
330
7C98
100
AcDbEntity
  8
3
  6
Continuous
 62
     0
440
 16777216
100
AcDbBlockReference
  2
_OPEN
 10
1870.468293
 20
1037.640653559477
 30
0.0
 41
20.0
 42
20.0
 43
20.0
 50
270.0
  0
MTEXT
  5
7F1B
330
7C98
100
AcDbEntity
  8
3
  6
Continuous
 62
     0
440
 16777216
100
AcDbMText
 10
1845.468293
 20
1149.510191559477
 30
0.0
 40
30.0
 41
0.0
 46
0.0
 71
     5
 72
     5
  1
\A1;φ250
 11
0.0000000000000001
 21
1.0
 31
0.0
 73
     1
 44
1.0
  0
POINT
  5
7F1C
330
7C98
100
AcDbEntity
  8
DEFPOINTS
  6
Continuous
 62
     0
440
 16777216
100
AcDbPoint
 10
1793.527137
 20
1287.640653559477
 30
0.0
  0
POINT
  5
7F1D
330
7C98
100
AcDbEntity
  8
DEFPOINTS
  6
Continuous
 62
     0
440
 16777216
100
AcDbPoint
 10
1793.527137
 20
1037.640653559477
 30
0.0
  0
POINT
  5
7F1E
330
7C98
100
AcDbEntity
  8
DEFPOINTS
  6
Continuous
 62
     0
440
 16777216
100
AcDbPoint
 10
1870.468293
 20
1037.640653559477
 30
0.0
  0
ENDBLK
  5
7DD0
330
7C98
100
AcDbEntity
  8
0
100
AcDbBlockEnd
  0
BLOCK
  5
7D63
330
7CF4
100
AcDbEntity
  8
0
100
AcDbBlockBegin
  2
*D12
 70
     1
 10
0.0
 20
0.0
 30
0.0
  3
*D12
  1

  0
LINE
  5
7F1F
330
7CF4
100
AcDbEntity
  8
3
  6
Continuous
 62
     0
440
 16777216
100
AcDbLine
 10
541.9641099999998
 20
902.6406535594768
 30
0.0
 11
423.3849700000002
 21
902.6406535594768
 31
0.0
  0
LINE
  5
7F20
330
7CF4
100
AcDbEntity
  8
3
  6
Continuous
 62
     0
440
 16777216
100
AcDbLine
 10
541.9641099999998
 20
1162.640653559477
 30
0.0
 11
423.3849700000003
 21
1162.640653559477
 31
0.0
  0
LINE
  5
7F21
330
7CF4
100
AcDbEntity
  8
3
  6
Continuous
 62
     0
440
 16777216
100
AcDbLine
 10
433.3849700000002
 20
922.6406535594767
 30
0.0
 11
433.3849700000002
 21
1142.640653559477
 31
0.0
  0
INSERT
  5
7F22
330
7CF4
100
AcDbEntity
  8
3
  6
Continuous
 62
     0
440
 16777216
100
AcDbBlockReference
  2
_OPEN
 10
433.3849700000002
 20
902.6406535594768
 30
0.0
 41
20.0
 42
20.0
 43
20.0
 50
270.0
  0
INSERT
  5
7F23
330
7CF4
100
AcDbEntity
  8
3
  6
Continuous
 62
     0
440
 16777216
100
AcDbBlockReference
  2
_OPEN
 10
433.3849700000002
 20
1162.640653559477
 30
0.0
 41
20.0
 42
20.0
 43
20.0
 50
90.0
  0
MTEXT
  5
7F24
330
7CF4
100
AcDbEntity
  8
3
  6
Continuous
 62
     0
440
 16777216
100
AcDbMText
 10
408.38497
 20
1048.618746559476
 30
0.0
 40
30.0
 41
0.0
 46
0.0
 71
     5
 72
     5
  1
\A1;260
 11
0.0000000000000001
 21
1.0
 31
0.0
 73
     1
 44
1.0
  0
POINT
  5
7F25
330
7CF4
100
AcDbEntity
  8
DEFPOINTS
  6
Continuous
 62
     0
440
 16777216
100
AcDbPoint
 10
546.9641099999998
 20
902.6406535594768
 30
0.0
  0
POINT
  5
7F26
330
7CF4
100
AcDbEntity
  8
DEFPOINTS
  6
Continuous
 62
     0
440
 16777216
100
AcDbPoint
 10
546.9641099999998
 20
1162.640653559477
 30
0.0
  0
POINT
  5
7F27
330
7CF4
100
AcDbEntity
  8
DEFPOINTS
  6
Continuous
 62
     0
440
 16777216
100
AcDbPoint
 10
433.3849700000002
 20
1162.640653559477
 30
0.0
  0
ENDBLK
  5
7D6D
330
7CF4
100
AcDbEntity
  8
0
100
AcDbBlockEnd
  0
BLOCK
  5
7DEC
330
7DEB
100
AcDbEntity
  8
0
100
AcDbBlockBegin
  2
_DOT
 70
     0
 10
0.0
 20
0.0
 30
0.0
  3
_DOT
  1

  0
LINE
  5
7E0C
330
7DEB
100
AcDbEntity
  8
0
  6
ByBlock
 62
     0
100
AcDbLine
 10
0.0
 20
0.0
 30
0.0
 11
-1.0
 21
-0.0000000000000284
 31
0.0
  0
LWPOLYLINE
  5
7E0D
330
7DEB
100
AcDbEntity
  8
0
  6
ByBlock
 62
     0
100
AcDbPolyline
 90
        2
 70
     1
 43
0.1666666666666666
 10
-0.0833333333333286
 20
-0.0000000000000284
 42
1.0
 10
0.0833333333333286
 20
-0.0000000000000284
 42
1.0
  0
ENDBLK
  5
7DF2
330
7DEB
100
AcDbEntity
  8
0
100
AcDbBlockEnd
  0
BLOCK
  5
7E27
330
7E26
100
AcDbEntity
  8
0
100
AcDbBlockBegin
  2
*D14
 70
     1
 10
0.0
 20
0.0
 30
0.0
  3
*D14
  1

  0
LINE
  5
7FD6
330
7E26
100
AcDbEntity
  8
3
 62
     0
440
 16777216
370
    -2
100
AcDbLine
 10
506.9641099999999
 20
712.6406535594768
 30
0.0
 11
506.9641099999999
 21
631.5970976494827
 31
0.0
  0
LINE
  5
7FD7
330
7E26
100
AcDbEntity
  8
3
 62
     0
440
 16777216
370
    -2
100
AcDbLine
 10
726.9641099999999
 20
742.6406535594769
 30
0.0
 11
726.9641099999999
 21
631.5970976494827
 31
0.0
  0
LINE
  5
7FD8
330
7E26
100
AcDbEntity
  8
3
 62
     0
440
 16777216
370
    -2
100
AcDbLine
 10
526.9641099999999
 20
641.5970976494827
 30
0.0
 11
706.9641099999999
 21
641.5970976494827
 31
0.0
  0
INSERT
  5
7FD9
330
7E26
100
AcDbEntity
  8
3
 62
     0
440
 16777216
370
    -2
100
AcDbBlockReference
  2
_OPEN
 10
506.9641099999999
 20
641.5970976494827
 30
0.0
 41
20.0
 42
20.0
 43
20.0
 50
180.0
  0
INSERT
  5
7FDA
330
7E26
100
AcDbEntity
  8
3
 62
     0
440
 16777216
370
    -2
100
AcDbBlockReference
  2
_OPEN
 10
726.9641099999999
 20
641.5970976494827
 30
0.0
 41
20.0
 42
20.0
 43
20.0
  0
MTEXT
  5
7FDB
330
7E26
100
AcDbEntity
  8
3
 62
     0
440
 16777216
100
AcDbMText
 10
616.9641099999998
 20
666.5970976494827
 30
0.0
 40
30.0
 41
0.0
 46
0.0
 71
     5
 72
     1
  1
\A1;220
 73
     1
 44
1.0
  0
POINT
  5
7FDC
330
7E26
100
AcDbEntity
  8
DEFPOINTS
 62
     0
440
 16777216
100
AcDbPoint
 10
506.9641099999999
 20
717.6406535594768
 30
0.0
  0
POINT
  5
7FDD
330
7E26
100
AcDbEntity
  8
DEFPOINTS
 62
     0
440
 16777216
100
AcDbPoint
 10
726.9641099999999
 20
747.6406535594769
 30
0.0
  0
POINT
  5
7FDE
330
7E26
100
AcDbEntity
  8
DEFPOINTS
 62
     0
440
 16777216
100
AcDbPoint
 10
726.9641099999999
 20
641.5970976494827
 30
0.0
  0
ENDBLK
  5
7E31
330
7E26
100
AcDbEntity
  8
0
100
AcDbBlockEnd
  0
BLOCK
  5
7E34
330
7E33
100
AcDbEntity
  8
0
100
AcDbBlockBegin
  2
*D15
 70
     1
 10
0.0
 20
0.0
 30
0.0
  3
*D15
  1

  0
LINE
  5
7FDF
330
7E33
100
AcDbEntity
  8
3
 62
     0
440
 16777216
370
    -2
100
AcDbLine
 10
726.9641099999999
 20
742.6406535594769
 30
0.0
 11
726.9641099999999
 21
631.5970976494827
 31
0.0
  0
LINE
  5
7FE0
330
7E33
100
AcDbEntity
  8
3
 62
     0
440
 16777216
370
    -2
100
AcDbLine
 10
1276.96411
 20
712.6406535594768
 30
0.0
 11
1276.96411
 21
631.5970976494827
 31
0.0
  0
LINE
  5
7FE1
330
7E33
100
AcDbEntity
  8
3
 62
     0
440
 16777216
370
    -2
100
AcDbLine
 10
746.9641099999998
 20
641.5970976494827
 30
0.0
 11
1256.96411
 21
641.5970976494827
 31
0.0
  0
INSERT
  5
7FE2
330
7E33
100
AcDbEntity
  8
3
 62
     0
440
 16777216
370
    -2
100
AcDbBlockReference
  2
_OPEN
 10
726.9641099999999
 20
641.5970976494827
 30
0.0
 41
20.0
 42
20.0
 43
20.0
 50
180.0
  0
INSERT
  5
7FE3
330
7E33
100
AcDbEntity
  8
3
 62
     0
440
 16777216
370
    -2
100
AcDbBlockReference
  2
_OPEN
 10
1276.96411
 20
641.5970976494827
 30
0.0
 41
20.0
 42
20.0
 43
20.0
  0
MTEXT
  5
7FE4
330
7E33
100
AcDbEntity
  8
3
 62
     0
440
 16777216
100
AcDbMText
 10
1001.96411
 20
666.5970976494827
 30
0.0
 40
30.0
 41
0.0
 46
0.0
 71
     5
 72
     1
  1
\A1;550
 73
     1
 44
1.0
  0
POINT
  5
7FE5
330
7E33
100
AcDbEntity
  8
DEFPOINTS
 62
     0
440
 16777216
100
AcDbPoint
 10
726.9641099999999
 20
747.6406535594769
 30
0.0
  0
POINT
  5
7FE6
330
7E33
100
AcDbEntity
  8
DEFPOINTS
 62
     0
440
 16777216
100
AcDbPoint
 10
1276.96411
 20
717.6406535594768
 30
0.0
  0
POINT
  5
7FE7
330
7E33
100
AcDbEntity
  8
DEFPOINTS
 62
     0
440
 16777216
100
AcDbPoint
 10
1276.96411
 20
641.5970976494827
 30
0.0
  0
ENDBLK
  5
7E3E
330
7E33
100
AcDbEntity
  8
0
100
AcDbBlockEnd
  0
BLOCK
  5
7E41
330
7E40
100
AcDbEntity
  8
0
100
AcDbBlockBegin
  2
*D16
 70
     1
 10
0.0
 20
0.0
 30
0.0
  3
*D16
  1

  0
LINE
  5
7FE8
330
7E40
100
AcDbEntity
  8
3
 62
     0
440
 16777216
370
    -2
100
AcDbLine
 10
1356.527137
 20
712.6406535594768
 30
0.0
 11
1356.527137
 21
631.5970976494827
 31
0.0
  0
LINE
  5
7FE9
330
7E40
100
AcDbEntity
  8
3
 62
     0
440
 16777216
370
    -2
100
AcDbLine
 10
1694.527137
 20
712.6406535594768
 30
0.0
 11
1694.527137
 21
631.5970976494827
 31
0.0
  0
LINE
  5
7FEA
330
7E40
100
AcDbEntity
  8
3
 62
     0
440
 16777216
370
    -2
100
AcDbLine
 10
1376.527137
 20
641.5970976494827
 30
0.0
 11
1674.527137
 21
641.5970976494827
 31
0.0
  0
INSERT
  5
7FEB
330
7E40
100
AcDbEntity
  8
3
 62
     0
440
 16777216
370
    -2
100
AcDbBlockReference
  2
_OPEN
 10
1356.527137
 20
641.5970976494827
 30
0.0
 41
20.0
 42
20.0
 43
20.0
 50
180.0
  0
INSERT
  5
7FEC
330
7E40
100
AcDbEntity
  8
3
 62
     0
440
 16777216
370
    -2
100
AcDbBlockReference
  2
_OPEN
 10
1694.527137
 20
641.5970976494827
 30
0.0
 41
20.0
 42
20.0
 43
20.0
  0
MTEXT
  5
7FED
330
7E40
100
AcDbEntity
  8
3
 62
     0
440
 16777216
100
AcDbMText
 10
1525.527137
 20
666.5970976494827
 30
0.0
 40
30.0
 41
0.0
 46
0.0
 71
     5
 72
     1
  1
\A1;338
 73
     1
 44
1.0
  0
POINT
  5
7FEE
330
7E40
100
AcDbEntity
  8
DEFPOINTS
 62
     0
440
 16777216
100
AcDbPoint
 10
1356.527137
 20
717.6406535594768
 30
0.0
  0
POINT
  5
7FEF
330
7E40
100
AcDbEntity
  8
DEFPOINTS
 62
     0
440
 16777216
100
AcDbPoint
 10
1694.527137
 20
717.6406535594768
 30
0.0
  0
POINT
  5
7FF0
330
7E40
100
AcDbEntity
  8
DEFPOINTS
 62
     0
440
 16777216
100
AcDbPoint
 10
1694.527137
 20
641.5970976494827
 30
0.0
  0
ENDBLK
  5
7E4B
330
7E40
100
AcDbEntity
  8
0
100
AcDbBlockEnd
  0
BLOCK
  5
7E4E
330
7E4D
100
AcDbEntity
  8
0
100
AcDbBlockBegin
  2
*D17
 70
     1
 10
0.0
 20
0.0
 30
0.0
  3
*D17
  1

  0
LINE
  5
7FF1
330
7E4D
100
AcDbEntity
  8
3
 62
     0
440
 16777216
370
    -2
100
AcDbLine
 10
1694.527137
 20
712.6406535594768
 30
0.0
 11
1694.527137
 21
631.5970976494827
 31
0.0
  0
LINE
  5
7FF2
330
7E4D
100
AcDbEntity
  8
3
 62
     0
440
 16777216
370
    -2
100
AcDbLine
 10
1836.527137
 20
712.6406535594768
 30
0.0
 11
1836.527137
 21
631.5970976494827
 31
0.0
  0
LINE
  5
7FF3
330
7E4D
100
AcDbEntity
  8
3
 62
     0
440
 16777216
370
    -2
100
AcDbLine
 10
1714.527137
 20
641.5970976494827
 30
0.0
 11
1816.527137
 21
641.5970976494827
 31
0.0
  0
INSERT
  5
7FF4
330
7E4D
100
AcDbEntity
  8
3
 62
     0
440
 16777216
370
    -2
100
AcDbBlockReference
  2
_OPEN
 10
1694.527137
 20
641.5970976494827
 30
0.0
 41
20.0
 42
20.0
 43
20.0
 50
180.0
  0
INSERT
  5
7FF5
330
7E4D
100
AcDbEntity
  8
3
 62
     0
440
 16777216
370
    -2
100
AcDbBlockReference
  2
_OPEN
 10
1836.527137
 20
641.5970976494827
 30
0.0
 41
20.0
 42
20.0
 43
20.0
  0
MTEXT
  5
7FF6
330
7E4D
100
AcDbEntity
  8
3
 62
     0
440
 16777216
100
AcDbMText
 10
1765.527137
 20
666.5970976494827
 30
0.0
 40
30.0
 41
0.0
 46
0.0
 71
     5
 72
     1
  1
\A1;142
 73
     1
 44
1.0
  0
POINT
  5
7FF7
330
7E4D
100
AcDbEntity
  8
DEFPOINTS
 62
     0
440
 16777216
100
AcDbPoint
 10
1694.527137
 20
717.6406535594768
 30
0.0
  0
POINT
  5
7FF8
330
7E4D
100
AcDbEntity
  8
DEFPOINTS
 62
     0
440
 16777216
100
AcDbPoint
 10
1836.527137
 20
717.6406535594768
 30
0.0
  0
POINT
  5
7FF9
330
7E4D
100
AcDbEntity
  8
DEFPOINTS
 62
     0
440
 16777216
100
AcDbPoint
 10
1836.527137
 20
641.5970976494827
 30
0.0
  0
ENDBLK
  5
7E58
330
7E4D
100
AcDbEntity
  8
0
100
AcDbBlockEnd
  0
BLOCK
  5
7E5B
330
7E5A
100
AcDbEntity
  8
0
100
AcDbBlockBegin
  2
*D18
 70
     1
 10
0.0
 20
0.0
 30
0.0
  3
*D18
  1

  0
LINE
  5
8016
330
7E5A
100
AcDbEntity
  8
3
 62
     0
440
 16777216
370
    -2
100
AcDbLine
 10
501.9641099999999
 20
777.6406535594768
 30
0.0
 11
353.2579440975624
 21
777.6406535594768
 31
0.0
  0
LINE
  5
8017
330
7E5A
100
AcDbEntity
  8
3
 62
     0
440
 16777216
370
    -2
100
AcDbLine
 10
501.9641099999999
 20
717.6406535594768
 30
0.0
 11
353.2579440975624
 21
717.6406535594768
 31
0.0
  0
LINE
  5
8018
330
7E5A
100
AcDbEntity
  8
3
 62
     0
440
 16777216
370
    -2
100
AcDbLine
 10
363.2579440975624
 20
757.6406535594768
 30
0.0
 11
363.2579440975624
 21
737.6406535594768
 31
0.0
  0
LINE
  5
8019
330
7E5A
100
AcDbEntity
  8
3
 62
     0
440
 16777216
370
    -2
100
AcDbLine
 10
363.2579440975624
 20
717.6406535594768
 30
0.0
 11
363.2579440975623
 21
629.0692249880483
 31
0.0
  0
INSERT
  5
801A
330
7E5A
100
AcDbEntity
  8
3
 62
     0
440
 16777216
370
    -2
100
AcDbBlockReference
  2
_DOT
 10
363.2579440975624
 20
777.6406535594768
 30
0.0
 41
20.0
 42
20.0
 43
20.0
 50
90.0
  0
INSERT
  5
801B
330
7E5A
100
AcDbEntity
  8
3
 62
     0
440
 16777216
370
    -2
100
AcDbBlockReference
  2
_OPEN
 10
363.2579440975624
 20
717.6406535594768
 30
0.0
 41
20.0
 42
20.0
 43
20.0
 50
90.0
  0
LINE
  5
801C
330
7E5A
100
AcDbEntity
  8
3
 62
     0
440
 16777216
370
    -2
100
AcDbLine
 10
363.2579440975624
 20
697.6406535594768
 30
0.0
 11
363.2579440975624
 21
677.6406535594768
 31
0.0
  0
LINE
  5
801D
330
7E5A
100
AcDbEntity
  8
3
 62
     0
440
 16777216
370
    -2
100
AcDbLine
 10
363.2579440975624
 20
717.6406535594768
 30
0.0
 11
363.2579440975624
 21
737.6406535594768
 31
0.0
  0
MTEXT
  5
801E
330
7E5A
100
AcDbEntity
  8
3
 62
     0
440
 16777216
100
AcDbMText
 10
338.2579440975622
 20
663.3549392737627
 30
0.0
 40
30.0
 41
0.0
 46
0.0
 71
     5
 72
     1
  1
\A1;60
 11
0.0000000000000001
 21
1.0
 31
0.0
 73
     1
 44
1.0
  0
POINT
  5
801F
330
7E5A
100
AcDbEntity
  8
DEFPOINTS
 62
     0
440
 16777216
100
AcDbPoint
 10
506.9641099999999
 20
777.6406535594768
 30
0.0
  0
POINT
  5
8020
330
7E5A
100
AcDbEntity
  8
DEFPOINTS
 62
     0
440
 16777216
100
AcDbPoint
 10
506.9641099999999
 20
717.6406535594768
 30
0.0
  0
POINT
  5
8021
330
7E5A
100
AcDbEntity
  8
DEFPOINTS
 62
     0
440
 16777216
100
AcDbPoint
 10
363.2579440975624
 20
717.6406535594768
 30
0.0
  0
ENDBLK
  5
7E67
330
7E5A
100
AcDbEntity
  8
0
100
AcDbBlockEnd
  0
BLOCK
  5
7E6A
330
7E69
100
AcDbEntity
  8
0
100
AcDbBlockBegin
  2
*D19
 70
     1
 10
0.0
 20
0.0
 30
0.0
  3
*D19
  1

  0
LINE
  5
800D
330
7E69
100
AcDbEntity
  8
3
 62
     0
440
 16777216
370
    -2
100
AcDbLine
 10
501.9641099999999
 20
777.6406535594768
 30
0.0
 11
353.2579440975624
 21
777.6406535594768
 31
0.0
  0
LINE
  5
800E
330
7E69
100
AcDbEntity
  8
3
 62
     0
440
 16777216
370
    -2
100
AcDbLine
 10
531.9641099999999
 20
847.6406535594769
 30
0.0
 11
353.2579440975624
 21
847.6406535594769
 31
0.0
  0
LINE
  5
800F
330
7E69
100
AcDbEntity
  8
3
 62
     0
440
 16777216
370
    -2
100
AcDbLine
 10
363.2579440975624
 20
797.6406535594768
 30
0.0
 11
363.2579440975624
 21
827.6406535594768
 31
0.0
  0
MTEXT
  5
8010
330
7E69
100
AcDbEntity
  8
3
 62
     0
440
 16777216
100
AcDbMText
 10
329.1756831331004
 20
812.6406535594769
 30
0.0
 40
30.0
 41
0.0
 46
0.0
 71
     5
 72
     1
  1
\A1;(70)
 11
0.0000000000000001
 21
1.0
 31
0.0
 73
     1
 44
1.0
  0
INSERT
  5
8011
330
7E69
100
AcDbEntity
  8
3
 62
     0
440
 16777216
370
    -2
100
AcDbBlockReference
  2
_DOT
 10
363.2579440975624
 20
777.6406535594768
 30
0.0
 41
20.0
 42
20.0
 43
20.0
 50
270.0
  0
INSERT
  5
8012
330
7E69
100
AcDbEntity
  8
3
 62
     0
440
 16777216
370
    -2
100
AcDbBlockReference
  2
_OPEN
 10
363.2579440975624
 20
847.6406535594769
 30
0.0
 41
20.0
 42
20.0
 43
20.0
 50
90.0
  0
POINT
  5
8013
330
7E69
100
AcDbEntity
  8
DEFPOINTS
 62
     0
440
 16777216
100
AcDbPoint
 10
506.9641099999999
 20
777.6406535594768
 30
0.0
  0
POINT
  5
8014
330
7E69
100
AcDbEntity
  8
DEFPOINTS
 62
     0
440
 16777216
100
AcDbPoint
 10
536.9641099999999
 20
847.6406535594769
 30
0.0
  0
POINT
  5
8015
330
7E69
100
AcDbEntity
  8
DEFPOINTS
 62
     0
440
 16777216
100
AcDbPoint
 10
363.2579440975624
 20
847.6406535594769
 30
0.0
  0
ENDBLK
  5
7E74
330
7E69
100
AcDbEntity
  8
0
100
AcDbBlockEnd
  0
BLOCK
  5
7E77
330
7E76
100
AcDbEntity
  8
0
100
AcDbBlockBegin
  2
*D20
 70
     1
 10
0.0
 20
0.0
 30
0.0
  3
*D20
  1

  0
LINE
  5
7FCD
330
7E76
100
AcDbEntity
  8
3
 62
     0
440
 16777216
370
    -2
100
AcDbLine
 10
716.9641099999998
 20
1348.630037559477
 30
0.0
 11
253.3045886074962
 21
1348.630037559477
 31
0.0
  0
LINE
  5
7FCE
330
7E76
100
AcDbEntity
  8
3
 62
     0
440
 16777216
370
    -2
100
AcDbLine
 10
501.9641099999999
 20
717.6406535594768
 30
0.0
 11
253.304588607496
 21
717.6406535594769
 31
0.0
  0
LINE
  5
7FCF
330
7E76
100
AcDbEntity
  8
3
 62
     0
440
 16777216
370
    -2
100
AcDbLine
 10
263.3045886074961
 20
1328.630037559477
 30
0.0
 11
263.3045886074961
 21
737.6406535594768
 31
0.0
  0
INSERT
  5
7FD0
330
7E76
100
AcDbEntity
  8
3
 62
     0
440
 16777216
370
    -2
100
AcDbBlockReference
  2
_OPEN
 10
263.3045886074961
 20
1348.630037559477
 30
0.0
 41
20.0
 42
20.0
 43
20.0
 50
90.0
  0
INSERT
  5
7FD1
330
7E76
100
AcDbEntity
  8
3
 62
     0
440
 16777216
370
    -2
100
AcDbBlockReference
  2
_OPEN
 10
263.3045886074961
 20
717.6406535594768
 30
0.0
 41
20.0
 42
20.0
 43
20.0
 50
270.0
  0
MTEXT
  5
7FD2
330
7E76
100
AcDbEntity
  8
3
 62
     0
440
 16777216
100
AcDbMText
 10
230.447445750353
 20
1033.135345559477
 30
0.0
 40
30.0
 41
0.0
 46
0.0
 71
     5
 72
     1
  1
\A1;(631)
 11
0.0000000000000001
 21
1.0
 31
0.0
 73
     1
 44
1.0
  0
POINT
  5
7FD3
330
7E76
100
AcDbEntity
  8
DEFPOINTS
 62
     0
440
 16777216
100
AcDbPoint
 10
721.9641099999998
 20
1348.630037559477
 30
0.0
  0
POINT
  5
7FD4
330
7E76
100
AcDbEntity
  8
DEFPOINTS
 62
     0
440
 16777216
100
AcDbPoint
 10
506.9641099999999
 20
717.6406535594768
 30
0.0
  0
POINT
  5
7FD5
330
7E76
100
AcDbEntity
  8
DEFPOINTS
 62
     0
440
 16777216
100
AcDbPoint
 10
263.3045886074961
 20
717.6406535594768
 30
0.0
  0
ENDBLK
  5
7E81
330
7E76
100
AcDbEntity
  8
0
100
AcDbBlockEnd
  0
ENDSEC
  0
SECTION
  2
ENTITIES
  0
LINE
  5
7A9D
330
19
100
AcDbEntity
  8
1
  6
Continuous
100
AcDbLine
 10
937.8641099999999
 20
2100.925633951864
 30
0.0
 11
1276.96411
 21
2100.925633951864
 31
0.0
  0
LINE
  5
7A9E
330
19
100
AcDbEntity
  8
1
  6
Continuous
100
AcDbLine
 10
1276.96411
 20
777.6406535594768
 30
0.0
 11
506.9641099999999
 21
777.6406535594768
 31
0.0
  0
LINE
  5
7A9F
330
19
100
AcDbEntity
  8
1
  6
Continuous
100
AcDbLine
 10
1276.96411
 20
747.6406535594768
 30
0.0
 11
506.9641099999999
 21
747.6406535594768
 31
0.0
  0
LINE
  5
7AA0
330
19
100
AcDbEntity
  8
1
  6
Continuous
100
AcDbLine
 10
1246.96411
 20
847.6406535594769
 30
0.0
 11
536.9641099999999
 21
847.6406535594769
 31
0.0
  0
LINE
  5
7AA1
330
19
100
AcDbEntity
  8
1
  6
Continuous
100
AcDbLine
 10
992.2641100000001
 20
927.6406535594768
 30
0.0
 11
1246.96411
 21
927.6406535594768
 31
0.0
  0
LINE
  5
7AA2
330
19
100
AcDbEntity
  8
1
  6
Continuous
100
AcDbLine
 10
1246.96411
 20
907.6406535594767
 30
0.0
 11
536.9641099999999
 21
907.6406535594767
 31
0.0
  0
LINE
  5
7AA3
330
19
100
AcDbEntity
  8
1
  6
Continuous
100
AcDbLine
 10
1101.66411
 20
1850.925633951863
 30
0.0
 11
1276.96411
 21
1850.925633951863
 31
0.0
  0
CIRCLE
  5
7AA4
330
19
100
AcDbEntity
  8
1
  6
Continuous
100
AcDbCircle
 10
726.9641099999999
 20
1162.640653559477
 30
0.0
 40
145.0
  0
CIRCLE
  5
7AA5
330
19
100
AcDbEntity
  8
1
  6
Continuous
100
AcDbCircle
 10
726.9641099999999
 20
1162.640653559477
 30
0.0
 40
125.0
  0
ARC
  5
7AA6
330
19
100
AcDbEntity
  8
1
  6
Continuous
100
AcDbCircle
 10
706.9641099999999
 20
1142.640653559476
 30
0.0
 40
240.9
100
AcDbArc
 50
274.9
 51
4.6
  0
ARC
  5
7AA7
330
19
100
AcDbEntity
  8
1
  6
Continuous
100
AcDbCircle
 10
743.9641099999999
 20
1145.640653559476
 30
0.0
 40
203.7
100
AcDbArc
 50
4.6
 51
95.5
  0
LINE
  5
7AA8
330
19
100
AcDbEntity
  8
2
  6
CENTER
100
AcDbLine
 10
495.2010359999999
 20
1162.640653559477
 30
0.0
 11
1070.606989
 21
1162.640653559477
 31
0.0
  0
LINE
  5
7AA9
330
19
100
AcDbEntity
  8
1
  6
Continuous
100
AcDbLine
 10
665.3641099999999
 20
1312.640653559477
 30
0.0
 11
788.5641099999998
 21
1312.640653559477
 31
0.0
  0
LINE
  5
7AAA
330
19
100
AcDbEntity
  8
1
  6
Continuous
100
AcDbLine
 10
886.9641099999999
 20
847.6406535594769
 30
0.0
 11
566.9641099999998
 21
847.6406535594769
 31
0.0
  0
LINE
  5
7AAB
330
19
100
AcDbEntity
  8
1
  6
Continuous
100
AcDbLine
 10
1113.06411
 20
1042.640653559476
 30
0.0
 11
755.0641099999998
 21
1219.540653559477
 31
0.0
  0
LINE
  5
7AAC
330
19
100
AcDbEntity
  8
1
  6
Continuous
100
AcDbLine
 10
1068.66411
 20
946.4406535594767
 30
0.0
 11
701.8641099999999
 21
1104.340653559477
 31
0.0
  0
LINE
  5
7AAD
330
19
100
AcDbEntity
  8
1
  6
Continuous
100
AcDbLine
 10
726.76411
 20
1287.640653559477
 30
0.0
 11
1181.96411
 21
1087.640653559477
 31
0.0
  0
CIRCLE
  5
7AAE
330
19
100
AcDbEntity
  8
1
  6
Continuous
100
AcDbCircle
 10
726.9641099999999
 20
1162.640653559477
 30
0.0
 40
63.5
  0
LINE
  5
7AAF
330
19
100
AcDbEntity
  8
1
  6
Continuous
100
AcDbLine
 10
546.9641099999998
 20
932.6406535594767
 30
0.0
 11
546.9641099999998
 21
1142.640653559476
 31
0.0
  0
LINE
  5
7AB0
330
19
100
AcDbEntity
  8
1
  6
Continuous
100
AcDbLine
 10
526.9641099999999
 20
1183.640653559477
 30
0.0
 11
526.9641099999999
 21
891.6406535594768
 31
0.0
  0
LINE
  5
7AB1
330
19
100
AcDbEntity
  8
1
  6
Continuous
100
AcDbLine
 10
566.9641099999998
 20
907.6406535594767
 30
0.0
 11
566.9641099999998
 21
1228.740653559477
 31
0.0
  0
LINE
  5
7AB2
330
19
100
AcDbEntity
  8
1
  6
Continuous
100
AcDbLine
 10
601.9641099999999
 20
907.6406535594767
 30
0.0
 11
601.9641099999999
 21
1217.640653559477
 31
0.0
  0
LINE
  5
7AB3
330
19
100
AcDbEntity
  8
1
  6
Continuous
100
AcDbLine
 10
526.9641099999999
 20
912.6406535594767
 30
0.0
 11
546.9641099999998
 21
932.6406535594767
 31
0.0
  0
LINE
  5
7AB4
330
19
100
AcDbEntity
  8
1
  6
Continuous
100
AcDbLine
 10
526.9641099999999
 20
912.6406535594767
 30
0.0
 11
546.9641099999998
 21
912.6406535594767
 31
0.0
  0
LINE
  5
7AB5
330
19
100
AcDbEntity
  8
1
  6
Continuous
100
AcDbLine
 10
506.9641099999999
 20
777.6406535594768
 30
0.0
 11
506.9641099999999
 21
717.6406535594768
 31
0.0
  0
LINE
  5
7AB6
330
19
100
AcDbEntity
  8
1
  6
Continuous
100
AcDbLine
 10
536.9641099999999
 20
907.6406535594767
 30
0.0
 11
536.9641099999999
 21
847.6406535594769
 31
0.0
  0
LINE
  5
7AB7
330
19
100
AcDbEntity
  8
1
  6
Continuous
100
AcDbLine
 10
536.9641099999999
 20
747.6406535594768
 30
0.0
 11
536.9641099999999
 21
717.6406535594768
 31
0.0
  0
LINE
  5
7AB8
330
19
100
AcDbEntity
  8
1
  6
Continuous
100
AcDbLine
 10
506.9641099999999
 20
717.6406535594768
 30
0.0
 11
536.9641099999999
 21
717.6406535594768
 31
0.0
  0
LINE
  5
7AB9
330
19
100
AcDbEntity
  8
1
  6
Continuous
100
AcDbLine
 10
546.9641099999998
 20
902.6406535594768
 30
0.0
 11
727.3641099999999
 21
902.6406535594768
 31
0.0
  0
LINE
  5
7ABA
330
19
100
AcDbEntity
  8
1
  6
Continuous
100
AcDbLine
 10
546.9641099999998
 20
902.6406535594768
 30
0.0
 11
546.9641099999998
 21
912.6406535594767
 31
0.0
  0
LINE
  5
7ABB
330
19
100
AcDbEntity
  8
1
  6
Continuous
100
AcDbLine
 10
526.9641099999999
 20
1162.640653559477
 30
0.0
 11
546.9641099999998
 21
1142.640653559476
 31
0.0
  0
ARC
  5
7ABC
330
19
100
AcDbEntity
  8
1
  6
Continuous
100
AcDbCircle
 10
740.9641099999999
 20
1176.640653559476
 30
0.0
 40
172.6
100
AcDbArc
 50
95.5
 51
181.3
  0
LINE
  5
7ABD
330
19
100
AcDbEntity
  8
1
  6
Continuous
100
AcDbLine
 10
526.9641099999999
 20
1162.640653559477
 30
0.0
 11
546.9641099999998
 21
1162.640653559477
 31
0.0
  0
LINE
  5
7ABE
330
19
100
AcDbEntity
  8
1
  6
Continuous
100
AcDbLine
 10
665.3641099999999
 20
1312.640653559477
 30
0.0
 11
566.9641099999998
 21
1228.740653559477
 31
0.0
  0
LINE
  5
7ABF
330
19
100
AcDbEntity
  8
1
  6
Continuous
100
AcDbLine
 10
601.9641099999999
 20
1217.640653559477
 30
0.0
 11
726.76411
 21
1287.640653559477
 31
0.0
  0
LINE
  5
7AC0
330
19
100
AcDbEntity
  8
1
  6
Continuous
100
AcDbLine
 10
546.9641099999998
 20
1172.640653559477
 30
0.0
 11
568.36411
 21
1172.640653559477
 31
0.0
  0
LINE
  5
7AC1
330
19
100
AcDbEntity
  8
1
  6
Continuous
100
AcDbLine
 10
546.9641099999998
 20
1162.640653559477
 30
0.0
 11
546.9641099999998
 21
1172.640653559477
 31
0.0
  0
LINE
  5
7AC2
330
19
100
AcDbEntity
  8
2
  6
CENTER
100
AcDbLine
 10
726.9641099999999
 20
747.6406535594769
 30
0.0
 11
726.9641099999999
 21
1385.973184559477
 31
0.0
  0
LINE
  5
7AC3
330
19
100
AcDbEntity
  8
1
  6
Continuous
100
AcDbLine
 10
886.9641099999999
 20
1228.740653559477
 30
0.0
 11
886.9641099999999
 21
907.6406535594767
 31
0.0
  0
LINE
  5
7AC4
330
19
100
AcDbEntity
  8
2
  6
CENTER
100
AcDbLine
 10
1089.56411
 20
942.1406535594767
 30
0.0
 11
1089.56411
 21
1048.140653559477
 31
0.0
  0
CIRCLE
  5
7AC5
330
19
100
AcDbEntity
  8
1
  6
Continuous
100
AcDbCircle
 10
1089.56411
 20
995.1406535594767
 30
0.0
 40
53.0
  0
LINE
  5
7AC6
330
19
100
AcDbEntity
  8
1
  6
Continuous
100
AcDbLine
 10
1181.96411
 20
907.6406535594767
 30
0.0
 11
1181.96411
 21
1087.640653559477
 31
0.0
  0
ARC
  5
7AC7
330
19
100
AcDbEntity
  8
1
  6
Continuous
100
AcDbCircle
 10
1089.56411
 20
995.1406535594767
 30
0.0
 40
75.8
100
AcDbArc
 50
322.9
 51
217.1
  0
LINE
  5
7AC8
330
19
100
AcDbEntity
  8
2
  6
CENTER
100
AcDbLine
 10
1142.56411
 20
995.1406535594767
 30
0.0
 11
1036.56411
 21
995.1406535594767
 31
0.0
  0
LINE
  5
7AC9
330
19
100
AcDbEntity
  8
1
  6
Continuous
100
AcDbLine
 10
992.2641100000001
 20
907.6406535594767
 30
0.0
 11
992.2641100000001
 21
927.6406535594768
 31
0.0
  0
LINE
  5
7ACA
330
19
100
AcDbEntity
  8
1
  6
Continuous
100
AcDbLine
 10
1023.56411
 20
927.6406535594768
 30
0.0
 11
1023.56411
 21
935.1406535594767
 31
0.0
  0
LINE
  5
7ACB
330
19
100
AcDbEntity
  8
1
  6
Continuous
100
AcDbLine
 10
1023.56411
 20
935.1406535594767
 30
0.0
 11
1029.16411
 21
949.4406535594766
 31
0.0
  0
POINT
  5
7ACC
330
19
100
AcDbEntity
  8
1
  6
Continuous
100
AcDbPoint
 10
1019.16411
 20
995.1406535594767
 30
0.0
  0
LINE
  5
7ACD
330
19
100
AcDbEntity
  8
1
  6
Continuous
100
AcDbLine
 10
1155.56411
 20
935.1406535594767
 30
0.0
 11
1150.06411
 21
949.4406535594766
 31
0.0
  0
LINE
  5
7ACE
330
19
100
AcDbEntity
  8
1
  6
Continuous
100
AcDbLine
 10
1155.56411
 20
927.6406535594768
 30
0.0
 11
1155.56411
 21
935.1406535594767
 31
0.0
  0
LINE
  5
7ACF
330
19
100
AcDbEntity
  8
1
  6
Continuous
100
AcDbLine
 10
788.5641099999998
 20
1312.640653559477
 30
0.0
 11
886.9641099999999
 21
1228.740653559477
 31
0.0
  0
LINE
  5
7AD0
330
19
100
AcDbEntity
  8
1
  6
Continuous
100
AcDbLine
 10
873.96411
 20
2207.925633951864
 30
0.0
 11
579.9641099999998
 21
2207.925633951864
 31
0.0
  0
LINE
  5
7AD1
330
19
100
AcDbEntity
  8
1
  6
Continuous
100
AcDbLine
 10
925.86411
 20
2019.125633951864
 30
0.0
 11
726.9641099999999
 21
2019.125633951864
 31
0.0
  0
LINE
  5
7AD2
330
19
100
AcDbEntity
  8
1
  6
Continuous
100
AcDbLine
 10
526.9641099999999
 20
2198.725633951863
 30
0.0
 11
925.86411
 21
2198.725633951863
 31
0.0
  0
LINE
  5
7AD3
330
19
100
AcDbEntity
  8
1
  6
Continuous
100
AcDbLine
 10
886.96411
 20
2009.925633951864
 30
0.0
 11
566.9641099999998
 21
2009.925633951864
 31
0.0
  0
LINE
  5
7AD4
330
19
100
AcDbEntity
  8
1
  6
Continuous
100
AcDbLine
 10
663.4641099999998
 20
1788.925633951863
 30
0.0
 11
790.46411
 21
1788.925633951863
 31
0.0
  0
LINE
  5
7AD5
330
19
100
AcDbEntity
  8
1
  6
Continuous
100
AcDbLine
 10
663.4641099999998
 20
1823.925633951864
 30
0.0
 11
790.46411
 21
1823.925633951864
 31
0.0
  0
LINE
  5
7AD6
330
19
100
AcDbEntity
  8
1
  6
Continuous
100
AcDbLine
 10
601.9641099999999
 20
1843.925633951863
 30
0.0
 11
1181.96411
 21
1843.925633951863
 31
0.0
  0
LINE
  5
7AD7
330
19
100
AcDbEntity
  8
1
  6
Continuous
100
AcDbLine
 10
601.9641099999999
 20
1768.925633951863
 30
0.0
 11
1181.96411
 21
1768.925633951863
 31
0.0
  0
LINE
  5
7AD8
330
19
100
AcDbEntity
  8
1
  6
Continuous
100
AcDbLine
 10
738.9641099999998
 20
1880.925633951864
 30
0.0
 11
886.96411
 21
1880.925633951864
 31
0.0
  0
LINE
  5
7AD9
330
19
100
AcDbEntity
  8
1
  6
Continuous
100
AcDbLine
 10
738.9641099999998
 20
1850.925633951863
 30
0.0
 11
1077.66411
 21
1850.925633951863
 31
0.0
  0
LINE
  5
7ADA
330
19
100
AcDbEntity
  8
1
  6
Continuous
100
AcDbLine
 10
526.9641099999999
 20
2028.125633951864
 30
0.0
 11
546.9641099999998
 21
2048.125633951864
 31
0.0
  0
LINE
  5
7ADB
330
19
100
AcDbEntity
  8
1
  6
Continuous
100
AcDbLine
 10
526.9641099999999
 20
2219.925633951864
 30
0.0
 11
526.9641099999999
 21
1997.925633951863
 31
0.0
  0
LINE
  5
7ADC
330
19
100
AcDbEntity
  8
1
  6
Continuous
100
AcDbLine
 10
506.9641099999999
 20
2250.925633951864
 30
0.0
 11
506.9641099999999
 21
1770.925633951863
 31
0.0
  0
LINE
  5
7ADD
330
19
100
AcDbEntity
  8
1
  6
Continuous
100
AcDbLine
 10
526.9641099999999
 20
2019.125633951864
 30
0.0
 11
726.9641099999999
 21
2019.125633951864
 31
0.0
  0
LINE
  5
7ADE
330
19
100
AcDbEntity
  8
1
  6
Continuous
100
AcDbLine
 10
506.9641099999999
 20
1850.925633951863
 30
0.0
 11
714.9641099999999
 21
1850.925633951863
 31
0.0
  0
LINE
  5
7ADF
330
19
100
AcDbEntity
  8
1
  6
Continuous
100
AcDbLine
 10
536.9641099999999
 20
1850.925633951863
 30
0.0
 11
536.9641099999999
 21
1770.925633951863
 31
0.0
  0
LINE
  5
7AE0
330
19
100
AcDbEntity
  8
1
  6
Continuous
100
AcDbLine
 10
536.9641099999999
 20
1770.925633951863
 30
0.0
 11
506.9641099999999
 21
1770.925633951863
 31
0.0
  0
LINE
  5
7AE1
330
19
100
AcDbEntity
  8
1
  6
Continuous
100
AcDbLine
 10
566.9641099999998
 20
1880.925633951864
 30
0.0
 11
714.9641099999999
 21
1880.925633951864
 31
0.0
  0
LINE
  5
7AE2
330
19
100
AcDbEntity
  8
1
  6
Continuous
100
AcDbLine
 10
579.9641099999998
 20
2019.125633951864
 30
0.0
 11
579.9641099999998
 21
2009.925633951864
 31
0.0
  0
LINE
  5
7AE3
330
19
100
AcDbEntity
  8
1
  6
Continuous
100
AcDbLine
 10
601.9641099999999
 20
1768.925633951863
 30
0.0
 11
601.9641099999999
 21
1843.925633951863
 31
0.0
  0
LINE
  5
7AE4
330
19
100
AcDbEntity
  8
1
  6
Continuous
100
AcDbLine
 10
566.9641099999998
 20
1880.925633951864
 30
0.0
 11
566.9641099999998
 21
2009.925633951864
 31
0.0
  0
LINE
  5
7AE5
330
19
100
AcDbEntity
  8
1
  6
Continuous
100
AcDbLine
 10
714.9641099999999
 20
1823.925633951864
 30
0.0
 11
714.9641099999999
 21
2009.925633951864
 31
0.0
  0
LINE
  5
7AE6
330
19
100
AcDbEntity
  8
1
  6
Continuous
100
AcDbLine
 10
738.9641099999998
 20
1823.925633951864
 30
0.0
 11
738.9641099999998
 21
2009.925633951864
 31
0.0
  0
LINE
  5
7AE7
330
19
100
AcDbEntity
  8
1
  6
Continuous
100
AcDbLine
 10
663.4641099999998
 20
1788.925633951863
 30
0.0
 11
663.4641099999998
 21
1823.925633951864
 31
0.0
  0
LINE
  5
7AE8
330
19
100
AcDbEntity
  8
1
  6
Continuous
100
AcDbLine
 10
526.9641099999999
 20
2189.725633951864
 30
0.0
 11
546.9641099999998
 21
2169.725633951864
 31
0.0
  0
LINE
  5
7AE9
330
19
100
AcDbEntity
  8
1
  6
Continuous
100
AcDbLine
 10
506.9641099999999
 20
2100.925633951864
 30
0.0
 11
526.9641099999999
 21
2100.925633951864
 31
0.0
  0
LINE
  5
7AEA
330
19
100
AcDbEntity
  8
1
  6
Continuous
100
AcDbLine
 10
536.9641099999999
 20
2250.925633951864
 30
0.0
 11
536.9641099999999
 21
2199.725633951864
 31
0.0
  0
LINE
  5
7AEB
330
19
100
AcDbEntity
  8
1
  6
Continuous
100
AcDbLine
 10
536.9641099999999
 20
2250.925633951864
 30
0.0
 11
506.9641099999999
 21
2250.925633951864
 31
0.0
  0
LINE
  5
7AEC
330
19
100
AcDbEntity
  8
1
  6
Continuous
100
AcDbLine
 10
579.9641099999998
 20
2198.725633951863
 30
0.0
 11
579.9641099999998
 21
2207.925633951864
 31
0.0
  0
LINE
  5
7AED
330
19
100
AcDbEntity
  8
1
  6
Continuous
100
AcDbLine
 10
546.9641099999998
 20
2169.725633951864
 30
0.0
 11
546.9641099999998
 21
2048.125633951864
 31
0.0
  0
LINE
  5
7AEE
330
19
100
AcDbEntity
  8
1
  6
Continuous
100
AcDbLine
 10
937.8641099999999
 20
2186.725633951864
 30
0.0
 11
937.8641099999999
 21
2031.125633951864
 31
0.0
  0
LINE
  5
7AEF
330
19
100
AcDbEntity
  8
1
  6
Continuous
100
AcDbLine
 10
1164.46411
 20
1875.225633951863
 30
0.0
 11
1164.46411
 21
2079.225633951864
 31
0.0
  0
LINE
  5
7AF0
330
19
100
AcDbEntity
  8
1
  6
Continuous
100
AcDbLine
 10
1012.96411
 20
1875.225633951863
 30
0.0
 11
1012.96411
 21
2079.225633951864
 31
0.0
  0
LINE
  5
7AF1
330
19
100
AcDbEntity
  8
1
  6
Continuous
100
AcDbLine
 10
790.46411
 20
1788.925633951863
 30
0.0
 11
790.46411
 21
1823.925633951864
 31
0.0
  0
LINE
  5
7AF2
330
19
100
AcDbEntity
  8
1
  6
Continuous
100
AcDbLine
 10
873.96411
 20
2019.125633951864
 30
0.0
 11
873.96411
 21
2009.925633951864
 31
0.0
  0
ARC
  5
7AF3
330
19
100
AcDbEntity
  8
1
  6
Continuous
100
AcDbCircle
 10
925.86411
 20
2031.125633951864
 30
0.0
 40
12.0
100
AcDbArc
 50
270.0
 51
0.0
  0
LINE
  5
7AF4
330
19
100
AcDbEntity
  8
1
  6
Continuous
100
AcDbLine
 10
886.96411
 20
2009.925633951864
 30
0.0
 11
886.96411
 21
1880.925633951864
 31
0.0
  0
LINE
  5
7AF5
330
19
100
AcDbEntity
  8
1
  6
Continuous
100
AcDbLine
 10
1036.66411
 20
1788.925633951863
 30
0.0
 11
1142.66411
 21
1788.925633951863
 31
0.0
  0
LINE
  5
7AF6
330
19
100
AcDbEntity
  8
1
  6
Continuous
100
AcDbLine
 10
1036.66411
 20
1823.925633951864
 30
0.0
 11
1142.66411
 21
1823.925633951864
 31
0.0
  0
LINE
  5
7AF7
330
19
100
AcDbEntity
  8
1
  6
Continuous
100
AcDbLine
 10
1012.96411
 20
1875.225633951863
 30
0.0
 11
1164.46411
 21
1875.225633951863
 31
0.0
  0
LINE
  5
7AF8
330
19
100
AcDbEntity
  8
1
  6
Continuous
100
AcDbLine
 10
1036.66411
 20
1788.925633951863
 30
0.0
 11
1036.66411
 21
1823.925633951864
 31
0.0
  0
LINE
  5
7AF9
330
19
100
AcDbEntity
  8
1
  6
Continuous
100
AcDbLine
 10
1077.66411
 20
1823.925633951864
 30
0.0
 11
1077.66411
 21
1875.225633951863
 31
0.0
  0
LINE
  5
7AFA
330
19
100
AcDbEntity
  8
1
  6
Continuous
100
AcDbLine
 10
1142.66411
 20
1788.925633951863
 30
0.0
 11
1142.66411
 21
1823.925633951864
 31
0.0
  0
LINE
  5
7AFB
330
19
100
AcDbEntity
  8
1
  6
Continuous
100
AcDbLine
 10
1181.96411
 20
1768.925633951863
 30
0.0
 11
1181.96411
 21
1843.925633951863
 31
0.0
  0
LINE
  5
7AFC
330
19
100
AcDbEntity
  8
1
  6
Continuous
100
AcDbLine
 10
1101.66411
 20
1823.925633951864
 30
0.0
 11
1101.66411
 21
1875.225633951863
 31
0.0
  0
LINE
  5
7AFD
330
19
100
AcDbEntity
  8
1
  6
Continuous
100
AcDbLine
 10
873.96411
 20
2198.725633951863
 30
0.0
 11
873.96411
 21
2207.925633951864
 31
0.0
  0
ARC
  5
7AFE
330
19
100
AcDbEntity
  8
1
  6
Continuous
100
AcDbCircle
 10
925.86411
 20
2186.725633951864
 30
0.0
 40
12.0
100
AcDbArc
 50
0.0
 51
90.0
  0
LINE
  5
7AFF
330
19
100
AcDbEntity
  8
1
  6
Continuous
100
AcDbLine
 10
1012.96411
 20
2079.225633951864
 30
0.0
 11
1164.46411
 21
2079.225633951864
 31
0.0
  0
LINE
  5
7B00
330
19
100
AcDbEntity
  8
1
  6
Continuous
100
AcDbLine
 10
1276.96411
 20
777.6406535594768
 30
0.0
 11
1276.96411
 21
717.6406535594768
 31
0.0
  0
LINE
  5
7B01
330
19
100
AcDbEntity
  8
1
  6
Continuous
100
AcDbLine
 10
1246.96411
 20
907.6406535594767
 30
0.0
 11
1246.96411
 21
847.6406535594769
 31
0.0
  0
LINE
  5
7B02
330
19
100
AcDbEntity
  8
1
  6
Continuous
100
AcDbLine
 10
1246.96411
 20
927.6406535594768
 30
0.0
 11
1246.96411
 21
907.6406535594767
 31
0.0
  0
LINE
  5
7B03
330
19
100
AcDbEntity
  8
1
  6
Continuous
100
AcDbLine
 10
1276.96411
 20
717.6406535594768
 30
0.0
 11
1246.96411
 21
717.6406535594768
 31
0.0
  0
LINE
  5
7B04
330
19
100
AcDbEntity
  8
1
  6
Continuous
100
AcDbLine
 10
1246.96411
 20
747.6406535594768
 30
0.0
 11
1246.96411
 21
717.6406535594768
 31
0.0
  0
LINE
  5
7B05
330
19
100
AcDbEntity
  8
1
  6
Continuous
100
AcDbLine
 10
1276.96411
 20
2250.925633951864
 30
0.0
 11
1276.96411
 21
1770.925633951863
 31
0.0
  0
LINE
  5
7B06
330
19
100
AcDbEntity
  8
1
  6
Continuous
100
AcDbLine
 10
1246.96411
 20
1770.925633951863
 30
0.0
 11
1276.96411
 21
1770.925633951863
 31
0.0
  0
LINE
  5
7B07
330
19
100
AcDbEntity
  8
1
  6
Continuous
100
AcDbLine
 10
1246.96411
 20
1850.925633951863
 30
0.0
 11
1246.96411
 21
1770.925633951863
 31
0.0
  0
LINE
  5
7B08
330
19
100
AcDbEntity
  8
1
  6
Continuous
100
AcDbLine
 10
1246.96411
 20
2250.925633951864
 30
0.0
 11
1246.96411
 21
2100.925633951864
 31
0.0
  0
LINE
  5
7B09
330
19
100
AcDbEntity
  8
1
  6
Continuous
100
AcDbLine
 10
1246.96411
 20
2250.925633951864
 30
0.0
 11
1276.96411
 21
2250.925633951864
 31
0.0
  0
LINE
  5
7B0B
330
19
100
AcDbEntity
  8
1
  6
Continuous
100
AcDbLine
 10
1616.527137
 20
1373.540653559477
 30
0.0
 11
1772.527137
 21
1373.540653559477
 31
0.0
  0
LINE
  5
7B0E
330
19
100
AcDbEntity
  8
1
  6
Continuous
100
AcDbLine
 10
1784.527137
 20
911.6406535594768
 30
0.0
 11
1604.527137
 21
911.6406535594768
 31
0.0
  0
LINE
  5
7B0F
330
19
100
AcDbEntity
  8
1
  6
Continuous
100
AcDbLine
 10
1356.527137
 20
717.6406535594768
 30
0.0
 11
1836.527137
 21
717.6406535594768
 31
0.0
  0
LINE
  5
7B10
330
19
100
AcDbEntity
  8
1
  6
Continuous
100
AcDbLine
 10
1356.527137
 20
747.6406535594768
 30
0.0
 11
1836.527137
 21
747.6406535594768
 31
0.0
  0
LINE
  5
7B13
330
19
100
AcDbEntity
  8
1
  6
Continuous
100
AcDbLine
 10
1604.527137
 20
911.6406535594768
 30
0.0
 11
1604.527137
 21
1361.540653559477
 31
0.0
  0
LINE
  5
7B14
330
19
100
AcDbEntity
  8
1
  6
Continuous
100
AcDbLine
 10
1595.527137
 20
1015.640653559477
 30
0.0
 11
1595.527137
 21
1162.640653559477
 31
0.0
  0
LINE
  5
7B15
330
19
100
AcDbEntity
  8
1
  6
Continuous
100
AcDbLine
 10
1595.527137
 20
1309.640653559476
 30
0.0
 11
1595.527137
 21
907.6406535594767
 31
0.0
  0
LINE
  5
7B16
330
19
100
AcDbEntity
  8
1
  6
Continuous
100
AcDbLine
 10
1466.527137
 20
907.6406535594767
 30
0.0
 11
1466.527137
 21
1124.440653559476
 31
0.0
  0
LINE
  5
7B17
330
19
100
AcDbEntity
  8
1
  6
Continuous
100
AcDbLine
 10
1354.527137
 20
907.6406535594767
 30
0.0
 11
1354.527137
 21
1287.640653559477
 31
0.0
  0
LINE
  5
7B18
330
19
100
AcDbEntity
  8
1
  6
Continuous
100
AcDbLine
 10
1429.527137
 20
907.6406535594767
 30
0.0
 11
1429.527137
 21
1287.640653559477
 31
0.0
  0
LINE
  5
7B19
330
19
100
AcDbEntity
  8
1
  6
Continuous
100
AcDbLine
 10
1374.527137
 20
1048.140653559477
 30
0.0
 11
1374.527137
 21
942.1406535594767
 31
0.0
  0
LINE
  5
7B1A
330
19
100
AcDbEntity
  8
1
  6
Continuous
100
AcDbLine
 10
1409.527137
 20
1048.140653559477
 30
0.0
 11
1409.527137
 21
942.1406535594767
 31
0.0
  0
LINE
  5
7B1B
330
19
100
AcDbEntity
  8
1
  6
Continuous
100
AcDbLine
 10
1354.527137
 20
907.6406535594767
 30
0.0
 11
1686.527137
 21
907.6406535594767
 31
0.0
  0
LINE
  5
7B1C
330
19
100
AcDbEntity
  8
1
  6
Continuous
100
AcDbLine
 10
1436.527137
 20
847.6406535594769
 30
0.0
 11
1686.527137
 21
847.6406535594769
 31
0.0
  0
LINE
  5
7B1D
330
19
100
AcDbEntity
  8
1
  6
Continuous
100
AcDbLine
 10
1436.527137
 20
777.6406535594768
 30
0.0
 11
1686.527137
 21
777.6406535594768
 31
0.0
  0
LINE
  5
7B1E
330
19
100
AcDbEntity
  8
1
  6
Continuous
100
AcDbLine
 10
1409.527137
 20
983.1406535594767
 30
0.0
 11
1466.527137
 21
983.1406535594767
 31
0.0
  0
LINE
  5
7B1F
330
19
100
AcDbEntity
  8
1
  6
Continuous
100
AcDbLine
 10
1409.527137
 20
1007.140653559477
 30
0.0
 11
1466.527137
 21
1007.140653559477
 31
0.0
  0
LINE
  5
7B20
330
19
100
AcDbEntity
  8
1
  6
Continuous
100
AcDbLine
 10
1356.527137
 20
747.6406535594768
 30
0.0
 11
1356.527137
 21
717.6406535594768
 31
0.0
  0
LINE
  5
7B21
330
19
100
AcDbEntity
  8
1
  6
Continuous
100
AcDbLine
 10
1374.527137
 20
942.1406535594767
 30
0.0
 11
1409.527137
 21
942.1406535594767
 31
0.0
  0
LINE
  5
7B22
330
19
100
AcDbEntity
  8
1
  6
Continuous
100
AcDbLine
 10
1436.527137
 20
907.6406535594767
 30
0.0
 11
1436.527137
 21
847.6406535594769
 31
0.0
  0
LINE
  5
7B23
330
19
100
AcDbEntity
  8
1
  6
Continuous
100
AcDbLine
 10
1436.527137
 20
777.6406535594768
 30
0.0
 11
1436.527137
 21
747.6406535594768
 31
0.0
  0
LINE
  5
7B24
330
19
100
AcDbEntity
  8
1
  6
Continuous
100
AcDbLine
 10
1604.527137
 20
1015.640653559477
 30
0.0
 11
1595.527137
 21
1015.640653559477
 31
0.0
  0
LINE
  5
7B25
330
19
100
AcDbEntity
  8
1
  6
Continuous
100
AcDbLine
 10
1604.527137
 20
911.6406535594768
 30
0.0
 11
1604.527137
 21
933.6209385594766
 31
0.0
  0
LINE
  5
7B26
330
19
100
AcDbEntity
  8
1
  6
Continuous
100
AcDbLine
 10
1686.527137
 20
907.6406535594767
 30
0.0
 11
1686.527137
 21
847.6406535594769
 31
0.0
  0
LINE
  5
7B27
330
19
100
AcDbEntity
  8
1
  6
Continuous
100
AcDbLine
 10
1686.527137
 20
777.6406535594768
 30
0.0
 11
1686.527137
 21
747.6406535594768
 31
0.0
  0
LINE
  5
7B28
330
19
100
AcDbEntity
  8
1
  6
Continuous
100
AcDbLine
 10
1466.527137
 20
1124.440653559476
 30
0.0
 11
1595.527137
 21
1228.740653559477
 31
0.0
  0
LINE
  5
7B29
330
19
100
AcDbEntity
  8
1
  6
Continuous
100
AcDbLine
 10
1409.527137
 20
1174.640653559476
 30
0.0
 11
1528.627137
 21
1174.640653559476
 31
0.0
  0
LINE
  5
7B2A
330
19
100
AcDbEntity
  8
1
  6
Continuous
100
AcDbLine
 10
1409.527137
 20
1150.640653559476
 30
0.0
 11
1498.927137
 21
1150.640653559476
 31
0.0
  0
LINE
  5
7B2B
330
19
100
AcDbEntity
  8
1
  6
Continuous
100
AcDbLine
 10
1354.527137
 20
1287.640653559477
 30
0.0
 11
1429.527137
 21
1287.640653559477
 31
0.0
  0
LINE
  5
7B2C
330
19
100
AcDbEntity
  8
1
  6
Continuous
100
AcDbLine
 10
1374.527137
 20
1226.140653559476
 30
0.0
 11
1374.527137
 21
1099.140653559476
 31
0.0
  0
LINE
  5
7B2D
330
19
100
AcDbEntity
  8
1
  6
Continuous
100
AcDbLine
 10
1374.527137
 20
1226.140653559476
 30
0.0
 11
1409.527137
 21
1226.140653559476
 31
0.0
  0
LINE
  5
7B2E
330
19
100
AcDbEntity
  8
1
  6
Continuous
100
AcDbLine
 10
1374.527137
 20
1099.140653559476
 30
0.0
 11
1409.527137
 21
1099.140653559476
 31
0.0
  0
LINE
  5
7B2F
330
19
100
AcDbEntity
  8
1
  6
Continuous
100
AcDbLine
 10
1409.527137
 20
1226.140653559476
 30
0.0
 11
1409.527137
 21
1099.140653559476
 31
0.0
  0
LINE
  5
7B30
330
19
100
AcDbEntity
  8
1
  6
Continuous
100
AcDbLine
 10
1374.527137
 20
1048.140653559477
 30
0.0
 11
1409.527137
 21
1048.140653559477
 31
0.0
  0
LINE
  5
7B31
330
19
100
AcDbEntity
  8
1
  6
Continuous
100
AcDbLine
 10
1595.527137
 20
1309.640653559476
 30
0.0
 11
1595.527137
 21
1162.640653559477
 31
0.0
  0
LINE
  5
7B32
330
19
100
AcDbEntity
  8
1
  6
Continuous
100
AcDbLine
 10
1604.527137
 20
1309.640653559476
 30
0.0
 11
1595.527137
 21
1309.640653559476
 31
0.0
  0
ARC
  5
7B33
330
19
100
AcDbEntity
  8
1
  6
Continuous
100
AcDbCircle
 10
1616.527137
 20
1361.540653559477
 30
0.0
 40
12.0
100
AcDbArc
 50
90.0
 51
180.0
  0
LINE
  5
7B34
330
19
100
AcDbEntity
  8
1
  6
Continuous
100
AcDbLine
 10
1784.527137
 20
1361.540653559477
 30
0.0
 11
1784.527137
 21
911.6406535594768
 31
0.0
  0
LINE
  5
7B35
330
19
100
AcDbEntity
  8
1
  6
Continuous
100
AcDbLine
 10
1793.527137
 20
1015.640653559477
 30
0.0
 11
1793.527137
 21
1309.640653559476
 31
0.0
  0
LINE
  5
7B36
330
19
100
AcDbEntity
  8
1
  6
Continuous
100
AcDbLine
 10
1784.527137
 20
1015.640653559477
 30
0.0
 11
1793.527137
 21
1015.640653559477
 31
0.0
  0
LINE
  5
7B37
330
19
100
AcDbEntity
  8
1
  6
Continuous
100
AcDbLine
 10
1836.527137
 20
747.6406535594768
 30
0.0
 11
1836.527137
 21
717.6406535594768
 31
0.0
  0
LINE
  5
7B38
330
19
100
AcDbEntity
  8
1
  6
Continuous
100
AcDbLine
 10
1784.527137
 20
1309.640653559476
 30
0.0
 11
1793.527137
 21
1309.640653559476
 31
0.0
  0
ARC
  5
7B39
330
19
100
AcDbEntity
  8
1
  6
Continuous
100
AcDbCircle
 10
1772.527137
 20
1361.540653559477
 30
0.0
 40
12.0
100
AcDbArc
 50
0.0
 51
90.0
  0
LINE
  5
7B3A
330
19
100
AcDbEntity
  8
4
  6
Continuous
100
AcDbLine
 10
1850.0
 20
500.0
 30
0.0
 11
1850.0
 21
300.0
 31
0.0
  0
LINE
  5
7B3B
330
19
100
AcDbEntity
  8
4
  6
Continuous
100
AcDbLine
 10
1150.0
 20
500.0
 30
0.0
 11
1150.0
 21
300.0
 31
0.0
  0
LINE
  5
7B3C
330
19
100
AcDbEntity
  8
4
  6
Continuous
100
AcDbLine
 10
650.0
 20
500.0
 30
0.0
 11
650.0
 21
300.0
 31
0.0
  0
LINE
  5
7B3F
330
19
100
AcDbEntity
  8
4
  6
Continuous
100
AcDbLine
 10
650.0
 20
300.0
 30
0.0
 11
1850.0
 21
300.0
 31
0.0
  0
LINE
  5
7B40
330
19
100
AcDbEntity
  8
4
  6
Continuous
100
AcDbLine
 10
650.0
 20
400.0
 30
0.0
 11
1850.0
 21
400.0
 31
0.0
  0
TEXT
  5
7B41
330
19
100
AcDbEntity
  8
4
  6
Continuous
100
AcDbText
 10
688.502081
 20
431.543026
 30
0.0
 40
50.0
  1
機器名称
100
AcDbText
  0
TEXT
  5
7B42
330
19
100
AcDbEntity
  8
4
  6
Continuous
100
AcDbText
 10
686.258106
 20
321.645157
 30
0.0
 40
50.0
  1
機器型番
100
AcDbText
  0
TEXT
  5
7B43
330
19
100
AcDbEntity
  8
4
  6
Continuous
100
AcDbText
 10
1177.678745
 20
422.571769
 30
0.0
 40
45.0
  1
ミツヤニューマルチファン
100
AcDbText
  0
TEXT
  5
7B44
330
19
100
AcDbEntity
  8
4
  6
Continuous
100
AcDbText
 10
1186.654496
 20
317.159584
 30
0.0
 40
50.0
  1
NM#1 1/2-1
100
AcDbText
  0
TEXT
  5
7B46
330
19
100
AcDbEntity
  8
4
  6
Continuous
100
AcDbText
 10
714.857251
 20
2383.428841
 30
0.0
 40
54.0
  1
天井吊防振ベット
100
AcDbText
  0
TEXT
  5
7B47
330
19
100
AcDbEntity
  8
4
  6
Continuous
100
AcDbText
 10
316.167593
 20
2533.880976000001
 30
0.0
 40
72.0
  1
ベルト駆動式片吸込片持多翼ファン
100
AcDbText
  0
LINE
  5
7B48
330
19
100
AcDbEntity
  8
4
  6
Continuous
100
AcDbLine
 10
250.0
 20
2469.408754
 30
0.0
 11
1850.0
 21
2469.408754
 31
0.0
  0
LINE
  5
7B49
330
19
100
AcDbEntity
  8
4
  6
Continuous
100
AcDbLine
 10
250.0
 20
2669.408754
 30
0.0
 11
1850.0
 21
2669.408754
 31
0.0
  0
LINE
  5
7B4A
330
19
100
AcDbEntity
  8
4
  6
Continuous
100
AcDbLine
 10
650.0
 20
500.0
 30
0.0
 11
1850.0
 21
500.0
 31
0.0
  0
LINE
  5
7B4B
330
19
100
AcDbEntity
  8
4
  6
Continuous
100
AcDbLine
 10
250.0
 20
2669.408754
 30
0.0
 11
250.0
 21
2469.408754
 31
0.0
  0
TEXT
  5
7B4C
330
19
100
AcDbEntity
  8
4
  6
Continuous
100
AcDbText
 10
278.998419
 20
2382.319478000001
 30
0.0
 40
54.0
  1
右回転左横向
100
AcDbText
  0
TEXT
  5
7B4D
330
19
100
AcDbEntity
  8
4
  6
Continuous
100
AcDbText
 10
1468.969559
 20
2706.061081
 30
0.0
 40
56.0
  1
No.
100
AcDbText
  0
TEXT
  5
7B4E
330
19
100
AcDbEntity
  8
4
  6
Continuous
100
AcDbText
 10
1403.547053
 20
2383.428841
 30
0.0
 40
54.0
  1
縮尺：1/10
100
AcDbText
  0
LINE
  5
7B4F
330
19
100
AcDbEntity
  8
4
  6
Continuous
100
AcDbLine
 10
1850.0
 20
2669.408754
 30
0.0
 11
1850.0
 21
2469.408754
 31
0.0
  0
LINE
  5
7B51
330
19
100
AcDbEntity
  8
4
  6
Continuous
100
AcDbLine
 10
1440.617422
 20
2681.263583
 30
0.0
 11
1440.617422
 21
2786.652262
 31
0.0
  0
LINE
  5
7B52
330
19
100
AcDbEntity
  8
4
  6
Continuous
100
AcDbLine
 10
1440.617422
 20
2786.652262
 30
0.0
 11
1850.0
 21
2786.652262
 31
0.0
  0
LINE
  5
7B53
330
19
100
AcDbEntity
  8
4
  6
Continuous
100
AcDbLine
 10
1850.0
 20
2786.652262
 30
0.0
 11
1850.0
 21
2681.263583
 31
0.0
  0
LINE
  5
7B54
330
19
100
AcDbEntity
  8
4
  6
Continuous
100
AcDbLine
 10
1850.0
 20
2681.263583
 30
0.0
 11
1440.617422
 21
2681.263583
 31
0.0
  0
DIMENSION
  5
7B85
330
19
100
AcDbEntity
  8
3
  6
Continuous
100
AcDbDimension
280
     0
  2
*D1
 10
489.4021550000001
 20
912.6406535594767
 30
0.0
 11
489.4021549999999
 21
1044.259863559477
 31
0.0
 70
   160
 71
     5
 42
-1.0
 73
     0
 74
     0
 75
     0
  3
IGA
100
AcDbAlignedDimension
 13
526.9641099999999
 23
1162.640653559477
 33
0.0
 14
526.9641099999999
 24
912.6406535594767
 34
0.0
 50
90.0
100
AcDbRotatedDimension
1001
ACAD
1000
DSTYLE
1002
{
1070
   287
1070
     3
1070
    40
1040
10.0
1070
   143
1040
0.039
1070
   172
1070
     1
1070
   271
1070
     0
1070
   279
1070
     0
1070
   288
1070
     1
1002
}
  0
DIMENSION
  5
7B92
330
19
100
AcDbEntity
  8
3
  6
Continuous
100
AcDbDimension
280
     0
  2
*D2
 10
362.5278820000001
 20
1162.640653559477
 30
0.0
 11
362.5278819999999
 21
1245.957514559477
 31
0.0
 70
   160
 71
     5
 42
-1.0
 73
     0
 74
     0
 75
     0
  3
IGA
100
AcDbAlignedDimension
 13
726.9641099999999
 23
1348.630037559477
 33
0.0
 14
526.9641099999999
 24
1162.640653559477
 34
0.0
 50
90.0
100
AcDbRotatedDimension
1001
ACAD
1000
DSTYLE
1002
{
1070
   287
1070
     3
1070
    40
1040
10.0
1070
   143
1040
0.039
1070
   172
1070
     1
1070
   271
1070
     0
1070
   279
1070
     0
1070
   288
1070
     1
1002
}
  0
DIMENSION
  5
7B9E
330
19
100
AcDbEntity
  8
3
  6
Continuous
100
AcDbDimension
280
     0
  2
*D3
 10
362.5278819999999
 20
847.6406535594769
 30
0.0
 11
337.5278819999997
 21
1005.140653559477
 31
0.0
 70
    32
 71
     5
 42
-1.0
 73
     0
 74
     0
 75
     0
  3
IGA
100
AcDbAlignedDimension
 13
526.9641099999999
 23
1162.640653559477
 33
0.0
 14
536.9641099999999
 24
847.6406535594769
 34
0.0
 50
90.0
100
AcDbRotatedDimension
1001
ACAD
1000
DSTYLE
1002
{
1070
   287
1070
     4
1070
    40
1040
10.0
1070
    75
1070
     1
1070
   143
1040
0.039
1070
   172
1070
     1
1070
   271
1070
     0
1070
   279
1070
     1
1070
   288
1070
     1
1002
}
  0
DIMENSION
  5
7C0C
330
19
100
AcDbEntity
  8
3
  6
Continuous
100
AcDbDimension
280
     0
  2
*D4
 10
726.9641099999999
 20
1403.742835559477
 30
0.0
 11
615.6123360000001
 21
1403.742835559477
 31
0.0
 70
   160
 71
     5
 42
-1.0
 73
     0
 74
     0
 75
     0
  3
IGA
100
AcDbAlignedDimension
 13
526.9641099999999
 23
1183.640653559477
 33
0.0
 14
726.9641099999999
 24
1348.630037559477
 34
0.0
100
AcDbRotatedDimension
1001
ACAD
1000
DSTYLE
1002
{
1070
   287
1070
     3
1070
    40
1040
10.0
1070
   143
1040
0.039
1070
   172
1070
     1
1070
   271
1070
     0
1070
   279
1070
     0
1070
   288
1070
     1
1002
}
  0
DIMENSION
  5
7C18
330
19
100
AcDbEntity
  8
3
  6
Continuous
100
AcDbDimension
280
     0
  2
*D5
 10
946.9534939999999
 20
1403.742835559477
 30
0.0
 11
836.9588019999998
 21
1428.742835559477
 31
0.0
 70
    32
 71
     5
 42
-1.0
 73
     0
 74
     0
 75
     0
  3
IGA
100
AcDbAlignedDimension
 13
726.9641099999999
 23
1348.630037559477
 33
0.0
 14
946.9534939999999
 24
1162.640653559477
 34
0.0
100
AcDbRotatedDimension
1001
ACAD
1000
DSTYLE
1002
{
1070
   287
1070
     4
1070
    40
1040
10.0
1070
    75
1070
     1
1070
   143
1040
0.039
1070
   172
1070
     1
1070
   271
1070
     0
1070
   279
1070
     1
1070
   288
1070
     1
1002
}
  0
DIMENSION
  5
7C25
330
19
100
AcDbEntity
  8
3
  6
Continuous
100
AcDbDimension
280
     0
  2
*D6
 10
1276.96411
 20
1648.925192951864
 30
0.0
 11
862.1171180000001
 21
1648.925192951864
 31
0.0
 70
   160
 71
     5
 42
-1.0
 73
     0
 74
     0
 75
     0
  3
IGA
100
AcDbAlignedDimension
 13
506.9641099999999
 23
1770.925633951863
 33
0.0
 14
1276.96411
 24
1770.925633951863
 34
0.0
100
AcDbRotatedDimension
1001
ACAD
1000
DSTYLE
1002
{
1070
   287
1070
     3
1070
    40
1040
10.0
1070
   143
1040
0.039
1070
   172
1070
     1
1070
   271
1070
     0
1070
   279
1070
     0
1070
   288
1070
     1
1002
}
  0
DIMENSION
  5
7C32
330
19
100
AcDbEntity
  8
3
  6
Continuous
100
AcDbDimension
280
     0
  2
*D7
 10
1387.939216
 20
1770.925633951863
 30
0.0
 11
1387.939216
 21
2000.213125951864
 31
0.0
 70
   160
 71
     5
 42
-1.0
 73
     0
 74
     0
 75
     0
  3
IGA
100
AcDbAlignedDimension
 13
1276.96411
 23
2250.925633951864
 33
0.0
 14
1276.96411
 24
1770.925633951863
 34
0.0
 50
90.0
100
AcDbRotatedDimension
1001
ACAD
1000
DSTYLE
1002
{
1070
   287
1070
     3
1070
    40
1040
10.0
1070
   143
1040
0.039
1070
   172
1070
     1
1070
   271
1070
     0
1070
   279
1070
     0
1070
   288
1070
     1
1002
}
  0
LINE
  5
7C33
330
19
100
AcDbEntity
  8
2
  6
CENTER
100
AcDbLine
 10
967.3101449999998
 20
2108.925633951864
 30
0.0
 11
475.112047
 21
2108.925633951864
 31
0.0
  0
LINE
  5
7C38
330
19
100
AcDbEntity
  8
2
  6
CENTER
100
AcDbLine
 10
1694.527137
 20
1431.655597559477
 30
0.0
 11
1694.527137
 21
717.6406535594768
 31
0.0
  0
DIMENSION
  5
7C5E
330
19
100
AcDbEntity
  8
3
  6
Continuous
100
AcDbDimension
280
     0
  2
*D8
 10
1784.527137
 20
1425.176478559477
 30
0.0
 11
1684.800909
 21
1425.176478559477
 31
0.0
 70
   160
 71
     5
 42
-1.0
 73
     0
 74
     0
 75
     0
  3
IGA
100
AcDbAlignedDimension
 13
1604.527137
 23
1361.540653559477
 33
0.0
 14
1784.527137
 24
1361.540653559477
 34
0.0
100
AcDbRotatedDimension
1001
ACAD
1000
DSTYLE
1002
{
1070
   287
1070
     3
1070
    40
1040
10.0
1070
   143
1040
0.039
1070
   172
1070
     1
1070
   271
1070
     0
1070
   279
1070
     0
1070
   288
1070
     1
1002
}
  0
DIMENSION
  5
7C6B
330
19
100
AcDbEntity
  8
3
  6
Continuous
100
AcDbDimension
280
     0
  2
*D9
 10
1694.527137
 20
1486.105980559477
 30
0.0
 11
1529.157574
 21
1486.105980559477
 31
0.0
 70
   160
  1
(340)
 71
     5
 42
340.0000000000002
 73
     0
 74
     0
 75
     0
  3
IGA
100
AcDbAlignedDimension
 13
1354.527137
 23
1287.640653559477
 33
0.0
 14
1694.527137
 24
1475.452825559477
 34
0.0
100
AcDbRotatedDimension
1001
ACAD
1000
DSTYLE
1002
{
1070
   287
1070
     3
1070
    40
1040
10.0
1070
   143
1040
0.039
1070
   172
1070
     1
1070
   271
1070
     0
1070
   279
1070
     0
1070
   288
1070
     1
1002
}
  0
DIMENSION
  5
7C79
330
19
100
AcDbEntity
  8
3
  6
Continuous
100
AcDbDimension
280
     0
  2
*D10
 10
1793.527137
 20
1486.105980559477
 30
0.0
 11
1739.486406
 21
1486.105980559477
 31
0.0
 70
   160
 71
     5
 42
-1.0
 73
     0
 74
     0
 75
     0
  3
IGA
100
AcDbAlignedDimension
 13
1694.527137
 23
1475.452825559477
 33
0.0
 14
1793.527137
 24
1309.640653559476
 34
0.0
100
AcDbRotatedDimension
1001
ACAD
1000
DSTYLE
1002
{
1070
   287
1070
     4
1070
    40
1040
10.0
1070
    75
1070
     1
1070
   143
1040
0.039
1070
   172
1070
     1
1070
   271
1070
     0
1070
   279
1070
     1
1070
   288
1070
     1
1002
}
  0
LINE
  5
7C95
330
19
100
AcDbEntity
  8
3
  6
Continuous
100
AcDbLine
 10
1793.527137
 20
1037.640653559477
 30
0.0
 11
1808.686204
 21
1037.640653559477
 31
0.0
  0
LINE
  5
7C97
330
19
100
AcDbEntity
  8
3
  6
Continuous
100
AcDbLine
 10
1793.527137
 20
1287.640653559477
 30
0.0
 11
1803.676846
 21
1287.640653559477
 31
0.0
  0
DIMENSION
  5
7CA4
330
19
100
AcDbEntity
  8
3
  6
Continuous
100
AcDbDimension
280
     0
  2
*D11
 10
1870.468293
 20
1037.640653559477
 30
0.0
 11
1870.468293
 21
1149.510191559477
 31
0.0
 70
   160
 71
     5
 42
-1.0
 73
     0
 74
     0
 75
     0
  3
IGA
100
AcDbAlignedDimension
 13
1793.527137
 23
1287.640653559477
 33
0.0
 14
1793.527137
 24
1037.640653559477
 34
0.0
 50
90.0
100
AcDbRotatedDimension
1001
ACAD
1000
DSTYLE
1002
{
1070
   287
1070
     3
1070
     3
1000
φ<>
1070
    40
1040
10.0
1070
   143
1040
0.039
1070
   172
1070
     1
1070
   271
1070
     0
1070
   279
1070
     0
1070
   288
1070
     1
1002
}
  0
LINE
  5
7CA5
330
19
100
AcDbEntity
  8
2
  6
CENTER
100
AcDbLine
 10
1326.431328
 20
1162.640653559477
 30
0.0
 11
1801.482644
 21
1162.640653559477
 31
0.0
  0
LINE
  5
7CA6
330
19
100
AcDbEntity
  8
2
  6
CENTER
100
AcDbLine
 10
726.9641099999999
 20
1710.456124951863
 30
0.0
 11
726.9641099999999
 21
2254.579011951864
 31
0.0
  0
DIMENSION
  5
7D00
330
19
100
AcDbEntity
  8
3
  6
Continuous
100
AcDbDimension
280
     0
  2
*D12
 10
433.3849700000002
 20
1162.640653559477
 30
0.0
 11
433.38497
 21
1048.618746559476
 31
0.0
 70
   160
 71
     5
 42
-1.0
 73
     0
 74
     0
 75
     0
  3
IGA
100
AcDbAlignedDimension
 13
546.9641099999998
 23
902.6406535594768
 33
0.0
 14
546.9641099999998
 24
1162.640653559477
 34
0.0
 50
90.0
100
AcDbRotatedDimension
1001
ACAD
1000
DSTYLE
1002
{
1070
   287
1070
     3
1070
    40
1040
10.0
1070
   143
1040
0.039
1070
   172
1070
     1
1070
   271
1070
     0
1070
   279
1070
     0
1070
   288
1070
     1
1002
}
  0
DIMENSION
  5
7E32
330
19
100
AcDbEntity
  8
3
100
AcDbDimension
280
     0
  2
*D14
 10
726.9641099999999
 20
641.5970976494827
 30
0.0
 11
616.9641099999998
 21
666.5970976494827
 31
0.0
 70
    32
 71
     5
 42
220.0
 73
     0
 74
     0
 75
     0
  3
IGA
100
AcDbAlignedDimension
 13
506.9641099999999
 23
717.6406535594768
 33
0.0
 14
726.9641099999999
 24
747.6406535594769
 34
0.0
100
AcDbRotatedDimension
1001
ACAD
1000
DSTYLE
1002
{
1070
   287
1070
     3
1070
    40
1040
10.0
1070
   143
1040
0.039
1070
   172
1070
     1
1070
   271
1070
     0
1070
   279
1070
     0
1002
}
  0
DIMENSION
  5
7E3F
330
19
100
AcDbEntity
  8
3
100
AcDbDimension
280
     0
  2
*D15
 10
1276.96411
 20
641.5970976494827
 30
0.0
 11
1001.96411
 21
666.5970976494827
 31
0.0
 70
    32
 71
     5
 42
550.0
 73
     0
 74
     0
 75
     0
  3
IGA
100
AcDbAlignedDimension
 13
726.9641099999999
 23
747.6406535594769
 33
0.0
 14
1276.96411
 24
717.6406535594768
 34
0.0
100
AcDbRotatedDimension
1001
ACAD
1000
DSTYLE
1002
{
1070
   287
1070
     3
1070
    40
1040
10.0
1070
   143
1040
0.039
1070
   172
1070
     1
1070
   271
1070
     0
1070
   279
1070
     0
1002
}
  0
DIMENSION
  5
7E4C
330
19
100
AcDbEntity
  8
3
100
AcDbDimension
280
     0
  2
*D16
 10
1694.527137
 20
641.5970976494827
 30
0.0
 11
1525.527137
 21
666.5970976494827
 31
0.0
 70
    32
 71
     5
 42
338.0000000000003
 73
     0
 74
     0
 75
     0
  3
IGA
100
AcDbAlignedDimension
 13
1356.527137
 23
717.6406535594768
 33
0.0
 14
1694.527137
 24
717.6406535594768
 34
0.0
100
AcDbRotatedDimension
1001
ACAD
1000
DSTYLE
1002
{
1070
   287
1070
     3
1070
    40
1040
10.0
1070
   143
1040
0.039
1070
   172
1070
     1
1070
   271
1070
     0
1070
   279
1070
     0
1002
}
  0
DIMENSION
  5
7E59
330
19
100
AcDbEntity
  8
3
100
AcDbDimension
280
     0
  2
*D17
 10
1836.527137
 20
641.5970976494827
 30
0.0
 11
1765.527137
 21
666.5970976494827
 31
0.0
 70
    32
 71
     5
 42
142.0
 73
     0
 74
     0
 75
     0
  3
IGA
100
AcDbAlignedDimension
 13
1694.527137
 23
717.6406535594768
 33
0.0
 14
1836.527137
 24
717.6406535594768
 34
0.0
100
AcDbRotatedDimension
1001
ACAD
1000
DSTYLE
1002
{
1070
   287
1070
     3
1070
    40
1040
10.0
1070
   143
1040
0.039
1070
   172
1070
     1
1070
   271
1070
     0
1070
   279
1070
     0
1002
}
  0
DIMENSION
  5
7E68
330
19
100
AcDbEntity
  8
3
100
AcDbDimension
280
     0
  2
*D18
 10
363.2579440975624
 20
717.6406535594768
 30
0.0
 11
338.2579440975622
 21
663.3549392737627
 31
0.0
 70
    32
 71
     5
 42
60.0
 73
     0
 74
     0
 75
     1
  3
IGA
100
AcDbAlignedDimension
 13
506.9641099999999
 23
777.6406535594768
 33
0.0
 14
506.9641099999999
 24
717.6406535594768
 34
0.0
 50
90.0
100
AcDbRotatedDimension
1001
ACAD
1000
DSTYLE
1002
{
1070
    40
1040
10.0
1070
   143
1040
0.039
1070
   172
1070
     1
1070
   271
1070
     0
1070
   279
1070
     0
1070
   343
1005
7DEB
1002
}
  0
DIMENSION
  5
7E75
330
19
100
AcDbEntity
  8
3
100
AcDbDimension
280
     0
  2
*D19
 10
363.2579440975624
 20
847.6406535594769
 30
0.0
 11
329.1756831331004
 21
812.6406535594769
 31
0.0
 70
   160
 71
     5
 42
70.0
 73
     0
 74
     0
 75
     0
  3
IGA
100
AcDbAlignedDimension
 13
506.9641099999999
 23
777.6406535594768
 33
0.0
 14
536.9641099999999
 24
847.6406535594769
 34
0.0
 50
90.0
100
AcDbRotatedDimension
1001
ACAD
1000
DSTYLE
1002
{
1070
     3
1000
(<>)
1070
    40
1040
10.0
1070
   143
1040
0.039
1070
   172
1070
     1
1070
   271
1070
     0
1070
   343
1005
7DEB
1002
}
  0
DIMENSION
  5
7E82
330
19
100
AcDbEntity
  8
3
100
AcDbDimension
280
     0
  2
*D20
 10
263.3045886074961
 20
717.6406535594768
 30
0.0
 11
230.447445750353
 21
1033.135345559477
 31
0.0
 70
    32
 71
     5
 42
630.9893840000001
 73
     0
 74
     0
 75
     0
  3
IGA
100
AcDbAlignedDimension
 13
721.9641099999998
 23
1348.630037559477
 33
0.0
 14
506.9641099999999
 24
717.6406535594768
 34
0.0
 50
90.0
100
AcDbRotatedDimension
1001
ACAD
1000
DSTYLE
1002
{
1070
   287
1070
     3
1070
     3
1000
(<>)
1070
    40
1040
10.0
1070
   143
1040
0.039
1070
   172
1070
     1
1070
   271
1070
     0
1070
   279
1070
     0
1002
}
  0
ENDSEC
  0
SECTION
  2
OBJECTS
  0
DICTIONARY
  5
C
330
0
100
AcDbDictionary
281
     1
  3
ACAD_CIP_PREVIOUS_PRODUCT_INFO
350
7FC0
  3
ACAD_COLOR
350
7FA3
  3
ACAD_DETAILVIEWSTYLE
350
7FBC
  3
ACAD_GROUP
350
D
  3
ACAD_LAYOUT
350
7E8C
  3
ACAD_MATERIAL
350
7F71
  3
ACAD_MLEADERSTYLE
350
7FB8
  3
ACAD_MLINESTYLE
350
E
  3
ACAD_PLOTSETTINGS
350
7E8D
  3
ACAD_PLOTSTYLENAME
350
7E8A
  3
ACAD_SCALELIST
350
7FA6
  3
ACAD_SECTIONVIEWSTYLE
350
7FBA
  3
ACAD_TABLESTYLE
350
7FA4
  3
ACAD_VISUALSTYLE
350
7F8A
  3
ACDB_RECOMPOSE_DATA
350
807A
  3
AcDbVariableDictionary
350
7F64
  0
DICTIONARY
  5
7FC2
330
2
100
AcDbDictionary
280
     1
281
     1
  3
ACAD_LAYERSTATES
360
7FC3
  0
DICTIONARY
  5
8022
330
F
100
AcDbDictionary
280
     1
281
     1
  3
ADSK_XREC_LAYER_RECONCILED
360
8023
  0
DICTIONARY
  5
8024
330
31
100
AcDbDictionary
280
     1
281
     1
  3
ADSK_XREC_LAYER_RECONCILED
360
8025
  0
DICTIONARY
  5
8026
330
76D0
100
AcDbDictionary
280
     1
281
     1
  3
ADSK_XREC_LAYER_RECONCILED
360
8027
  0
DICTIONARY
  5
8028
330
76D1
100
AcDbDictionary
280
     1
281
     1
  3
ADSK_XREC_LAYER_RECONCILED
360
8029
  0
DICTIONARY
  5
802A
330
76D2
100
AcDbDictionary
280
     1
281
     1
  3
ADSK_XREC_LAYER_RECONCILED
360
802B
  0
DICTIONARY
  5
7EB9
330
19
100
AcDbDictionary
280
     1
281
     1
  3
ACAD_LAYOUTSELFREF
360
7EBA
  0
DICTIONARY
  5
7EB7
330
16
100
AcDbDictionary
280
     1
281
     1
  3
ACAD_LAYOUTSELFREF
360
7EB8
  0
XRECORD
  5
7FC0
102
{ACAD_REACTORS
330
C
102
}
330
C
100
AcDbXrecord
280
     1
300
ACDLT
300
2015
300
INVLTS_F_S
  0
DICTIONARY
  5
7FA3
102
{ACAD_REACTORS
330
C
102
}
330
C
100
AcDbDictionary
281
     1
  0
DICTIONARY
  5
7FBC
102
{ACAD_REACTORS
330
C
102
}
330
C
100
AcDbDictionary
281
     1
  3
Imperial24
350
7FBD
  0
DICTIONARY
  5
D
102
{ACAD_REACTORS
330
C
102
}
330
0
100
AcDbDictionary
281
     1
  0
DICTIONARY
  5
7E8C
102
{ACAD_REACTORS
330
C
102
}
330
C
100
AcDbDictionary
281
     1
  3
Model
350
7E8E
  3
ﾚｲｱｳﾄ1
350
7E8F
  0
DICTIONARY
  5
7F71
102
{ACAD_REACTORS
330
C
102
}
330
C
100
AcDbDictionary
281
     1
  3
ByBlock
350
7F7A
  3
ByLayer
350
7F72
  3
Global
350
7F82
  0
DICTIONARY
  5
7FB8
102
{ACAD_REACTORS
330
C
102
}
330
C
100
AcDbDictionary
281
     1
  3
Standard
350
7FB9
  0
DICTIONARY
  5
E
102
{ACAD_REACTORS
330
C
102
}
330
0
100
AcDbDictionary
281
     1
  3
STANDARD
350
1C
  0
DICTIONARY
  5
7E8D
102
{ACAD_REACTORS
330
C
102
}
330
C
100
AcDbDictionary
281
     1
  0
ACDBDICTIONARYWDFLT
  5
7E8A
102
{ACAD_REACTORS
330
C
102
}
330
C
100
AcDbDictionary
281
     1
  3
Normal
350
7E8B
100
AcDbDictionaryWithDefault
340
7E8B
1001
ACAD
1000
TREAT_AS_HARD
1070
     0
  0
DICTIONARY
  5
7FA6
102
{ACAD_REACTORS
330
C
102
}
330
C
100
AcDbDictionary
281
     1
  3
A0
350
7FA7
  3
A1
350
7FA8
  3
A2
350
7FA9
  3
A3
350
7FAA
  3
A4
350
7FAB
  3
A5
350
7FAC
  3
A6
350
7FAD
  3
A7
350
7FAE
  3
A8
350
7FAF
  3
A9
350
7FB0
  3
B0
350
7FB1
  3
B1
350
7FB2
  3
B2
350
7FB3
  3
B3
350
7FB4
  3
B4
350
7FB5
  3
B5
350
7FB6
  3
B6
350
7FB7
  0
DICTIONARY
  5
7FBA
102
{ACAD_REACTORS
330
C
102
}
330
C
100
AcDbDictionary
281
     1
  3
Imperial24
350
7FBB
  0
DICTIONARY
  5
7FA4
102
{ACAD_REACTORS
330
C
102
}
330
C
100
AcDbDictionary
281
     1
  3
Standard
350
7FA5
  0
DICTIONARY
  5
7F8A
102
{ACAD_REACTORS
330
C
102
}
330
C
100
AcDbDictionary
281
     1
  3
2dWireframe
350
7F90
  3
Basic
350
7F8F
  3
Brighten
350
7F96
  3
ColorChange
350
7F9A
  3
Conceptual
350
7F93
  3
Dim
350
7F95
  3
EdgeColorOff
350
7FA2
  3
Facepattern
350
7F99
  3
Flat
350
7F8B
  3
FlatWithEdges
350
7F8C
  3
Gouraud
350
7F8D
  3
GouraudWithEdges
350
7F8E
  3
Hidden
350
7F92
  3
JitterOff
350
7FA0
  3
Linepattern
350
7F98
  3
OverhangOff
350
7FA1
  3
Realistic
350
7F94
  3
Shaded
350
7F9F
  3
Shaded with edges
350
7F9E
  3
Shades of Gray
350
7F9B
  3
Sketchy
350
7F9C
  3
Thicken
350
7F97
  3
Wireframe
350
7F91
  3
X-Ray
350
7F9D
  0
XRECORD
  5
807A
102
{ACAD_REACTORS
330
C
102
}
330
C
100
AcDbXrecord
280
     1
 90
        1
330
7FA5
330
7FBB
330
7FBD
  0
DICTIONARY
  5
7F64
102
{ACAD_REACTORS
330
C
102
}
330
C
100
AcDbDictionary
281
     1
  3
CANNOSCALE
350
803D
  3
CMLEADERSTYLE
350
8039
  3
CTABLESTYLE
350
8038
  3
CVIEWDETAILSTYLE
350
803A
  3
CVIEWSECTIONSTYLE
350
803B
  3
DIMASSOC
350
7F65
  3
LAYEREVAL
350
803F
  3
LAYERNOTIFY
350
8040
  3
LIGHTINGUNITS
350
803E
  3
MSLTSCALE
350
803C
  0
DICTIONARY
  5
7FC3
102
{ACAD_REACTORS
330
7FC2
102
}
330
7FC2
100
AcDbDictionary
281
     1
  0
XRECORD
  5
8023
102
{ACAD_REACTORS
330
8022
102
}
330
8022
100
AcDbXrecord
280
     1
290
     1
  0
XRECORD
  5
8025
102
{ACAD_REACTORS
330
8024
102
}
330
8024
100
AcDbXrecord
280
     1
290
     1
  0
XRECORD
  5
8027
102
{ACAD_REACTORS
330
8026
102
}
330
8026
100
AcDbXrecord
280
     1
290
     1
  0
XRECORD
  5
8029
102
{ACAD_REACTORS
330
8028
102
}
330
8028
100
AcDbXrecord
280
     1
290
     1
  0
XRECORD
  5
802B
102
{ACAD_REACTORS
330
802A
102
}
330
802A
100
AcDbXrecord
280
     1
290
     1
  0
XRECORD
  5
7EBA
102
{ACAD_REACTORS
330
7EB9
102
}
330
7EB9
100
AcDbXrecord
280
     1
340
19
  0
XRECORD
  5
7EB8
102
{ACAD_REACTORS
330
7EB7
102
}
330
7EB7
100
AcDbXrecord
280
     1
340
16
  0
ACDBDETAILVIEWSTYLE
  5
7FBD
102
{ACAD_XDICTIONARY
360
8035
102
}
102
{ACAD_REACTORS
330
7FBC
102
}
330
7FBC
100
AcDbModelDocViewStyle
 70
     0
  3
Imperial24
290
     0
100
AcDbDetailViewStyle
 70
     0
 71
     0
 90
        3
 71
     1
340
10
 62
   256
 40
0.24
340
0
 62
   256
 40
0.24
300

 40
0.36
280
     3
 71
     2
340
15
 90
       25
 62
   256
 71
     3
340
10
 62
   256
 40
0.24
 90
        1
 40
0.75
 90
        1
300
%<\AcVar ViewType \f "%tc1">% %<\AcVar ViewDetailId>%\PSCALE %<\AcVar ViewScale \f "%sn">%
 71
     4
340
15
 90
       25
 62
   256
340
15
 90
       25
 62
   256
280
     0
  0
LAYOUT
  5
7E8E
102
{ACAD_REACTORS
330
7E8C
102
}
330
7E8C
100
AcDbPlotSettings
  1

  2
\\Txbo34x8944cqyd\EPSON LP-6100
  4

  6

 40
0.0
 41
0.0
 42
0.0
 43
0.0
 44
0.0
 45
0.0
 46
0.0
 47
0.0
 48
0.0
 49
0.0
140
0.0
141
0.0
142
1.0
143
1.0
 70
  1712
 72
     0
 73
     0
 74
     0
  7
GOD2000TABLE.ctb
 75
     0
147
1.0
 76
     0
 77
     2
 78
   300
148
0.0
149
0.0
100
AcDbLayout
  1
Model
 70
     1
 71
     0
 10
0.0
 20
0.0
 11
12.0
 21
9.0
 12
0.0
 22
0.0
 32
0.0
 14
0.0
 24
0.0
 34
0.0
 15
0.0
 25
0.0
 35
0.0
146
0.0
 13
0.0
 23
0.0
 33
0.0
 16
1.0
 26
0.0
 36
0.0
 17
0.0
 27
1.0
 37
0.0
 76
     0
330
19
331
7F6F
  0
LAYOUT
  5
7E8F
102
{ACAD_REACTORS
330
7E8C
102
}
330
7E8C
100
AcDbPlotSettings
  1

  2
\\Txbo34x8944cqyd\EPSON LP-6100
  4

  6

 40
0.0
 41
0.0
 42
0.0
 43
0.0
 44
0.0
 45
0.0
 46
0.0
 47
0.0
 48
0.0
 49
0.0
140
0.0
141
0.0
142
1.0
143
1.0
 70
   688
 72
     0
 73
     0
 74
     5
  7
GOD2000TABLE.ctb
 75
    16
147
1.0
 76
     0
 77
     2
 78
   300
148
0.0
149
0.0
100
AcDbLayout
  1
ﾚｲｱｳﾄ1
 70
     1
 71
     1
 10
0.0
 20
0.0
 11
12.0
 21
9.0
 12
0.0
 22
0.0
 32
0.0
 14
1.000000000000000E+20
 24
1.000000000000000E+20
 34
1.000000000000000E+20
 15
-1.000000000000000E+20
 25
-1.000000000000000E+20
 35
-1.000000000000000E+20
146
0.0
 13
0.0
 23
0.0
 33
0.0
 16
1.0
 26
0.0
 36
0.0
 17
0.0
 27
1.0
 37
0.0
 76
     0
330
16
  0
MATERIAL
  5
7F7A
102
{ACAD_XDICTIONARY
360
7F7B
102
}
102
{ACAD_REACTORS
330
7F71
102
}
330
7F71
100
AcDbMaterial
  1
ByBlock
 72
     0
 43
0.0208333333333333
 43
0.0
 43
0.0
 43
0.0
 43
0.0
 43
0.0208333333333333
 43
0.0
 43
0.0
 43
0.0
 43
0.0
 43
1.0
 43
0.0
 43
0.0
 43
0.0
 43
0.0
 43
1.0
 77
     0
 47
0.0208333333333333
 47
0.0
 47
0.0
 47
0.0
 47
0.0
 47
0.0208333333333333
 47
0.0
 47
0.0
 47
0.0
 47
0.0
 47
1.0
 47
0.0
 47
0.0
 47
0.0
 47
0.0
 47
1.0
171
     0
 49
0.0208333333333333
 49
0.0
 49
0.0
 49
0.0
 49
0.0
 49
0.0208333333333333
 49
0.0
 49
0.0
 49
0.0
 49
0.0
 49
1.0
 49
0.0
 49
0.0
 49
0.0
 49
0.0
 49
1.0
175
     0
142
0.0208333333333333
142
0.0
142
0.0
142
0.0
142
0.0
142
0.0208333333333333
142
0.0
142
0.0
142
0.0
142
0.0
142
1.0
142
0.0
142
0.0
142
0.0
142
0.0
142
1.0
179
     0
144
0.0208333333333333
144
0.0
144
0.0
144
0.0
144
0.0
144
0.0208333333333333
144
0.0
144
0.0
144
0.0
144
0.0
144
1.0
144
0.0
144
0.0
144
0.0
144
0.0
144
1.0
147
0.0208333333333333
147
0.0
147
0.0
147
0.0
147
0.0
147
0.0208333333333333
147
0.0
147
0.0
147
0.0
147
0.0
147
1.0
147
0.0
147
0.0
147
0.0
147
0.0
147
1.0
  0
MATERIAL
  5
7F72
102
{ACAD_XDICTIONARY
360
7F73
102
}
102
{ACAD_REACTORS
330
7F71
102
}
330
7F71
100
AcDbMaterial
  1
ByLayer
 72
     0
 43
0.0208333333333333
 43
0.0
 43
0.0
 43
0.0
 43
0.0
 43
0.0208333333333333
 43
0.0
 43
0.0
 43
0.0
 43
0.0
 43
1.0
 43
0.0
 43
0.0
 43
0.0
 43
0.0
 43
1.0
 77
     0
 47
0.0208333333333333
 47
0.0
 47
0.0
 47
0.0
 47
0.0
 47
0.0208333333333333
 47
0.0
 47
0.0
 47
0.0
 47
0.0
 47
1.0
 47
0.0
 47
0.0
 47
0.0
 47
0.0
 47
1.0
171
     0
 49
0.0208333333333333
 49
0.0
 49
0.0
 49
0.0
 49
0.0
 49
0.0208333333333333
 49
0.0
 49
0.0
 49
0.0
 49
0.0
 49
1.0
 49
0.0
 49
0.0
 49
0.0
 49
0.0
 49
1.0
175
     0
142
0.0208333333333333
142
0.0
142
0.0
142
0.0
142
0.0
142
0.0208333333333333
142
0.0
142
0.0
142
0.0
142
0.0
142
1.0
142
0.0
142
0.0
142
0.0
142
0.0
142
1.0
179
     0
144
0.0208333333333333
144
0.0
144
0.0
144
0.0
144
0.0
144
0.0208333333333333
144
0.0
144
0.0
144
0.0
144
0.0
144
1.0
144
0.0
144
0.0
144
0.0
144
0.0
144
1.0
147
0.0208333333333333
147
0.0
147
0.0
147
0.0
147
0.0
147
0.0208333333333333
147
0.0
147
0.0
147
0.0
147
0.0
147
1.0
147
0.0
147
0.0
147
0.0
147
0.0
147
1.0
  0
MATERIAL
  5
7F82
102
{ACAD_XDICTIONARY
360
7F83
102
}
102
{ACAD_REACTORS
330
7F71
102
}
330
7F71
100
AcDbMaterial
  1
Global
 72
     0
 43
0.0208333333333333
 43
0.0
 43
0.0
 43
0.0
 43
0.0
 43
0.0208333333333333
 43
0.0
 43
0.0
 43
0.0
 43
0.0
 43
1.0
 43
0.0
 43
0.0
 43
0.0
 43
0.0
 43
1.0
 77
     0
 47
0.0208333333333333
 47
0.0
 47
0.0
 47
0.0
 47
0.0
 47
0.0208333333333333
 47
0.0
 47
0.0
 47
0.0
 47
0.0
 47
1.0
 47
0.0
 47
0.0
 47
0.0
 47
0.0
 47
1.0
171
     0
 49
0.0208333333333333
 49
0.0
 49
0.0
 49
0.0
 49
0.0
 49
0.0208333333333333
 49
0.0
 49
0.0
 49
0.0
 49
0.0
 49
1.0
 49
0.0
 49
0.0
 49
0.0
 49
0.0
 49
1.0
175
     0
142
0.0208333333333333
142
0.0
142
0.0
142
0.0
142
0.0
142
0.0208333333333333
142
0.0
142
0.0
142
0.0
142
0.0
142
1.0
142
0.0
142
0.0
142
0.0
142
0.0
142
1.0
179
     0
144
0.0208333333333333
144
0.0
144
0.0
144
0.0
144
0.0
144
0.0208333333333333
144
0.0
144
0.0
144
0.0
144
0.0
144
1.0
144
0.0
144
0.0
144
0.0
144
0.0
144
1.0
147
0.0208333333333333
147
0.0
147
0.0
147
0.0
147
0.0
147
0.0208333333333333
147
0.0
147
0.0
147
0.0
147
0.0
147
1.0
147
0.0
147
0.0
147
0.0
147
0.0
147
1.0
  0
MLEADERSTYLE
  5
7FB9
102
{ACAD_REACTORS
330
7FB8
102
}
330
7FB8
100
AcDbMLeaderStyle
179
     2
170
     2
171
     1
172
     0
 90
        2
 40
0.0
 41
0.0
173
     1
 91
-1056964608
340
13
 92
       -2
290
     1
 42
0.09
291
     1
 43
0.36
  3
Standard
 44
0.18
300

342
10
174
     1
178
     6
175
     1
176
     0
 93
-1056964608
 45
0.18
292
     0
297
     0
 46
0.18
 94
-1056964608
 47
1.0
 49
1.0
140
1.0
293
     1
141
0.0
294
     1
177
     0
142
1.0
295
     1
296
     0
143
0.125
271
     0
272
     9
273
     9
298
     1
  0
MLINESTYLE
  5
1C
102
{ACAD_REACTORS
330
E
102
}
330
0
100
AcDbMlineStyle
  2
STANDARD
 70
     0
  3

 62
     0
 51
90.0
 52
90.0
 71
     2
 49
0.5
 62
   256
  6
BYLAYER
 49
-0.5
 62
   256
  6
BYLAYER
  0
ACDBPLACEHOLDER
  5
7E8B
102
{ACAD_REACTORS
330
7E8A
102
}
330
7E8A
  0
SCALE
  5
7FA7
102
{ACAD_REACTORS
330
7FA6
102
}
330
7FA6
100
AcDbScale
 70
     0
300
1:1
140
1.0
141
1.0
290
     1
  0
SCALE
  5
7FA8
102
{ACAD_REACTORS
330
7FA6
102
}
330
7FA6
100
AcDbScale
 70
     0
300
1/128" = 1'-0"
140
0.0078125
141
12.0
290
     0
  0
SCALE
  5
7FA9
102
{ACAD_REACTORS
330
7FA6
102
}
330
7FA6
100
AcDbScale
 70
     0
300
1/64" = 1'-0"
140
0.015625
141
12.0
290
     0
  0
SCALE
  5
7FAA
102
{ACAD_REACTORS
330
7FA6
102
}
330
7FA6
100
AcDbScale
 70
     0
300
1/32" = 1'-0"
140
0.03125
141
12.0
290
     0
  0
SCALE
  5
7FAB
102
{ACAD_REACTORS
330
7FA6
102
}
330
7FA6
100
AcDbScale
 70
     0
300
1/16" = 1'-0"
140
0.0625
141
12.0
290
     0
  0
SCALE
  5
7FAC
102
{ACAD_REACTORS
330
7FA6
102
}
330
7FA6
100
AcDbScale
 70
     0
300
3/32" = 1'-0"
140
0.09375
141
12.0
290
     0
  0
SCALE
  5
7FAD
102
{ACAD_REACTORS
330
7FA6
102
}
330
7FA6
100
AcDbScale
 70
     0
300
1/8" = 1'-0"
140
0.125
141
12.0
290
     0
  0
SCALE
  5
7FAE
102
{ACAD_REACTORS
330
7FA6
102
}
330
7FA6
100
AcDbScale
 70
     0
300
3/16" = 1'-0"
140
0.1875
141
12.0
290
     0
  0
SCALE
  5
7FAF
102
{ACAD_REACTORS
330
7FA6
102
}
330
7FA6
100
AcDbScale
 70
     0
300
1/4" = 1'-0"
140
0.25
141
12.0
290
     0
  0
SCALE
  5
7FB0
102
{ACAD_REACTORS
330
7FA6
102
}
330
7FA6
100
AcDbScale
 70
     0
300
3/8" = 1'-0"
140
0.375
141
12.0
290
     0
  0
SCALE
  5
7FB1
102
{ACAD_REACTORS
330
7FA6
102
}
330
7FA6
100
AcDbScale
 70
     0
300
1/2" = 1'-0"
140
0.5
141
12.0
290
     0
  0
SCALE
  5
7FB2
102
{ACAD_REACTORS
330
7FA6
102
}
330
7FA6
100
AcDbScale
 70
     0
300
3/4" = 1'-0"
140
0.75
141
12.0
290
     0
  0
SCALE
  5
7FB3
102
{ACAD_REACTORS
330
7FA6
102
}
330
7FA6
100
AcDbScale
 70
     0
300
1" = 1'-0"
140
1.0
141
12.0
290
     0
  0
SCALE
  5
7FB4
102
{ACAD_REACTORS
330
7FA6
102
}
330
7FA6
100
AcDbScale
 70
     0
300
1-1/2" = 1'-0"
140
1.5
141
12.0
290
     0
  0
SCALE
  5
7FB5
102
{ACAD_REACTORS
330
7FA6
102
}
330
7FA6
100
AcDbScale
 70
     0
300
3" = 1'-0"
140
3.0
141
12.0
290
     0
  0
SCALE
  5
7FB6
102
{ACAD_REACTORS
330
7FA6
102
}
330
7FA6
100
AcDbScale
 70
     0
300
6" = 1'-0"
140
6.0
141
12.0
290
     0
  0
SCALE
  5
7FB7
102
{ACAD_REACTORS
330
7FA6
102
}
330
7FA6
100
AcDbScale
 70
     0
300
1'-0" = 1'-0"
140
12.0
141
12.0
290
     0
  0
ACDBSECTIONVIEWSTYLE
  5
7FBB
102
{ACAD_XDICTIONARY
360
8033
102
}
102
{ACAD_REACTORS
330
7FBA
102
}
330
7FBA
100
AcDbModelDocViewStyle
 70
     0
  3
Imperial24
290
     0
100
AcDbSectionViewStyle
 70
     0
 71
     0
 90
       78
 71
     1
340
10
 62
   256
 40
0.24
340
0
340
0
 62
   256
 40
0.24
300
I, O, Q, S, X, Z
 40
0.48
 90
        3
 40
0.18
 90
        1
 71
     2
340
15
 90
       25
 62
   256
340
15
 90
       50
 62
   256
 40
0.24
 40
0.0
 40
0.24
 71
     3
340
10
 62
   256
 40
0.24
 90
        1
 40
0.75
 90
        1
300
%<\AcVar ViewType \f "%tc1">% %<\AcVar ViewSectionStartId>%-%<\AcVar ViewSectionEndId>%\PSCALE %<\AcVar ViewScale \f "%sn">%
 71
     4
 62
   256
 62
   257
300
ANSI31
 40
1.0
 90
        0
290
     0
290
     0
 90
        6
 40
0.0
 40
1.570796326794896
 40
0.2617993877991494
 40
1.308996938995747
 40
-0.2617993877991494
 40
1.832595714594046
  0
TABLESTYLE
  5
7FA5
102
{ACAD_XDICTIONARY
360
8076
102
}
102
{ACAD_REACTORS
330
7FA4
102
}
330
7FA4
100
AcDbTableStyle
280
     0
  3
Standard
 70
     0
 71
     0
 40
0.06
 41
0.06
280
     0
281
     0
  7
STANDARD
140
0.18
170
     2
 62
     0
 63
     7
283
     0
 90
      512
 91
        0
  1

274
    -2
284
     1
 64
     0
275
    -2
285
     1
 65
     0
276
    -2
286
     1
 66
     0
277
    -2
287
     1
 67
     0
278
    -2
288
     1
 68
     0
279
    -2
289
     1
 69
     0
  7
STANDARD
140
0.25
170
     5
 62
     0
 63
     7
283
     0
 90
      512
 91
        0
  1

274
    -2
284
     1
 64
     0
275
    -2
285
     1
 65
     0
276
    -2
286
     1
 66
     0
277
    -2
287
     1
 67
     0
278
    -2
288
     1
 68
     0
279
    -2
289
     1
 69
     0
  7
STANDARD
140
0.18
170
     5
 62
     0
 63
     7
283
     0
 90
      512
 91
        0
  1

274
    -2
284
     1
 64
     0
275
    -2
285
     1
 65
     0
276
    -2
286
     1
 66
     0
277
    -2
287
     1
 67
     0
278
    -2
288
     1
 68
     0
279
    -2
289
     1
 69
     0
  0
VISUALSTYLE
  5
7F90
102
{ACAD_REACTORS
330
7F8A
102
}
330
7F8A
100
AcDbVisualStyle
  2
2dWireframe
 70
     4
177
     3
291
     0
 70
    58
 90
        0
176
     1
 90
        2
176
     1
 90
        0
176
     1
 90
        0
176
     1
 40
0.6
176
     1
 40
30.0
176
     1
 62
     7
420
 16777215
176
     1
 90
        1
176
     1
 90
        4
176
     1
 62
     7
176
     1
 62
   257
176
     1
 90
        1
176
     1
 90
        1
176
     1
 40
1.0
176
     1
 90
        0
176
     1
 62
   257
176
     1
 40
1.0
176
     1
 90
        1
176
     1
 90
        6
176
     1
 90
        2
176
     1
 62
     7
176
     1
 90
        5
176
     1
 90
        0
176
     1
 90
        0
176
     1
290
     0
176
     1
 90
        1
176
     1
 40
0.0
176
     1
 90
        0
176
     1
290
     1
176
     1
290
     1
176
     1
290
     0
176
     1
290
     0
176
     1
290
     0
176
     1
290
     0
176
     1
290
     0
176
     1
290
     0
176
     1
290
     0
176
     1
 90
       50
176
     1
 40
0.0
176
     1
 40
1.0
176
     1
 90
        0
176
     1
 62
    18
420
        0
176
     1
 90
       50
176
     1
 90
        3
176
     1
 62
     5
420
      255
176
     1
290
     0
176
     1
 90
       50
176
     1
 90
       50
176
     1
 90
       50
176
     1
290
     0
176
     1
 90
       50
176
     1
 62
   256
176
     0
 40
1.0
176
     0
 90
        2
176
     1
  1
strokes_ogs.tif
176
     1
290
     0
176
     1
 40
1.0
176
     1
 40
1.0
176
     1
  0
VISUALSTYLE
  5
7F8F
102
{ACAD_REACTORS
330
7F8A
102
}
330
7F8A
100
AcDbVisualStyle
  2
Basic
 70
     7
177
     3
291
     1
 70
    58
 90
        1
176
     1
 90
        0
176
     1
 90
        1
176
     1
 90
        0
176
     1
 40
0.6
176
     1
 40
30.0
176
     1
 62
     7
420
 16777215
176
     1
 90
        0
176
     1
 90
        4
176
     1
 62
     7
176
     1
 62
   257
176
     1
 90
        1
176
     1
 90
        1
176
     1
 40
1.0
176
     1
 90
        8
176
     1
 62
     7
176
     1
 40
1.0
176
     1
 90
        1
176
     1
 90
        6
176
     1
 90
        2
176
     1
 62
     7
176
     1
 90
        5
176
     1
 90
        0
176
     1
 90
        0
176
     1
290
     0
176
     1
 90
        1
176
     1
 40
0.0
176
     1
 90
        0
176
     1
290
     0
176
     1
290
     1
176
     1
290
     1
176
     1
290
     0
176
     1
290
     0
176
     1
290
     0
176
     1
290
     0
176
     1
290
     0
176
     1
290
     0
176
     1
 90
       50
176
     1
 40
0.0
176
     1
 40
1.0
176
     1
 90
        0
176
     1
 62
    18
420
        0
176
     1
 90
       50
176
     1
 90
        3
176
     1
 62
     5
420
      255
176
     1
290
     0
176
     1
 90
       50
176
     1
 90
       50
176
     1
 90
       50
176
     1
290
     0
176
     1
 90
       50
176
     1
 62
   256
176
     0
 40
1.0
176
     0
 90
        2
176
     1
  1
strokes_ogs.tif
176
     1
290
     0
176
     1
 40
1.0
176
     1
 40
1.0
176
     1
  0
VISUALSTYLE
  5
7F96
102
{ACAD_REACTORS
330
7F8A
102
}
330
7F8A
100
AcDbVisualStyle
  2
Brighten
 70
    12
177
     3
291
     1
 70
    58
 90
        2
176
     1
 90
        2
176
     1
 90
        0
176
     1
 90
        0
176
     1
 40
0.6
176
     1
 40
30.0
176
     1
 62
     7
420
 16777215
176
     1
 90
        1
176
     1
 90
        4
176
     1
 62
     7
176
     1
 62
   257
176
     1
 90
        1
176
     1
 90
        1
176
     1
 40
1.0
176
     1
 90
        8
176
     1
 62
     7
176
     1
 40
1.0
176
     1
 90
        1
176
     1
 90
        6
176
     1
 90
        2
176
     1
 62
     7
176
     1
 90
        5
176
     1
 90
        0
176
     1
 90
        0
176
     1
290
     0
176
     1
 90
        1
176
     1
 40
50.0
176
     1
 90
        0
176
     1
290
     0
176
     1
290
     1
176
     1
290
     1
176
     1
290
     0
176
     1
290
     0
176
     1
290
     0
176
     1
290
     0
176
     1
290
     0
176
     1
290
     0
176
     1
 90
       50
176
     1
 40
0.0
176
     1
 40
1.0
176
     1
 90
        0
176
     1
 62
    18
420
        0
176
     1
 90
       50
176
     1
 90
        3
176
     1
 62
     5
420
      255
176
     1
290
     0
176
     1
 90
       50
176
     1
 90
       50
176
     1
 90
       50
176
     1
290
     0
176
     1
 90
       50
176
     1
 62
   256
176
     0
 40
1.0
176
     0
 90
        2
176
     1
  1
strokes_ogs.tif
176
     1
290
     0
176
     1
 40
1.0
176
     1
 40
1.0
176
     1
  0
VISUALSTYLE
  5
7F9A
102
{ACAD_REACTORS
330
7F8A
102
}
330
7F8A
100
AcDbVisualStyle
  2
ColorChange
 70
    16
177
     3
291
     1
 70
    58
 90
        2
176
     1
 90
        2
176
     1
 90
        3
176
     1
 90
        0
176
     1
 40
0.6
176
     1
 40
30.0
176
     1
 62
     8
420
  8421504
176
     1
 90
        1
176
     1
 90
        4
176
     1
 62
     7
176
     1
 62
   257
176
     1
 90
        1
176
     1
 90
        1
176
     1
 40
1.0
176
     1
 90
        8
176
     1
 62
     8
420
  8421504
176
     1
 40
1.0
176
     1
 90
        1
176
     1
 90
        6
176
     1
 90
        2
176
     1
 62
     7
176
     1
 90
        5
176
     1
 90
        0
176
     1
 90
        0
176
     1
290
     0
176
     1
 90
        1
176
     1
 40
0.0
176
     1
 90
        0
176
     1
290
     0
176
     1
290
     1
176
     1
290
     1
176
     1
290
     0
176
     1
290
     0
176
     1
290
     0
176
     1
290
     0
176
     1
290
     0
176
     1
290
     0
176
     1
 90
       50
176
     1
 40
0.0
176
     1
 40
1.0
176
     1
 90
        0
176
     1
 62
    18
420
        0
176
     1
 90
       50
176
     1
 90
        3
176
     1
 62
     5
420
      255
176
     1
290
     0
176
     1
 90
       50
176
     1
 90
       50
176
     1
 90
       50
176
     1
290
     0
176
     1
 90
       50
176
     1
 62
   256
176
     0
 40
1.0
176
     0
 90
        2
176
     1
  1
strokes_ogs.tif
176
     1
290
     0
176
     1
 40
1.0
176
     1
 40
1.0
176
     1
  0
VISUALSTYLE
  5
7F93
102
{ACAD_REACTORS
330
7F8A
102
}
330
7F8A
100
AcDbVisualStyle
  2
Conceptual
 70
     9
177
     3
291
     0
 70
    58
 90
        3
176
     1
 90
        2
176
     1
 90
        0
176
     1
 90
        0
176
     1
 40
0.6
176
     1
 40
30.0
176
     1
 62
     7
420
 16777215
176
     1
 90
        2
176
     1
 90
        2
176
     1
 62
     7
176
     1
 62
   257
176
     1
 90
        1
176
     1
 90
        1
176
     1
 40
179.0
176
     1
 90
        8
176
     1
 62
     7
176
     1
 40
1.0
176
     1
 90
        1
176
     1
 90
        6
176
     1
 90
        2
176
     1
 62
     7
176
     1
 90
        3
176
     1
 90
        0
176
     1
 90
        0
176
     1
290
     0
176
     1
 90
        1
176
     1
 40
0.0
176
     1
 90
        0
176
     1
290
     0
176
     1
290
     1
176
     1
290
     1
176
     1
290
     0
176
     1
290
     0
176
     1
290
     0
176
     1
290
     0
176
     1
290
     0
176
     1
290
     0
176
     1
 90
       50
176
     1
 40
0.0
176
     1
 40
1.0
176
     1
 90
        0
176
     1
 62
    18
420
        0
176
     1
 90
       50
176
     1
 90
        3
176
     1
 62
     5
420
      255
176
     1
290
     0
176
     1
 90
       50
176
     1
 90
       50
176
     1
 90
       50
176
     1
290
     0
176
     1
 90
       50
176
     1
 62
   256
176
     0
 40
1.0
176
     0
 90
        2
176
     1
  1
strokes_ogs.tif
176
     1
290
     0
176
     1
 40
1.0
176
     1
 40
1.0
176
     1
  0
VISUALSTYLE
  5
7F95
102
{ACAD_REACTORS
330
7F8A
102
}
330
7F8A
100
AcDbVisualStyle
  2
Dim
 70
    11
177
     3
291
     1
 70
    58
 90
        2
176
     1
 90
        2
176
     1
 90
        0
176
     1
 90
        0
176
     1
 40
0.6
176
     1
 40
30.0
176
     1
 62
     7
420
 16777215
176
     1
 90
        1
176
     1
 90
        4
176
     1
 62
     7
176
     1
 62
   257
176
     1
 90
        1
176
     1
 90
        1
176
     1
 40
1.0
176
     1
 90
        8
176
     1
 62
     7
176
     1
 40
1.0
176
     1
 90
        1
176
     1
 90
        6
176
     1
 90
        2
176
     1
 62
     7
176
     1
 90
        5
176
     1
 90
        0
176
     1
 90
        0
176
     1
290
     0
176
     1
 90
        1
176
     1
 40
-50.0
176
     1
 90
        0
176
     1
290
     0
176
     1
290
     1
176
     1
290
     1
176
     1
290
     0
176
     1
290
     0
176
     1
290
     0
176
     1
290
     0
176
     1
290
     0
176
     1
290
     0
176
     1
 90
       50
176
     1
 40
0.0
176
     1
 40
1.0
176
     1
 90
        0
176
     1
 62
    18
420
        0
176
     1
 90
       50
176
     1
 90
        3
176
     1
 62
     5
420
      255
176
     1
290
     0
176
     1
 90
       50
176
     1
 90
       50
176
     1
 90
       50
176
     1
290
     0
176
     1
 90
       50
176
     1
 62
   256
176
     0
 40
1.0
176
     0
 90
        2
176
     1
  1
strokes_ogs.tif
176
     1
290
     0
176
     1
 40
1.0
176
     1
 40
1.0
176
     1
  0
VISUALSTYLE
  5
7FA2
102
{ACAD_REACTORS
330
7F8A
102
}
330
7F8A
100
AcDbVisualStyle
  2
EdgeColorOff
 70
    22
177
     3
291
     1
 70
    58
 90
        2
176
     0
 90
        2
176
     0
 90
        0
176
     0
 90
        0
176
     0
 40
0.6
176
     0
 40
30.0
176
     0
 62
     7
420
 16777215
176
     0
 90
        1
176
     0
 90
        4
176
     0
 62
     7
176
     0
 62
   257
176
     0
 90
        1
176
     0
 90
        1
176
     0
 40
1.0
176
     0
 90
        8
176
     2
 62
     7
176
     0
 40
1.0
176
     0
 90
        1
176
     0
 90
        6
176
     0
 90
        2
176
     0
 62
     7
176
     0
 90
        5
176
     0
 90
        0
176
     0
 90
        0
176
     0
290
     0
176
     0
 90
        1
176
     0
 40
0.0
176
     0
 90
        0
176
     0
290
     0
176
     0
290
     1
176
     0
290
     1
176
     0
290
     0
176
     0
290
     0
176
     0
290
     0
176
     0
290
     0
176
     0
290
     0
176
     0
290
     0
176
     0
 90
       50
176
     0
 40
0.0
176
     0
 40
1.0
176
     0
 90
        0
176
     0
 62
    18
420
        0
176
     0
 90
       50
176
     0
 90
        3
176
     0
 62
     5
420
      255
176
     0
290
     0
176
     0
 90
       50
176
     0
 90
       50
176
     0
 90
       50
176
     0
290
     0
176
     0
 90
       50
176
     0
 62
   256
176
     0
 40
1.0
176
     0
 90
        2
176
     0
  1
strokes_ogs.tif
176
     0
290
     0
176
     0
 40
1.0
176
     0
 40
1.0
176
     0
  0
VISUALSTYLE
  5
7F99
102
{ACAD_REACTORS
330
7F8A
102
}
330
7F8A
100
AcDbVisualStyle
  2
Facepattern
 70
    15
177
     3
291
     1
 70
    58
 90
        2
176
     1
 90
        2
176
     1
 90
        0
176
     1
 90
        0
176
     1
 40
0.6
176
     1
 40
30.0
176
     1
 62
     7
420
 16777215
176
     1
 90
        1
176
     1
 90
        4
176
     1
 62
     7
176
     1
 62
   257
176
     1
 90
        1
176
     1
 90
        1
176
     1
 40
1.0
176
     1
 90
        8
176
     1
 62
     7
176
     1
 40
1.0
176
     1
 90
        1
176
     1
 90
        6
176
     1
 90
        2
176
     1
 62
     7
176
     1
 90
        5
176
     1
 90
        0
176
     1
 90
        0
176
     1
290
     0
176
     1
 90
        1
176
     1
 40
0.0
176
     1
 90
        0
176
     1
290
     0
176
     1
290
     1
176
     1
290
     1
176
     1
290
     0
176
     1
290
     0
176
     1
290
     0
176
     1
290
     0
176
     1
290
     0
176
     1
290
     0
176
     1
 90
       50
176
     1
 40
0.0
176
     1
 40
1.0
176
     1
 90
        0
176
     1
 62
    18
420
        0
176
     1
 90
       50
176
     1
 90
        3
176
     1
 62
     5
420
      255
176
     1
290
     0
176
     1
 90
       50
176
     1
 90
       50
176
     1
 90
       50
176
     1
290
     0
176
     1
 90
       50
176
     1
 62
   256
176
     0
 40
1.0
176
     0
 90
        2
176
     1
  1
strokes_ogs.tif
176
     1
290
     0
176
     1
 40
1.0
176
     1
 40
1.0
176
     1
  0
VISUALSTYLE
  5
7F8B
102
{ACAD_REACTORS
330
7F8A
102
}
330
7F8A
100
AcDbVisualStyle
  2
Flat
 70
     0
177
     3
291
     1
 70
    58
 90
        2
176
     1
 90
        1
176
     1
 90
        1
176
     1
 90
        2
176
     1
 40
0.6
176
     1
 40
30.0
176
     1
 62
     7
420
 16777215
176
     1
 90
        0
176
     1
 90
        0
176
     1
 62
     7
176
     1
 62
   257
176
     1
 90
        1
176
     1
 90
        1
176
     1
 40
1.0
176
     1
 90
        8
176
     1
 62
     7
176
     1
 40
1.0
176
     1
 90
        1
176
     1
 90
        6
176
     1
 90
        2
176
     1
 62
     7
176
     1
 90
        5
176
     1
 90
        0
176
     1
 90
        0
176
     1
290
     0
176
     1
 90
       13
176
     1
 40
0.0
176
     1
 90
        0
176
     1
290
     0
176
     1
290
     1
176
     1
290
     1
176
     1
290
     0
176
     1
290
     0
176
     1
290
     0
176
     1
290
     0
176
     1
290
     0
176
     1
290
     0
176
     1
 90
       50
176
     1
 40
0.0
176
     1
 40
1.0
176
     1
 90
        0
176
     1
 62
    18
420
        0
176
     1
 90
       50
176
     1
 90
        3
176
     1
 62
     5
420
      255
176
     1
290
     0
176
     1
 90
       50
176
     1
 90
       50
176
     1
 90
       50
176
     1
290
     0
176
     1
 90
       50
176
     1
 62
   256
176
     0
 40
1.0
176
     0
 90
        2
176
     1
  1
strokes_ogs.tif
176
     1
290
     0
176
     1
 40
1.0
176
     1
 40
1.0
176
     1
  0
VISUALSTYLE
  5
7F8C
102
{ACAD_REACTORS
330
7F8A
102
}
330
7F8A
100
AcDbVisualStyle
  2
FlatWithEdges
 70
     1
177
     3
291
     1
 70
    58
 90
        2
176
     1
 90
        1
176
     1
 90
        1
176
     1
 90
        2
176
     1
 40
0.6
176
     1
 40
30.0
176
     1
 62
     7
420
 16777215
176
     1
 90
        1
176
     1
 90
        0
176
     1
 62
     7
176
     1
 62
   257
176
     1
 90
        1
176
     1
 90
        1
176
     1
 40
1.0
176
     1
 90
        0
176
     1
 62
   257
176
     1
 40
1.0
176
     1
 90
        1
176
     1
 90
        6
176
     1
 90
        2
176
     1
 62
     7
176
     1
 90
        5
176
     1
 90
        0
176
     1
 90
        0
176
     1
290
     0
176
     1
 90
       13
176
     1
 40
0.0
176
     1
 90
        0
176
     1
290
     0
176
     1
290
     1
176
     1
290
     1
176
     1
290
     0
176
     1
290
     0
176
     1
290
     0
176
     1
290
     0
176
     1
290
     0
176
     1
290
     0
176
     1
 90
       50
176
     1
 40
0.0
176
     1
 40
1.0
176
     1
 90
        0
176
     1
 62
    18
420
        0
176
     1
 90
       50
176
     1
 90
        3
176
     1
 62
     5
420
      255
176
     1
290
     0
176
     1
 90
       50
176
     1
 90
       50
176
     1
 90
       50
176
     1
290
     0
176
     1
 90
       50
176
     1
 62
   256
176
     0
 40
1.0
176
     0
 90
        2
176
     1
  1
strokes_ogs.tif
176
     1
290
     0
176
     1
 40
1.0
176
     1
 40
1.0
176
     1
  0
VISUALSTYLE
  5
7F8D
102
{ACAD_REACTORS
330
7F8A
102
}
330
7F8A
100
AcDbVisualStyle
  2
Gouraud
 70
     2
177
     3
291
     1
 70
    58
 90
        2
176
     1
 90
        2
176
     1
 90
        1
176
     1
 90
        2
176
     1
 40
0.6
176
     1
 40
30.0
176
     1
 62
     7
420
 16777215
176
     1
 90
        0
176
     1
 90
        0
176
     1
 62
     7
176
     1
 62
   257
176
     1
 90
        1
176
     1
 90
        1
176
     1
 40
1.0
176
     1
 90
        0
176
     1
 62
     7
176
     1
 40
1.0
176
     1
 90
        1
176
     1
 90
        6
176
     1
 90
        2
176
     1
 62
     7
176
     1
 90
        5
176
     1
 90
        0
176
     1
 90
        0
176
     1
290
     0
176
     1
 90
       13
176
     1
 40
0.0
176
     1
 90
        0
176
     1
290
     0
176
     1
290
     1
176
     1
290
     1
176
     1
290
     0
176
     1
290
     0
176
     1
290
     0
176
     1
290
     0
176
     1
290
     0
176
     1
290
     0
176
     1
 90
       50
176
     1
 40
0.0
176
     1
 40
1.0
176
     1
 90
        0
176
     1
 62
    18
420
        0
176
     1
 90
       50
176
     1
 90
        3
176
     1
 62
     5
420
      255
176
     1
290
     0
176
     1
 90
       50
176
     1
 90
       50
176
     1
 90
       50
176
     1
290
     0
176
     1
 90
       50
176
     1
 62
   256
176
     0
 40
1.0
176
     0
 90
        2
176
     1
  1
strokes_ogs.tif
176
     1
290
     0
176
     1
 40
1.0
176
     1
 40
1.0
176
     1
  0
VISUALSTYLE
  5
7F8E
102
{ACAD_REACTORS
330
7F8A
102
}
330
7F8A
100
AcDbVisualStyle
  2
GouraudWithEdges
 70
     3
177
     3
291
     1
 70
    58
 90
        2
176
     1
 90
        2
176
     1
 90
        1
176
     1
 90
        2
176
     1
 40
0.6
176
     1
 40
30.0
176
     1
 62
     7
420
 16777215
176
     1
 90
        1
176
     1
 90
        0
176
     1
 62
     7
176
     1
 62
   257
176
     1
 90
        1
176
     1
 90
        1
176
     1
 40
1.0
176
     1
 90
        0
176
     1
 62
   257
176
     1
 40
1.0
176
     1
 90
        1
176
     1
 90
        6
176
     1
 90
        2
176
     1
 62
     7
176
     1
 90
        5
176
     1
 90
        0
176
     1
 90
        0
176
     1
290
     0
176
     1
 90
       13
176
     1
 40
0.0
176
     1
 90
        0
176
     1
290
     0
176
     1
290
     1
176
     1
290
     1
176
     1
290
     0
176
     1
290
     0
176
     1
290
     0
176
     1
290
     0
176
     1
290
     0
176
     1
290
     0
176
     1
 90
       50
176
     1
 40
0.0
176
     1
 40
1.0
176
     1
 90
        0
176
     1
 62
    18
420
        0
176
     1
 90
       50
176
     1
 90
        3
176
     1
 62
     5
420
      255
176
     1
290
     0
176
     1
 90
       50
176
     1
 90
       50
176
     1
 90
       50
176
     1
290
     0
176
     1
 90
       50
176
     1
 62
   256
176
     0
 40
1.0
176
     0
 90
        2
176
     1
  1
strokes_ogs.tif
176
     1
290
     0
176
     1
 40
1.0
176
     1
 40
1.0
176
     1
  0
VISUALSTYLE
  5
7F92
102
{ACAD_REACTORS
330
7F8A
102
}
330
7F8A
100
AcDbVisualStyle
  2
Hidden
 70
     6
177
     3
291
     0
 70
    58
 90
        1
176
     1
 90
        2
176
     1
 90
        2
176
     1
 90
        0
176
     1
 40
0.6
176
     1
 40
30.0
176
     1
 62
     7
420
 16777215
176
     1
 90
        2
176
     1
 90
        2
176
     1
 62
     7
176
     1
 62
   257
176
     1
 90
        2
176
     1
 90
        1
176
     1
 40
40.0
176
     1
 90
        0
176
     1
 62
   257
176
     1
 40
1.0
176
     1
 90
        1
176
     1
 90
        6
176
     1
 90
        2
176
     1
 62
     7
176
     1
 90
        3
176
     1
 90
        0
176
     1
 90
        0
176
     1
290
     0
176
     1
 90
        1
176
     1
 40
0.0
176
     1
 90
        0
176
     1
290
     0
176
     1
290
     1
176
     1
290
     1
176
     1
290
     0
176
     1
290
     0
176
     1
290
     0
176
     1
290
     0
176
     1
290
     0
176
     1
290
     0
176
     1
 90
       50
176
     1
 40
0.0
176
     1
 40
1.0
176
     1
 90
        0
176
     1
 62
    18
420
        0
176
     1
 90
       50
176
     1
 90
        3
176
     1
 62
     5
420
      255
176
     1
290
     0
176
     1
 90
       50
176
     1
 90
       50
176
     1
 90
       50
176
     1
290
     0
176
     1
 90
       50
176
     1
 62
   256
176
     0
 40
1.0
176
     0
 90
        2
176
     1
  1
strokes_ogs.tif
176
     1
290
     0
176
     1
 40
1.0
176
     1
 40
1.0
176
     1
  0
VISUALSTYLE
  5
7FA0
102
{ACAD_REACTORS
330
7F8A
102
}
330
7F8A
100
AcDbVisualStyle
  2
JitterOff
 70
    20
177
     3
291
     1
 70
    58
 90
        2
176
     0
 90
        2
176
     0
 90
        0
176
     0
 90
        0
176
     0
 40
0.6
176
     0
 40
30.0
176
     0
 62
     7
420
 16777215
176
     0
 90
        1
176
     0
 90
        4
176
     0
 62
     7
176
     0
 62
   257
176
     0
 90
        1
176
     0
 90
        1
176
     0
 40
1.0
176
     0
 90
       10
176
     2
 62
     7
176
     0
 40
1.0
176
     0
 90
        1
176
     0
 90
        6
176
     0
 90
        2
176
     0
 62
     7
176
     0
 90
        5
176
     0
 90
        0
176
     0
 90
        0
176
     0
290
     0
176
     0
 90
        1
176
     0
 40
0.0
176
     0
 90
        0
176
     0
290
     0
176
     0
290
     1
176
     0
290
     1
176
     0
290
     0
176
     0
290
     0
176
     0
290
     0
176
     0
290
     0
176
     0
290
     0
176
     0
290
     0
176
     0
 90
       50
176
     0
 40
0.0
176
     0
 40
1.0
176
     0
 90
        0
176
     0
 62
    18
420
        0
176
     0
 90
       50
176
     0
 90
        3
176
     0
 62
     5
420
      255
176
     0
290
     0
176
     0
 90
       50
176
     0
 90
       50
176
     0
 90
       50
176
     0
290
     0
176
     0
 90
       50
176
     0
 62
   256
176
     0
 40
1.0
176
     0
 90
        2
176
     0
  1
strokes_ogs.tif
176
     0
290
     0
176
     0
 40
1.0
176
     0
 40
1.0
176
     0
  0
VISUALSTYLE
  5
7F98
102
{ACAD_REACTORS
330
7F8A
102
}
330
7F8A
100
AcDbVisualStyle
  2
Linepattern
 70
    14
177
     3
291
     1
 70
    58
 90
        2
176
     1
 90
        2
176
     1
 90
        0
176
     1
 90
        0
176
     1
 40
0.6
176
     1
 40
30.0
176
     1
 62
     7
420
 16777215
176
     1
 90
        1
176
     1
 90
        4
176
     1
 62
     7
176
     1
 62
   257
176
     1
 90
        7
176
     1
 90
        7
176
     1
 40
1.0
176
     1
 90
        8
176
     1
 62
     7
176
     1
 40
1.0
176
     1
 90
        1
176
     1
 90
        6
176
     1
 90
        2
176
     1
 62
     7
176
     1
 90
        5
176
     1
 90
        0
176
     1
 90
        0
176
     1
290
     0
176
     1
 90
        1
176
     1
 40
0.0
176
     1
 90
        0
176
     1
290
     0
176
     1
290
     1
176
     1
290
     1
176
     1
290
     0
176
     1
290
     0
176
     1
290
     0
176
     1
290
     0
176
     1
290
     0
176
     1
290
     0
176
     1
 90
       50
176
     1
 40
0.0
176
     1
 40
1.0
176
     1
 90
        0
176
     1
 62
    18
420
        0
176
     1
 90
       50
176
     1
 90
        3
176
     1
 62
     5
420
      255
176
     1
290
     0
176
     1
 90
       50
176
     1
 90
       50
176
     1
 90
       50
176
     1
290
     0
176
     1
 90
       50
176
     1
 62
   256
176
     0
 40
1.0
176
     0
 90
        2
176
     1
  1
strokes_ogs.tif
176
     1
290
     0
176
     1
 40
1.0
176
     1
 40
1.0
176
     1
  0
VISUALSTYLE
  5
7FA1
102
{ACAD_REACTORS
330
7F8A
102
}
330
7F8A
100
AcDbVisualStyle
  2
OverhangOff
 70
    21
177
     3
291
     1
 70
    58
 90
        2
176
     0
 90
        2
176
     0
 90
        0
176
     0
 90
        0
176
     0
 40
0.6
176
     0
 40
30.0
176
     0
 62
     7
420
 16777215
176
     0
 90
        1
176
     0
 90
        4
176
     0
 62
     7
176
     0
 62
   257
176
     0
 90
        1
176
     0
 90
        1
176
     0
 40
1.0
176
     0
 90
        9
176
     2
 62
     7
176
     0
 40
1.0
176
     0
 90
        1
176
     0
 90
        6
176
     0
 90
        2
176
     0
 62
     7
176
     0
 90
        5
176
     0
 90
        0
176
     0
 90
        0
176
     0
290
     0
176
     0
 90
        1
176
     0
 40
0.0
176
     0
 90
        0
176
     0
290
     0
176
     0
290
     1
176
     0
290
     1
176
     0
290
     0
176
     0
290
     0
176
     0
290
     0
176
     0
290
     0
176
     0
290
     0
176
     0
290
     0
176
     0
 90
       50
176
     0
 40
0.0
176
     0
 40
1.0
176
     0
 90
        0
176
     0
 62
    18
420
        0
176
     0
 90
       50
176
     0
 90
        3
176
     0
 62
     5
420
      255
176
     0
290
     0
176
     0
 90
       50
176
     0
 90
       50
176
     0
 90
       50
176
     0
290
     0
176
     0
 90
       50
176
     0
 62
   256
176
     0
 40
1.0
176
     0
 90
        2
176
     0
  1
strokes_ogs.tif
176
     0
290
     0
176
     0
 40
1.0
176
     0
 40
1.0
176
     0
  0
VISUALSTYLE
  5
7F94
102
{ACAD_REACTORS
330
7F8A
102
}
330
7F8A
100
AcDbVisualStyle
  2
Realistic
 70
     8
177
     3
291
     0
 70
    58
 90
        2
176
     1
 90
        3
176
     1
 90
        0
176
     1
 90
        2
176
     1
 40
0.6
176
     1
 40
30.0
176
     1
 62
     7
420
 16777215
176
     1
 90
        0
176
     1
 90
        0
176
     1
 62
     7
176
     1
 62
   257
176
     1
 90
        1
176
     1
 90
        1
176
     1
 40
1.0
176
     1
 90
        8
176
     1
 62
   257
176
     1
 40
1.0
176
     1
 90
        1
176
     1
 90
        6
176
     1
 90
        2
176
     1
 62
     7
176
     1
 90
        3
176
     1
 90
        0
176
     1
 90
        0
176
     1
290
     0
176
     1
 90
       13
176
     1
 40
0.0
176
     1
 90
        0
176
     1
290
     0
176
     1
290
     1
176
     1
290
     1
176
     1
290
     0
176
     1
290
     0
176
     1
290
     0
176
     1
290
     0
176
     1
290
     0
176
     1
290
     0
176
     1
 90
       50
176
     1
 40
0.0
176
     1
 40
1.0
176
     1
 90
        0
176
     1
 62
    18
420
        0
176
     1
 90
       50
176
     1
 90
        3
176
     1
 62
     5
420
      255
176
     1
290
     0
176
     1
 90
       50
176
     1
 90
       50
176
     1
 90
       50
176
     1
290
     0
176
     1
 90
       50
176
     1
 62
   256
176
     0
 40
1.0
176
     0
 90
        2
176
     1
  1
strokes_ogs.tif
176
     1
290
     0
176
     1
 40
1.0
176
     1
 40
1.0
176
     1
  0
VISUALSTYLE
  5
7F9F
102
{ACAD_REACTORS
330
7F8A
102
}
330
7F8A
100
AcDbVisualStyle
  2
Shaded
 70
    27
177
     3
291
     0
 70
    58
 90
        2
176
     1
 90
        2
176
     1
 90
        1
176
     1
 90
        2
176
     1
 40
0.6
176
     1
 40
30.0
176
     1
 62
     7
420
 16777215
176
     1
 90
        0
176
     1
 90
        4
176
     1
 62
     7
176
     1
 62
   257
176
     1
 90
        1
176
     1
 90
        1
176
     1
 40
1.0
176
     1
 90
        8
176
     1
 62
   257
176
     1
 40
1.0
176
     1
 90
        1
176
     1
 90
        6
176
     1
 90
        2
176
     1
 62
     8
420
  7895160
176
     1
 90
        3
176
     1
 90
        0
176
     1
 90
        0
176
     1
290
     0
176
     1
 90
        5
176
     1
 40
0.0
176
     1
 90
        0
176
     1
290
     0
176
     1
290
     1
176
     1
290
     1
176
     1
290
     0
176
     1
290
     0
176
     1
290
     0
176
     1
290
     0
176
     1
290
     0
176
     1
290
     0
176
     1
 90
       50
176
     1
 40
0.0
176
     1
 40
1.0
176
     1
 90
        0
176
     1
 62
    18
420
        0
176
     1
 90
       50
176
     1
 90
        3
176
     1
 62
     5
420
      255
176
     1
290
     0
176
     1
 90
       50
176
     1
 90
       50
176
     1
 90
       50
176
     1
290
     0
176
     1
 90
       50
176
     1
 62
   256
176
     0
 40
1.0
176
     0
 90
        2
176
     1
  1
strokes_ogs.tif
176
     1
290
     0
176
     1
 40
1.0
176
     1
 40
1.0
176
     1
  0
VISUALSTYLE
  5
7F9E
102
{ACAD_REACTORS
330
7F8A
102
}
330
7F8A
100
AcDbVisualStyle
  2
Shaded with edges
 70
    26
177
     3
291
     0
 70
    58
 90
        2
176
     1
 90
        2
176
     1
 90
        1
176
     1
 90
        2
176
     1
 40
0.6
176
     1
 40
30.0
176
     1
 62
     7
420
 16777215
176
     1
 90
        1
176
     1
 90
       10
176
     1
 62
     7
176
     1
 62
   257
176
     1
 90
        2
176
     1
 90
        1
176
     1
 40
1.0
176
     1
 90
        8
176
     1
 62
   257
176
     1
 40
1.0
176
     1
 90
        1
176
     1
 90
        6
176
     1
 90
        2
176
     1
 62
     7
176
     1
 90
        3
176
     1
 90
        0
176
     1
 90
        0
176
     1
290
     0
176
     1
 90
        5
176
     1
 40
0.0
176
     1
 90
        0
176
     1
290
     0
176
     1
290
     1
176
     1
290
     1
176
     1
290
     0
176
     1
290
     0
176
     1
290
     0
176
     1
290
     0
176
     1
290
     0
176
     1
290
     0
176
     1
 90
       50
176
     1
 40
0.0
176
     1
 40
1.0
176
     1
 90
        0
176
     1
 62
    18
420
        0
176
     1
 90
       50
176
     1
 90
        3
176
     1
 62
     5
420
      255
176
     1
290
     0
176
     1
 90
       50
176
     1
 90
       50
176
     1
 90
       50
176
     1
290
     0
176
     1
 90
       50
176
     1
 62
   256
176
     0
 40
1.0
176
     0
 90
        2
176
     1
  1
strokes_ogs.tif
176
     1
290
     0
176
     1
 40
1.0
176
     1
 40
1.0
176
     1
  0
VISUALSTYLE
  5
7F9B
102
{ACAD_REACTORS
330
7F8A
102
}
330
7F8A
100
AcDbVisualStyle
  2
Shades of Gray
 70
    23
177
     3
291
     0
 70
    58
 90
        2
176
     1
 90
        2
176
     1
 90
        3
176
     1
 90
        0
176
     1
 40
0.6
176
     1
 40
30.0
176
     1
 62
     7
420
 16777215
176
     1
 90
        2
176
     1
 90
        2
176
     1
 62
     7
176
     1
 62
     7
176
     1
 90
        1
176
     1
 90
        1
176
     1
 40
40.0
176
     1
 90
        8
176
     1
 62
     7
176
     1
 40
1.0
176
     1
 90
        1
176
     1
 90
        6
176
     1
 90
        2
176
     1
 62
     7
176
     1
 90
        3
176
     1
 90
        0
176
     1
 90
        0
176
     1
290
     0
176
     1
 90
        1
176
     1
 40
0.0
176
     1
 90
        0
176
     1
290
     0
176
     1
290
     1
176
     1
290
     1
176
     1
290
     0
176
     1
290
     0
176
     1
290
     0
176
     1
290
     0
176
     1
290
     0
176
     1
290
     0
176
     1
 90
       50
176
     1
 40
0.0
176
     1
 40
1.0
176
     1
 90
        0
176
     1
 62
    18
420
        0
176
     1
 90
       50
176
     1
 90
        3
176
     1
 62
     5
420
      255
176
     1
290
     0
176
     1
 90
       50
176
     1
 90
       50
176
     1
 90
       50
176
     1
290
     0
176
     1
 90
       50
176
     1
 62
   256
176
     0
 40
1.0
176
     0
 90
        2
176
     1
  1
strokes_ogs.tif
176
     1
290
     0
176
     1
 40
1.0
176
     1
 40
1.0
176
     1
  0
VISUALSTYLE
  5
7F9C
102
{ACAD_REACTORS
330
7F8A
102
}
330
7F8A
100
AcDbVisualStyle
  2
Sketchy
 70
    24
177
     3
291
     0
 70
    58
 90
        1
176
     1
 90
        2
176
     1
 90
        2
176
     1
 90
        0
176
     1
 40
0.6
176
     1
 40
30.0
176
     1
 62
     7
420
 16777215
176
     1
 90
        2
176
     1
 90
        2
176
     1
 62
     7
176
     1
 62
     7
176
     1
 90
        1
176
     1
 90
        1
176
     1
 40
40.0
176
     1
 90
       11
176
     1
 62
     7
176
     1
 40
1.0
176
     1
 90
        1
176
     1
 90
        6
176
     1
 90
        2
176
     1
 62
     7
176
     1
 90
        6
176
     1
 90
        0
176
     1
 90
        0
176
     1
290
     0
176
     1
 90
        1
176
     1
 40
0.0
176
     1
 90
        0
176
     1
290
     0
176
     1
290
     1
176
     1
290
     1
176
     1
290
     0
176
     1
290
     0
176
     1
290
     0
176
     1
290
     0
176
     1
290
     0
176
     1
290
     0
176
     1
 90
       50
176
     1
 40
0.0
176
     1
 40
1.0
176
     1
 90
        0
176
     1
 62
    18
420
        0
176
     1
 90
       50
176
     1
 90
        3
176
     1
 62
     5
420
      255
176
     1
290
     0
176
     1
 90
       50
176
     1
 90
       50
176
     1
 90
       50
176
     1
290
     0
176
     1
 90
       50
176
     1
 62
   256
176
     0
 40
1.0
176
     0
 90
        2
176
     1
  1
strokes_ogs.tif
176
     1
290
     0
176
     1
 40
1.0
176
     1
 40
1.0
176
     1
  0
VISUALSTYLE
  5
7F97
102
{ACAD_REACTORS
330
7F8A
102
}
330
7F8A
100
AcDbVisualStyle
  2
Thicken
 70
    13
177
     3
291
     1
 70
    58
 90
        2
176
     1
 90
        2
176
     1
 90
        0
176
     1
 90
        0
176
     1
 40
0.6
176
     1
 40
30.0
176
     1
 62
     7
420
 16777215
176
     1
 90
        1
176
     1
 90
        4
176
     1
 62
     7
176
     1
 62
   257
176
     1
 90
        1
176
     1
 90
        1
176
     1
 40
1.0
176
     1
 90
       12
176
     1
 62
     7
176
     1
 40
1.0
176
     1
 90
        1
176
     1
 90
        6
176
     1
 90
        2
176
     1
 62
     7
176
     1
 90
        5
176
     1
 90
        0
176
     1
 90
        0
176
     1
290
     0
176
     1
 90
        1
176
     1
 40
0.0
176
     1
 90
        0
176
     1
290
     0
176
     1
290
     1
176
     1
290
     1
176
     1
290
     0
176
     1
290
     0
176
     1
290
     0
176
     1
290
     0
176
     1
290
     0
176
     1
290
     0
176
     1
 90
       50
176
     1
 40
0.0
176
     1
 40
1.0
176
     1
 90
        0
176
     1
 62
    18
420
        0
176
     1
 90
       50
176
     1
 90
        3
176
     1
 62
     5
420
      255
176
     1
290
     0
176
     1
 90
       50
176
     1
 90
       50
176
     1
 90
       50
176
     1
290
     0
176
     1
 90
       50
176
     1
 62
   256
176
     0
 40
1.0
176
     0
 90
        2
176
     1
  1
strokes_ogs.tif
176
     1
290
     0
176
     1
 40
1.0
176
     1
 40
1.0
176
     1
  0
VISUALSTYLE
  5
7F91
102
{ACAD_REACTORS
330
7F8A
102
}
330
7F8A
100
AcDbVisualStyle
  2
Wireframe
 70
     5
177
     3
291
     0
 70
    58
 90
        0
176
     1
 90
        2
176
     1
 90
        0
176
     1
 90
        0
176
     1
 40
0.6
176
     1
 40
30.0
176
     1
 62
     7
420
 16777215
176
     1
 90
        1
176
     1
 90
        4
176
     1
 62
     7
176
     1
 62
   257
176
     1
 90
        1
176
     1
 90
        1
176
     1
 40
1.0
176
     1
 90
        0
176
     1
 62
   257
176
     1
 40
1.0
176
     1
 90
        1
176
     1
 90
        6
176
     1
 90
        2
176
     1
 62
     7
176
     1
 90
        3
176
     1
 90
        0
176
     1
 90
        0
176
     1
290
     0
176
     1
 90
        1
176
     1
 40
0.0
176
     1
 90
        0
176
     1
290
     0
176
     1
290
     1
176
     1
290
     1
176
     1
290
     0
176
     1
290
     0
176
     1
290
     0
176
     1
290
     0
176
     1
290
     0
176
     1
290
     0
176
     1
 90
       50
176
     1
 40
0.0
176
     1
 40
1.0
176
     1
 90
        0
176
     1
 62
    18
420
        0
176
     1
 90
       50
176
     1
 90
        3
176
     1
 62
     5
420
      255
176
     1
290
     0
176
     1
 90
       50
176
     1
 90
       50
176
     1
 90
       50
176
     1
290
     0
176
     1
 90
       50
176
     1
 62
   256
176
     0
 40
1.0
176
     0
 90
        2
176
     1
  1
strokes_ogs.tif
176
     1
290
     0
176
     1
 40
1.0
176
     1
 40
1.0
176
     1
  0
VISUALSTYLE
  5
7F9D
102
{ACAD_REACTORS
330
7F8A
102
}
330
7F8A
100
AcDbVisualStyle
  2
X-Ray
 70
    25
177
     3
291
     0
 70
    58
 90
        2
176
     1
 90
        2
176
     1
 90
        1
176
     1
 90
        1
176
     1
 40
0.5
176
     1
 40
30.0
176
     1
 62
     7
420
 16777215
176
     1
 90
        1
176
     1
 90
        0
176
     1
 62
     7
176
     1
 62
   257
176
     1
 90
        1
176
     1
 90
        1
176
     1
 40
1.0
176
     1
 90
        8
176
     1
 62
     7
176
     1
 40
1.0
176
     1
 90
        1
176
     1
 90
        6
176
     1
 90
        2
176
     1
 62
     7
176
     1
 90
        3
176
     1
 90
        0
176
     1
 90
        0
176
     1
290
     0
176
     1
 90
       13
176
     1
 40
0.0
176
     1
 90
        0
176
     1
290
     0
176
     1
290
     1
176
     1
290
     1
176
     1
290
     0
176
     1
290
     0
176
     1
290
     0
176
     1
290
     0
176
     1
290
     0
176
     1
290
     0
176
     1
 90
       50
176
     1
 40
0.0
176
     1
 40
1.0
176
     1
 90
        0
176
     1
 62
    18
420
        0
176
     1
 90
       50
176
     1
 90
        3
176
     1
 62
     5
420
      255
176
     1
290
     0
176
     1
 90
       50
176
     1
 90
       50
176
     1
 90
       50
176
     1
290
     0
176
     1
 90
       50
176
     1
 62
   256
176
     0
 40
1.0
176
     0
 90
        2
176
     1
  1
strokes_ogs.tif
176
     1
290
     0
176
     1
 40
1.0
176
     1
 40
1.0
176
     1
  0
DICTIONARYVAR
  5
803D
102
{ACAD_REACTORS
330
7F64
102
}
330
7F64
100
DictionaryVariables
280
     0
  1
1:1
  0
DICTIONARYVAR
  5
8039
102
{ACAD_REACTORS
330
7F64
102
}
330
7F64
100
DictionaryVariables
280
     0
  1
STANDARD
  0
DICTIONARYVAR
  5
8038
102
{ACAD_REACTORS
330
7F64
102
}
330
7F64
100
DictionaryVariables
280
     0
  1
STANDARD
  0
DICTIONARYVAR
  5
803A
102
{ACAD_REACTORS
330
7F64
102
}
330
7F64
100
DictionaryVariables
280
     0
  1
Imperial24
  0
DICTIONARYVAR
  5
803B
102
{ACAD_REACTORS
330
7F64
102
}
330
7F64
100
DictionaryVariables
280
     0
  1
Imperial24
  0
DICTIONARYVAR
  5
7F65
102
{ACAD_REACTORS
330
7F64
102
}
330
7F64
100
DictionaryVariables
280
     0
  1
1
  0
DICTIONARYVAR
  5
803F
102
{ACAD_REACTORS
330
7F64
102
}
330
7F64
100
DictionaryVariables
280
     0
  1
1
  0
DICTIONARYVAR
  5
8040
102
{ACAD_REACTORS
330
7F64
102
}
330
7F64
100
DictionaryVariables
280
     0
  1
15
  0
DICTIONARYVAR
  5
803E
102
{ACAD_REACTORS
330
7F64
102
}
330
7F64
100
DictionaryVariables
280
     0
  1
0
  0
DICTIONARYVAR
  5
803C
102
{ACAD_REACTORS
330
7F64
102
}
330
7F64
100
DictionaryVariables
280
     0
  1
0
  0
DICTIONARY
  5
8035
330
7FBD
100
AcDbDictionary
280
     1
281
     1
  3
ACAD_XREC_ROUNDTRIP
360
8079
  0
DICTIONARY
  5
7F7B
330
7F7A
100
AcDbDictionary
280
     1
281
     1
  3
BUMPTILE
360
7F7D
  3
DIFFUSETILE
360
7F7C
  3
OPACITYTILE
360
7F80
  3
REFLECTIONTILE
360
7F7F
  3
REFRACTIONTILE
360
7F81
  3
SPECULARTILE
360
7F7E
  0
DICTIONARY
  5
7F73
330
7F72
100
AcDbDictionary
280
     1
281
     1
  3
BUMPTILE
360
7F75
  3
DIFFUSETILE
360
7F74
  3
OPACITYTILE
360
7F78
  3
REFLECTIONTILE
360
7F77
  3
REFRACTIONTILE
360
7F79
  3
SPECULARTILE
360
7F76
  0
DICTIONARY
  5
7F83
330
7F82
100
AcDbDictionary
280
     1
281
     1
  3
BUMPTILE
360
7F85
  3
DIFFUSETILE
360
7F84
  3
OPACITYTILE
360
7F88
  3
REFLECTIONTILE
360
7F87
  3
REFRACTIONTILE
360
7F89
  3
SPECULARTILE
360
7F86
  0
DICTIONARY
  5
8033
330
7FBB
100
AcDbDictionary
280
     1
281
     1
  3
ACAD_XREC_ROUNDTRIP
360
8078
  0
DICTIONARY
  5
8076
330
7FA5
100
AcDbDictionary
280
     1
281
     1
  3
ACAD_ROUNDTRIP_2008_TABLESTYLE_CELLSTYLEMAP
360
8077
  0
XRECORD
  5
8079
102
{ACAD_REACTORS
330
8035
102
}
330
8035
100
AcDbXrecord
280
     1
102
DISPLAYNAME
  1
Imperial24
102
FLAGS
 90
        0
  0
XRECORD
  5
7F7D
102
{ACAD_REACTORS
330
7F7B
102
}
330
7F7B
100
AcDbXrecord
280
     1
270
     1
271
     1
  0
XRECORD
  5
7F7C
102
{ACAD_REACTORS
330
7F7B
102
}
330
7F7B
100
AcDbXrecord
280
     1
270
     1
271
     1
  0
XRECORD
  5
7F80
102
{ACAD_REACTORS
330
7F7B
102
}
330
7F7B
100
AcDbXrecord
280
     1
270
     1
271
     1
  0
XRECORD
  5
7F7F
102
{ACAD_REACTORS
330
7F7B
102
}
330
7F7B
100
AcDbXrecord
280
     1
270
     1
271
     1
  0
XRECORD
  5
7F81
102
{ACAD_REACTORS
330
7F7B
102
}
330
7F7B
100
AcDbXrecord
280
     1
270
     1
271
     1
  0
XRECORD
  5
7F7E
102
{ACAD_REACTORS
330
7F7B
102
}
330
7F7B
100
AcDbXrecord
280
     1
270
     1
271
     1
  0
XRECORD
  5
7F75
102
{ACAD_REACTORS
330
7F73
102
}
330
7F73
100
AcDbXrecord
280
     1
270
     1
271
     1
  0
XRECORD
  5
7F74
102
{ACAD_REACTORS
330
7F73
102
}
330
7F73
100
AcDbXrecord
280
     1
270
     1
271
     1
  0
XRECORD
  5
7F78
102
{ACAD_REACTORS
330
7F73
102
}
330
7F73
100
AcDbXrecord
280
     1
270
     1
271
     1
  0
XRECORD
  5
7F77
102
{ACAD_REACTORS
330
7F73
102
}
330
7F73
100
AcDbXrecord
280
     1
270
     1
271
     1
  0
XRECORD
  5
7F79
102
{ACAD_REACTORS
330
7F73
102
}
330
7F73
100
AcDbXrecord
280
     1
270
     1
271
     1
  0
XRECORD
  5
7F76
102
{ACAD_REACTORS
330
7F73
102
}
330
7F73
100
AcDbXrecord
280
     1
270
     1
271
     1
  0
XRECORD
  5
7F85
102
{ACAD_REACTORS
330
7F83
102
}
330
7F83
100
AcDbXrecord
280
     1
270
     1
271
     1
  0
XRECORD
  5
7F84
102
{ACAD_REACTORS
330
7F83
102
}
330
7F83
100
AcDbXrecord
280
     1
270
     1
271
     1
  0
XRECORD
  5
7F88
102
{ACAD_REACTORS
330
7F83
102
}
330
7F83
100
AcDbXrecord
280
     1
270
     1
271
     1
  0
XRECORD
  5
7F87
102
{ACAD_REACTORS
330
7F83
102
}
330
7F83
100
AcDbXrecord
280
     1
270
     1
271
     1
  0
XRECORD
  5
7F89
102
{ACAD_REACTORS
330
7F83
102
}
330
7F83
100
AcDbXrecord
280
     1
270
     1
271
     1
  0
XRECORD
  5
7F86
102
{ACAD_REACTORS
330
7F83
102
}
330
7F83
100
AcDbXrecord
280
     1
270
     1
271
     1
  0
XRECORD
  5
8078
102
{ACAD_REACTORS
330
8033
102
}
330
8033
100
AcDbXrecord
280
     1
102
DISPLAYNAME
  1
Imperial24
102
FLAGS
 90
        0
  0
CELLSTYLEMAP
  5
8077
102
{ACAD_REACTORS
330
8076
102
}
330
8076
100
AcDbCellStyleMap
 90
        3
300
CELLSTYLE
  1
TABLEFORMAT_BEGIN
 90
        5
170
     1
 91
        0
 92
    32768
 62
   257
 93
        1
300
CONTENTFORMAT
  1
CONTENTFORMAT_BEGIN
 90
        0
 91
        0
 92
      512
 93
        0
300

 40
0.0
140
1.0
 94
        5
 62
     0
340
10
144
0.25
309
CONTENTFORMAT_END
171
     0
 94
        0
309
TABLEFORMAT_END
  1
CELLSTYLE_BEGIN
 90
        1
 91
        1
300
_TITLE
309
CELLSTYLE_END
300
CELLSTYLE
  1
TABLEFORMAT_BEGIN
 90
        5
170
     1
 91
        0
 92
        0
 62
   257
 93
        1
300
CONTENTFORMAT
  1
CONTENTFORMAT_BEGIN
 90
        0
 91
        0
 92
      512
 93
        0
300

 40
0.0
140
1.0
 94
        5
 62
     0
340
10
144
0.18
309
CONTENTFORMAT_END
171
     0
 94
        0
309
TABLEFORMAT_END
  1
CELLSTYLE_BEGIN
 90
        2
 91
        1
300
_HEADER
309
CELLSTYLE_END
300
CELLSTYLE
  1
TABLEFORMAT_BEGIN
 90
        5
170
     1
 91
        0
 92
        0
 62
   257
 93
        1
300
CONTENTFORMAT
  1
CONTENTFORMAT_BEGIN
 90
        0
 91
        0
 92
      512
 93
        0
300

 40
0.0
140
1.0
 94
        2
 62
     0
340
10
144
0.18
309
CONTENTFORMAT_END
171
     0
 94
        0
309
TABLEFORMAT_END
  1
CELLSTYLE_BEGIN
 90
        3
 91
        2
300
_DATA
309
CELLSTYLE_END
  0
ENDSEC
  0
SECTION
  2
ACDSDATA
 70
     2
 71
     8
  0
ACDSSCHEMA
 90
        0
  1
AcDb_Thumbnail_Schema
  2
AcDbDs::ID
280
    10
 91
        8
  2
Thumbnail_Data
280
    15
 91
        0
101
ACDSRECORD
 95
        0
 90
        1
  2
AcDbDs::TreatedAsObjectData
280
     1
291
     1
101
ACDSRECORD
 95
        0
 90
        2
  2
AcDbDs::Legacy
280
     1
291
     1
101
ACDSRECORD
  1
AcDbDs::ID
 90
        3
  2
AcDs:Indexable
280
     1
291
     1
101
ACDSRECORD
  1
AcDbDs::ID
 90
        4
  2
AcDbDs::HandleAttribute
280
     7
282
     1
  0
ACDSSCHEMA
 90
        1
  1
AcDbDs::TreatedAsObjectDataSchema
  2
AcDbDs::TreatedAsObjectData
280
     1
 91
        0
  0
ACDSSCHEMA
 90
        2
  1
AcDbDs::LegacySchema
  2
AcDbDs::Legacy
280
     1
 91
        0
  0
ACDSSCHEMA
 90
        3
  1
AcDbDs::IndexedPropertySchema
  2
AcDs:Indexable
280
     1
 91
        0
  0
ACDSSCHEMA
 90
        4
  1
AcDbDs::HandleAttributeSchema
  2
AcDbDs::HandleAttribute
280
     7
 91
        1
284
     1
  0
ACDSRECORD
 90
        0
  2
AcDbDs::ID
280
    10
320
7E8E
  2
Thumbnail_Data
280
    15
 94
     1908
310
89504E470D0A1A0A0000000D49484452000001000000007C0803000000B13B9E5A00000300504C5445000000000000C8C8C80000000000000000000000000000000000000000000000000000330000660000990000CC0000FF0033000033330033660033990033CC0033FF0066000066330066660066990066CC0066FF0099
310
000099330099660099990099CC0099FF00CC0000CC3300CC6600CC9900CCCC00CCFF00FF0000FF3300FF6600FF9900FFCC00FFFF3300003300333300663300993300CC3300FF3333003333333333663333993333CC3333FF3366003366333366663366993366CC3366FF3399003399333399663399993399CC3399FF33CC00
310
33CC3333CC6633CC9933CCCC33CCFF33FF0033FF3333FF6633FF9933FFCC33FFFF6600006600336600666600996600CC6600FF6633006633336633666633996633CC6633FF6666006666336666666666996666CC6666FF6699006699336699666699996699CC6699FF66CC0066CC3366CC6666CC9966CCCC66CCFF66FF0066
310
FF3366FF6666FF9966FFCC66FFFF9900009900339900669900999900CC9900FF9933009933339933669933999933CC9933FF9966009966339966669966999966CC9966FF9999009999339999669999999999CC9999FF99CC0099CC3399CC6699CC9999CCCC99CCFF99FF0099FF3399FF6699FF9999FFCC99FFFFCC0000CC00
310
33CC0066CC0099CC00CCCC00FFCC3300CC3333CC3366CC3399CC33CCCC33FFCC6600CC6633CC6666CC6699CC66CCCC66FFCC9900CC9933CC9966CC9999CC99CCCC99FFCCCC00CCCC33CCCC66CCCC99CCCCCCCCCCFFCCFF00CCFF33CCFF66CCFF99CCFFCCCCFFFFFF0000FF0033FF0066FF0099FF00CCFF00FFFF3300FF3333
310
FF3366FF3399FF33CCFF33FFFF6600FF6633FF6666FF6699FF66CCFF66FFFF9900FF9933FF9966FF9999FF99CCFF99FFFFCC00FFCC33FFCC66FFCC99FFCCCCFFCCFFFFFF00FFFF33FFFF66FFFF99FFFFCCFFFFFF0000000D0D0D1A1A1A2828283535354343435050505D5D5D6B6B6B787878868686939393A1A1A1AEAEAEBB
310
BBBBC9C9C9D6D6D6E4E4E4F1F1F1FFFFFF00000000000000000000000000000000000000000000000000000000000008F1915C000003CD4944415478DAED9D6B8EE3200C807D1CFEF8FE97E11AFC9F69C060C049D8D54A5B3FACD1344DD348FEF003882900DF274514F023E5F8A4590065D7D71980DDE6DD59C04A2062803A
310
2DFEB59868C62FBA5F00F83F002E4B2EF4DAB2DDE7CD7558006E8D5D2500D28A325B0F0C30F9363BD92FA37B14DD000685496FF69ECC610E77F544BB816A17A0D66416501B1A0A3FB1D847331F0B0048076EF4DDE94B370468E6DFE282A07F648100103D419FA2596FB115EF9AB6ACDF83C2D2A3710073C62F2C354019FD45
310
530078526C00E6AF0107E0D6FF7DCD8284848484D815C47E98EE2FCA55FC02B82EB20AA04B1A8732253F16E00B00068000E01740BA159CC5A1054CBABB04C0DD21005CFD205F1D213F006003306502F300BAAA98A6241800B620E81E000480006014809C05FCF4044FC4F884C8D6115A74B70FE06290E6B9B0A67E0000DB93
310
A2F9C8050C4F8B33A5D2D155012000980550DF8BAEEE0800B80370268E2CC05B0C080909F9F398E13924F0AC603A3B0480D31E8333EFDFFACCD94ADB3E0E058C0360969C0F0158728163CFCEEB710213D364DCFAB7732E00481ABE02A0394495006EC7BC6356F80D0092056056DBE879D20B4921F40900C773810B817D002C
310
F303B4429934AA834400AC8A9A01D0980A3700F50148AA1C3EEA492A6D9553E432FA0154B59B42D7D3B02300000F0EA30900D5002444222002105D402D00580154176845733280BEB80039009D310056007829846401F800A03D32560E80F77F12A6CF5FAAFF7FD341CAD7FFE959D95D59B9660BC8ADFDB905C05A16325B00
310
AF19D2EF021C408D01D0AAA7BBAD6F2E806010005016004A892820180523BA0150CF8D06FED8835B4B83543AB8226878D4A7411940EB08B570805B933F0150690163EAA72A49E3FB6A01D80748DC024417D037169001401D0C018C3524757430F57A517601D00B8007C15E22D3F2624BF3B8A4C10500E805B0660102D06B47
310
A1758E8D0160832111000B810200B00240E8075400AC7C1E4F82A07A009FA9D00160AC17DB8BC5E534A81B409F0C7E2A95ED005649C22F0D281C0E1FFD82C476006C85894600ACF7E217405E3CE075C1C8EA06462C000E2C40960060C305C4C5D3773E60C605C6AC301EB5285A0B82230DB216CDCF1620F70350E97890B9C0
310
CC4536806B1E7905D04E64CD66F05A15C13ECAEF77D065054CB5BDE06B4913EC635651056D4A413B80EC1BC0F18A1187AB4942424242429C88FB0D160ADC6854A6979BEFDA06C0F71A00DA8168DE98C71000900100DB67B0F0AD98E60D085403F80BFB2E965C2082E0530CA07DB96A14284BAB7B03000E01F0ADE6F66D57DD
310
A441BEEDA23D005F18047F0032DE9A3DA1A054860000000049454E44AE4260823D62DA8315001104FF27C0998B01D393EE01ED80ADE9B841FB41906203F9BC6900F293E17CA921F2198F01439104058433D8220B7C45FE016E17040F6A475AB90000000049454E44AE426082F20FD5CE0B5DBA1096D60000000049454E44AE
310
426082
  0
ENDSEC
  0
EOF
