  0
SECTION
  2
HEADER
  9
$ACADVER
  1
AC1027
  9
$ACADMAINTVER
 70
    81
  9
$DWGCODEPAGE
  3
ANSI_932
  9
$LASTSAVEDBY
  1
reiko.miyawaki
  9
$REQUIREDVERSIONS
160
                 0
  9
$INSBASE
 10
0.0
 20
0.0
 30
0.0
  9
$EXTMIN
 10
248.277564
 20
300.0
 30
0.0
  9
$EXTMAX
 10
1850.0
 20
2786.652262
 30
0.0
  9
$LIMMIN
 10
0.0
 20
0.0
  9
$LIMMAX
 10
297.0
 20
210.0
  9
$ORTHOMODE
 70
     0
  9
$REGENMODE
 70
     1
  9
$FILLMODE
 70
     0
  9
$QTEXTMODE
 70
     0
  9
$MIRRTEXT
 70
     1
  9
$LTSCALE
 40
100.0
  9
$ATTMODE
 70
     1
  9
$TEXTSIZE
 40
180.0
  9
$TRACEWID
 40
0.05
  9
$TEXTSTYLE
  7
STANDARD
  9
$CLAYER
  8
3
  9
$CELTYPE
  6
BYLAYER
  9
$CECOLOR
 62
   256
  9
$CELTSCALE
 40
1.0
  9
$DISPSILH
 70
     0
  9
$DIMSCALE
 40
10.0
  9
$DIMASZ
 40
2.0
  9
$DIMEXO
 40
0.5
  9
$DIMDLI
 40
10.0
  9
$DIMRND
 40
0.0
  9
$DIMDLE
 40
0.0
  9
$DIMEXE
 40
1.0
  9
$DIMTP
 40
1.0
  9
$DIMTM
 40
1.0
  9
$DIMTXT
 40
3.0
  9
$DIMCEN
 40
0.0
  9
$DIMTSZ
 40
0.0
  9
$DIMTOL
 70
     0
  9
$DIMLIM
 70
     0
  9
$DIMTIH
 70
     0
  9
$DIMTOH
 70
     0
  9
$DIMSE1
 70
     0
  9
$DIMSE2
 70
     0
  9
$DIMTAD
 70
     1
  9
$DIMZIN
 70
     8
  9
$DIMBLK
  1

  9
$DIMASO
 70
     1
  9
$DIMSHO
 70
     1
  9
$DIMPOST
  1
(<>)
  9
$DIMAPOST
  1

  9
$DIMALT
 70
     0
  9
$DIMALTD
 70
     2
  9
$DIMALTF
 40
0.039
  9
$DIMLFAC
 40
1.0
  9
$DIMTOFL
 70
     1
  9
$DIMTVP
 40
0.0
  9
$DIMTIX
 70
     0
  9
$DIMSOXD
 70
     0
  9
$DIMSAH
 70
     1
  9
$DIMBLK1
  1
OPEN
  9
$DIMBLK2
  1
OPEN
  9
$DIMSTYLE
  2
IGA
  9
$DIMCLRD
 70
     0
  9
$DIMCLRE
 70
     0
  9
$DIMCLRT
 70
     0
  9
$DIMTFAC
 40
10.0
  9
$DIMGAP
 40
1.0
  9
$DIMJUST
 70
     0
  9
$DIMSD1
 70
     0
  9
$DIMSD2
 70
     0
  9
$DIMTOLJ
 70
     1
  9
$DIMTZIN
 70
     8
  9
$DIMALTZ
 70
     0
  9
$DIMALTTZ
 70
     0
  9
$DIMUPT
 70
     0
  9
$DIMDEC
 70
     0
  9
$DIMTDEC
 70
     0
  9
$DIMALTU
 70
     2
  9
$DIMALTTD
 70
     2
  9
$DIMTXSTY
  7
STANDARD
  9
$DIMAUNIT
 70
     0
  9
$DIMADEC
 70
     0
  9
$DIMALTRND
 40
0.0
  9
$DIMAZIN
 70
     0
  9
$DIMDSEP
 70
    46
  9
$DIMATFIT
 70
     3
  9
$DIMFRAC
 70
     0
  9
$DIMLDRBLK
  1
OPEN
  9
$DIMLUNIT
 70
     2
  9
$DIMLWD
 70
    -2
  9
$DIMLWE
 70
    -2
  9
$DIMTMOVE
 70
     0
  9
$DIMFXL
 40
1.0
  9
$DIMFXLON
 70
     0
  9
$DIMJOGANG
 40
0.7853981633974483
  9
$DIMTFILL
 70
     0
  9
$DIMTFILLCLR
 70
     0
  9
$DIMARCSYM
 70
     0
  9
$DIMLTYPE
  6

  9
$DIMLTEX1
  6

  9
$DIMLTEX2
  6

  9
$DIMTXTDIRECTION
 70
     0
  9
$LUNITS
 70
     2
  9
$LUPREC
 70
     3
  9
$SKETCHINC
 40
0.1
  9
$FILLETRAD
 40
50.0
  9
$AUNITS
 70
     0
  9
$AUPREC
 70
     0
  9
$MENU
  1
acad
  9
$ELEVATION
 40
0.0
  9
$PELEVATION
 40
0.0
  9
$THICKNESS
 40
0.0
  9
$LIMCHECK
 70
     0
  9
$CHAMFERA
 40
0.5
  9
$CHAMFERB
 40
0.5
  9
$CHAMFERC
 40
20.0
  9
$CHAMFERD
 40
0.0
  9
$SKPOLY
 70
     0
  9
$TDCREATE
 40
2450745.340466783
  9
$TDUCREATE
 40
2450744.965466783
  9
$TDUPDATE
 40
2459024.546391563
  9
$TDUUPDATE
 40
2459024.171391563
  9
$TDINDWG
 40
0.0141701736
  9
$TDUSRTIMER
 40
0.0141701736
  9
$USRTIMER
 70
     1
  9
$ANGBASE
 50
0.0
  9
$ANGDIR
 70
     0
  9
$PDMODE
 70
     0
  9
$PDSIZE
 40
0.0
  9
$PLINEWID
 40
0.0
  9
$SPLFRAME
 70
     0
  9
$SPLINETYPE
 70
     6
  9
$SPLINESEGS
 70
     8
  9
$HANDSEED
  5
8084
  9
$SURFTAB1
 70
     6
  9
$SURFTAB2
 70
     6
  9
$SURFTYPE
 70
     6
  9
$SURFU
 70
     6
  9
$SURFV
 70
     6
  9
$UCSBASE
  2

  9
$UCSNAME
  2

  9
$UCSORG
 10
0.0
 20
0.0
 30
0.0
  9
$UCSXDIR
 10
1.0
 20
0.0
 30
0.0
  9
$UCSYDIR
 10
0.0
 20
1.0
 30
0.0
  9
$UCSORTHOREF
  2

  9
$UCSORTHOVIEW
 70
     0
  9
$UCSORGTOP
 10
0.0
 20
0.0
 30
0.0
  9
$UCSORGBOTTOM
 10
0.0
 20
0.0
 30
0.0
  9
$UCSORGLEFT
 10
0.0
 20
0.0
 30
0.0
  9
$UCSORGRIGHT
 10
0.0
 20
0.0
 30
0.0
  9
$UCSORGFRONT
 10
0.0
 20
0.0
 30
0.0
  9
$UCSORGBACK
 10
0.0
 20
0.0
 30
0.0
  9
$PUCSBASE
  2

  9
$PUCSNAME
  2

  9
$PUCSORG
 10
0.0
 20
0.0
 30
0.0
  9
$PUCSXDIR
 10
1.0
 20
0.0
 30
0.0
  9
$PUCSYDIR
 10
0.0
 20
1.0
 30
0.0
  9
$PUCSORTHOREF
  2

  9
$PUCSORTHOVIEW
 70
     0
  9
$PUCSORGTOP
 10
0.0
 20
0.0
 30
0.0
  9
$PUCSORGBOTTOM
 10
0.0
 20
0.0
 30
0.0
  9
$PUCSORGLEFT
 10
0.0
 20
0.0
 30
0.0
  9
$PUCSORGRIGHT
 10
0.0
 20
0.0
 30
0.0
  9
$PUCSORGFRONT
 10
0.0
 20
0.0
 30
0.0
  9
$PUCSORGBACK
 10
0.0
 20
0.0
 30
0.0
  9
$USERI1
 70
     0
  9
$USERI2
 70
     0
  9
$USERI3
 70
     0
  9
$USERI4
 70
     0
  9
$USERI5
 70
     0
  9
$USERR1
 40
0.0
  9
$USERR2
 40
0.0
  9
$USERR3
 40
0.0
  9
$USERR4
 40
0.0
  9
$USERR5
 40
0.0
  9
$WORLDVIEW
 70
     1
  9
$SHADEDGE
 70
     3
  9
$SHADEDIF
 70
    70
  9
$TILEMODE
 70
     1
  9
$MAXACTVP
 70
    16
  9
$PINSBASE
 10
0.0
 20
0.0
 30
0.0
  9
$PLIMCHECK
 70
     0
  9
$PEXTMIN
 10
1.000000000000000E+20
 20
1.000000000000000E+20
 30
1.000000000000000E+20
  9
$PEXTMAX
 10
-1.000000000000000E+20
 20
-1.000000000000000E+20
 30
-1.000000000000000E+20
  9
$PLIMMIN
 10
0.0
 20
0.0
  9
$PLIMMAX
 10
12.0
 20
9.0
  9
$UNITMODE
 70
     0
  9
$VISRETAIN
 70
     0
  9
$PLINEGEN
 70
     0
  9
$PSLTSCALE
 70
     1
  9
$TREEDEPTH
 70
  3020
  9
$CMLSTYLE
  2
STANDARD
  9
$CMLJUST
 70
     0
  9
$CMLSCALE
 40
20.0
  9
$PROXYGRAPHICS
 70
     1
  9
$MEASUREMENT
 70
     0
  9
$CELWEIGHT
370
    -1
  9
$ENDCAPS
280
     0
  9
$JOINSTYLE
280
     0
  9
$LWDISPLAY
290
     0
  9
$INSUNITS
 70
     0
  9
$HYPERLINKBASE
  1

  9
$STYLESHEET
  1

  9
$XEDIT
290
     1
  9
$CEPSNTYPE
380
     0
  9
$PSTYLEMODE
290
     1
  9
$FINGERPRINTGUID
  2
{AFB68B03-B79F-4025-A716-8CA81027AF5B}
  9
$VERSIONGUID
  2
{15E293F7-B591-473C-A190-021320A0506B}
  9
$EXTNAMES
290
     1
  9
$PSVPSCALE
 40
0.0
  9
$OLESTARTUP
290
     0
  9
$SORTENTS
280
   127
  9
$INDEXCTL
280
     0
  9
$HIDETEXT
280
     0
  9
$XCLIPFRAME
280
     2
  9
$HALOGAP
280
     0
  9
$OBSCOLOR
 70
   257
  9
$OBSLTYPE
280
     0
  9
$INTERSECTIONDISPLAY
280
     0
  9
$INTERSECTIONCOLOR
 70
   257
  9
$DIMASSOC
280
     1
  9
$PROJECTNAME
  1

  9
$CAMERADISPLAY
290
     0
  9
$LENSLENGTH
 40
50.0
  9
$CAMERAHEIGHT
 40
0.0
  9
$STEPSPERSEC
 40
2.0
  9
$STEPSIZE
 40
6.0
  9
$3DDWFPREC
 40
2.0
  9
$PSOLWIDTH
 40
0.25
  9
$PSOLHEIGHT
 40
4.0
  9
$LOFTANG1
 40
1.570796326794896
  9
$LOFTANG2
 40
1.570796326794896
  9
$LOFTMAG1
 40
0.0
  9
$LOFTMAG2
 40
0.0
  9
$LOFTPARAM
 70
     7
  9
$LOFTNORMALS
280
     1
  9
$LATITUDE
 40
37.795
  9
$LONGITUDE
 40
-122.394
  9
$NORTHDIRECTION
 40
0.0
  9
$TIMEZONE
 70
 -8000
  9
$LIGHTGLYPHDISPLAY
280
     1
  9
$TILEMODELIGHTSYNCH
280
     1
  9
$CMATERIAL
347
7F74
  9
$SOLIDHIST
280
     0
  9
$SHOWHIST
280
     1
  9
$DWFFRAME
280
     2
  9
$DGNFRAME
280
     0
  9
$REALWORLDSCALE
290
     1
  9
$INTERFERECOLOR
 62
     1
  9
$INTERFEREOBJVS
345
7F96
  9
$INTERFEREVPVS
346
7F93
  9
$CSHADOW
280
     0
  9
$SHADOWPLANELOCATION
 40
0.0
  0
ENDSEC
  0
SECTION
  2
CLASSES
  0
CLASS
  1
ACDBDICTIONARYWDFLT
  2
AcDbDictionaryWithDefault
  3
ObjectDBX Classes
 90
        0
 91
        1
280
     0
281
     0
  0
CLASS
  1
DICTIONARYVAR
  2
AcDbDictionaryVar
  3
ObjectDBX Classes
 90
        0
 91
       10
280
     0
281
     0
  0
CLASS
  1
MATERIAL
  2
AcDbMaterial
  3
ObjectDBX Classes
 90
     1153
 91
        3
280
     0
281
     0
  0
CLASS
  1
VISUALSTYLE
  2
AcDbVisualStyle
  3
ObjectDBX Classes
 90
     4095
 91
       24
280
     0
281
     0
  0
CLASS
  1
TABLESTYLE
  2
AcDbTableStyle
  3
ObjectDBX Classes
 90
     4095
 91
        1
280
     0
281
     0
  0
CLASS
  1
SCALE
  2
AcDbScale
  3
ObjectDBX Classes
 90
     1153
 91
       17
280
     0
281
     0
  0
CLASS
  1
MLEADERSTYLE
  2
AcDbMLeaderStyle
  3
ACDB_MLEADERSTYLE_CLASS
 90
     4095
 91
        1
280
     0
281
     0
  0
CLASS
  1
ACDBSECTIONVIEWSTYLE
  2
AcDbSectionViewStyle
  3
ObjectDBX Classes
 90
     1025
 91
        1
280
     0
281
     0
  0
CLASS
  1
ACDBDETAILVIEWSTYLE
  2
AcDbDetailViewStyle
  3
ObjectDBX Classes
 90
     1025
 91
        1
280
     0
281
     0
  0
CLASS
  1
CELLSTYLEMAP
  2
AcDbCellStyleMap
  3
ObjectDBX Classes
 90
     1152
 91
        1
280
     0
281
     0
  0
ENDSEC
  0
SECTION
  2
TABLES
  0
TABLE
  2
VPORT
  5
8
330
0
100
AcDbSymbolTable
 70
     1
  0
VPORT
  5
7F71
330
8
100
AcDbSymbolTableRecord
100
AcDbViewportTableRecord
  2
*Active
 70
     0
 10
0.0
 20
0.0
 11
1.0
 21
1.0
 12
1049.135975521216
 22
1543.318750184234
 13
0.0
 23
0.0
 14
10.0
 24
10.0
 15
10.0
 25
10.0
 16
0.0
 26
0.0
 36
1.0
 17
0.0
 27
0.0
 37
0.0
 40
2505.100306070788
 41
1.957107843137254
 42
50.0
 43
0.0
 44
0.0
 50
0.0
 51
0.0
 71
     0
 72
   100
 73
     1
 74
     0
 75
     0
 76
     0
 77
     0
 78
     0
281
     0
 65
     1
110
0.0
120
0.0
130
0.0
111
1.0
121
0.0
131
0.0
112
0.0
122
1.0
132
0.0
 79
     0
146
0.0
348
7F92
 60
     3
 61
     5
292
     1
282
     1
141
0.0
142
0.0
 63
   250
421
  3355443
1001
ACAD_NAV_VCDISPLAY
1070
     3
  0
ENDTAB
  0
TABLE
  2
LTYPE
  5
5
330
0
100
AcDbSymbolTable
 70
     2
  0
LTYPE
  5
13
330
5
100
AcDbSymbolTableRecord
100
AcDbLinetypeTableRecord
  2
BYBLOCK
 70
     0
  3

 72
    65
 73
     0
 40
0.0
  0
LTYPE
  5
14
330
5
100
AcDbSymbolTableRecord
100
AcDbLinetypeTableRecord
  2
BYLAYER
 70
     0
  3

 72
    65
 73
     0
 40
0.0
  0
LTYPE
  5
15
330
5
100
AcDbSymbolTableRecord
100
AcDbLinetypeTableRecord
  2
CONTINUOUS
 70
     0
  3
Solid line
 72
    65
 73
     0
 40
0.0
  0
LTYPE
  5
1F
330
5
100
AcDbSymbolTableRecord
100
AcDbLinetypeTableRecord
  2
CENTER
 70
     0
  3
____ _ ____ _ ____ _ ____ _ ____ _ ____ _ ____ 
 72
    65
 73
     4
 40
2.0
 49
1.25
 74
     0
 49
-0.25
 74
     0
 49
0.25
 74
     0
 49
-0.25
 74
     0
  0
ENDTAB
  0
TABLE
  2
LAYER
  5
2
102
{ACAD_XDICTIONARY
360
7FC4
102
}
330
0
100
AcDbSymbolTable
 70
     6
  0
LAYER
  5
F
102
{ACAD_XDICTIONARY
360
8018
102
}
330
2
100
AcDbSymbolTableRecord
100
AcDbLayerTableRecord
  2
0
 70
     0
 62
     7
  6
CONTINUOUS
370
    -3
390
7E8D
347
7F84
348
0
  0
LAYER
  5
31
102
{ACAD_XDICTIONARY
360
801A
102
}
330
2
100
AcDbSymbolTableRecord
100
AcDbLayerTableRecord
  2
3
 70
     0
 62
     2
  6
CONTINUOUS
370
    -3
390
7E8D
347
7F84
348
0
  0
LAYER
  5
76D0
102
{ACAD_XDICTIONARY
360
801C
102
}
330
2
100
AcDbSymbolTableRecord
100
AcDbLayerTableRecord
  2
2
 70
     0
 62
     3
  6
CENTER
370
    -3
390
7E8D
347
7F84
348
0
  0
LAYER
  5
76D1
102
{ACAD_XDICTIONARY
360
801E
102
}
330
2
100
AcDbSymbolTableRecord
100
AcDbLayerTableRecord
  2
1
 70
     0
 62
     4
  6
CONTINUOUS
370
    -3
390
7E8D
347
7F84
348
0
  0
LAYER
  5
76D2
102
{ACAD_XDICTIONARY
360
8020
102
}
330
2
100
AcDbSymbolTableRecord
100
AcDbLayerTableRecord
  2
4
 70
     0
 62
     7
  6
CONTINUOUS
370
    -3
390
7E8D
347
7F84
348
0
  0
LAYER
  5
7B6D
330
2
100
AcDbSymbolTableRecord
100
AcDbLayerTableRecord
  2
DEFPOINTS
 70
     0
 62
     7
  6
CONTINUOUS
290
     0
370
    -3
390
7E8D
347
7F84
348
0
  0
ENDTAB
  0
TABLE
  2
STYLE
  5
3
330
0
100
AcDbSymbolTable
 70
     1
  0
STYLE
  5
10
330
3
100
AcDbSymbolTableRecord
100
AcDbTextStyleTableRecord
  2
STANDARD
 70
     0
 40
0.0
 41
1.0
 50
0.0
 71
     0
 42
180.0
  3
simplex.shx
  4
extfont.shx
  0
ENDTAB
  0
TABLE
  2
VIEW
  5
6
330
0
100
AcDbSymbolTable
 70
     0
  0
ENDTAB
  0
TABLE
  2
UCS
  5
7
330
0
100
AcDbSymbolTable
 70
     0
  0
ENDTAB
  0
TABLE
  2
APPID
  5
9
330
0
100
AcDbSymbolTable
 70
     4
  0
APPID
  5
11
330
9
100
AcDbSymbolTableRecord
100
AcDbRegAppTableRecord
  2
ACAD
 70
     0
  0
APPID
  5
7FC3
330
9
100
AcDbSymbolTableRecord
100
AcDbRegAppTableRecord
  2
ACAD_NAV_VCDISPLAY
 70
     0
  0
APPID
  5
805C
330
9
100
AcDbSymbolTableRecord
100
AcDbRegAppTableRecord
  2
AcadAnnoMonitorAlertIconDisabled
 70
     0
  0
APPID
  5
805D
330
9
100
AcDbSymbolTableRecord
100
AcDbRegAppTableRecord
  2
ACAD_EXEMPT_FROM_CAD_STANDARDS
 70
     0
  0
ENDTAB
  0
TABLE
  2
DIMSTYLE
  5
A
330
0
100
AcDbSymbolTable
 70
     1
100
AcDbDimStyleTable
 71
     0
  0
DIMSTYLE
105
1D
102
{ACAD_REACTORS
330
7B8B
330
7B97
330
7BA4
330
7BB1
330
7BBD
330
7C13
330
7C20
330
7C49
330
7C56
330
7C64
330
7C8C
330
7D12
330
7E34
330
7E41
330
7E4E
330
7E5B
330
7E6A
330
7E77
330
7E84
102
}
330
A
100
AcDbSymbolTableRecord
100
AcDbDimStyleTableRecord
  2
IGA
 70
     0
 40
2.0
 41
2.0
 42
0.5
 43
10.0
 44
1.0
 47
1.0
 48
1.0
 73
     0
 74
     0
 77
     1
 78
     8
140
3.0
141
0.0
143
0.03937
146
10.0
147
1.0
173
     1
271
     1
272
     0
279
     2
284
     8
340
10
341
7B5F
343
7B5F
344
7B5F
  0
ENDTAB
  0
TABLE
  2
BLOCK_RECORD
  5
1
330
0
100
AcDbSymbolTable
 70
    21
  0
BLOCK_RECORD
  5
19
102
{ACAD_XDICTIONARY
360
7EBB
102
}
330
1
100
AcDbSymbolTableRecord
100
AcDbBlockTableRecord
  2
*MODEL_SPACE
340
7E90
 70
     0
280
     1
281
     0
  0
BLOCK_RECORD
  5
16
102
{ACAD_XDICTIONARY
360
7EB9
102
}
330
1
100
AcDbSymbolTableRecord
100
AcDbBlockTableRecord
  2
*PAPER_SPACE
340
7E91
 70
     0
280
     1
281
     0
  0
BLOCK_RECORD
  5
7B5F
330
1
100
AcDbSymbolTableRecord
100
AcDbBlockTableRecord
  2
_OPEN
340
0
102
{BLKREFS
331
7FE5
331
7FE6
331
7FEE
331
7FEF
331
7FF7
331
7FF8
331
8000
331
8001
331
8009
331
800A
331
8014
331
803C
331
806B
331
806C
331
7EC4
331
7EC5
331
7ECC
331
7ECD
331
7ED5
331
7ED6
331
7EDE
331
7EDF
331
7EE6
331
7EE7
331
7EEF
331
7EF0
331
7EF8
331
7EF9
331
7F01
331
7F02
331
7F13
331
7F14
331
7F1B
331
7F1C
331
7F24
331
7F25
102
}
 70
     0
280
     1
281
     0
  0
BLOCK_RECORD
  5
7B7F
330
1
100
AcDbSymbolTableRecord
100
AcDbBlockTableRecord
  2
*D1
340
0
 70
     0
280
     1
281
     0
  0
BLOCK_RECORD
  5
7B8C
330
1
100
AcDbSymbolTableRecord
100
AcDbBlockTableRecord
  2
*D2
340
0
 70
     0
280
     1
281
     0
  0
BLOCK_RECORD
  5
7B98
330
1
100
AcDbSymbolTableRecord
100
AcDbBlockTableRecord
  2
*D3
340
0
 70
     0
280
     1
281
     0
  0
BLOCK_RECORD
  5
7BA5
330
1
100
AcDbSymbolTableRecord
100
AcDbBlockTableRecord
  2
*D4
340
0
 70
     0
280
     1
281
     0
  0
BLOCK_RECORD
  5
7BB2
330
1
100
AcDbSymbolTableRecord
100
AcDbBlockTableRecord
  2
*D5
340
0
 70
     0
280
     1
281
     0
  0
BLOCK_RECORD
  5
7C07
330
1
100
AcDbSymbolTableRecord
100
AcDbBlockTableRecord
  2
*D6
340
0
 70
     0
280
     1
281
     0
  0
BLOCK_RECORD
  5
7C14
330
1
100
AcDbSymbolTableRecord
100
AcDbBlockTableRecord
  2
*D7
340
0
 70
     0
280
     1
281
     0
  0
BLOCK_RECORD
  5
7C3D
330
1
100
AcDbSymbolTableRecord
100
AcDbBlockTableRecord
  2
*D8
340
0
 70
     0
280
     1
281
     0
  0
BLOCK_RECORD
  5
7C4A
330
1
100
AcDbSymbolTableRecord
100
AcDbBlockTableRecord
  2
*D9
340
0
 70
     0
280
     1
281
     0
  0
BLOCK_RECORD
  5
7C57
330
1
100
AcDbSymbolTableRecord
100
AcDbBlockTableRecord
  2
*D10
340
0
 70
     0
280
     1
281
     0
  0
BLOCK_RECORD
  5
7C80
330
1
100
AcDbSymbolTableRecord
100
AcDbBlockTableRecord
  2
*D11
340
0
 70
     0
280
     1
281
     0
  0
BLOCK_RECORD
  5
7D06
330
1
100
AcDbSymbolTableRecord
100
AcDbBlockTableRecord
  2
*D12
340
0
 70
     0
280
     1
281
     0
  0
BLOCK_RECORD
  5
7DB3
330
1
100
AcDbSymbolTableRecord
100
AcDbBlockTableRecord
  2
_DOT
340
0
102
{BLKREFS
331
8013
331
803B
102
}
 70
     0
280
     1
281
     0
  0
BLOCK_RECORD
  5
7E28
330
1
100
AcDbSymbolTableRecord
100
AcDbBlockTableRecord
  2
*D14
340
0
 70
     0
280
     1
281
     0
  0
BLOCK_RECORD
  5
7E35
330
1
100
AcDbSymbolTableRecord
100
AcDbBlockTableRecord
  2
*D15
340
0
 70
     0
280
     1
281
     0
  0
BLOCK_RECORD
  5
7E42
330
1
100
AcDbSymbolTableRecord
100
AcDbBlockTableRecord
  2
*D16
340
0
 70
     0
280
     1
281
     0
  0
BLOCK_RECORD
  5
7E4F
330
1
100
AcDbSymbolTableRecord
100
AcDbBlockTableRecord
  2
*D17
340
0
 70
     0
280
     1
281
     0
  0
BLOCK_RECORD
  5
7E5C
330
1
100
AcDbSymbolTableRecord
100
AcDbBlockTableRecord
  2
*D18
340
0
 70
     0
280
     1
281
     0
  0
BLOCK_RECORD
  5
7E6B
330
1
100
AcDbSymbolTableRecord
100
AcDbBlockTableRecord
  2
*D19
340
0
 70
     0
280
     1
281
     0
  0
BLOCK_RECORD
  5
7E78
330
1
100
AcDbSymbolTableRecord
100
AcDbBlockTableRecord
  2
*D20
340
0
 70
     0
280
     1
281
     0
  0
ENDTAB
  0
ENDSEC
  0
SECTION
  2
BLOCKS
  0
BLOCK
  5
1A
330
19
100
AcDbEntity
  8
0
100
AcDbBlockBegin
  2
*MODEL_SPACE
 70
     0
 10
0.0
 20
0.0
 30
0.0
  3
*MODEL_SPACE
  1

  0
ENDBLK
  5
1B
330
19
100
AcDbEntity
  8
0
100
AcDbBlockEnd
  0
BLOCK
  5
17
330
16
100
AcDbEntity
 67
     1
  8
0
100
AcDbBlockBegin
  2
*PAPER_SPACE
 70
     0
 10
0.0
 20
0.0
 30
0.0
  3
*PAPER_SPACE
  1

  0
ENDBLK
  5
18
330
16
100
AcDbEntity
 67
     1
  8
0
100
AcDbBlockEnd
  0
BLOCK
  5
7B60
330
7B5F
100
AcDbEntity
  8
0
100
AcDbBlockBegin
  2
_OPEN
 70
     0
 10
0.0
 20
0.0
 30
0.0
  3
_OPEN
  1

  0
LINE
  5
7B61
330
7B5F
100
AcDbEntity
  8
0
  6
ByBlock
 62
     0
100
AcDbLine
 10
-1.0
 20
0.166667
 30
0.0
 11
0.0
 21
0.0
 31
0.0
  0
LINE
  5
7B62
330
7B5F
100
AcDbEntity
  8
0
  6
ByBlock
 62
     0
100
AcDbLine
 10
0.0
 20
0.0
 30
0.0
 11
-1.0
 21
-0.166667
 31
0.0
  0
LINE
  5
7B63
330
7B5F
100
AcDbEntity
  8
0
  6
ByBlock
 62
     0
100
AcDbLine
 10
0.0
 20
0.0
 30
0.0
 11
-1.0
 21
0.0
 31
0.0
  0
ENDBLK
  5
7B64
330
7B5F
100
AcDbEntity
  8
0
100
AcDbBlockEnd
  0
BLOCK
  5
7B80
330
7B7F
100
AcDbEntity
  8
0
100
AcDbBlockBegin
  2
*D1
 70
     1
 10
0.0
 20
0.0
 30
0.0
  3
*D1
  1

  0
LINE
  5
7EC1
330
7B7F
100
AcDbEntity
  8
3
  6
Continuous
 62
     0
440
 16777216
100
AcDbLine
 10
578.28818
 20
1067.177419562587
 30
0.0
 11
578.28818
 21
1301.322601562587
 31
0.0
  0
LINE
  5
7EC2
330
7B7F
100
AcDbEntity
  8
3
  6
Continuous
 62
     0
440
 16777216
100
AcDbLine
 10
798.2775639999999
 20
1253.166803562587
 30
0.0
 11
798.2775639999999
 21
1301.322601562587
 31
0.0
  0
LINE
  5
7EC3
330
7B7F
100
AcDbEntity
  8
3
  6
Continuous
 62
     0
440
 16777216
100
AcDbLine
 10
598.28818
 20
1291.322601562587
 30
0.0
 11
778.2775639999999
 21
1291.322601562587
 31
0.0
  0
INSERT
  5
7EC4
330
7B7F
100
AcDbEntity
  8
3
  6
Continuous
 62
     0
440
 16777216
100
AcDbBlockReference
  2
_OPEN
 10
578.28818
 20
1291.322601562587
 30
0.0
 41
20.0
 42
20.0
 43
20.0
 50
180.0
  0
INSERT
  5
7EC5
330
7B7F
100
AcDbEntity
  8
3
  6
Continuous
 62
     0
440
 16777216
100
AcDbBlockReference
  2
_OPEN
 10
798.2775639999999
 20
1291.322601562587
 30
0.0
 41
20.0
 42
20.0
 43
20.0
  0
MTEXT
  5
7EC6
330
7B7F
100
AcDbEntity
  8
3
  6
Continuous
 62
     0
440
 16777216
100
AcDbMText
 10
695.5058189999999
 20
1316.322601562587
 30
0.0
 40
30.0
 41
0.0
 46
0.0
 71
     5
 72
     5
  1
\A1;220
 73
     1
 44
1.0
  0
POINT
  5
7EC7
330
7B7F
100
AcDbEntity
  8
DEFPOINTS
  6
Continuous
 62
     0
440
 16777216
100
AcDbPoint
 10
578.28818
 20
1062.177419562587
 30
0.0
  0
POINT
  5
7EC8
330
7B7F
100
AcDbEntity
  8
DEFPOINTS
  6
Continuous
 62
     0
440
 16777216
100
AcDbPoint
 10
798.2775639999999
 20
1248.166803562587
 30
0.0
  0
POINT
  5
7EC9
330
7B7F
100
AcDbEntity
  8
DEFPOINTS
  6
Continuous
 62
     0
440
 16777216
100
AcDbPoint
 10
798.2775639999999
 20
1291.322601562587
 30
0.0
  0
ENDBLK
  5
7B8A
330
7B7F
100
AcDbEntity
  8
0
100
AcDbBlockEnd
  0
BLOCK
  5
7B8D
330
7B8C
100
AcDbEntity
  8
0
100
AcDbBlockBegin
  2
*D2
 70
     1
 10
0.0
 20
0.0
 30
0.0
  3
*D2
  1

  0
LINE
  5
7ECA
330
7B8C
100
AcDbEntity
  8
3
  6
Continuous
 62
     0
440
 16777216
100
AcDbLine
 10
998.2775640000001
 20
1088.177419562587
 30
0.0
 11
998.2775640000001
 21
1301.322601562587
 31
0.0
  0
LINE
  5
7ECB
330
7B8C
100
AcDbEntity
  8
3
  6
Continuous
 62
     0
440
 16777216
100
AcDbLine
 10
818.2775639999999
 20
1291.322601562587
 30
0.0
 11
978.277564
 21
1291.322601562587
 31
0.0
  0
INSERT
  5
7ECC
330
7B8C
100
AcDbEntity
  8
3
  6
Continuous
 62
     0
440
 16777216
100
AcDbBlockReference
  2
_OPEN
 10
798.2775639999999
 20
1291.322601562587
 30
0.0
 41
20.0
 42
20.0
 43
20.0
 50
180.0
  0
INSERT
  5
7ECD
330
7B8C
100
AcDbEntity
  8
3
  6
Continuous
 62
     0
440
 16777216
100
AcDbBlockReference
  2
_OPEN
 10
998.2775640000001
 20
1291.322601562587
 30
0.0
 41
20.0
 42
20.0
 43
20.0
  0
MTEXT
  5
7ECE
330
7B8C
100
AcDbEntity
  8
3
  6
Continuous
 62
     0
440
 16777216
100
AcDbMText
 10
898.2775639999999
 20
1316.322601562587
 30
0.0
 40
30.0
 41
0.0
 46
0.0
 71
     5
 72
     5
  1
\A1;200
 73
     1
 44
1.0
  0
POINT
  5
7ECF
330
7B8C
100
AcDbEntity
  8
DEFPOINTS
  6
Continuous
 62
     0
440
 16777216
100
AcDbPoint
 10
798.2775639999999
 20
1248.166803562587
 30
0.0
  0
POINT
  5
7ED0
330
7B8C
100
AcDbEntity
  8
DEFPOINTS
  6
Continuous
 62
     0
440
 16777216
100
AcDbPoint
 10
998.2775640000001
 20
1083.177419562587
 30
0.0
  0
POINT
  5
7ED1
330
7B8C
100
AcDbEntity
  8
DEFPOINTS
  6
Continuous
 62
     0
440
 16777216
100
AcDbPoint
 10
998.2775640000001
 20
1291.322601562587
 30
0.0
  0
ENDBLK
  5
7B96
330
7B8C
100
AcDbEntity
  8
0
100
AcDbBlockEnd
  0
BLOCK
  5
7D32
330
7B98
100
AcDbEntity
  8
0
100
AcDbBlockBegin
  2
*D3
 70
     1
 10
0.0
 20
0.0
 30
0.0
  3
*D3
  1

  0
LINE
  5
7ED2
330
7B98
100
AcDbEntity
  8
3
  6
Continuous
 62
     0
440
 16777216
100
AcDbLine
 10
1003.277564
 20
1062.177419562587
 30
0.0
 11
1084.01499
 21
1062.177419562587
 31
0.0
  0
LINE
  5
7ED3
330
7B98
100
AcDbEntity
  8
3
  6
Continuous
 62
     0
440
 16777216
100
AcDbLine
 10
1003.277564
 20
812.1774195625873
 30
0.0
 11
1084.01499
 21
812.1774195625873
 31
0.0
  0
LINE
  5
7ED4
330
7B98
100
AcDbEntity
  8
3
  6
Continuous
 62
     0
440
 16777216
100
AcDbLine
 10
1074.01499
 20
1042.177419562587
 30
0.0
 11
1074.01499
 21
832.1774195625872
 31
0.0
  0
INSERT
  5
7ED5
330
7B98
100
AcDbEntity
  8
3
  6
Continuous
 62
     0
440
 16777216
100
AcDbBlockReference
  2
_OPEN
 10
1074.01499
 20
1062.177419562587
 30
0.0
 41
20.0
 42
20.0
 43
20.0
 50
90.0
  0
INSERT
  5
7ED6
330
7B98
100
AcDbEntity
  8
3
  6
Continuous
 62
     0
440
 16777216
100
AcDbBlockReference
  2
_OPEN
 10
1074.01499
 20
812.1774195625873
 30
0.0
 41
20.0
 42
20.0
 43
20.0
 50
270.0
  0
MTEXT
  5
7ED7
330
7B98
100
AcDbEntity
  8
3
  6
Continuous
 62
     0
440
 16777216
100
AcDbMText
 10
1049.01499
 20
934.8262745625875
 30
0.0
 40
30.0
 41
0.0
 46
0.0
 71
     5
 72
     5
  1
\A1;250
 11
0.0000000000000001
 21
1.0
 31
0.0
 73
     1
 44
1.0
  0
POINT
  5
7ED8
330
7B98
100
AcDbEntity
  8
DEFPOINTS
  6
Continuous
 62
     0
440
 16777216
100
AcDbPoint
 10
998.2775640000001
 20
1062.177419562587
 30
0.0
  0
POINT
  5
7ED9
330
7B98
100
AcDbEntity
  8
DEFPOINTS
  6
Continuous
 62
     0
440
 16777216
100
AcDbPoint
 10
998.2775640000001
 20
812.1774195625873
 30
0.0
  0
POINT
  5
7EDA
330
7B98
100
AcDbEntity
  8
DEFPOINTS
  6
Continuous
 62
     0
440
 16777216
100
AcDbPoint
 10
1074.01499
 20
812.1774195625873
 30
0.0
  0
ENDBLK
  5
7D3C
330
7B98
100
AcDbEntity
  8
0
100
AcDbBlockEnd
  0
BLOCK
  5
7D3D
330
7BA5
100
AcDbEntity
  8
0
100
AcDbBlockBegin
  2
*D4
 70
     1
 10
0.0
 20
0.0
 30
0.0
  3
*D4
  1

  0
LINE
  5
7EDB
330
7BA5
100
AcDbEntity
  8
3
  6
Continuous
 62
     0
440
 16777216
100
AcDbLine
 10
803.277564
 20
1248.166803562587
 30
0.0
 11
1204.549744
 21
1248.166803562587
 31
0.0
  0
LINE
  5
7EDC
330
7BA5
100
AcDbEntity
  8
3
  6
Continuous
 62
     0
440
 16777216
100
AcDbLine
 10
1003.277564
 20
1062.177419562587
 30
0.0
 11
1204.549744
 21
1062.177419562587
 31
0.0
  0
LINE
  5
7EDD
330
7BA5
100
AcDbEntity
  8
3
  6
Continuous
 62
     0
440
 16777216
100
AcDbLine
 10
1194.549744
 20
1228.166803562587
 30
0.0
 11
1194.549744
 21
1082.177419562587
 31
0.0
  0
INSERT
  5
7EDE
330
7BA5
100
AcDbEntity
  8
3
  6
Continuous
 62
     0
440
 16777216
100
AcDbBlockReference
  2
_OPEN
 10
1194.549744
 20
1248.166803562587
 30
0.0
 41
20.0
 42
20.0
 43
20.0
 50
90.0
  0
INSERT
  5
7EDF
330
7BA5
100
AcDbEntity
  8
3
  6
Continuous
 62
     0
440
 16777216
100
AcDbBlockReference
  2
_OPEN
 10
1194.549744
 20
1062.177419562587
 30
0.0
 41
20.0
 42
20.0
 43
20.0
 50
270.0
  0
MTEXT
  5
7EE0
330
7BA5
100
AcDbEntity
  8
3
  6
Continuous
 62
     0
440
 16777216
100
AcDbMText
 10
1169.549744
 20
1154.792093562587
 30
0.0
 40
30.0
 41
0.0
 46
0.0
 71
     5
 72
     5
  1
\A1;186
 11
0.0000000000000001
 21
1.0
 31
0.0
 73
     1
 44
1.0
  0
POINT
  5
7EE1
330
7BA5
100
AcDbEntity
  8
DEFPOINTS
  6
Continuous
 62
     0
440
 16777216
100
AcDbPoint
 10
798.2775639999999
 20
1248.166803562587
 30
0.0
  0
POINT
  5
7EE2
330
7BA5
100
AcDbEntity
  8
DEFPOINTS
  6
Continuous
 62
     0
440
 16777216
100
AcDbPoint
 10
998.2775640000001
 20
1062.177419562587
 30
0.0
  0
POINT
  5
7EE3
330
7BA5
100
AcDbEntity
  8
DEFPOINTS
  6
Continuous
 62
     0
440
 16777216
100
AcDbPoint
 10
1194.549744
 20
1062.177419562587
 30
0.0
  0
ENDBLK
  5
7D47
330
7BA5
100
AcDbEntity
  8
0
100
AcDbBlockEnd
  0
BLOCK
  5
7D48
330
7BB2
100
AcDbEntity
  8
0
100
AcDbBlockBegin
  2
*D5
 70
     1
 10
0.0
 20
0.0
 30
0.0
  3
*D5
  1

  0
LINE
  5
7EE4
330
7BB2
100
AcDbEntity
  8
3
  6
Continuous
 62
     0
440
 16777216
100
AcDbLine
 10
993.277564
 20
747.1774195625873
 30
0.0
 11
1204.549744
 21
747.1774195625873
 31
0.0
  0
LINE
  5
7EE5
330
7BB2
100
AcDbEntity
  8
3
  6
Continuous
 62
     0
440
 16777216
100
AcDbLine
 10
1194.549744
 20
1042.177419562587
 30
0.0
 11
1194.549744
 21
767.1774195625873
 31
0.0
  0
INSERT
  5
7EE6
330
7BB2
100
AcDbEntity
  8
3
  6
Continuous
 62
     0
440
 16777216
100
AcDbBlockReference
  2
_OPEN
 10
1194.549744
 20
1062.177419562587
 30
0.0
 41
20.0
 42
20.0
 43
20.0
 50
90.0
  0
INSERT
  5
7EE7
330
7BB2
100
AcDbEntity
  8
3
  6
Continuous
 62
     0
440
 16777216
100
AcDbBlockReference
  2
_OPEN
 10
1194.549744
 20
747.1774195625873
 30
0.0
 41
20.0
 42
20.0
 43
20.0
 50
270.0
  0
MTEXT
  5
7EE8
330
7BB2
100
AcDbEntity
  8
3
  6
Continuous
 62
     0
440
 16777216
100
AcDbMText
 10
1169.549744
 20
904.6774195625875
 30
0.0
 40
30.0
 41
0.0
 46
0.0
 71
     5
 72
     5
  1
\A1;315
 11
0.0000000000000001
 21
1.0
 31
0.0
 73
     1
 44
1.0
  0
POINT
  5
7EE9
330
7BB2
100
AcDbEntity
  8
DEFPOINTS
  6
Continuous
 62
     0
440
 16777216
100
AcDbPoint
 10
998.2775640000001
 20
1062.177419562587
 30
0.0
  0
POINT
  5
7EEA
330
7BB2
100
AcDbEntity
  8
DEFPOINTS
  6
Continuous
 62
     0
440
 16777216
100
AcDbPoint
 10
988.2775640000001
 20
747.1774195625873
 30
0.0
  0
POINT
  5
7EEB
330
7BB2
100
AcDbEntity
  8
DEFPOINTS
  6
Continuous
 62
     0
440
 16777216
100
AcDbPoint
 10
1194.549744
 20
747.1774195625873
 30
0.0
  0
ENDBLK
  5
7D51
330
7BB2
100
AcDbEntity
  8
0
100
AcDbBlockEnd
  0
BLOCK
  5
7C08
330
7C07
100
AcDbEntity
  8
0
100
AcDbBlockBegin
  2
*D6
 70
     1
 10
0.0
 20
0.0
 30
0.0
  3
*D6
  1

  0
LINE
  5
7EEC
330
7C07
100
AcDbEntity
  8
3
  6
Continuous
 62
     0
440
 16777216
100
AcDbLine
 10
248.277564
 20
1678.018653041245
 30
0.0
 11
248.277564
 21
1550.550111041246
 31
0.0
  0
LINE
  5
7EED
330
7C07
100
AcDbEntity
  8
3
  6
Continuous
 62
     0
440
 16777216
100
AcDbLine
 10
1018.277564
 20
1678.018653041245
 30
0.0
 11
1018.277564
 21
1550.550111041246
 31
0.0
  0
LINE
  5
7EEE
330
7C07
100
AcDbEntity
  8
3
  6
Continuous
 62
     0
440
 16777216
100
AcDbLine
 10
268.277564
 20
1560.550111041245
 30
0.0
 11
998.2775640000001
 21
1560.550111041245
 31
0.0
  0
INSERT
  5
7EEF
330
7C07
100
AcDbEntity
  8
3
  6
Continuous
 62
     0
440
 16777216
100
AcDbBlockReference
  2
_OPEN
 10
248.277564
 20
1560.550111041245
 30
0.0
 41
20.0
 42
20.0
 43
20.0
 50
180.0
  0
INSERT
  5
7EF0
330
7C07
100
AcDbEntity
  8
3
  6
Continuous
 62
     0
440
 16777216
100
AcDbBlockReference
  2
_OPEN
 10
1018.277564
 20
1560.550111041245
 30
0.0
 41
20.0
 42
20.0
 43
20.0
  0
MTEXT
  5
7EF1
330
7C07
100
AcDbEntity
  8
3
  6
Continuous
 62
     0
440
 16777216
100
AcDbMText
 10
629.697851
 20
1585.550111041245
 30
0.0
 40
30.0
 41
0.0
 46
0.0
 71
     5
 72
     5
  1
\A1;770
 73
     1
 44
1.0
  0
POINT
  5
7EF2
330
7C07
100
AcDbEntity
  8
DEFPOINTS
  6
Continuous
 62
     0
440
 16777216
100
AcDbPoint
 10
248.277564
 20
1683.018653041246
 30
0.0
  0
POINT
  5
7EF3
330
7C07
100
AcDbEntity
  8
DEFPOINTS
  6
Continuous
 62
     0
440
 16777216
100
AcDbPoint
 10
1018.277564
 20
1683.018653041246
 30
0.0
  0
POINT
  5
7EF4
330
7C07
100
AcDbEntity
  8
DEFPOINTS
  6
Continuous
 62
     0
440
 16777216
100
AcDbPoint
 10
1018.277564
 20
1560.550111041245
 30
0.0
  0
ENDBLK
  5
7C12
330
7C07
100
AcDbEntity
  8
0
100
AcDbBlockEnd
  0
BLOCK
  5
7C15
330
7C14
100
AcDbEntity
  8
0
100
AcDbBlockBegin
  2
*D7
 70
     1
 10
0.0
 20
0.0
 30
0.0
  3
*D7
  1

  0
LINE
  5
7EF5
330
7C14
100
AcDbEntity
  8
3
  6
Continuous
 62
     0
440
 16777216
100
AcDbLine
 10
1023.277564
 20
2163.018653041246
 30
0.0
 11
1133.257647
 21
2163.018653041245
 31
0.0
  0
LINE
  5
7EF6
330
7C14
100
AcDbEntity
  8
3
  6
Continuous
 62
     0
440
 16777216
100
AcDbLine
 10
1023.277564
 20
1683.018653041246
 30
0.0
 11
1133.257647
 21
1683.018653041246
 31
0.0
  0
LINE
  5
7EF7
330
7C14
100
AcDbEntity
  8
3
  6
Continuous
 62
     0
440
 16777216
100
AcDbLine
 10
1123.257647
 20
2143.018653041245
 30
0.0
 11
1123.257647
 21
1703.018653041246
 31
0.0
  0
INSERT
  5
7EF8
330
7C14
100
AcDbEntity
  8
3
  6
Continuous
 62
     0
440
 16777216
100
AcDbBlockReference
  2
_OPEN
 10
1123.257647
 20
2163.018653041245
 30
0.0
 41
20.0
 42
20.0
 43
20.0
 50
90.0
  0
INSERT
  5
7EF9
330
7C14
100
AcDbEntity
  8
3
  6
Continuous
 62
     0
440
 16777216
100
AcDbBlockReference
  2
_OPEN
 10
1123.257647
 20
1683.018653041246
 30
0.0
 41
20.0
 42
20.0
 43
20.0
 50
270.0
  0
MTEXT
  5
7EFA
330
7C14
100
AcDbEntity
  8
3
  6
Continuous
 62
     0
440
 16777216
100
AcDbMText
 10
1098.257647
 20
1914.518094041246
 30
0.0
 40
30.0
 41
0.0
 46
0.0
 71
     5
 72
     5
  1
\A1;480
 11
0.0000000000000001
 21
1.0
 31
0.0
 73
     1
 44
1.0
  0
POINT
  5
7EFB
330
7C14
100
AcDbEntity
  8
DEFPOINTS
  6
Continuous
 62
     0
440
 16777216
100
AcDbPoint
 10
1018.277564
 20
2163.018653041246
 30
0.0
  0
POINT
  5
7EFC
330
7C14
100
AcDbEntity
  8
DEFPOINTS
  6
Continuous
 62
     0
440
 16777216
100
AcDbPoint
 10
1018.277564
 20
1683.018653041246
 30
0.0
  0
POINT
  5
7EFD
330
7C14
100
AcDbEntity
  8
DEFPOINTS
  6
Continuous
 62
     0
440
 16777216
100
AcDbPoint
 10
1123.257647
 20
1683.018653041246
 30
0.0
  0
ENDBLK
  5
7C1F
330
7C14
100
AcDbEntity
  8
0
100
AcDbBlockEnd
  0
BLOCK
  5
7C3E
330
7C3D
100
AcDbEntity
  8
0
100
AcDbBlockBegin
  2
*D8
 70
     1
 10
0.0
 20
0.0
 30
0.0
  3
*D8
  1

  0
LINE
  5
7EFE
330
7C3D
100
AcDbEntity
  8
3
  6
Continuous
 62
     0
440
 16777216
100
AcDbLine
 10
1586.740925
 20
1266.077419562587
 30
0.0
 11
1586.740925
 21
1321.807351562587
 31
0.0
  0
LINE
  5
7EFF
330
7C3D
100
AcDbEntity
  8
3
  6
Continuous
 62
     0
440
 16777216
100
AcDbLine
 10
1766.740925
 20
1266.077419562587
 30
0.0
 11
1766.740925
 21
1321.807351562587
 31
0.0
  0
LINE
  5
7F00
330
7C3D
100
AcDbEntity
  8
3
  6
Continuous
 62
     0
440
 16777216
100
AcDbLine
 10
1606.740925
 20
1311.807351562587
 30
0.0
 11
1746.740925
 21
1311.807351562587
 31
0.0
  0
INSERT
  5
7F01
330
7C3D
100
AcDbEntity
  8
3
  6
Continuous
 62
     0
440
 16777216
100
AcDbBlockReference
  2
_OPEN
 10
1586.740925
 20
1311.807351562587
 30
0.0
 41
20.0
 42
20.0
 43
20.0
 50
180.0
  0
INSERT
  5
7F02
330
7C3D
100
AcDbEntity
  8
3
  6
Continuous
 62
     0
440
 16777216
100
AcDbBlockReference
  2
_OPEN
 10
1766.740925
 20
1311.807351562587
 30
0.0
 41
20.0
 42
20.0
 43
20.0
  0
MTEXT
  5
7F03
330
7C3D
100
AcDbEntity
  8
3
  6
Continuous
 62
     0
440
 16777216
100
AcDbMText
 10
1670.980956
 20
1336.807351562587
 30
0.0
 40
30.0
 41
0.0
 46
0.0
 71
     5
 72
     5
  1
\A1;180
 73
     1
 44
1.0
  0
POINT
  5
7F04
330
7C3D
100
AcDbEntity
  8
DEFPOINTS
  6
Continuous
 62
     0
440
 16777216
100
AcDbPoint
 10
1586.740925
 20
1261.077419562587
 30
0.0
  0
POINT
  5
7F05
330
7C3D
100
AcDbEntity
  8
DEFPOINTS
  6
Continuous
 62
     0
440
 16777216
100
AcDbPoint
 10
1766.740925
 20
1261.077419562587
 30
0.0
  0
POINT
  5
7F06
330
7C3D
100
AcDbEntity
  8
DEFPOINTS
  6
Continuous
 62
     0
440
 16777216
100
AcDbPoint
 10
1766.740925
 20
1311.807351562587
 30
0.0
  0
ENDBLK
  5
7C48
330
7C3D
100
AcDbEntity
  8
0
100
AcDbBlockEnd
  0
BLOCK
  5
7E07
330
7C4A
100
AcDbEntity
  8
0
100
AcDbBlockBegin
  2
*D9
 70
     1
 10
0.0
 20
0.0
 30
0.0
  3
*D9
  1

  0
LINE
  5
8068
330
7C4A
100
AcDbEntity
  8
3
  6
Continuous
 62
     0
440
 16777216
370
    -2
100
AcDbLine
 10
1336.740925
 20
1192.177419562587
 30
0.0
 11
1336.740925
 21
1389.893859761138
 31
0.0
  0
LINE
  5
8069
330
7C4A
100
AcDbEntity
  8
3
  6
Continuous
 62
     0
440
 16777216
370
    -2
100
AcDbLine
 10
1676.740925
 20
1360.734768562587
 30
0.0
 11
1676.740925
 21
1389.893859761138
 31
0.0
  0
LINE
  5
806A
330
7C4A
100
AcDbEntity
  8
3
  6
Continuous
 62
     0
440
 16777216
370
    -2
100
AcDbLine
 10
1356.740925
 20
1379.893859761138
 30
0.0
 11
1656.740925
 21
1379.893859761138
 31
0.0
  0
INSERT
  5
806B
330
7C4A
100
AcDbEntity
  8
3
  6
Continuous
 62
     0
440
 16777216
370
    -2
100
AcDbBlockReference
  2
_OPEN
 10
1336.740925
 20
1379.893859761138
 30
0.0
 41
20.0
 42
20.0
 43
20.0
 50
180.0
  0
INSERT
  5
806C
330
7C4A
100
AcDbEntity
  8
3
  6
Continuous
 62
     0
440
 16777216
370
    -2
100
AcDbBlockReference
  2
_OPEN
 10
1676.740925
 20
1379.893859761138
 30
0.0
 41
20.0
 42
20.0
 43
20.0
  0
MTEXT
  5
806D
330
7C4A
100
AcDbEntity
  8
3
  6
Continuous
 62
     0
440
 16777216
100
AcDbMText
 10
1503.92995
 20
1412.751002618281
 30
0.0
 40
30.0
 41
0.0
 46
0.0
 71
     5
 72
     1
  1
\A1;(340)
 73
     1
 44
1.0
  0
POINT
  5
806E
330
7C4A
100
AcDbEntity
  8
DEFPOINTS
  6
Continuous
 62
     0
440
 16777216
100
AcDbPoint
 10
1336.740925
 20
1187.177419562587
 30
0.0
  0
POINT
  5
806F
330
7C4A
100
AcDbEntity
  8
DEFPOINTS
  6
Continuous
 62
     0
440
 16777216
100
AcDbPoint
 10
1676.740925
 20
1355.734768562587
 30
0.0
  0
POINT
  5
8070
330
7C4A
100
AcDbEntity
  8
DEFPOINTS
  6
Continuous
 62
     0
440
 16777216
100
AcDbPoint
 10
1676.740925
 20
1379.893859761138
 30
0.0
  0
ENDBLK
  5
7E11
330
7C4A
100
AcDbEntity
  8
0
100
AcDbBlockEnd
  0
BLOCK
  5
7DE7
330
7C57
100
AcDbEntity
  8
0
100
AcDbBlockBegin
  2
*D10
 70
     1
 10
0.0
 20
0.0
 30
0.0
  3
*D10
  1

  0
LINE
  5
7F10
330
7C57
100
AcDbEntity
  8
3
  6
Continuous
 62
     0
440
 16777216
100
AcDbLine
 10
1775.740925
 20
1214.177419562587
 30
0.0
 11
1775.740925
 21
1389.893859761138
 31
0.0
  0
LINE
  5
7F11
330
7C57
100
AcDbEntity
  8
3
  6
Continuous
 62
     0
440
 16777216
100
AcDbLine
 10
1696.740925
 20
1379.893859761138
 30
0.0
 11
1755.740925
 21
1379.893859761138
 31
0.0
  0
MTEXT
  5
7F12
330
7C57
100
AcDbEntity
  8
3
  6
Continuous
 62
     0
440
 16777216
100
AcDbMText
 10
1724.133555
 20
1402.365515761138
 30
0.0
 40
30.0
 41
0.0
 46
0.0
 71
     5
 72
     5
  1
\A1;99
 73
     1
 44
1.0
  0
INSERT
  5
7F13
330
7C57
100
AcDbEntity
  8
3
  6
Continuous
 62
     0
440
 16777216
100
AcDbBlockReference
  2
_OPEN
 10
1676.740925
 20
1379.893859761138
 30
0.0
 41
20.0
 42
20.0
 43
20.0
 50
180.0
  0
INSERT
  5
7F14
330
7C57
100
AcDbEntity
  8
3
  6
Continuous
 62
     0
440
 16777216
100
AcDbBlockReference
  2
_OPEN
 10
1775.740925
 20
1379.893859761138
 30
0.0
 41
20.0
 42
20.0
 43
20.0
  0
POINT
  5
7F15
330
7C57
100
AcDbEntity
  8
DEFPOINTS
  6
Continuous
 62
     0
440
 16777216
100
AcDbPoint
 10
1676.740925
 20
1355.734768562587
 30
0.0
  0
POINT
  5
7F16
330
7C57
100
AcDbEntity
  8
DEFPOINTS
  6
Continuous
 62
     0
440
 16777216
100
AcDbPoint
 10
1775.740925
 20
1209.177419562587
 30
0.0
  0
POINT
  5
7F17
330
7C57
100
AcDbEntity
  8
DEFPOINTS
  6
Continuous
 62
     0
440
 16777216
100
AcDbPoint
 10
1775.740925
 20
1379.893859761138
 30
0.0
  0
ENDBLK
  5
7DF0
330
7C57
100
AcDbEntity
  8
0
100
AcDbBlockEnd
  0
BLOCK
  5
7DFC
330
7C80
100
AcDbEntity
  8
0
100
AcDbBlockBegin
  2
*D11
 70
     1
 10
0.0
 20
0.0
 30
0.0
  3
*D11
  1

  0
LINE
  5
7F18
330
7C80
100
AcDbEntity
  8
3
  6
Continuous
 62
     0
440
 16777216
100
AcDbLine
 10
1780.740925
 20
1187.177419562587
 30
0.0
 11
1844.46175
 21
1187.177419562587
 31
0.0
  0
LINE
  5
7F19
330
7C80
100
AcDbEntity
  8
3
  6
Continuous
 62
     0
440
 16777216
100
AcDbLine
 10
1780.740925
 20
937.1774195625871
 30
0.0
 11
1844.46175
 21
937.1774195625871
 31
0.0
  0
LINE
  5
7F1A
330
7C80
100
AcDbEntity
  8
3
  6
Continuous
 62
     0
440
 16777216
100
AcDbLine
 10
1834.46175
 20
1167.177419562587
 30
0.0
 11
1834.46175
 21
957.177419562587
 31
0.0
  0
INSERT
  5
7F1B
330
7C80
100
AcDbEntity
  8
3
  6
Continuous
 62
     0
440
 16777216
100
AcDbBlockReference
  2
_OPEN
 10
1834.46175
 20
1187.177419562587
 30
0.0
 41
20.0
 42
20.0
 43
20.0
 50
90.0
  0
INSERT
  5
7F1C
330
7C80
100
AcDbEntity
  8
3
  6
Continuous
 62
     0
440
 16777216
100
AcDbBlockReference
  2
_OPEN
 10
1834.46175
 20
937.1774195625871
 30
0.0
 41
20.0
 42
20.0
 43
20.0
 50
270.0
  0
MTEXT
  5
7F1D
330
7C80
100
AcDbEntity
  8
3
  6
Continuous
 62
     0
440
 16777216
100
AcDbMText
 10
1809.46175
 20
1048.132729562587
 30
0.0
 40
30.0
 41
0.0
 46
0.0
 71
     5
 72
     5
  1
\A1;φ250
 11
0.0000000000000001
 21
1.0
 31
0.0
 73
     1
 44
1.0
  0
POINT
  5
7F1E
330
7C80
100
AcDbEntity
  8
DEFPOINTS
  6
Continuous
 62
     0
440
 16777216
100
AcDbPoint
 10
1775.740925
 20
1187.177419562587
 30
0.0
  0
POINT
  5
7F1F
330
7C80
100
AcDbEntity
  8
DEFPOINTS
  6
Continuous
 62
     0
440
 16777216
100
AcDbPoint
 10
1775.740925
 20
937.1774195625871
 30
0.0
  0
POINT
  5
7F20
330
7C80
100
AcDbEntity
  8
DEFPOINTS
  6
Continuous
 62
     0
440
 16777216
100
AcDbPoint
 10
1834.46175
 20
937.1774195625871
 30
0.0
  0
ENDBLK
  5
7E06
330
7C80
100
AcDbEntity
  8
0
100
AcDbBlockEnd
  0
BLOCK
  5
7D79
330
7D06
100
AcDbEntity
  8
0
100
AcDbBlockBegin
  2
*D12
 70
     1
 10
0.0
 20
0.0
 30
0.0
  3
*D12
  1

  0
LINE
  5
7F21
330
7D06
100
AcDbEntity
  8
3
  6
Continuous
 62
     0
440
 16777216
100
AcDbLine
 10
1003.277564
 20
1062.177419562587
 30
0.0
 11
1153.197895
 21
1062.177419562587
 31
0.0
  0
LINE
  5
7F22
330
7D06
100
AcDbEntity
  8
3
  6
Continuous
 62
     0
440
 16777216
100
AcDbLine
 10
983.2775640000001
 20
802.1774195625873
 30
0.0
 11
1153.197895
 21
802.1774195625873
 31
0.0
  0
LINE
  5
7F23
330
7D06
100
AcDbEntity
  8
3
  6
Continuous
 62
     0
440
 16777216
100
AcDbLine
 10
1143.197895
 20
1042.177419562587
 30
0.0
 11
1143.197895
 21
822.1774195625872
 31
0.0
  0
INSERT
  5
7F24
330
7D06
100
AcDbEntity
  8
3
  6
Continuous
 62
     0
440
 16777216
100
AcDbBlockReference
  2
_OPEN
 10
1143.197895
 20
1062.177419562587
 30
0.0
 41
20.0
 42
20.0
 43
20.0
 50
90.0
  0
INSERT
  5
7F25
330
7D06
100
AcDbEntity
  8
3
  6
Continuous
 62
     0
440
 16777216
100
AcDbBlockReference
  2
_OPEN
 10
1143.197895
 20
802.1774195625873
 30
0.0
 41
20.0
 42
20.0
 43
20.0
 50
270.0
  0
MTEXT
  5
7F26
330
7D06
100
AcDbEntity
  8
3
  6
Continuous
 62
     0
440
 16777216
100
AcDbMText
 10
1118.197895
 20
931.4781875625874
 30
0.0
 40
30.0
 41
0.0
 46
0.0
 71
     5
 72
     5
  1
\A1;260
 11
0.0000000000000001
 21
1.0
 31
0.0
 73
     1
 44
1.0
  0
POINT
  5
7F27
330
7D06
100
AcDbEntity
  8
DEFPOINTS
  6
Continuous
 62
     0
440
 16777216
100
AcDbPoint
 10
998.2775640000001
 20
1062.177419562587
 30
0.0
  0
POINT
  5
7F28
330
7D06
100
AcDbEntity
  8
DEFPOINTS
  6
Continuous
 62
     0
440
 16777216
100
AcDbPoint
 10
978.277564
 20
802.1774195625873
 30
0.0
  0
POINT
  5
7F29
330
7D06
100
AcDbEntity
  8
DEFPOINTS
  6
Continuous
 62
     0
440
 16777216
100
AcDbPoint
 10
1143.197895
 20
802.1774195625873
 30
0.0
  0
ENDBLK
  5
7D83
330
7D06
100
AcDbEntity
  8
0
100
AcDbBlockEnd
  0
BLOCK
  5
7DB4
330
7DB3
100
AcDbEntity
  8
0
100
AcDbBlockBegin
  2
_DOT
 70
     0
 10
0.0
 20
0.0
 30
0.0
  3
_DOT
  1

  0
LINE
  5
7DE2
330
7DB3
100
AcDbEntity
  8
0
  6
ByBlock
 62
     0
100
AcDbLine
 10
0.0
 20
0.0
 30
0.0
 11
-1.0
 21
-0.0000000000000284
 31
0.0
  0
LWPOLYLINE
  5
7DE3
330
7DB3
100
AcDbEntity
  8
0
  6
ByBlock
 62
     0
100
AcDbPolyline
 90
        2
 70
     1
 43
0.1666666666666666
 10
-0.0833333333333286
 20
-0.0000000000000284
 42
1.0
 10
0.0833333333333286
 20
-0.0000000000000284
 42
1.0
  0
ENDBLK
  5
7DBA
330
7DB3
100
AcDbEntity
  8
0
100
AcDbBlockEnd
  0
BLOCK
  5
7E29
330
7E28
100
AcDbEntity
  8
0
100
AcDbBlockBegin
  2
*D14
 70
     1
 10
0.0
 20
0.0
 30
0.0
  3
*D14
  1

  0
LINE
  5
7FEB
330
7E28
100
AcDbEntity
  8
3
 62
     0
440
 16777216
370
    -2
100
AcDbLine
 10
248.277564
 20
612.1774195625873
 30
0.0
 11
248.277564
 21
534.2616796958672
 31
0.0
  0
LINE
  5
7FEC
330
7E28
100
AcDbEntity
  8
3
 62
     0
440
 16777216
370
    -2
100
AcDbLine
 10
798.2775639999999
 20
642.1774195625873
 30
0.0
 11
798.2775639999999
 21
534.2616796958672
 31
0.0
  0
LINE
  5
7FED
330
7E28
100
AcDbEntity
  8
3
 62
     0
440
 16777216
370
    -2
100
AcDbLine
 10
268.277564
 20
544.2616796958673
 30
0.0
 11
778.2775639999999
 21
544.2616796958673
 31
0.0
  0
INSERT
  5
7FEE
330
7E28
100
AcDbEntity
  8
3
 62
     0
440
 16777216
370
    -2
100
AcDbBlockReference
  2
_OPEN
 10
248.277564
 20
544.2616796958673
 30
0.0
 41
20.0
 42
20.0
 43
20.0
 50
180.0
  0
INSERT
  5
7FEF
330
7E28
100
AcDbEntity
  8
3
 62
     0
440
 16777216
370
    -2
100
AcDbBlockReference
  2
_OPEN
 10
798.2775639999999
 20
544.2616796958673
 30
0.0
 41
20.0
 42
20.0
 43
20.0
  0
MTEXT
  5
7FF0
330
7E28
100
AcDbEntity
  8
3
 62
     0
440
 16777216
100
AcDbMText
 10
523.2775639999999
 20
569.2616796958673
 30
0.0
 40
30.0
 41
0.0
 46
0.0
 71
     5
 72
     1
  1
\A1;550
 73
     1
 44
1.0
  0
POINT
  5
7FF1
330
7E28
100
AcDbEntity
  8
DEFPOINTS
 62
     0
440
 16777216
100
AcDbPoint
 10
248.277564
 20
617.1774195625873
 30
0.0
  0
POINT
  5
7FF2
330
7E28
100
AcDbEntity
  8
DEFPOINTS
 62
     0
440
 16777216
100
AcDbPoint
 10
798.2775639999999
 20
647.1774195625873
 30
0.0
  0
POINT
  5
7FF3
330
7E28
100
AcDbEntity
  8
DEFPOINTS
 62
     0
440
 16777216
100
AcDbPoint
 10
798.2775639999999
 20
544.2616796958673
 30
0.0
  0
ENDBLK
  5
7E33
330
7E28
100
AcDbEntity
  8
0
100
AcDbBlockEnd
  0
BLOCK
  5
7E36
330
7E35
100
AcDbEntity
  8
0
100
AcDbBlockBegin
  2
*D15
 70
     1
 10
0.0
 20
0.0
 30
0.0
  3
*D15
  1

  0
LINE
  5
7FF4
330
7E35
100
AcDbEntity
  8
3
 62
     0
440
 16777216
370
    -2
100
AcDbLine
 10
798.2775639999999
 20
642.1774195625873
 30
0.0
 11
798.2775639999999
 21
534.2616796958672
 31
0.0
  0
LINE
  5
7FF5
330
7E35
100
AcDbEntity
  8
3
 62
     0
440
 16777216
370
    -2
100
AcDbLine
 10
1018.277564
 20
612.1774195625873
 30
0.0
 11
1018.277564
 21
534.2616796958672
 31
0.0
  0
LINE
  5
7FF6
330
7E35
100
AcDbEntity
  8
3
 62
     0
440
 16777216
370
    -2
100
AcDbLine
 10
818.2775639999999
 20
544.2616796958673
 30
0.0
 11
998.2775640000001
 21
544.2616796958673
 31
0.0
  0
INSERT
  5
7FF7
330
7E35
100
AcDbEntity
  8
3
 62
     0
440
 16777216
370
    -2
100
AcDbBlockReference
  2
_OPEN
 10
798.2775639999999
 20
544.2616796958673
 30
0.0
 41
20.0
 42
20.0
 43
20.0
 50
180.0
  0
INSERT
  5
7FF8
330
7E35
100
AcDbEntity
  8
3
 62
     0
440
 16777216
370
    -2
100
AcDbBlockReference
  2
_OPEN
 10
1018.277564
 20
544.2616796958673
 30
0.0
 41
20.0
 42
20.0
 43
20.0
  0
MTEXT
  5
7FF9
330
7E35
100
AcDbEntity
  8
3
 62
     0
440
 16777216
100
AcDbMText
 10
908.2775639999999
 20
569.2616796958673
 30
0.0
 40
30.0
 41
0.0
 46
0.0
 71
     5
 72
     1
  1
\A1;220
 73
     1
 44
1.0
  0
POINT
  5
7FFA
330
7E35
100
AcDbEntity
  8
DEFPOINTS
 62
     0
440
 16777216
100
AcDbPoint
 10
798.2775639999999
 20
647.1774195625873
 30
0.0
  0
POINT
  5
7FFB
330
7E35
100
AcDbEntity
  8
DEFPOINTS
 62
     0
440
 16777216
100
AcDbPoint
 10
1018.277564
 20
617.1774195625873
 30
0.0
  0
POINT
  5
7FFC
330
7E35
100
AcDbEntity
  8
DEFPOINTS
 62
     0
440
 16777216
100
AcDbPoint
 10
1018.277564
 20
544.2616796958673
 30
0.0
  0
ENDBLK
  5
7E40
330
7E35
100
AcDbEntity
  8
0
100
AcDbBlockEnd
  0
BLOCK
  5
7E43
330
7E42
100
AcDbEntity
  8
0
100
AcDbBlockBegin
  2
*D16
 70
     1
 10
0.0
 20
0.0
 30
0.0
  3
*D16
  1

  0
LINE
  5
7FFD
330
7E42
100
AcDbEntity
  8
3
 62
     0
440
 16777216
370
    -2
100
AcDbLine
 10
1338.740925
 20
612.1774195625873
 30
0.0
 11
1338.740925
 21
534.2616796958672
 31
0.0
  0
LINE
  5
7FFE
330
7E42
100
AcDbEntity
  8
3
 62
     0
440
 16777216
370
    -2
100
AcDbLine
 10
1676.740925
 20
612.1774195625873
 30
0.0
 11
1676.740925
 21
534.2616796958672
 31
0.0
  0
LINE
  5
7FFF
330
7E42
100
AcDbEntity
  8
3
 62
     0
440
 16777216
370
    -2
100
AcDbLine
 10
1358.740925
 20
544.2616796958673
 30
0.0
 11
1656.740925
 21
544.2616796958673
 31
0.0
  0
INSERT
  5
8000
330
7E42
100
AcDbEntity
  8
3
 62
     0
440
 16777216
370
    -2
100
AcDbBlockReference
  2
_OPEN
 10
1338.740925
 20
544.2616796958673
 30
0.0
 41
20.0
 42
20.0
 43
20.0
 50
180.0
  0
INSERT
  5
8001
330
7E42
100
AcDbEntity
  8
3
 62
     0
440
 16777216
370
    -2
100
AcDbBlockReference
  2
_OPEN
 10
1676.740925
 20
544.2616796958673
 30
0.0
 41
20.0
 42
20.0
 43
20.0
  0
MTEXT
  5
8002
330
7E42
100
AcDbEntity
  8
3
 62
     0
440
 16777216
100
AcDbMText
 10
1507.740925
 20
569.2616796958673
 30
0.0
 40
30.0
 41
0.0
 46
0.0
 71
     5
 72
     1
  1
\A1;338
 73
     1
 44
1.0
  0
POINT
  5
8003
330
7E42
100
AcDbEntity
  8
DEFPOINTS
 62
     0
440
 16777216
100
AcDbPoint
 10
1338.740925
 20
617.1774195625873
 30
0.0
  0
POINT
  5
8004
330
7E42
100
AcDbEntity
  8
DEFPOINTS
 62
     0
440
 16777216
100
AcDbPoint
 10
1676.740925
 20
617.1774195625873
 30
0.0
  0
POINT
  5
8005
330
7E42
100
AcDbEntity
  8
DEFPOINTS
 62
     0
440
 16777216
100
AcDbPoint
 10
1676.740925
 20
544.2616796958673
 30
0.0
  0
ENDBLK
  5
7E4D
330
7E42
100
AcDbEntity
  8
0
100
AcDbBlockEnd
  0
BLOCK
  5
7E50
330
7E4F
100
AcDbEntity
  8
0
100
AcDbBlockBegin
  2
*D17
 70
     1
 10
0.0
 20
0.0
 30
0.0
  3
*D17
  1

  0
LINE
  5
8006
330
7E4F
100
AcDbEntity
  8
3
 62
     0
440
 16777216
370
    -2
100
AcDbLine
 10
1676.740925
 20
612.1774195625873
 30
0.0
 11
1676.740925
 21
534.2616796958672
 31
0.0
  0
LINE
  5
8007
330
7E4F
100
AcDbEntity
  8
3
 62
     0
440
 16777216
370
    -2
100
AcDbLine
 10
1818.740925
 20
612.1774195625873
 30
0.0
 11
1818.740925
 21
534.2616796958672
 31
0.0
  0
LINE
  5
8008
330
7E4F
100
AcDbEntity
  8
3
 62
     0
440
 16777216
370
    -2
100
AcDbLine
 10
1696.740925
 20
544.2616796958673
 30
0.0
 11
1798.740925
 21
544.2616796958673
 31
0.0
  0
INSERT
  5
8009
330
7E4F
100
AcDbEntity
  8
3
 62
     0
440
 16777216
370
    -2
100
AcDbBlockReference
  2
_OPEN
 10
1676.740925
 20
544.2616796958673
 30
0.0
 41
20.0
 42
20.0
 43
20.0
 50
180.0
  0
INSERT
  5
800A
330
7E4F
100
AcDbEntity
  8
3
 62
     0
440
 16777216
370
    -2
100
AcDbBlockReference
  2
_OPEN
 10
1818.740925
 20
544.2616796958673
 30
0.0
 41
20.0
 42
20.0
 43
20.0
  0
MTEXT
  5
800B
330
7E4F
100
AcDbEntity
  8
3
 62
     0
440
 16777216
100
AcDbMText
 10
1747.740925
 20
569.2616796958673
 30
0.0
 40
30.0
 41
0.0
 46
0.0
 71
     5
 72
     1
  1
\A1;142
 73
     1
 44
1.0
  0
POINT
  5
800C
330
7E4F
100
AcDbEntity
  8
DEFPOINTS
 62
     0
440
 16777216
100
AcDbPoint
 10
1676.740925
 20
617.1774195625873
 30
0.0
  0
POINT
  5
800D
330
7E4F
100
AcDbEntity
  8
DEFPOINTS
 62
     0
440
 16777216
100
AcDbPoint
 10
1818.740925
 20
617.1774195625873
 30
0.0
  0
POINT
  5
800E
330
7E4F
100
AcDbEntity
  8
DEFPOINTS
 62
     0
440
 16777216
100
AcDbPoint
 10
1818.740925
 20
544.2616796958673
 30
0.0
  0
ENDBLK
  5
7E5A
330
7E4F
100
AcDbEntity
  8
0
100
AcDbBlockEnd
  0
BLOCK
  5
7E5D
330
7E5C
100
AcDbEntity
  8
0
100
AcDbBlockBegin
  2
*D18
 70
     1
 10
0.0
 20
0.0
 30
0.0
  3
*D18
  1

  0
LINE
  5
8037
330
7E5C
100
AcDbEntity
  8
3
 62
     0
440
 16777216
370
    -2
100
AcDbLine
 10
1023.277564
 20
677.1774195625873
 30
0.0
 11
1205.769709199847
 21
677.1774195625873
 31
0.0
  0
LINE
  5
8038
330
7E5C
100
AcDbEntity
  8
3
 62
     0
440
 16777216
370
    -2
100
AcDbLine
 10
1023.277564
 20
617.1774195625873
 30
0.0
 11
1205.769709199847
 21
617.1774195625873
 31
0.0
  0
LINE
  5
8039
330
7E5C
100
AcDbEntity
  8
3
 62
     0
440
 16777216
370
    -2
100
AcDbLine
 10
1195.769709199847
 20
657.1774195625874
 30
0.0
 11
1195.769709199847
 21
637.1774195625873
 31
0.0
  0
LINE
  5
803A
330
7E5C
100
AcDbEntity
  8
3
 62
     0
440
 16777216
370
    -2
100
AcDbLine
 10
1195.769709199847
 20
617.1774195625873
 30
0.0
 11
1195.769709199847
 21
528.6059909911588
 31
0.0
  0
INSERT
  5
803B
330
7E5C
100
AcDbEntity
  8
3
 62
     0
440
 16777216
370
    -2
100
AcDbBlockReference
  2
_DOT
 10
1195.769709199847
 20
677.1774195625873
 30
0.0
 41
20.0
 42
20.0
 43
20.0
 50
90.0
  0
INSERT
  5
803C
330
7E5C
100
AcDbEntity
  8
3
 62
     0
440
 16777216
370
    -2
100
AcDbBlockReference
  2
_OPEN
 10
1195.769709199847
 20
617.1774195625873
 30
0.0
 41
20.0
 42
20.0
 43
20.0
 50
90.0
  0
LINE
  5
803D
330
7E5C
100
AcDbEntity
  8
3
 62
     0
440
 16777216
370
    -2
100
AcDbLine
 10
1195.769709199847
 20
597.1774195625873
 30
0.0
 11
1195.769709199847
 21
577.1774195625873
 31
0.0
  0
LINE
  5
803E
330
7E5C
100
AcDbEntity
  8
3
 62
     0
440
 16777216
370
    -2
100
AcDbLine
 10
1195.769709199847
 20
617.1774195625873
 30
0.0
 11
1195.769709199847
 21
637.1774195625873
 31
0.0
  0
MTEXT
  5
803F
330
7E5C
100
AcDbEntity
  8
3
 62
     0
440
 16777216
100
AcDbMText
 10
1170.769709199847
 20
562.8917052768732
 30
0.0
 40
30.0
 41
0.0
 46
0.0
 71
     5
 72
     1
  1
\A1;60
 11
0.0000000000000001
 21
1.0
 31
0.0
 73
     1
 44
1.0
  0
POINT
  5
8040
330
7E5C
100
AcDbEntity
  8
DEFPOINTS
 62
     0
440
 16777216
100
AcDbPoint
 10
1018.277564
 20
677.1774195625873
 30
0.0
  0
POINT
  5
8041
330
7E5C
100
AcDbEntity
  8
DEFPOINTS
 62
     0
440
 16777216
100
AcDbPoint
 10
1018.277564
 20
617.1774195625873
 30
0.0
  0
POINT
  5
8042
330
7E5C
100
AcDbEntity
  8
DEFPOINTS
 62
     0
440
 16777216
100
AcDbPoint
 10
1195.769709199847
 20
617.1774195625873
 30
0.0
  0
ENDBLK
  5
7E69
330
7E5C
100
AcDbEntity
  8
0
100
AcDbBlockEnd
  0
BLOCK
  5
7E6C
330
7E6B
100
AcDbEntity
  8
0
100
AcDbBlockBegin
  2
*D19
 70
     1
 10
0.0
 20
0.0
 30
0.0
  3
*D19
  1

  0
LINE
  5
800F
330
7E6B
100
AcDbEntity
  8
3
 62
     0
440
 16777216
370
    -2
100
AcDbLine
 10
1023.277564
 20
677.1774195625873
 30
0.0
 11
1205.769709199847
 21
677.1774195625873
 31
0.0
  0
LINE
  5
8010
330
7E6B
100
AcDbEntity
  8
3
 62
     0
440
 16777216
370
    -2
100
AcDbLine
 10
993.277564
 20
747.1774195625873
 30
0.0
 11
1205.769709199847
 21
747.1774195625873
 31
0.0
  0
LINE
  5
8011
330
7E6B
100
AcDbEntity
  8
3
 62
     0
440
 16777216
370
    -2
100
AcDbLine
 10
1195.769709199847
 20
697.1774195625873
 30
0.0
 11
1195.769709199847
 21
727.1774195625873
 31
0.0
  0
MTEXT
  5
8012
330
7E6B
100
AcDbEntity
  8
3
 62
     0
440
 16777216
100
AcDbMText
 10
1235.885299224326
 20
710.1044369442815
 30
0.0
 40
30.0
 41
0.0
 46
0.0
 71
     5
 72
     1
  1
\A1;(70)
 11
0.0000000000000001
 21
1.0
 31
0.0
 73
     1
 44
1.0
  0
INSERT
  5
8013
330
7E6B
100
AcDbEntity
  8
3
 62
     0
440
 16777216
370
    -2
100
AcDbBlockReference
  2
_DOT
 10
1195.769709199847
 20
677.1774195625873
 30
0.0
 41
20.0
 42
20.0
 43
20.0
 50
270.0
  0
INSERT
  5
8014
330
7E6B
100
AcDbEntity
  8
3
 62
     0
440
 16777216
370
    -2
100
AcDbBlockReference
  2
_OPEN
 10
1195.769709199847
 20
747.1774195625873
 30
0.0
 41
20.0
 42
20.0
 43
20.0
 50
90.0
  0
POINT
  5
8015
330
7E6B
100
AcDbEntity
  8
DEFPOINTS
 62
     0
440
 16777216
100
AcDbPoint
 10
1018.277564
 20
677.1774195625873
 30
0.0
  0
POINT
  5
8016
330
7E6B
100
AcDbEntity
  8
DEFPOINTS
 62
     0
440
 16777216
100
AcDbPoint
 10
988.2775640000001
 20
747.1774195625873
 30
0.0
  0
POINT
  5
8017
330
7E6B
100
AcDbEntity
  8
DEFPOINTS
 62
     0
440
 16777216
100
AcDbPoint
 10
1195.769709199847
 20
747.1774195625873
 30
0.0
  0
ENDBLK
  5
7E76
330
7E6B
100
AcDbEntity
  8
0
100
AcDbBlockEnd
  0
BLOCK
  5
7E79
330
7E78
100
AcDbEntity
  8
0
100
AcDbBlockBegin
  2
*D20
 70
     1
 10
0.0
 20
0.0
 30
0.0
  3
*D20
  1

  0
LINE
  5
7FE2
330
7E78
100
AcDbEntity
  8
3
 62
     0
440
 16777216
370
    -2
100
AcDbLine
 10
808.2775639999999
 20
1248.166803562587
 30
0.0
 11
1291.598380013653
 21
1248.166803562587
 31
0.0
  0
LINE
  5
7FE3
330
7E78
100
AcDbEntity
  8
3
 62
     0
440
 16777216
370
    -2
100
AcDbLine
 10
1023.277564
 20
617.1774195625873
 30
0.0
 11
1291.598380013653
 21
617.1774195625872
 31
0.0
  0
LINE
  5
7FE4
330
7E78
100
AcDbEntity
  8
3
 62
     0
440
 16777216
370
    -2
100
AcDbLine
 10
1281.598380013653
 20
1228.166803562587
 30
0.0
 11
1281.598380013653
 21
637.1774195625873
 31
0.0
  0
INSERT
  5
7FE5
330
7E78
100
AcDbEntity
  8
3
 62
     0
440
 16777216
370
    -2
100
AcDbBlockReference
  2
_OPEN
 10
1281.598380013653
 20
1248.166803562587
 30
0.0
 41
20.0
 42
20.0
 43
20.0
 50
90.0
  0
INSERT
  5
7FE6
330
7E78
100
AcDbEntity
  8
3
 62
     0
440
 16777216
370
    -2
100
AcDbBlockReference
  2
_OPEN
 10
1281.598380013653
 20
617.1774195625872
 30
0.0
 41
20.0
 42
20.0
 43
20.0
 50
270.0
  0
MTEXT
  5
7FE7
330
7E78
100
AcDbEntity
  8
3
 62
     0
440
 16777216
100
AcDbMText
 10
1248.74123715651
 20
932.6721115625874
 30
0.0
 40
30.0
 41
0.0
 46
0.0
 71
     5
 72
     1
  1
\A1;(631)
 11
0.0000000000000001
 21
1.0
 31
0.0
 73
     1
 44
1.0
  0
POINT
  5
7FE8
330
7E78
100
AcDbEntity
  8
DEFPOINTS
 62
     0
440
 16777216
100
AcDbPoint
 10
803.277564
 20
1248.166803562587
 30
0.0
  0
POINT
  5
7FE9
330
7E78
100
AcDbEntity
  8
DEFPOINTS
 62
     0
440
 16777216
100
AcDbPoint
 10
1018.277564
 20
617.1774195625873
 30
0.0
  0
POINT
  5
7FEA
330
7E78
100
AcDbEntity
  8
DEFPOINTS
 62
     0
440
 16777216
100
AcDbPoint
 10
1281.598380013653
 20
617.1774195625872
 30
0.0
  0
ENDBLK
  5
7E83
330
7E78
100
AcDbEntity
  8
0
100
AcDbBlockEnd
  0
ENDSEC
  0
SECTION
  2
ENTITIES
  0
LINE
  5
7AA0
330
19
100
AcDbEntity
  8
1
  6
Continuous
100
AcDbLine
 10
1586.740925
 20
1063.177419562587
 30
0.0
 11
1766.740925
 21
1063.177419562587
 31
0.0
  0
LINE
  5
7AA1
330
19
100
AcDbEntity
  8
1
  6
Continuous
100
AcDbLine
 10
1598.740925
 20
1273.077419562587
 30
0.0
 11
1754.740925
 21
1273.077419562587
 31
0.0
  0
LINE
  5
7AA2
330
19
100
AcDbEntity
  8
1
  6
Continuous
100
AcDbLine
 10
1586.740925
 20
1063.177419562587
 30
0.0
 11
1766.740925
 21
811.1774195625873
 31
0.0
  0
LINE
  5
7AA3
330
19
100
AcDbEntity
  8
1
  6
Continuous
100
AcDbLine
 10
1766.740925
 20
1063.177419562587
 30
0.0
 11
1586.740925
 21
811.1774195625873
 31
0.0
  0
LINE
  5
7AA4
330
19
100
AcDbEntity
  8
1
  6
Continuous
100
AcDbLine
 10
1766.740925
 20
811.1774195625873
 30
0.0
 11
1586.740925
 21
811.1774195625873
 31
0.0
  0
LINE
  5
7AA5
330
19
100
AcDbEntity
  8
1
  6
Continuous
100
AcDbLine
 10
1338.740925
 20
617.1774195625873
 30
0.0
 11
1818.740925
 21
617.1774195625873
 31
0.0
  0
LINE
  5
7AA6
330
19
100
AcDbEntity
  8
1
  6
Continuous
100
AcDbLine
 10
1338.740925
 20
647.1774195625873
 30
0.0
 11
1818.740925
 21
647.1774195625873
 31
0.0
  0
CIRCLE
  5
7AA7
330
19
100
AcDbEntity
  8
1
  6
Continuous
100
AcDbCircle
 10
798.2775639999999
 20
1062.177419562587
 30
0.0
 40
125.0
  0
CIRCLE
  5
7AA8
330
19
100
AcDbEntity
  8
1
  6
Continuous
100
AcDbCircle
 10
798.2775639999999
 20
1062.177419562587
 30
0.0
 40
145.0
  0
LINE
  5
7AA9
330
19
100
AcDbEntity
  8
1
  6
Continuous
100
AcDbLine
 10
923.2775639999999
 20
1117.177419562587
 30
0.0
 11
798.4775639999997
 21
1187.177419562587
 31
0.0
  0
CIRCLE
  5
7AAA
330
19
100
AcDbEntity
  8
1
  6
Continuous
100
AcDbCircle
 10
798.2775639999999
 20
1062.177419562587
 30
0.0
 40
63.5
  0
LINE
  5
7AAB
330
19
100
AcDbEntity
  8
1
  6
Continuous
100
AcDbLine
 10
278.277564
 20
807.1774195625872
 30
0.0
 11
988.2775640000001
 21
807.1774195625872
 31
0.0
  0
LINE
  5
7AAC
330
19
100
AcDbEntity
  8
1
  6
Continuous
100
AcDbLine
 10
456.5775639999999
 20
845.9774195625874
 30
0.0
 11
823.3775639999999
 21
1003.877419562587
 31
0.0
  0
LINE
  5
7AAD
330
19
100
AcDbEntity
  8
1
  6
Continuous
100
AcDbLine
 10
278.277564
 20
747.1774195625873
 30
0.0
 11
988.2775640000001
 21
747.1774195625873
 31
0.0
  0
LINE
  5
7AAE
330
19
100
AcDbEntity
  8
1
  6
Continuous
100
AcDbLine
 10
638.277564
 20
747.1774195625873
 30
0.0
 11
958.2775639999999
 21
747.1774195625873
 31
0.0
  0
LINE
  5
7AAF
330
19
100
AcDbEntity
  8
1
  6
Continuous
100
AcDbLine
 10
859.8775639999999
 20
1212.177419562587
 30
0.0
 11
736.6775640000001
 21
1212.177419562587
 31
0.0
  0
LINE
  5
7AB0
330
19
100
AcDbEntity
  8
2
  6
CENTER
100
AcDbLine
 10
1794.34461
 20
1062.177419562587
 30
0.0
 11
1321.155294
 21
1062.177419562587
 31
0.0
  0
ARC
  5
7AB1
330
19
100
AcDbEntity
  8
1
  6
Continuous
100
AcDbCircle
 10
781.2775639999999
 20
1045.177419562587
 30
0.0
 40
203.7
100
AcDbArc
 50
84.50000000000001
 51
175.4
  0
LINE
  5
7AB2
330
19
100
AcDbEntity
  8
1
  6
Continuous
100
AcDbLine
 10
978.277564
 20
802.1774195625873
 30
0.0
 11
797.8775639999999
 21
802.1774195625873
 31
0.0
  0
LINE
  5
7AB3
330
19
100
AcDbEntity
  8
1
  6
Continuous
100
AcDbLine
 10
248.277564
 20
647.1774195625873
 30
0.0
 11
1018.277564
 21
647.1774195625873
 31
0.0
  0
LINE
  5
7AB4
330
19
100
AcDbEntity
  8
1
  6
Continuous
100
AcDbLine
 10
248.277564
 20
677.1774195625873
 30
0.0
 11
1018.277564
 21
677.1774195625873
 31
0.0
  0
ARC
  5
7AB5
330
19
100
AcDbEntity
  8
1
  6
Continuous
100
AcDbCircle
 10
435.6775640000001
 20
894.6774195625872
 30
0.0
 40
75.8
100
AcDbArc
 50
322.9
 51
217.1
  0
LINE
  5
7AB6
330
19
100
AcDbEntity
  8
1
  6
Continuous
100
AcDbLine
 10
532.9775639999998
 20
827.1774195625873
 30
0.0
 11
278.277564
 21
827.1774195625873
 31
0.0
  0
LINE
  5
7AB7
330
19
100
AcDbEntity
  8
1
  6
Continuous
100
AcDbLine
 10
798.4775639999997
 20
1187.177419562587
 30
0.0
 11
343.277564
 21
987.1774195625873
 31
0.0
  0
LINE
  5
7AB8
330
19
100
AcDbEntity
  8
1
  6
Continuous
100
AcDbLine
 10
343.277564
 20
807.1774195625872
 30
0.0
 11
343.277564
 21
987.1774195625873
 31
0.0
  0
LINE
  5
7AB9
330
19
100
AcDbEntity
  8
1
  6
Continuous
100
AcDbLine
 10
248.277564
 20
617.1774195625873
 30
0.0
 11
278.277564
 21
617.1774195625873
 31
0.0
  0
LINE
  5
7ABA
330
19
100
AcDbEntity
  8
1
  6
Continuous
100
AcDbLine
 10
248.277564
 20
677.1774195625873
 30
0.0
 11
248.277564
 21
617.1774195625873
 31
0.0
  0
LINE
  5
7ABB
330
19
100
AcDbEntity
  8
1
  6
Continuous
100
AcDbLine
 10
278.277564
 20
647.1774195625873
 30
0.0
 11
278.277564
 21
617.1774195625873
 31
0.0
  0
LINE
  5
7ABC
330
19
100
AcDbEntity
  8
1
  6
Continuous
100
AcDbLine
 10
278.277564
 20
827.1774195625873
 30
0.0
 11
278.277564
 21
807.1774195625872
 31
0.0
  0
LINE
  5
7ABD
330
19
100
AcDbEntity
  8
1
  6
Continuous
100
AcDbLine
 10
278.277564
 20
807.1774195625872
 30
0.0
 11
278.277564
 21
747.1774195625873
 31
0.0
  0
CIRCLE
  5
7ABE
330
19
100
AcDbEntity
  8
1
  6
Continuous
100
AcDbCircle
 10
435.6775640000001
 20
894.6774195625872
 30
0.0
 40
53.0
  0
LINE
  5
7ABF
330
19
100
AcDbEntity
  8
2
  6
CENTER
100
AcDbLine
 10
435.6775640000001
 20
841.6774195625873
 30
0.0
 11
435.6775640000001
 21
947.6774195625871
 31
0.0
  0
LINE
  5
7AC0
330
19
100
AcDbEntity
  8
1
  6
Continuous
100
AcDbLine
 10
638.277564
 20
1128.277419562587
 30
0.0
 11
638.277564
 21
807.1774195625872
 31
0.0
  0
ARC
  5
7AC1
330
19
100
AcDbEntity
  8
1
  6
Continuous
100
AcDbCircle
 10
818.2775639999999
 20
1042.177419562587
 30
0.0
 40
240.9
100
AcDbArc
 50
175.4
 51
265.1
  0
LINE
  5
7AC2
330
19
100
AcDbEntity
  8
2
  6
CENTER
100
AcDbLine
 10
382.6775640000001
 20
894.6774195625872
 30
0.0
 11
488.677564
 21
894.6774195625872
 31
0.0
  0
LINE
  5
7AC3
330
19
100
AcDbEntity
  8
1
  6
Continuous
100
AcDbLine
 10
369.6775640000001
 20
827.1774195625873
 30
0.0
 11
369.6775640000001
 21
834.6774195625872
 31
0.0
  0
LINE
  5
7AC4
330
19
100
AcDbEntity
  8
1
  6
Continuous
100
AcDbLine
 10
369.6775640000001
 20
834.6774195625872
 30
0.0
 11
375.1775640000001
 21
848.9774195625873
 31
0.0
  0
POINT
  5
7AC5
330
19
100
AcDbEntity
  8
1
  6
Continuous
100
AcDbPoint
 10
506.0775639999999
 20
894.6774195625872
 30
0.0
  0
LINE
  5
7AC6
330
19
100
AcDbEntity
  8
1
  6
Continuous
100
AcDbLine
 10
501.677564
 20
834.6774195625872
 30
0.0
 11
496.0775639999999
 21
848.9774195625873
 31
0.0
  0
LINE
  5
7AC7
330
19
100
AcDbEntity
  8
1
  6
Continuous
100
AcDbLine
 10
501.677564
 20
827.1774195625873
 30
0.0
 11
501.677564
 21
834.6774195625872
 31
0.0
  0
LINE
  5
7AC8
330
19
100
AcDbEntity
  8
1
  6
Continuous
100
AcDbLine
 10
532.9775639999998
 20
807.1774195625872
 30
0.0
 11
532.9775639999998
 21
827.1774195625873
 31
0.0
  0
LINE
  5
7AC9
330
19
100
AcDbEntity
  8
1
  6
Continuous
100
AcDbLine
 10
412.177564
 20
942.1774195625872
 30
0.0
 11
770.1775640000001
 21
1119.077419562587
 31
0.0
  0
LINE
  5
7ACA
330
19
100
AcDbEntity
  8
1
  6
Continuous
100
AcDbLine
 10
736.6775640000001
 20
1212.177419562587
 30
0.0
 11
638.277564
 21
1128.277419562587
 31
0.0
  0
LINE
  5
7ACB
330
19
100
AcDbEntity
  8
2
  6
CENTER
100
AcDbLine
 10
798.2775639999999
 20
647.1774195625873
 30
0.0
 11
798.2775639999999
 21
1263.001286562587
 31
0.0
  0
LINE
  5
7ACF
330
19
100
AcDbEntity
  8
1
  6
Continuous
100
AcDbLine
 10
923.2775639999999
 20
807.1774195625872
 30
0.0
 11
923.2775639999999
 21
1117.177419562587
 31
0.0
  0
LINE
  5
7AD0
330
19
100
AcDbEntity
  8
1
  6
Continuous
100
AcDbLine
 10
958.2775639999999
 20
807.1774195625872
 30
0.0
 11
958.2775639999999
 21
1128.277419562587
 31
0.0
  0
LINE
  5
7AD1
330
19
100
AcDbEntity
  8
1
  6
Continuous
100
AcDbLine
 10
998.2775640000001
 20
1083.177419562587
 30
0.0
 11
998.2775640000001
 21
791.1774195625873
 31
0.0
  0
LINE
  5
7AD2
330
19
100
AcDbEntity
  8
1
  6
Continuous
100
AcDbLine
 10
978.277564
 20
832.1774195625872
 30
0.0
 11
978.277564
 21
1042.177419562587
 31
0.0
  0
LINE
  5
7AD3
330
19
100
AcDbEntity
  8
1
  6
Continuous
100
AcDbLine
 10
1018.277564
 20
617.1774195625873
 30
0.0
 11
988.2775640000001
 21
617.1774195625873
 31
0.0
  0
LINE
  5
7AD4
330
19
100
AcDbEntity
  8
1
  6
Continuous
100
AcDbLine
 10
988.2775640000001
 20
647.1774195625873
 30
0.0
 11
988.2775640000001
 21
617.1774195625873
 31
0.0
  0
LINE
  5
7AD5
330
19
100
AcDbEntity
  8
1
  6
Continuous
100
AcDbLine
 10
978.277564
 20
802.1774195625873
 30
0.0
 11
978.277564
 21
812.1774195625873
 31
0.0
  0
LINE
  5
7AD6
330
19
100
AcDbEntity
  8
1
  6
Continuous
100
AcDbLine
 10
998.2775640000001
 20
812.1774195625873
 30
0.0
 11
978.277564
 21
812.1774195625873
 31
0.0
  0
LINE
  5
7AD7
330
19
100
AcDbEntity
  8
1
  6
Continuous
100
AcDbLine
 10
988.2775640000001
 20
807.1774195625872
 30
0.0
 11
988.2775640000001
 21
747.1774195625873
 31
0.0
  0
LINE
  5
7AD8
330
19
100
AcDbEntity
  8
1
  6
Continuous
100
AcDbLine
 10
998.2775640000001
 20
812.1774195625873
 30
0.0
 11
978.277564
 21
832.1774195625872
 31
0.0
  0
LINE
  5
7ADA
330
19
100
AcDbEntity
  8
1
  6
Continuous
100
AcDbLine
 10
1018.277564
 20
677.1774195625873
 30
0.0
 11
1018.277564
 21
617.1774195625873
 31
0.0
  0
ARC
  5
7ADC
330
19
100
AcDbEntity
  8
1
  6
Continuous
100
AcDbCircle
 10
784.277564
 20
1076.177419562587
 30
0.0
 40
172.6
100
AcDbArc
 50
358.7
 51
84.50000000000001
  0
LINE
  5
7ADD
330
19
100
AcDbEntity
  8
1
  6
Continuous
100
AcDbLine
 10
859.8775639999999
 20
1212.177419562587
 30
0.0
 11
958.2775639999999
 21
1128.277419562587
 31
0.0
  0
LINE
  5
7ADE
330
19
100
AcDbEntity
  8
1
  6
Continuous
100
AcDbLine
 10
978.277564
 20
1062.177419562587
 30
0.0
 11
978.277564
 21
1072.177419562587
 31
0.0
  0
LINE
  5
7ADF
330
19
100
AcDbEntity
  8
1
  6
Continuous
100
AcDbLine
 10
998.2775640000001
 20
1062.177419562587
 30
0.0
 11
978.277564
 21
1062.177419562587
 31
0.0
  0
LINE
  5
7AE0
330
19
100
AcDbEntity
  8
1
  6
Continuous
100
AcDbLine
 10
978.277564
 20
1072.177419562587
 30
0.0
 11
956.8775639999998
 21
1072.177419562587
 31
0.0
  0
LINE
  5
7AE1
330
19
100
AcDbEntity
  8
1
  6
Continuous
100
AcDbLine
 10
998.2775640000001
 20
1062.177419562587
 30
0.0
 11
978.277564
 21
1042.177419562587
 31
0.0
  0
LINE
  5
7AE2
330
19
100
AcDbEntity
  8
1
  6
Continuous
100
AcDbLine
 10
1586.740925
 20
811.1774195625873
 30
0.0
 11
1586.740925
 21
1261.077419562587
 31
0.0
  0
LINE
  5
7AE3
330
19
100
AcDbEntity
  8
1
  6
Continuous
100
AcDbLine
 10
1577.740925
 20
915.1774195625872
 30
0.0
 11
1577.740925
 21
1062.177419562587
 31
0.0
  0
LINE
  5
7AE4
330
19
100
AcDbEntity
  8
1
  6
Continuous
100
AcDbLine
 10
1577.740925
 20
1209.177419562587
 30
0.0
 11
1577.740925
 21
807.1774195625872
 31
0.0
  0
LINE
  5
7AE5
330
19
100
AcDbEntity
  8
1
  6
Continuous
100
AcDbLine
 10
1448.740925
 20
807.1774195625872
 30
0.0
 11
1448.740925
 21
1023.977419562587
 31
0.0
  0
LINE
  5
7AE6
330
19
100
AcDbEntity
  8
1
  6
Continuous
100
AcDbLine
 10
1336.740925
 20
807.1774195625872
 30
0.0
 11
1336.740925
 21
1187.177419562587
 31
0.0
  0
LINE
  5
7AE7
330
19
100
AcDbEntity
  8
1
  6
Continuous
100
AcDbLine
 10
1411.740925
 20
807.1774195625872
 30
0.0
 11
1411.740925
 21
1187.177419562587
 31
0.0
  0
LINE
  5
7AE8
330
19
100
AcDbEntity
  8
1
  6
Continuous
100
AcDbLine
 10
1356.740925
 20
947.6774195625871
 30
0.0
 11
1356.740925
 21
841.6774195625873
 31
0.0
  0
LINE
  5
7AE9
330
19
100
AcDbEntity
  8
1
  6
Continuous
100
AcDbLine
 10
1391.740925
 20
947.6774195625871
 30
0.0
 11
1391.740925
 21
841.6774195625873
 31
0.0
  0
LINE
  5
7AEA
330
19
100
AcDbEntity
  8
1
  6
Continuous
100
AcDbLine
 10
1336.740925
 20
807.1774195625872
 30
0.0
 11
1668.740925
 21
807.1774195625872
 31
0.0
  0
LINE
  5
7AEB
330
19
100
AcDbEntity
  8
1
  6
Continuous
100
AcDbLine
 10
1418.740925
 20
747.1774195625873
 30
0.0
 11
1668.740925
 21
747.1774195625873
 31
0.0
  0
LINE
  5
7AEC
330
19
100
AcDbEntity
  8
1
  6
Continuous
100
AcDbLine
 10
1418.740925
 20
677.1774195625873
 30
0.0
 11
1668.740925
 21
677.1774195625873
 31
0.0
  0
LINE
  5
7AED
330
19
100
AcDbEntity
  8
1
  6
Continuous
100
AcDbLine
 10
1391.740925
 20
882.6774195625873
 30
0.0
 11
1448.740925
 21
882.6774195625873
 31
0.0
  0
LINE
  5
7AEE
330
19
100
AcDbEntity
  8
1
  6
Continuous
100
AcDbLine
 10
1391.740925
 20
906.6774195625873
 30
0.0
 11
1448.740925
 21
906.6774195625873
 31
0.0
  0
LINE
  5
7AEF
330
19
100
AcDbEntity
  8
1
  6
Continuous
100
AcDbLine
 10
1338.740925
 20
647.1774195625873
 30
0.0
 11
1338.740925
 21
617.1774195625873
 31
0.0
  0
LINE
  5
7AF0
330
19
100
AcDbEntity
  8
1
  6
Continuous
100
AcDbLine
 10
1356.740925
 20
841.6774195625873
 30
0.0
 11
1391.740925
 21
841.6774195625873
 31
0.0
  0
LINE
  5
7AF1
330
19
100
AcDbEntity
  8
1
  6
Continuous
100
AcDbLine
 10
1418.740925
 20
807.1774195625872
 30
0.0
 11
1418.740925
 21
747.1774195625873
 31
0.0
  0
LINE
  5
7AF2
330
19
100
AcDbEntity
  8
1
  6
Continuous
100
AcDbLine
 10
1418.740925
 20
677.1774195625873
 30
0.0
 11
1418.740925
 21
647.1774195625873
 31
0.0
  0
LINE
  5
7AF3
330
19
100
AcDbEntity
  8
1
  6
Continuous
100
AcDbLine
 10
1586.740925
 20
915.1774195625872
 30
0.0
 11
1577.740925
 21
915.1774195625872
 31
0.0
  0
LINE
  5
7AF4
330
19
100
AcDbEntity
  8
1
  6
Continuous
100
AcDbLine
 10
1586.740925
 20
811.1774195625873
 30
0.0
 11
1586.740925
 21
833.1577045625873
 31
0.0
  0
LINE
  5
7AF5
330
19
100
AcDbEntity
  8
1
  6
Continuous
100
AcDbLine
 10
1668.740925
 20
807.1774195625872
 30
0.0
 11
1668.740925
 21
747.1774195625873
 31
0.0
  0
LINE
  5
7AF6
330
19
100
AcDbEntity
  8
1
  6
Continuous
100
AcDbLine
 10
1668.740925
 20
677.1774195625873
 30
0.0
 11
1668.740925
 21
647.1774195625873
 31
0.0
  0
LINE
  5
7AF7
330
19
100
AcDbEntity
  8
1
  6
Continuous
100
AcDbLine
 10
1448.740925
 20
1023.977419562587
 30
0.0
 11
1577.740925
 21
1128.277419562587
 31
0.0
  0
LINE
  5
7AF8
330
19
100
AcDbEntity
  8
1
  6
Continuous
100
AcDbLine
 10
1391.740925
 20
1074.177419562587
 30
0.0
 11
1510.840925
 21
1074.177419562587
 31
0.0
  0
LINE
  5
7AF9
330
19
100
AcDbEntity
  8
1
  6
Continuous
100
AcDbLine
 10
1391.740925
 20
1050.177419562587
 30
0.0
 11
1481.140925
 21
1050.177419562587
 31
0.0
  0
LINE
  5
7AFA
330
19
100
AcDbEntity
  8
1
  6
Continuous
100
AcDbLine
 10
1336.740925
 20
1187.177419562587
 30
0.0
 11
1411.740925
 21
1187.177419562587
 31
0.0
  0
LINE
  5
7AFB
330
19
100
AcDbEntity
  8
1
  6
Continuous
100
AcDbLine
 10
1356.740925
 20
1125.677419562587
 30
0.0
 11
1356.740925
 21
998.6774195625873
 31
0.0
  0
LINE
  5
7AFC
330
19
100
AcDbEntity
  8
1
  6
Continuous
100
AcDbLine
 10
1356.740925
 20
1125.677419562587
 30
0.0
 11
1391.740925
 21
1125.677419562587
 31
0.0
  0
LINE
  5
7AFD
330
19
100
AcDbEntity
  8
1
  6
Continuous
100
AcDbLine
 10
1356.740925
 20
998.6774195625873
 30
0.0
 11
1391.740925
 21
998.6774195625873
 31
0.0
  0
LINE
  5
7AFE
330
19
100
AcDbEntity
  8
1
  6
Continuous
100
AcDbLine
 10
1391.740925
 20
1125.677419562587
 30
0.0
 11
1391.740925
 21
998.6774195625873
 31
0.0
  0
LINE
  5
7AFF
330
19
100
AcDbEntity
  8
1
  6
Continuous
100
AcDbLine
 10
1356.740925
 20
947.6774195625871
 30
0.0
 11
1391.740925
 21
947.6774195625871
 31
0.0
  0
LINE
  5
7B00
330
19
100
AcDbEntity
  8
1
  6
Continuous
100
AcDbLine
 10
1577.740925
 20
1209.177419562587
 30
0.0
 11
1577.740925
 21
1062.177419562587
 31
0.0
  0
LINE
  5
7B01
330
19
100
AcDbEntity
  8
1
  6
Continuous
100
AcDbLine
 10
1586.740925
 20
1209.177419562587
 30
0.0
 11
1577.740925
 21
1209.177419562587
 31
0.0
  0
ARC
  5
7B02
330
19
100
AcDbEntity
  8
1
  6
Continuous
100
AcDbCircle
 10
1598.740925
 20
1261.077419562587
 30
0.0
 40
12.0
100
AcDbArc
 50
90.0
 51
180.0
  0
LINE
  5
7B03
330
19
100
AcDbEntity
  8
1
  6
Continuous
100
AcDbLine
 10
998.2775640000001
 20
2110.818653041246
 30
0.0
 11
599.3775639999999
 21
2110.818653041246
 31
0.0
  0
LINE
  5
7B04
330
19
100
AcDbEntity
  8
1
  6
Continuous
100
AcDbLine
 10
651.277564
 20
2120.018653041245
 30
0.0
 11
945.277564
 21
2120.018653041245
 31
0.0
  0
LINE
  5
7B05
330
19
100
AcDbEntity
  8
1
  6
Continuous
100
AcDbLine
 10
998.2775640000001
 20
1931.218653041246
 30
0.0
 11
798.2775639999999
 21
1931.218653041246
 31
0.0
  0
LINE
  5
7B06
330
19
100
AcDbEntity
  8
1
  6
Continuous
100
AcDbLine
 10
923.2775640000001
 20
1681.018653041246
 30
0.0
 11
343.277564
 21
1681.018653041246
 31
0.0
  0
LINE
  5
7B07
330
19
100
AcDbEntity
  8
1
  6
Continuous
100
AcDbLine
 10
923.2775640000001
 20
1756.018653041246
 30
0.0
 11
343.277564
 21
1756.018653041246
 31
0.0
  0
LINE
  5
7B08
330
19
100
AcDbEntity
  8
1
  6
Continuous
100
AcDbLine
 10
861.7775640000001
 20
1736.018653041245
 30
0.0
 11
734.777564
 21
1736.018653041245
 31
0.0
  0
LINE
  5
7B09
330
19
100
AcDbEntity
  8
1
  6
Continuous
100
AcDbLine
 10
861.7775640000001
 20
1701.018653041246
 30
0.0
 11
734.777564
 21
1701.018653041246
 31
0.0
  0
LINE
  5
7B0A
330
19
100
AcDbEntity
  8
1
  6
Continuous
100
AcDbLine
 10
638.277564
 20
1922.018653041246
 30
0.0
 11
958.2775640000001
 21
1922.018653041246
 31
0.0
  0
LINE
  5
7B0B
330
19
100
AcDbEntity
  8
1
  6
Continuous
100
AcDbLine
 10
423.6775639999999
 20
1763.018653041245
 30
0.0
 11
248.277564
 21
1763.018653041245
 31
0.0
  0
LINE
  5
7B0C
330
19
100
AcDbEntity
  8
1
  6
Continuous
100
AcDbLine
 10
512.2775639999999
 20
1787.318653041246
 30
0.0
 11
360.777564
 21
1787.318653041246
 31
0.0
  0
LINE
  5
7B0D
330
19
100
AcDbEntity
  8
1
  6
Continuous
100
AcDbLine
 10
512.2775639999999
 20
1991.318653041246
 30
0.0
 11
360.777564
 21
1991.318653041246
 31
0.0
  0
LINE
  5
7B0E
330
19
100
AcDbEntity
  8
1
  6
Continuous
100
AcDbLine
 10
587.3775639999999
 20
2013.018653041246
 30
0.0
 11
248.277564
 21
2013.018653041246
 31
0.0
  0
LINE
  5
7B0F
330
19
100
AcDbEntity
  8
1
  6
Continuous
100
AcDbLine
 10
360.777564
 20
1787.318653041246
 30
0.0
 11
360.777564
 21
1991.318653041246
 31
0.0
  0
LINE
  5
7B10
330
19
100
AcDbEntity
  8
1
  6
Continuous
100
AcDbLine
 10
248.277564
 20
2163.018653041246
 30
0.0
 11
248.277564
 21
1683.018653041246
 31
0.0
  0
LINE
  5
7B11
330
19
100
AcDbEntity
  8
1
  6
Continuous
100
AcDbLine
 10
278.277564
 20
1683.018653041246
 30
0.0
 11
248.277564
 21
1683.018653041246
 31
0.0
  0
LINE
  5
7B12
330
19
100
AcDbEntity
  8
1
  6
Continuous
100
AcDbLine
 10
278.277564
 20
1763.018653041245
 30
0.0
 11
278.277564
 21
1683.018653041246
 31
0.0
  0
LINE
  5
7B13
330
19
100
AcDbEntity
  8
1
  6
Continuous
100
AcDbLine
 10
343.277564
 20
1681.018653041246
 30
0.0
 11
343.277564
 21
1756.018653041246
 31
0.0
  0
LINE
  5
7B14
330
19
100
AcDbEntity
  8
1
  6
Continuous
100
AcDbLine
 10
278.277564
 20
2163.018653041246
 30
0.0
 11
248.277564
 21
2163.018653041246
 31
0.0
  0
LINE
  5
7B15
330
19
100
AcDbEntity
  8
1
  6
Continuous
100
AcDbLine
 10
278.277564
 20
2163.018653041246
 30
0.0
 11
278.277564
 21
2013.018653041246
 31
0.0
  0
LINE
  5
7B16
330
19
100
AcDbEntity
  8
1
  6
Continuous
100
AcDbLine
 10
587.3775639999999
 20
2098.818653041246
 30
0.0
 11
587.3775639999999
 21
1943.218653041246
 31
0.0
  0
LINE
  5
7B17
330
19
100
AcDbEntity
  8
1
  6
Continuous
100
AcDbLine
 10
512.2775639999999
 20
1787.318653041246
 30
0.0
 11
512.2775639999999
 21
1991.318653041246
 31
0.0
  0
LINE
  5
7B18
330
19
100
AcDbEntity
  8
1
  6
Continuous
100
AcDbLine
 10
786.2775639999999
 20
1763.018653041245
 30
0.0
 11
447.6775639999999
 21
1763.018653041245
 31
0.0
  0
LINE
  5
7B19
330
19
100
AcDbEntity
  8
1
  6
Continuous
100
AcDbLine
 10
488.6775639999999
 20
1736.018653041245
 30
0.0
 11
382.677564
 21
1736.018653041245
 31
0.0
  0
LINE
  5
7B1A
330
19
100
AcDbEntity
  8
1
  6
Continuous
100
AcDbLine
 10
488.6775639999999
 20
1701.018653041246
 30
0.0
 11
382.677564
 21
1701.018653041246
 31
0.0
  0
LINE
  5
7B1B
330
19
100
AcDbEntity
  8
1
  6
Continuous
100
AcDbLine
 10
447.6775639999999
 20
1736.018653041245
 30
0.0
 11
447.6775639999999
 21
1787.318653041246
 31
0.0
  0
LINE
  5
7B1C
330
19
100
AcDbEntity
  8
1
  6
Continuous
100
AcDbLine
 10
423.6775639999999
 20
1736.018653041245
 30
0.0
 11
423.5775639999999
 21
1787.318653041246
 31
0.0
  0
LINE
  5
7B1D
330
19
100
AcDbEntity
  8
1
  6
Continuous
100
AcDbLine
 10
382.677564
 20
1701.018653041246
 30
0.0
 11
382.677564
 21
1736.018653041245
 31
0.0
  0
LINE
  5
7B1E
330
19
100
AcDbEntity
  8
1
  6
Continuous
100
AcDbLine
 10
488.6775639999999
 20
1701.018653041246
 30
0.0
 11
488.6775639999999
 21
1736.018653041245
 31
0.0
  0
LINE
  5
7B1F
330
19
100
AcDbEntity
  8
1
  6
Continuous
100
AcDbLine
 10
599.3775639999999
 20
1931.218653041246
 30
0.0
 11
798.2775639999999
 21
1931.218653041246
 31
0.0
  0
LINE
  5
7B20
330
19
100
AcDbEntity
  8
1
  6
Continuous
100
AcDbLine
 10
786.2775639999999
 20
1793.018653041245
 30
0.0
 11
638.277564
 21
1793.018653041245
 31
0.0
  0
LINE
  5
7B21
330
19
100
AcDbEntity
  8
1
  6
Continuous
100
AcDbLine
 10
651.277564
 20
1931.218653041246
 30
0.0
 11
651.277564
 21
1922.018653041246
 31
0.0
  0
ARC
  5
7B22
330
19
100
AcDbEntity
  8
1
  6
Continuous
100
AcDbCircle
 10
599.3775639999999
 20
1943.218653041246
 30
0.0
 40
12.0
100
AcDbArc
 50
180.0
 51
270.0
  0
LINE
  5
7B23
330
19
100
AcDbEntity
  8
1
  6
Continuous
100
AcDbLine
 10
638.277564
 20
1922.018653041246
 30
0.0
 11
638.277564
 21
1793.018653041245
 31
0.0
  0
LINE
  5
7B24
330
19
100
AcDbEntity
  8
1
  6
Continuous
100
AcDbLine
 10
734.777564
 20
1701.018653041246
 30
0.0
 11
734.777564
 21
1736.018653041245
 31
0.0
  0
LINE
  5
7B25
330
19
100
AcDbEntity
  8
1
  6
Continuous
100
AcDbLine
 10
786.2775639999999
 20
1736.018653041245
 30
0.0
 11
786.2775639999999
 21
1922.018653041246
 31
0.0
  0
LINE
  5
7B26
330
19
100
AcDbEntity
  8
1
  6
Continuous
100
AcDbLine
 10
651.277564
 20
2110.818653041246
 30
0.0
 11
651.277564
 21
2120.018653041245
 31
0.0
  0
ARC
  5
7B27
330
19
100
AcDbEntity
  8
1
  6
Continuous
100
AcDbCircle
 10
599.3775639999999
 20
2098.818653041246
 30
0.0
 40
12.0
100
AcDbArc
 50
90.0
 51
180.0
  0
LINE
  5
7B28
330
19
100
AcDbEntity
  8
1
  6
Continuous
100
AcDbLine
 10
998.2775640000001
 20
1940.218653041245
 30
0.0
 11
978.277564
 21
1960.218653041246
 31
0.0
  0
LINE
  5
7B29
330
19
100
AcDbEntity
  8
1
  6
Continuous
100
AcDbLine
 10
998.2775640000001
 20
2132.018653041246
 30
0.0
 11
998.2775640000001
 21
1910.018653041246
 31
0.0
  0
LINE
  5
7B2A
330
19
100
AcDbEntity
  8
1
  6
Continuous
100
AcDbLine
 10
1018.277564
 20
2163.018653041246
 30
0.0
 11
1018.277564
 21
1683.018653041246
 31
0.0
  0
LINE
  5
7B2B
330
19
100
AcDbEntity
  8
1
  6
Continuous
100
AcDbLine
 10
988.2775640000001
 20
1683.018653041246
 30
0.0
 11
1018.277564
 21
1683.018653041246
 31
0.0
  0
LINE
  5
7B2C
330
19
100
AcDbEntity
  8
1
  6
Continuous
100
AcDbLine
 10
1018.277564
 20
1763.018653041245
 30
0.0
 11
810.277564
 21
1763.018653041245
 31
0.0
  0
LINE
  5
7B2D
330
19
100
AcDbEntity
  8
1
  6
Continuous
100
AcDbLine
 10
958.2775640000001
 20
1793.018653041245
 30
0.0
 11
810.277564
 21
1793.018653041245
 31
0.0
  0
LINE
  5
7B2E
330
19
100
AcDbEntity
  8
1
  6
Continuous
100
AcDbLine
 10
861.7775640000001
 20
1701.018653041246
 30
0.0
 11
861.7775640000001
 21
1736.018653041245
 31
0.0
  0
LINE
  5
7B2F
330
19
100
AcDbEntity
  8
1
  6
Continuous
100
AcDbLine
 10
810.277564
 20
1736.018653041245
 30
0.0
 11
810.277564
 21
1922.018653041246
 31
0.0
  0
LINE
  5
7B30
330
19
100
AcDbEntity
  8
1
  6
Continuous
100
AcDbLine
 10
945.277564
 20
1931.218653041246
 30
0.0
 11
945.277564
 21
1922.018653041246
 31
0.0
  0
LINE
  5
7B31
330
19
100
AcDbEntity
  8
1
  6
Continuous
100
AcDbLine
 10
988.2775640000001
 20
1763.018653041245
 30
0.0
 11
988.2775640000001
 21
1683.018653041246
 31
0.0
  0
LINE
  5
7B32
330
19
100
AcDbEntity
  8
1
  6
Continuous
100
AcDbLine
 10
958.2775640000001
 20
1793.018653041245
 30
0.0
 11
958.2775640000001
 21
1922.018653041246
 31
0.0
  0
LINE
  5
7B33
330
19
100
AcDbEntity
  8
1
  6
Continuous
100
AcDbLine
 10
923.2775640000001
 20
1681.018653041246
 30
0.0
 11
923.2775640000001
 21
1756.018653041246
 31
0.0
  0
LINE
  5
7B34
330
19
100
AcDbEntity
  8
1
  6
Continuous
100
AcDbLine
 10
988.2775640000001
 20
2163.018653041246
 30
0.0
 11
1018.277564
 21
2163.018653041246
 31
0.0
  0
LINE
  5
7B35
330
19
100
AcDbEntity
  8
1
  6
Continuous
100
AcDbLine
 10
1018.277564
 20
2013.018653041246
 30
0.0
 11
998.2775640000001
 21
2013.018653041246
 31
0.0
  0
LINE
  5
7B36
330
19
100
AcDbEntity
  8
1
  6
Continuous
100
AcDbLine
 10
998.2775640000001
 20
2101.818653041246
 30
0.0
 11
978.277564
 21
2081.818653041246
 31
0.0
  0
LINE
  5
7B37
330
19
100
AcDbEntity
  8
1
  6
Continuous
100
AcDbLine
 10
945.277564
 20
2110.818653041246
 30
0.0
 11
945.277564
 21
2120.018653041245
 31
0.0
  0
LINE
  5
7B38
330
19
100
AcDbEntity
  8
1
  6
Continuous
100
AcDbLine
 10
978.277564
 20
2081.818653041246
 30
0.0
 11
978.277564
 21
1960.218653041246
 31
0.0
  0
LINE
  5
7B39
330
19
100
AcDbEntity
  8
1
  6
Continuous
100
AcDbLine
 10
988.2775640000001
 20
2163.018653041246
 30
0.0
 11
988.2775640000001
 21
2111.818653041246
 31
0.0
  0
LINE
  5
7B3A
330
19
100
AcDbEntity
  8
1
  6
Continuous
100
AcDbLine
 10
1766.740925
 20
1261.077419562587
 30
0.0
 11
1766.740925
 21
811.1774195625873
 31
0.0
  0
LINE
  5
7B3B
330
19
100
AcDbEntity
  8
1
  6
Continuous
100
AcDbLine
 10
1775.740925
 20
915.1774195625872
 30
0.0
 11
1775.740925
 21
1209.177419562587
 31
0.0
  0
LINE
  5
7B3C
330
19
100
AcDbEntity
  8
1
  6
Continuous
100
AcDbLine
 10
1766.740925
 20
915.1774195625872
 30
0.0
 11
1775.740925
 21
915.1774195625872
 31
0.0
  0
LINE
  5
7B3D
330
19
100
AcDbEntity
  8
1
  6
Continuous
100
AcDbLine
 10
1818.740925
 20
647.1774195625873
 30
0.0
 11
1818.740925
 21
617.1774195625873
 31
0.0
  0
LINE
  5
7B3E
330
19
100
AcDbEntity
  8
1
  6
Continuous
100
AcDbLine
 10
1766.740925
 20
1209.177419562587
 30
0.0
 11
1775.740925
 21
1209.177419562587
 31
0.0
  0
ARC
  5
7B3F
330
19
100
AcDbEntity
  8
1
  6
Continuous
100
AcDbCircle
 10
1754.740925
 20
1261.077419562587
 30
0.0
 40
12.0
100
AcDbArc
 50
0.0
 51
90.0
  0
LINE
  5
7B40
330
19
100
AcDbEntity
  8
4
  6
Continuous
100
AcDbLine
 10
1850.0
 20
500.0
 30
0.0
 11
1850.0
 21
300.0
 31
0.0
  0
LINE
  5
7B41
330
19
100
AcDbEntity
  8
4
  6
Continuous
100
AcDbLine
 10
1150.0
 20
500.0
 30
0.0
 11
1150.0
 21
300.0
 31
0.0
  0
LINE
  5
7B42
330
19
100
AcDbEntity
  8
4
  6
Continuous
100
AcDbLine
 10
650.0
 20
500.0
 30
0.0
 11
650.0
 21
300.0
 31
0.0
  0
LINE
  5
7B45
330
19
100
AcDbEntity
  8
4
  6
Continuous
100
AcDbLine
 10
650.0
 20
300.0
 30
0.0
 11
1850.0
 21
300.0
 31
0.0
  0
LINE
  5
7B46
330
19
100
AcDbEntity
  8
4
  6
Continuous
100
AcDbLine
 10
650.0
 20
400.0
 30
0.0
 11
1850.0
 21
400.0
 31
0.0
  0
TEXT
  5
7B47
330
19
100
AcDbEntity
  8
4
  6
Continuous
100
AcDbText
 10
688.502081
 20
431.543026
 30
0.0
 40
50.0
  1
機器名称
100
AcDbText
  0
TEXT
  5
7B48
330
19
100
AcDbEntity
  8
4
  6
Continuous
100
AcDbText
 10
686.258106
 20
321.645157
 30
0.0
 40
50.0
  1
機器型番
100
AcDbText
  0
TEXT
  5
7B49
330
19
100
AcDbEntity
  8
4
  6
Continuous
100
AcDbText
 10
1177.678745
 20
422.571769
 30
0.0
 40
45.0
  1
ミツヤニューマルチファン
100
AcDbText
  0
TEXT
  5
7B4A
330
19
100
AcDbEntity
  8
4
  6
Continuous
100
AcDbText
 10
1186.654496
 20
317.159584
 30
0.0
 40
50.0
  1
NM#1 1/2-1
100
AcDbText
  0
TEXT
  5
7B4C
330
19
100
AcDbEntity
  8
4
  6
Continuous
100
AcDbText
 10
739.4673019999999
 20
2383.428841
 30
0.0
 40
54.0
  1
天井吊防振ベット
100
AcDbText
  0
TEXT
  5
7B4D
330
19
100
AcDbEntity
  8
4
  6
Continuous
100
AcDbText
 10
316.167593
 20
2533.880976000001
 30
0.0
 40
72.0
  1
ベルト駆動式片吸込片持多翼ファン
100
AcDbText
  0
LINE
  5
7B4E
330
19
100
AcDbEntity
  8
4
  6
Continuous
100
AcDbLine
 10
250.0
 20
2469.408754
 30
0.0
 11
1850.0
 21
2469.408754
 31
0.0
  0
LINE
  5
7B4F
330
19
100
AcDbEntity
  8
4
  6
Continuous
100
AcDbLine
 10
250.0
 20
2669.408754
 30
0.0
 11
1850.0
 21
2669.408754
 31
0.0
  0
LINE
  5
7B50
330
19
100
AcDbEntity
  8
4
  6
Continuous
100
AcDbLine
 10
650.0
 20
500.0
 30
0.0
 11
1850.0
 21
500.0
 31
0.0
  0
LINE
  5
7B51
330
19
100
AcDbEntity
  8
4
  6
Continuous
100
AcDbLine
 10
250.0
 20
2669.408754
 30
0.0
 11
250.0
 21
2469.408754
 31
0.0
  0
TEXT
  5
7B52
330
19
100
AcDbEntity
  8
4
  6
Continuous
100
AcDbText
 10
303.60847
 20
2382.319478000001
 30
0.0
 40
54.0
  1
左回転右横向
100
AcDbText
  0
TEXT
  5
7B53
330
19
100
AcDbEntity
  8
4
  6
Continuous
100
AcDbText
 10
1468.969559
 20
2706.061081
 30
0.0
 40
56.0
  1
No.
100
AcDbText
  0
TEXT
  5
7B54
330
19
100
AcDbEntity
  8
4
  6
Continuous
100
AcDbText
 10
1393.955288
 20
2383.428841
 30
0.0
 40
54.0
  1
縮尺：1/10
100
AcDbText
  0
LINE
  5
7B55
330
19
100
AcDbEntity
  8
4
  6
Continuous
100
AcDbLine
 10
1850.0
 20
2669.408754
 30
0.0
 11
1850.0
 21
2469.408754
 31
0.0
  0
LINE
  5
7B57
330
19
100
AcDbEntity
  8
4
  6
Continuous
100
AcDbLine
 10
1440.617422
 20
2681.263583
 30
0.0
 11
1440.617422
 21
2786.652262
 31
0.0
  0
LINE
  5
7B58
330
19
100
AcDbEntity
  8
4
  6
Continuous
100
AcDbLine
 10
1440.617422
 20
2786.652262
 30
0.0
 11
1850.0
 21
2786.652262
 31
0.0
  0
LINE
  5
7B59
330
19
100
AcDbEntity
  8
4
  6
Continuous
100
AcDbLine
 10
1850.0
 20
2786.652262
 30
0.0
 11
1850.0
 21
2681.263583
 31
0.0
  0
LINE
  5
7B5A
330
19
100
AcDbEntity
  8
4
  6
Continuous
100
AcDbLine
 10
1850.0
 20
2681.263583
 30
0.0
 11
1440.617422
 21
2681.263583
 31
0.0
  0
DIMENSION
  5
7B8B
330
19
100
AcDbEntity
  8
3
  6
Continuous
100
AcDbDimension
280
     0
  2
*D1
 10
798.2775639999999
 20
1291.322601562587
 30
0.0
 11
695.5058189999999
 21
1291.322601562587
 31
0.0
 70
   160
 71
     5
 42
-1.0
 73
     0
 74
     0
 75
     0
  3
IGA
100
AcDbAlignedDimension
 13
578.28818
 23
1062.177419562587
 33
0.0
 14
798.2775639999999
 24
1248.166803562587
 34
0.0
100
AcDbRotatedDimension
1001
ACAD
1000
DSTYLE
1002
{
1070
   287
1070
     3
1070
    40
1040
10.0
1070
   143
1040
0.039
1070
   172
1070
     1
1070
   271
1070
     0
1070
   279
1070
     0
1070
   288
1070
     1
1002
}
  0
DIMENSION
  5
7B97
330
19
100
AcDbEntity
  8
3
  6
Continuous
100
AcDbDimension
280
     0
  2
*D2
 10
998.2775640000001
 20
1291.322601562587
 30
0.0
 11
898.2775639999999
 21
1316.322601562587
 31
0.0
 70
    32
 71
     5
 42
-1.0
 73
     0
 74
     0
 75
     0
  3
IGA
100
AcDbAlignedDimension
 13
798.2775639999999
 23
1248.166803562587
 33
0.0
 14
998.2775640000001
 24
1083.177419562587
 34
0.0
100
AcDbRotatedDimension
1001
ACAD
1000
DSTYLE
1002
{
1070
   287
1070
     4
1070
    40
1040
10.0
1070
    75
1070
     1
1070
   143
1040
0.039
1070
   172
1070
     1
1070
   271
1070
     0
1070
   279
1070
     1
1070
   288
1070
     1
1002
}
  0
DIMENSION
  5
7BA4
330
19
100
AcDbEntity
  8
3
  6
Continuous
100
AcDbDimension
280
     0
  2
*D3
 10
1074.01499
 20
812.1774195625873
 30
0.0
 11
1074.01499
 21
934.8262745625875
 31
0.0
 70
   160
 71
     5
 42
-1.0
 73
     0
 74
     0
 75
     0
  3
IGA
100
AcDbAlignedDimension
 13
998.2775640000001
 23
1062.177419562587
 33
0.0
 14
998.2775640000001
 24
812.1774195625873
 34
0.0
 50
90.0
100
AcDbRotatedDimension
1001
ACAD
1000
DSTYLE
1002
{
1070
   287
1070
     3
1070
    40
1040
10.0
1070
   143
1040
0.039
1070
   172
1070
     1
1070
   271
1070
     0
1070
   279
1070
     0
1070
   288
1070
     1
1002
}
  0
DIMENSION
  5
7BB1
330
19
100
AcDbEntity
  8
3
  6
Continuous
100
AcDbDimension
280
     0
  2
*D4
 10
1194.549744
 20
1062.177419562587
 30
0.0
 11
1194.549744
 21
1154.792093562587
 31
0.0
 70
   160
 71
     5
 42
-1.0
 73
     0
 74
     0
 75
     0
  3
IGA
100
AcDbAlignedDimension
 13
798.2775639999999
 23
1248.166803562587
 33
0.0
 14
998.2775640000001
 24
1062.177419562587
 34
0.0
 50
90.0
100
AcDbRotatedDimension
1001
ACAD
1000
DSTYLE
1002
{
1070
   287
1070
     3
1070
    40
1040
10.0
1070
   143
1040
0.039
1070
   172
1070
     1
1070
   271
1070
     0
1070
   279
1070
     0
1070
   288
1070
     1
1002
}
  0
DIMENSION
  5
7BBD
330
19
100
AcDbEntity
  8
3
  6
Continuous
100
AcDbDimension
280
     0
  2
*D5
 10
1194.549744
 20
747.1774195625873
 30
0.0
 11
1169.549744
 21
904.6774195625875
 31
0.0
 70
    32
 71
     5
 42
-1.0
 73
     0
 74
     0
 75
     0
  3
IGA
100
AcDbAlignedDimension
 13
998.2775640000001
 23
1062.177419562587
 33
0.0
 14
988.2775640000001
 24
747.1774195625873
 34
0.0
 50
90.0
100
AcDbRotatedDimension
1001
ACAD
1000
DSTYLE
1002
{
1070
   287
1070
     4
1070
    40
1040
10.0
1070
    75
1070
     1
1070
   143
1040
0.039
1070
   172
1070
     1
1070
   271
1070
     0
1070
   279
1070
     1
1070
   288
1070
     1
1002
}
  0
DIMENSION
  5
7C13
330
19
100
AcDbEntity
  8
3
  6
Continuous
100
AcDbDimension
280
     0
  2
*D6
 10
1018.277564
 20
1560.550111041245
 30
0.0
 11
629.697851
 21
1560.550111041245
 31
0.0
 70
   160
 71
     5
 42
-1.0
 73
     0
 74
     0
 75
     0
  3
IGA
100
AcDbAlignedDimension
 13
248.277564
 23
1683.018653041246
 33
0.0
 14
1018.277564
 24
1683.018653041246
 34
0.0
100
AcDbRotatedDimension
1001
ACAD
1000
DSTYLE
1002
{
1070
   287
1070
     3
1070
    40
1040
10.0
1070
   143
1040
0.039
1070
   172
1070
     1
1070
   271
1070
     0
1070
   279
1070
     0
1070
   288
1070
     1
1002
}
  0
DIMENSION
  5
7C20
330
19
100
AcDbEntity
  8
3
  6
Continuous
100
AcDbDimension
280
     0
  2
*D7
 10
1123.257647
 20
1683.018653041246
 30
0.0
 11
1123.257647
 21
1914.518094041246
 31
0.0
 70
   160
 71
     5
 42
-1.0
 73
     0
 74
     0
 75
     0
  3
IGA
100
AcDbAlignedDimension
 13
1018.277564
 23
2163.018653041246
 33
0.0
 14
1018.277564
 24
1683.018653041246
 34
0.0
 50
90.0
100
AcDbRotatedDimension
1001
ACAD
1000
DSTYLE
1002
{
1070
   287
1070
     3
1070
    40
1040
10.0
1070
   143
1040
0.039
1070
   172
1070
     1
1070
   271
1070
     0
1070
   279
1070
     0
1070
   288
1070
     1
1002
}
  0
LINE
  5
7C21
330
19
100
AcDbEntity
  8
2
  6
CENTER
100
AcDbLine
 10
554.4735799999999
 20
2021.018653041246
 30
0.0
 11
1042.263224
 21
2021.018653041246
 31
0.0
  0
LINE
  5
7C22
330
19
100
AcDbEntity
  8
2
  6
CENTER
100
AcDbLine
 10
798.2775639999999
 20
1654.098792041245
 30
0.0
 11
798.2775639999999
 21
2150.621402041245
 31
0.0
  0
LINE
  5
7C23
330
19
100
AcDbEntity
  8
2
  6
CENTER
100
AcDbLine
 10
1676.740925
 20
1316.380305562587
 30
0.0
 11
1676.740925
 21
617.1774195625873
 31
0.0
  0
DIMENSION
  5
7C49
330
19
100
AcDbEntity
  8
3
  6
Continuous
100
AcDbDimension
280
     0
  2
*D8
 10
1766.740925
 20
1311.807351562587
 30
0.0
 11
1670.980956
 21
1311.807351562587
 31
0.0
 70
   160
 71
     5
 42
-1.0
 73
     0
 74
     0
 75
     0
  3
IGA
100
AcDbAlignedDimension
 13
1586.740925
 23
1261.077419562587
 33
0.0
 14
1766.740925
 24
1261.077419562587
 34
0.0
100
AcDbRotatedDimension
1001
ACAD
1000
DSTYLE
1002
{
1070
   287
1070
     3
1070
    40
1040
10.0
1070
   143
1040
0.039
1070
   172
1070
     1
1070
   271
1070
     0
1070
   279
1070
     0
1070
   288
1070
     1
1002
}
  0
DIMENSION
  5
7C56
330
19
100
AcDbEntity
  8
3
  6
Continuous
100
AcDbDimension
280
     0
  2
*D9
 10
1676.740925
 20
1379.893859761138
 30
0.0
 11
1503.92995
 21
1379.893859761138
 31
0.0
 70
   160
  1
(340)
 71
     5
 42
340.0
 73
     0
 74
     0
 75
     0
  3
IGA
100
AcDbAlignedDimension
 13
1336.740925
 23
1187.177419562587
 33
0.0
 14
1676.740925
 24
1355.734768562587
 34
0.0
100
AcDbRotatedDimension
1001
ACAD
1000
DSTYLE
1002
{
1070
   287
1070
     3
1070
    40
1040
10.0
1070
   143
1040
0.039
1070
   172
1070
     1
1070
   271
1070
     0
1070
   279
1070
     0
1070
   288
1070
     1
1002
}
  0
DIMENSION
  5
7C64
330
19
100
AcDbEntity
  8
3
  6
Continuous
100
AcDbDimension
280
     0
  2
*D10
 10
1775.740925
 20
1379.893859761138
 30
0.0
 11
1724.133555
 21
1377.365515761138
 31
0.0
 70
   160
 71
     5
 42
-1.0
 73
     0
 74
     0
 75
     0
  3
IGA
100
AcDbAlignedDimension
 13
1676.740925
 23
1355.734768562587
 33
0.0
 14
1775.740925
 24
1209.177419562587
 34
0.0
100
AcDbRotatedDimension
1001
ACAD
1000
DSTYLE
1002
{
1070
   287
1070
     4
1070
    40
1040
10.0
1070
    75
1070
     1
1070
   143
1040
0.039
1070
   172
1070
     1
1070
   271
1070
     0
1070
   279
1070
     1
1070
   288
1070
     1
1002
}
  0
LINE
  5
7C7C
330
19
100
AcDbEntity
  8
3
  6
Continuous
100
AcDbLine
 10
1775.740925
 20
1187.177419562587
 30
0.0
 11
1793.24545
 21
1187.177419562587
 31
0.0
  0
LINE
  5
7C7E
330
19
100
AcDbEntity
  8
3
  6
Continuous
100
AcDbLine
 10
1775.740925
 20
937.1774195625871
 30
0.0
 11
1791.364852
 21
937.1774195625871
 31
0.0
  0
DIMENSION
  5
7C8C
330
19
100
AcDbEntity
  8
3
  6
Continuous
100
AcDbDimension
280
     0
  2
*D11
 10
1834.46175
 20
937.1774195625871
 30
0.0
 11
1834.46175
 21
1048.132729562587
 31
0.0
 70
   160
 71
     5
 42
-1.0
 73
     0
 74
     0
 75
     0
  3
IGA
100
AcDbAlignedDimension
 13
1775.740925
 23
1187.177419562587
 33
0.0
 14
1775.740925
 24
937.1774195625871
 34
0.0
 50
90.0
100
AcDbRotatedDimension
1001
ACAD
1000
DSTYLE
1002
{
1070
   287
1070
     3
1070
     3
1000
φ<>
1070
    40
1040
10.0
1070
   143
1040
0.039
1070
   172
1070
     1
1070
   271
1070
     0
1070
   279
1070
     0
1070
   288
1070
     1
1002
}
  0
LINE
  5
7C8D
330
19
100
AcDbEntity
  8
2
  6
CENTER
100
AcDbLine
 10
1034.895188
 20
1062.177419562587
 30
0.0
 11
476.607804
 21
1062.177419562587
 31
0.0
  0
DIMENSION
  5
7D12
330
19
100
AcDbEntity
  8
3
  6
Continuous
100
AcDbDimension
280
     0
  2
*D12
 10
1143.197895
 20
802.1774195625873
 30
0.0
 11
1143.197895
 21
931.4781875625874
 31
0.0
 70
   160
 71
     5
 42
-1.0
 73
     0
 74
     0
 75
     0
  3
IGA
100
AcDbAlignedDimension
 13
998.2775640000001
 23
1062.177419562587
 33
0.0
 14
978.277564
 24
802.1774195625873
 34
0.0
 50
90.0
100
AcDbRotatedDimension
1001
ACAD
1000
DSTYLE
1002
{
1070
   287
1070
     3
1070
    40
1040
10.0
1070
   143
1040
0.039
1070
   172
1070
     1
1070
   271
1070
     0
1070
   279
1070
     0
1070
   288
1070
     1
1002
}
  0
DIMENSION
  5
7E34
330
19
100
AcDbEntity
  8
3
100
AcDbDimension
280
     0
  2
*D14
 10
798.2775639999999
 20
544.2616796958673
 30
0.0
 11
523.2775639999999
 21
569.2616796958673
 31
0.0
 70
    32
 71
     5
 42
550.0
 73
     0
 74
     0
 75
     0
  3
IGA
100
AcDbAlignedDimension
 13
248.277564
 23
617.1774195625873
 33
0.0
 14
798.2775639999999
 24
647.1774195625873
 34
0.0
100
AcDbRotatedDimension
1001
ACAD
1000
DSTYLE
1002
{
1070
   287
1070
     3
1070
    40
1040
10.0
1070
   143
1040
0.039
1070
   172
1070
     1
1070
   271
1070
     0
1070
   279
1070
     0
1002
}
  0
DIMENSION
  5
7E41
330
19
100
AcDbEntity
  8
3
100
AcDbDimension
280
     0
  2
*D15
 10
1018.277564
 20
544.2616796958673
 30
0.0
 11
908.2775639999999
 21
569.2616796958673
 31
0.0
 70
    32
 71
     5
 42
220.0000000000001
 73
     0
 74
     0
 75
     0
  3
IGA
100
AcDbAlignedDimension
 13
798.2775639999999
 23
647.1774195625873
 33
0.0
 14
1018.277564
 24
617.1774195625873
 34
0.0
100
AcDbRotatedDimension
1001
ACAD
1000
DSTYLE
1002
{
1070
   287
1070
     3
1070
    40
1040
10.0
1070
   143
1040
0.039
1070
   172
1070
     1
1070
   271
1070
     0
1070
   279
1070
     0
1002
}
  0
DIMENSION
  5
7E4E
330
19
100
AcDbEntity
  8
3
100
AcDbDimension
280
     0
  2
*D16
 10
1676.740925
 20
544.2616796958673
 30
0.0
 11
1507.740925
 21
569.2616796958673
 31
0.0
 70
    32
 71
     5
 42
338.0000000000003
 73
     0
 74
     0
 75
     0
  3
IGA
100
AcDbAlignedDimension
 13
1338.740925
 23
617.1774195625873
 33
0.0
 14
1676.740925
 24
617.1774195625873
 34
0.0
100
AcDbRotatedDimension
1001
ACAD
1000
DSTYLE
1002
{
1070
   287
1070
     3
1070
    40
1040
10.0
1070
   143
1040
0.039
1070
   172
1070
     1
1070
   271
1070
     0
1070
   279
1070
     0
1002
}
  0
DIMENSION
  5
7E5B
330
19
100
AcDbEntity
  8
3
100
AcDbDimension
280
     0
  2
*D17
 10
1818.740925
 20
544.2616796958673
 30
0.0
 11
1747.740925
 21
569.2616796958673
 31
0.0
 70
    32
 71
     5
 42
141.9999999999997
 73
     0
 74
     0
 75
     0
  3
IGA
100
AcDbAlignedDimension
 13
1676.740925
 23
617.1774195625873
 33
0.0
 14
1818.740925
 24
617.1774195625873
 34
0.0
100
AcDbRotatedDimension
1001
ACAD
1000
DSTYLE
1002
{
1070
   287
1070
     3
1070
    40
1040
10.0
1070
   143
1040
0.039
1070
   172
1070
     1
1070
   271
1070
     0
1070
   279
1070
     0
1002
}
  0
DIMENSION
  5
7E6A
330
19
100
AcDbEntity
  8
3
100
AcDbDimension
280
     0
  2
*D18
 10
1195.769709199847
 20
617.1774195625873
 30
0.0
 11
1170.769709199847
 21
562.8917052768732
 31
0.0
 70
    32
 71
     5
 42
60.0
 73
     0
 74
     0
 75
     1
  3
IGA
100
AcDbAlignedDimension
 13
1018.277564
 23
677.1774195625873
 33
0.0
 14
1018.277564
 24
617.1774195625873
 34
0.0
 50
90.0
100
AcDbRotatedDimension
1001
ACAD
1000
DSTYLE
1002
{
1070
    40
1040
10.0
1070
   143
1040
0.039
1070
   172
1070
     1
1070
   271
1070
     0
1070
   279
1070
     0
1070
   343
1005
7DB3
1002
}
  0
DIMENSION
  5
7E77
330
19
100
AcDbEntity
  8
3
100
AcDbDimension
280
     0
  2
*D19
 10
1195.769709199847
 20
747.1774195625873
 30
0.0
 11
1235.885299224326
 21
710.1044369442815
 31
0.0
 70
   160
 71
     5
 42
70.0
 73
     0
 74
     0
 75
     0
  3
IGA
100
AcDbAlignedDimension
 13
1018.277564
 23
677.1774195625873
 33
0.0
 14
988.2775640000001
 24
747.1774195625873
 34
0.0
 50
90.0
100
AcDbRotatedDimension
1001
ACAD
1000
DSTYLE
1002
{
1070
     3
1000
(<>)
1070
    40
1040
10.0
1070
   143
1040
0.039
1070
   172
1070
     1
1070
   271
1070
     0
1070
   343
1005
7DB3
1002
}
  0
DIMENSION
  5
7E84
330
19
100
AcDbEntity
  8
3
100
AcDbDimension
280
     0
  2
*D20
 10
1281.598380013653
 20
617.1774195625872
 30
0.0
 11
1248.74123715651
 21
932.6721115625874
 31
0.0
 70
    32
 71
     5
 42
630.9893839999999
 73
     0
 74
     0
 75
     0
  3
IGA
100
AcDbAlignedDimension
 13
803.277564
 23
1248.166803562587
 33
0.0
 14
1018.277564
 24
617.1774195625873
 34
0.0
 50
90.0
100
AcDbRotatedDimension
1001
ACAD
1000
DSTYLE
1002
{
1070
   287
1070
     3
1070
     3
1000
(<>)
1070
    40
1040
10.0
1070
   143
1040
0.039
1070
   172
1070
     1
1070
   271
1070
     0
1070
   279
1070
     0
1002
}
  0
ENDSEC
  0
SECTION
  2
OBJECTS
  0
DICTIONARY
  5
C
330
0
100
AcDbDictionary
281
     1
  3
ACAD_CIP_PREVIOUS_PRODUCT_INFO
350
7FC2
  3
ACAD_COLOR
350
7FA5
  3
ACAD_DETAILVIEWSTYLE
350
7FBE
  3
ACAD_GROUP
350
D
  3
ACAD_LAYOUT
350
7E8E
  3
ACAD_MATERIAL
350
7F73
  3
ACAD_MLEADERSTYLE
350
7FBA
  3
ACAD_MLINESTYLE
350
E
  3
ACAD_PLOTSETTINGS
350
7E8F
  3
ACAD_PLOTSTYLENAME
350
7E8C
  3
ACAD_SCALELIST
350
7FA8
  3
ACAD_SECTIONVIEWSTYLE
350
7FBC
  3
ACAD_TABLESTYLE
350
7FA6
  3
ACAD_VISUALSTYLE
350
7F8C
  3
ACDB_RECOMPOSE_DATA
350
8083
  3
AcDbVariableDictionary
350
7F66
  0
DICTIONARY
  5
7FC4
330
2
100
AcDbDictionary
280
     1
281
     1
  3
ACAD_LAYERSTATES
360
7FC5
  0
DICTIONARY
  5
8018
330
F
100
AcDbDictionary
280
     1
281
     1
  3
ADSK_XREC_LAYER_RECONCILED
360
8019
  0
DICTIONARY
  5
801A
330
31
100
AcDbDictionary
280
     1
281
     1
  3
ADSK_XREC_LAYER_RECONCILED
360
801B
  0
DICTIONARY
  5
801C
330
76D0
100
AcDbDictionary
280
     1
281
     1
  3
ADSK_XREC_LAYER_RECONCILED
360
801D
  0
DICTIONARY
  5
801E
330
76D1
100
AcDbDictionary
280
     1
281
     1
  3
ADSK_XREC_LAYER_RECONCILED
360
801F
  0
DICTIONARY
  5
8020
330
76D2
100
AcDbDictionary
280
     1
281
     1
  3
ADSK_XREC_LAYER_RECONCILED
360
8021
  0
DICTIONARY
  5
7EBB
330
19
100
AcDbDictionary
280
     1
281
     1
  3
ACAD_LAYOUTSELFREF
360
7EBC
  0
DICTIONARY
  5
7EB9
330
16
100
AcDbDictionary
280
     1
281
     1
  3
ACAD_LAYOUTSELFREF
360
7EBA
  0
XRECORD
  5
7FC2
102
{ACAD_REACTORS
330
C
102
}
330
C
100
AcDbXrecord
280
     1
300
ACDLT
300
2015
300
INVLTS_F_S
  0
DICTIONARY
  5
7FA5
102
{ACAD_REACTORS
330
C
102
}
330
C
100
AcDbDictionary
281
     1
  0
DICTIONARY
  5
7FBE
102
{ACAD_REACTORS
330
C
102
}
330
C
100
AcDbDictionary
281
     1
  3
Imperial24
350
7FBF
  0
DICTIONARY
  5
D
102
{ACAD_REACTORS
330
C
102
}
330
0
100
AcDbDictionary
281
     1
  0
DICTIONARY
  5
7E8E
102
{ACAD_REACTORS
330
C
102
}
330
C
100
AcDbDictionary
281
     1
  3
Model
350
7E90
  3
ﾚｲｱｳﾄ1
350
7E91
  0
DICTIONARY
  5
7F73
102
{ACAD_REACTORS
330
C
102
}
330
C
100
AcDbDictionary
281
     1
  3
ByBlock
350
7F7C
  3
ByLayer
350
7F74
  3
Global
350
7F84
  0
DICTIONARY
  5
7FBA
102
{ACAD_REACTORS
330
C
102
}
330
C
100
AcDbDictionary
281
     1
  3
Standard
350
7FBB
  0
DICTIONARY
  5
E
102
{ACAD_REACTORS
330
C
102
}
330
0
100
AcDbDictionary
281
     1
  3
STANDARD
350
1C
  0
DICTIONARY
  5
7E8F
102
{ACAD_REACTORS
330
C
102
}
330
C
100
AcDbDictionary
281
     1
  0
ACDBDICTIONARYWDFLT
  5
7E8C
102
{ACAD_REACTORS
330
C
102
}
330
C
100
AcDbDictionary
281
     1
  3
Normal
350
7E8D
100
AcDbDictionaryWithDefault
340
7E8D
1001
ACAD
1000
TREAT_AS_HARD
1070
     0
  0
DICTIONARY
  5
7FA8
102
{ACAD_REACTORS
330
C
102
}
330
C
100
AcDbDictionary
281
     1
  3
A0
350
7FA9
  3
A1
350
7FAA
  3
A2
350
7FAB
  3
A3
350
7FAC
  3
A4
350
7FAD
  3
A5
350
7FAE
  3
A6
350
7FAF
  3
A7
350
7FB0
  3
A8
350
7FB1
  3
A9
350
7FB2
  3
B0
350
7FB3
  3
B1
350
7FB4
  3
B2
350
7FB5
  3
B3
350
7FB6
  3
B4
350
7FB7
  3
B5
350
7FB8
  3
B6
350
7FB9
  0
DICTIONARY
  5
7FBC
102
{ACAD_REACTORS
330
C
102
}
330
C
100
AcDbDictionary
281
     1
  3
Imperial24
350
7FBD
  0
DICTIONARY
  5
7FA6
102
{ACAD_REACTORS
330
C
102
}
330
C
100
AcDbDictionary
281
     1
  3
Standard
350
7FA7
  0
DICTIONARY
  5
7F8C
102
{ACAD_REACTORS
330
C
102
}
330
C
100
AcDbDictionary
281
     1
  3
2dWireframe
350
7F92
  3
Basic
350
7F91
  3
Brighten
350
7F98
  3
ColorChange
350
7F9C
  3
Conceptual
350
7F95
  3
Dim
350
7F97
  3
EdgeColorOff
350
7FA4
  3
Facepattern
350
7F9B
  3
Flat
350
7F8D
  3
FlatWithEdges
350
7F8E
  3
Gouraud
350
7F8F
  3
GouraudWithEdges
350
7F90
  3
Hidden
350
7F94
  3
JitterOff
350
7FA2
  3
Linepattern
350
7F9A
  3
OverhangOff
350
7FA3
  3
Realistic
350
7F96
  3
Shaded
350
7FA1
  3
Shaded with edges
350
7FA0
  3
Shades of Gray
350
7F9D
  3
Sketchy
350
7F9E
  3
Thicken
350
7F99
  3
Wireframe
350
7F93
  3
X-Ray
350
7F9F
  0
XRECORD
  5
8083
102
{ACAD_REACTORS
330
C
102
}
330
C
100
AcDbXrecord
280
     1
 90
        1
330
7FA7
330
7FBD
330
7FBF
  0
DICTIONARY
  5
7F66
102
{ACAD_REACTORS
330
C
102
}
330
C
100
AcDbDictionary
281
     1
  3
CANNOSCALE
350
8054
  3
CMLEADERSTYLE
350
8050
  3
CTABLESTYLE
350
804F
  3
CVIEWDETAILSTYLE
350
8051
  3
CVIEWSECTIONSTYLE
350
8052
  3
DIMASSOC
350
7F67
  3
LAYEREVAL
350
8056
  3
LAYERNOTIFY
350
8057
  3
LIGHTINGUNITS
350
8055
  3
MSLTSCALE
350
8053
  0
DICTIONARY
  5
7FC5
102
{ACAD_REACTORS
330
7FC4
102
}
330
7FC4
100
AcDbDictionary
281
     1
  0
XRECORD
  5
8019
102
{ACAD_REACTORS
330
8018
102
}
330
8018
100
AcDbXrecord
280
     1
290
     1
  0
XRECORD
  5
801B
102
{ACAD_REACTORS
330
801A
102
}
330
801A
100
AcDbXrecord
280
     1
290
     1
  0
XRECORD
  5
801D
102
{ACAD_REACTORS
330
801C
102
}
330
801C
100
AcDbXrecord
280
     1
290
     1
  0
XRECORD
  5
801F
102
{ACAD_REACTORS
330
801E
102
}
330
801E
100
AcDbXrecord
280
     1
290
     1
  0
XRECORD
  5
8021
102
{ACAD_REACTORS
330
8020
102
}
330
8020
100
AcDbXrecord
280
     1
290
     1
  0
XRECORD
  5
7EBC
102
{ACAD_REACTORS
330
7EBB
102
}
330
7EBB
100
AcDbXrecord
280
     1
340
19
  0
XRECORD
  5
7EBA
102
{ACAD_REACTORS
330
7EB9
102
}
330
7EB9
100
AcDbXrecord
280
     1
340
16
  0
ACDBDETAILVIEWSTYLE
  5
7FBF
102
{ACAD_XDICTIONARY
360
804C
102
}
102
{ACAD_REACTORS
330
7FBE
102
}
330
7FBE
100
AcDbModelDocViewStyle
 70
     0
  3
Imperial24
290
     0
100
AcDbDetailViewStyle
 70
     0
 71
     0
 90
        3
 71
     1
340
10
 62
   256
 40
0.24
340
0
 62
   256
 40
0.24
300

 40
0.36
280
     3
 71
     2
340
15
 90
       25
 62
   256
 71
     3
340
10
 62
   256
 40
0.24
 90
        1
 40
0.75
 90
        1
300
%<\AcVar ViewType \f "%tc1">% %<\AcVar ViewDetailId>%\PSCALE %<\AcVar ViewScale \f "%sn">%
 71
     4
340
15
 90
       25
 62
   256
340
15
 90
       25
 62
   256
280
     0
  0
LAYOUT
  5
7E90
102
{ACAD_REACTORS
330
7E8E
102
}
330
7E8E
100
AcDbPlotSettings
  1

  2
\\Txbo34x8944cqyd\EPSON LP-6100
  4

  6

 40
0.0
 41
0.0
 42
0.0
 43
0.0
 44
0.0
 45
0.0
 46
0.0
 47
0.0
 48
0.0
 49
0.0
140
0.0
141
0.0
142
1.0
143
1.0
 70
  1712
 72
     0
 73
     0
 74
     0
  7
GOD2000TABLE.ctb
 75
     0
147
1.0
 76
     0
 77
     2
 78
   300
148
0.0
149
0.0
100
AcDbLayout
  1
Model
 70
     1
 71
     0
 10
0.0
 20
0.0
 11
12.0
 21
9.0
 12
0.0
 22
0.0
 32
0.0
 14
0.0
 24
0.0
 34
0.0
 15
0.0
 25
0.0
 35
0.0
146
0.0
 13
0.0
 23
0.0
 33
0.0
 16
1.0
 26
0.0
 36
0.0
 17
0.0
 27
1.0
 37
0.0
 76
     0
330
19
331
7F71
  0
LAYOUT
  5
7E91
102
{ACAD_REACTORS
330
7E8E
102
}
330
7E8E
100
AcDbPlotSettings
  1

  2
\\Txbo34x8944cqyd\EPSON LP-6100
  4

  6

 40
0.0
 41
0.0
 42
0.0
 43
0.0
 44
0.0
 45
0.0
 46
0.0
 47
0.0
 48
0.0
 49
0.0
140
0.0
141
0.0
142
1.0
143
1.0
 70
   688
 72
     0
 73
     0
 74
     5
  7
GOD2000TABLE.ctb
 75
    16
147
1.0
 76
     0
 77
     2
 78
   300
148
0.0
149
0.0
100
AcDbLayout
  1
ﾚｲｱｳﾄ1
 70
     1
 71
     1
 10
0.0
 20
0.0
 11
12.0
 21
9.0
 12
0.0
 22
0.0
 32
0.0
 14
1.000000000000000E+20
 24
1.000000000000000E+20
 34
1.000000000000000E+20
 15
-1.000000000000000E+20
 25
-1.000000000000000E+20
 35
-1.000000000000000E+20
146
0.0
 13
0.0
 23
0.0
 33
0.0
 16
1.0
 26
0.0
 36
0.0
 17
0.0
 27
1.0
 37
0.0
 76
     0
330
16
  0
MATERIAL
  5
7F7C
102
{ACAD_XDICTIONARY
360
7F7D
102
}
102
{ACAD_REACTORS
330
7F73
102
}
330
7F73
100
AcDbMaterial
  1
ByBlock
 72
     0
 43
0.0208333333333333
 43
0.0
 43
0.0
 43
0.0
 43
0.0
 43
0.0208333333333333
 43
0.0
 43
0.0
 43
0.0
 43
0.0
 43
1.0
 43
0.0
 43
0.0
 43
0.0
 43
0.0
 43
1.0
 77
     0
 47
0.0208333333333333
 47
0.0
 47
0.0
 47
0.0
 47
0.0
 47
0.0208333333333333
 47
0.0
 47
0.0
 47
0.0
 47
0.0
 47
1.0
 47
0.0
 47
0.0
 47
0.0
 47
0.0
 47
1.0
171
     0
 49
0.0208333333333333
 49
0.0
 49
0.0
 49
0.0
 49
0.0
 49
0.0208333333333333
 49
0.0
 49
0.0
 49
0.0
 49
0.0
 49
1.0
 49
0.0
 49
0.0
 49
0.0
 49
0.0
 49
1.0
175
     0
142
0.0208333333333333
142
0.0
142
0.0
142
0.0
142
0.0
142
0.0208333333333333
142
0.0
142
0.0
142
0.0
142
0.0
142
1.0
142
0.0
142
0.0
142
0.0
142
0.0
142
1.0
179
     0
144
0.0208333333333333
144
0.0
144
0.0
144
0.0
144
0.0
144
0.0208333333333333
144
0.0
144
0.0
144
0.0
144
0.0
144
1.0
144
0.0
144
0.0
144
0.0
144
0.0
144
1.0
147
0.0208333333333333
147
0.0
147
0.0
147
0.0
147
0.0
147
0.0208333333333333
147
0.0
147
0.0
147
0.0
147
0.0
147
1.0
147
0.0
147
0.0
147
0.0
147
0.0
147
1.0
  0
MATERIAL
  5
7F74
102
{ACAD_XDICTIONARY
360
7F75
102
}
102
{ACAD_REACTORS
330
7F73
102
}
330
7F73
100
AcDbMaterial
  1
ByLayer
 72
     0
 43
0.0208333333333333
 43
0.0
 43
0.0
 43
0.0
 43
0.0
 43
0.0208333333333333
 43
0.0
 43
0.0
 43
0.0
 43
0.0
 43
1.0
 43
0.0
 43
0.0
 43
0.0
 43
0.0
 43
1.0
 77
     0
 47
0.0208333333333333
 47
0.0
 47
0.0
 47
0.0
 47
0.0
 47
0.0208333333333333
 47
0.0
 47
0.0
 47
0.0
 47
0.0
 47
1.0
 47
0.0
 47
0.0
 47
0.0
 47
0.0
 47
1.0
171
     0
 49
0.0208333333333333
 49
0.0
 49
0.0
 49
0.0
 49
0.0
 49
0.0208333333333333
 49
0.0
 49
0.0
 49
0.0
 49
0.0
 49
1.0
 49
0.0
 49
0.0
 49
0.0
 49
0.0
 49
1.0
175
     0
142
0.0208333333333333
142
0.0
142
0.0
142
0.0
142
0.0
142
0.0208333333333333
142
0.0
142
0.0
142
0.0
142
0.0
142
1.0
142
0.0
142
0.0
142
0.0
142
0.0
142
1.0
179
     0
144
0.0208333333333333
144
0.0
144
0.0
144
0.0
144
0.0
144
0.0208333333333333
144
0.0
144
0.0
144
0.0
144
0.0
144
1.0
144
0.0
144
0.0
144
0.0
144
0.0
144
1.0
147
0.0208333333333333
147
0.0
147
0.0
147
0.0
147
0.0
147
0.0208333333333333
147
0.0
147
0.0
147
0.0
147
0.0
147
1.0
147
0.0
147
0.0
147
0.0
147
0.0
147
1.0
  0
MATERIAL
  5
7F84
102
{ACAD_XDICTIONARY
360
7F85
102
}
102
{ACAD_REACTORS
330
7F73
102
}
330
7F73
100
AcDbMaterial
  1
Global
 72
     0
 43
0.0208333333333333
 43
0.0
 43
0.0
 43
0.0
 43
0.0
 43
0.0208333333333333
 43
0.0
 43
0.0
 43
0.0
 43
0.0
 43
1.0
 43
0.0
 43
0.0
 43
0.0
 43
0.0
 43
1.0
 77
     0
 47
0.0208333333333333
 47
0.0
 47
0.0
 47
0.0
 47
0.0
 47
0.0208333333333333
 47
0.0
 47
0.0
 47
0.0
 47
0.0
 47
1.0
 47
0.0
 47
0.0
 47
0.0
 47
0.0
 47
1.0
171
     0
 49
0.0208333333333333
 49
0.0
 49
0.0
 49
0.0
 49
0.0
 49
0.0208333333333333
 49
0.0
 49
0.0
 49
0.0
 49
0.0
 49
1.0
 49
0.0
 49
0.0
 49
0.0
 49
0.0
 49
1.0
175
     0
142
0.0208333333333333
142
0.0
142
0.0
142
0.0
142
0.0
142
0.0208333333333333
142
0.0
142
0.0
142
0.0
142
0.0
142
1.0
142
0.0
142
0.0
142
0.0
142
0.0
142
1.0
179
     0
144
0.0208333333333333
144
0.0
144
0.0
144
0.0
144
0.0
144
0.0208333333333333
144
0.0
144
0.0
144
0.0
144
0.0
144
1.0
144
0.0
144
0.0
144
0.0
144
0.0
144
1.0
147
0.0208333333333333
147
0.0
147
0.0
147
0.0
147
0.0
147
0.0208333333333333
147
0.0
147
0.0
147
0.0
147
0.0
147
1.0
147
0.0
147
0.0
147
0.0
147
0.0
147
1.0
  0
MLEADERSTYLE
  5
7FBB
102
{ACAD_REACTORS
330
7FBA
102
}
330
7FBA
100
AcDbMLeaderStyle
179
     2
170
     2
171
     1
172
     0
 90
        2
 40
0.0
 41
0.0
173
     1
 91
-1056964608
340
13
 92
       -2
290
     1
 42
0.09
291
     1
 43
0.36
  3
Standard
 44
0.18
300

342
10
174
     1
178
     6
175
     1
176
     0
 93
-1056964608
 45
0.18
292
     0
297
     0
 46
0.18
 94
-1056964608
 47
1.0
 49
1.0
140
1.0
293
     1
141
0.0
294
     1
177
     0
142
1.0
295
     1
296
     0
143
0.125
271
     0
272
     9
273
     9
298
     1
  0
MLINESTYLE
  5
1C
102
{ACAD_REACTORS
330
E
102
}
330
0
100
AcDbMlineStyle
  2
STANDARD
 70
     0
  3

 62
     0
 51
90.0
 52
90.0
 71
     2
 49
0.5
 62
   256
  6
BYLAYER
 49
-0.5
 62
   256
  6
BYLAYER
  0
ACDBPLACEHOLDER
  5
7E8D
102
{ACAD_REACTORS
330
7E8C
102
}
330
7E8C
  0
SCALE
  5
7FA9
102
{ACAD_REACTORS
330
7FA8
102
}
330
7FA8
100
AcDbScale
 70
     0
300
1:1
140
1.0
141
1.0
290
     1
  0
SCALE
  5
7FAA
102
{ACAD_REACTORS
330
7FA8
102
}
330
7FA8
100
AcDbScale
 70
     0
300
1/128" = 1'-0"
140
0.0078125
141
12.0
290
     0
  0
SCALE
  5
7FAB
102
{ACAD_REACTORS
330
7FA8
102
}
330
7FA8
100
AcDbScale
 70
     0
300
1/64" = 1'-0"
140
0.015625
141
12.0
290
     0
  0
SCALE
  5
7FAC
102
{ACAD_REACTORS
330
7FA8
102
}
330
7FA8
100
AcDbScale
 70
     0
300
1/32" = 1'-0"
140
0.03125
141
12.0
290
     0
  0
SCALE
  5
7FAD
102
{ACAD_REACTORS
330
7FA8
102
}
330
7FA8
100
AcDbScale
 70
     0
300
1/16" = 1'-0"
140
0.0625
141
12.0
290
     0
  0
SCALE
  5
7FAE
102
{ACAD_REACTORS
330
7FA8
102
}
330
7FA8
100
AcDbScale
 70
     0
300
3/32" = 1'-0"
140
0.09375
141
12.0
290
     0
  0
SCALE
  5
7FAF
102
{ACAD_REACTORS
330
7FA8
102
}
330
7FA8
100
AcDbScale
 70
     0
300
1/8" = 1'-0"
140
0.125
141
12.0
290
     0
  0
SCALE
  5
7FB0
102
{ACAD_REACTORS
330
7FA8
102
}
330
7FA8
100
AcDbScale
 70
     0
300
3/16" = 1'-0"
140
0.1875
141
12.0
290
     0
  0
SCALE
  5
7FB1
102
{ACAD_REACTORS
330
7FA8
102
}
330
7FA8
100
AcDbScale
 70
     0
300
1/4" = 1'-0"
140
0.25
141
12.0
290
     0
  0
SCALE
  5
7FB2
102
{ACAD_REACTORS
330
7FA8
102
}
330
7FA8
100
AcDbScale
 70
     0
300
3/8" = 1'-0"
140
0.375
141
12.0
290
     0
  0
SCALE
  5
7FB3
102
{ACAD_REACTORS
330
7FA8
102
}
330
7FA8
100
AcDbScale
 70
     0
300
1/2" = 1'-0"
140
0.5
141
12.0
290
     0
  0
SCALE
  5
7FB4
102
{ACAD_REACTORS
330
7FA8
102
}
330
7FA8
100
AcDbScale
 70
     0
300
3/4" = 1'-0"
140
0.75
141
12.0
290
     0
  0
SCALE
  5
7FB5
102
{ACAD_REACTORS
330
7FA8
102
}
330
7FA8
100
AcDbScale
 70
     0
300
1" = 1'-0"
140
1.0
141
12.0
290
     0
  0
SCALE
  5
7FB6
102
{ACAD_REACTORS
330
7FA8
102
}
330
7FA8
100
AcDbScale
 70
     0
300
1-1/2" = 1'-0"
140
1.5
141
12.0
290
     0
  0
SCALE
  5
7FB7
102
{ACAD_REACTORS
330
7FA8
102
}
330
7FA8
100
AcDbScale
 70
     0
300
3" = 1'-0"
140
3.0
141
12.0
290
     0
  0
SCALE
  5
7FB8
102
{ACAD_REACTORS
330
7FA8
102
}
330
7FA8
100
AcDbScale
 70
     0
300
6" = 1'-0"
140
6.0
141
12.0
290
     0
  0
SCALE
  5
7FB9
102
{ACAD_REACTORS
330
7FA8
102
}
330
7FA8
100
AcDbScale
 70
     0
300
1'-0" = 1'-0"
140
12.0
141
12.0
290
     0
  0
ACDBSECTIONVIEWSTYLE
  5
7FBD
102
{ACAD_XDICTIONARY
360
804A
102
}
102
{ACAD_REACTORS
330
7FBC
102
}
330
7FBC
100
AcDbModelDocViewStyle
 70
     0
  3
Imperial24
290
     0
100
AcDbSectionViewStyle
 70
     0
 71
     0
 90
       78
 71
     1
340
10
 62
   256
 40
0.24
340
0
340
0
 62
   256
 40
0.24
300
I, O, Q, S, X, Z
 40
0.48
 90
        3
 40
0.18
 90
        1
 71
     2
340
15
 90
       25
 62
   256
340
15
 90
       50
 62
   256
 40
0.24
 40
0.0
 40
0.24
 71
     3
340
10
 62
   256
 40
0.24
 90
        1
 40
0.75
 90
        1
300
%<\AcVar ViewType \f "%tc1">% %<\AcVar ViewSectionStartId>%-%<\AcVar ViewSectionEndId>%\PSCALE %<\AcVar ViewScale \f "%sn">%
 71
     4
 62
   256
 62
   257
300
ANSI31
 40
1.0
 90
        0
290
     0
290
     0
 90
        6
 40
0.0
 40
1.570796326794896
 40
0.2617993877991494
 40
1.308996938995747
 40
-0.2617993877991494
 40
1.832595714594046
  0
TABLESTYLE
  5
7FA7
102
{ACAD_XDICTIONARY
360
807F
102
}
102
{ACAD_REACTORS
330
7FA6
102
}
330
7FA6
100
AcDbTableStyle
280
     0
  3
Standard
 70
     0
 71
     0
 40
0.06
 41
0.06
280
     0
281
     0
  7
STANDARD
140
0.18
170
     2
 62
     0
 63
     7
283
     0
 90
      512
 91
        0
  1

274
    -2
284
     1
 64
     0
275
    -2
285
     1
 65
     0
276
    -2
286
     1
 66
     0
277
    -2
287
     1
 67
     0
278
    -2
288
     1
 68
     0
279
    -2
289
     1
 69
     0
  7
STANDARD
140
0.25
170
     5
 62
     0
 63
     7
283
     0
 90
      512
 91
        0
  1

274
    -2
284
     1
 64
     0
275
    -2
285
     1
 65
     0
276
    -2
286
     1
 66
     0
277
    -2
287
     1
 67
     0
278
    -2
288
     1
 68
     0
279
    -2
289
     1
 69
     0
  7
STANDARD
140
0.18
170
     5
 62
     0
 63
     7
283
     0
 90
      512
 91
        0
  1

274
    -2
284
     1
 64
     0
275
    -2
285
     1
 65
     0
276
    -2
286
     1
 66
     0
277
    -2
287
     1
 67
     0
278
    -2
288
     1
 68
     0
279
    -2
289
     1
 69
     0
  0
VISUALSTYLE
  5
7F92
102
{ACAD_REACTORS
330
7F8C
102
}
330
7F8C
100
AcDbVisualStyle
  2
2dWireframe
 70
     4
177
     3
291
     0
 70
    58
 90
        0
176
     1
 90
        2
176
     1
 90
        0
176
     1
 90
        0
176
     1
 40
0.6
176
     1
 40
30.0
176
     1
 62
     7
420
 16777215
176
     1
 90
        1
176
     1
 90
        4
176
     1
 62
     7
176
     1
 62
   257
176
     1
 90
        1
176
     1
 90
        1
176
     1
 40
1.0
176
     1
 90
        0
176
     1
 62
   257
176
     1
 40
1.0
176
     1
 90
        1
176
     1
 90
        6
176
     1
 90
        2
176
     1
 62
     7
176
     1
 90
        5
176
     1
 90
        0
176
     1
 90
        0
176
     1
290
     0
176
     1
 90
        1
176
     1
 40
0.0
176
     1
 90
        0
176
     1
290
     1
176
     1
290
     1
176
     1
290
     0
176
     1
290
     0
176
     1
290
     0
176
     1
290
     0
176
     1
290
     0
176
     1
290
     0
176
     1
290
     0
176
     1
 90
       50
176
     1
 40
0.0
176
     1
 40
1.0
176
     1
 90
        0
176
     1
 62
    18
420
        0
176
     1
 90
       50
176
     1
 90
        3
176
     1
 62
     5
420
      255
176
     1
290
     0
176
     1
 90
       50
176
     1
 90
       50
176
     1
 90
       50
176
     1
290
     0
176
     1
 90
       50
176
     1
 62
   256
176
     0
 40
1.0
176
     0
 90
        2
176
     1
  1
strokes_ogs.tif
176
     1
290
     0
176
     1
 40
1.0
176
     1
 40
1.0
176
     1
  0
VISUALSTYLE
  5
7F91
102
{ACAD_REACTORS
330
7F8C
102
}
330
7F8C
100
AcDbVisualStyle
  2
Basic
 70
     7
177
     3
291
     1
 70
    58
 90
        1
176
     1
 90
        0
176
     1
 90
        1
176
     1
 90
        0
176
     1
 40
0.6
176
     1
 40
30.0
176
     1
 62
     7
420
 16777215
176
     1
 90
        0
176
     1
 90
        4
176
     1
 62
     7
176
     1
 62
   257
176
     1
 90
        1
176
     1
 90
        1
176
     1
 40
1.0
176
     1
 90
        8
176
     1
 62
     7
176
     1
 40
1.0
176
     1
 90
        1
176
     1
 90
        6
176
     1
 90
        2
176
     1
 62
     7
176
     1
 90
        5
176
     1
 90
        0
176
     1
 90
        0
176
     1
290
     0
176
     1
 90
        1
176
     1
 40
0.0
176
     1
 90
        0
176
     1
290
     0
176
     1
290
     1
176
     1
290
     1
176
     1
290
     0
176
     1
290
     0
176
     1
290
     0
176
     1
290
     0
176
     1
290
     0
176
     1
290
     0
176
     1
 90
       50
176
     1
 40
0.0
176
     1
 40
1.0
176
     1
 90
        0
176
     1
 62
    18
420
        0
176
     1
 90
       50
176
     1
 90
        3
176
     1
 62
     5
420
      255
176
     1
290
     0
176
     1
 90
       50
176
     1
 90
       50
176
     1
 90
       50
176
     1
290
     0
176
     1
 90
       50
176
     1
 62
   256
176
     0
 40
1.0
176
     0
 90
        2
176
     1
  1
strokes_ogs.tif
176
     1
290
     0
176
     1
 40
1.0
176
     1
 40
1.0
176
     1
  0
VISUALSTYLE
  5
7F98
102
{ACAD_REACTORS
330
7F8C
102
}
330
7F8C
100
AcDbVisualStyle
  2
Brighten
 70
    12
177
     3
291
     1
 70
    58
 90
        2
176
     1
 90
        2
176
     1
 90
        0
176
     1
 90
        0
176
     1
 40
0.6
176
     1
 40
30.0
176
     1
 62
     7
420
 16777215
176
     1
 90
        1
176
     1
 90
        4
176
     1
 62
     7
176
     1
 62
   257
176
     1
 90
        1
176
     1
 90
        1
176
     1
 40
1.0
176
     1
 90
        8
176
     1
 62
     7
176
     1
 40
1.0
176
     1
 90
        1
176
     1
 90
        6
176
     1
 90
        2
176
     1
 62
     7
176
     1
 90
        5
176
     1
 90
        0
176
     1
 90
        0
176
     1
290
     0
176
     1
 90
        1
176
     1
 40
50.0
176
     1
 90
        0
176
     1
290
     0
176
     1
290
     1
176
     1
290
     1
176
     1
290
     0
176
     1
290
     0
176
     1
290
     0
176
     1
290
     0
176
     1
290
     0
176
     1
290
     0
176
     1
 90
       50
176
     1
 40
0.0
176
     1
 40
1.0
176
     1
 90
        0
176
     1
 62
    18
420
        0
176
     1
 90
       50
176
     1
 90
        3
176
     1
 62
     5
420
      255
176
     1
290
     0
176
     1
 90
       50
176
     1
 90
       50
176
     1
 90
       50
176
     1
290
     0
176
     1
 90
       50
176
     1
 62
   256
176
     0
 40
1.0
176
     0
 90
        2
176
     1
  1
strokes_ogs.tif
176
     1
290
     0
176
     1
 40
1.0
176
     1
 40
1.0
176
     1
  0
VISUALSTYLE
  5
7F9C
102
{ACAD_REACTORS
330
7F8C
102
}
330
7F8C
100
AcDbVisualStyle
  2
ColorChange
 70
    16
177
     3
291
     1
 70
    58
 90
        2
176
     1
 90
        2
176
     1
 90
        3
176
     1
 90
        0
176
     1
 40
0.6
176
     1
 40
30.0
176
     1
 62
     8
420
  8421504
176
     1
 90
        1
176
     1
 90
        4
176
     1
 62
     7
176
     1
 62
   257
176
     1
 90
        1
176
     1
 90
        1
176
     1
 40
1.0
176
     1
 90
        8
176
     1
 62
     8
420
  8421504
176
     1
 40
1.0
176
     1
 90
        1
176
     1
 90
        6
176
     1
 90
        2
176
     1
 62
     7
176
     1
 90
        5
176
     1
 90
        0
176
     1
 90
        0
176
     1
290
     0
176
     1
 90
        1
176
     1
 40
0.0
176
     1
 90
        0
176
     1
290
     0
176
     1
290
     1
176
     1
290
     1
176
     1
290
     0
176
     1
290
     0
176
     1
290
     0
176
     1
290
     0
176
     1
290
     0
176
     1
290
     0
176
     1
 90
       50
176
     1
 40
0.0
176
     1
 40
1.0
176
     1
 90
        0
176
     1
 62
    18
420
        0
176
     1
 90
       50
176
     1
 90
        3
176
     1
 62
     5
420
      255
176
     1
290
     0
176
     1
 90
       50
176
     1
 90
       50
176
     1
 90
       50
176
     1
290
     0
176
     1
 90
       50
176
     1
 62
   256
176
     0
 40
1.0
176
     0
 90
        2
176
     1
  1
strokes_ogs.tif
176
     1
290
     0
176
     1
 40
1.0
176
     1
 40
1.0
176
     1
  0
VISUALSTYLE
  5
7F95
102
{ACAD_REACTORS
330
7F8C
102
}
330
7F8C
100
AcDbVisualStyle
  2
Conceptual
 70
     9
177
     3
291
     0
 70
    58
 90
        3
176
     1
 90
        2
176
     1
 90
        0
176
     1
 90
        0
176
     1
 40
0.6
176
     1
 40
30.0
176
     1
 62
     7
420
 16777215
176
     1
 90
        2
176
     1
 90
        2
176
     1
 62
     7
176
     1
 62
   257
176
     1
 90
        1
176
     1
 90
        1
176
     1
 40
179.0
176
     1
 90
        8
176
     1
 62
     7
176
     1
 40
1.0
176
     1
 90
        1
176
     1
 90
        6
176
     1
 90
        2
176
     1
 62
     7
176
     1
 90
        3
176
     1
 90
        0
176
     1
 90
        0
176
     1
290
     0
176
     1
 90
        1
176
     1
 40
0.0
176
     1
 90
        0
176
     1
290
     0
176
     1
290
     1
176
     1
290
     1
176
     1
290
     0
176
     1
290
     0
176
     1
290
     0
176
     1
290
     0
176
     1
290
     0
176
     1
290
     0
176
     1
 90
       50
176
     1
 40
0.0
176
     1
 40
1.0
176
     1
 90
        0
176
     1
 62
    18
420
        0
176
     1
 90
       50
176
     1
 90
        3
176
     1
 62
     5
420
      255
176
     1
290
     0
176
     1
 90
       50
176
     1
 90
       50
176
     1
 90
       50
176
     1
290
     0
176
     1
 90
       50
176
     1
 62
   256
176
     0
 40
1.0
176
     0
 90
        2
176
     1
  1
strokes_ogs.tif
176
     1
290
     0
176
     1
 40
1.0
176
     1
 40
1.0
176
     1
  0
VISUALSTYLE
  5
7F97
102
{ACAD_REACTORS
330
7F8C
102
}
330
7F8C
100
AcDbVisualStyle
  2
Dim
 70
    11
177
     3
291
     1
 70
    58
 90
        2
176
     1
 90
        2
176
     1
 90
        0
176
     1
 90
        0
176
     1
 40
0.6
176
     1
 40
30.0
176
     1
 62
     7
420
 16777215
176
     1
 90
        1
176
     1
 90
        4
176
     1
 62
     7
176
     1
 62
   257
176
     1
 90
        1
176
     1
 90
        1
176
     1
 40
1.0
176
     1
 90
        8
176
     1
 62
     7
176
     1
 40
1.0
176
     1
 90
        1
176
     1
 90
        6
176
     1
 90
        2
176
     1
 62
     7
176
     1
 90
        5
176
     1
 90
        0
176
     1
 90
        0
176
     1
290
     0
176
     1
 90
        1
176
     1
 40
-50.0
176
     1
 90
        0
176
     1
290
     0
176
     1
290
     1
176
     1
290
     1
176
     1
290
     0
176
     1
290
     0
176
     1
290
     0
176
     1
290
     0
176
     1
290
     0
176
     1
290
     0
176
     1
 90
       50
176
     1
 40
0.0
176
     1
 40
1.0
176
     1
 90
        0
176
     1
 62
    18
420
        0
176
     1
 90
       50
176
     1
 90
        3
176
     1
 62
     5
420
      255
176
     1
290
     0
176
     1
 90
       50
176
     1
 90
       50
176
     1
 90
       50
176
     1
290
     0
176
     1
 90
       50
176
     1
 62
   256
176
     0
 40
1.0
176
     0
 90
        2
176
     1
  1
strokes_ogs.tif
176
     1
290
     0
176
     1
 40
1.0
176
     1
 40
1.0
176
     1
  0
VISUALSTYLE
  5
7FA4
102
{ACAD_REACTORS
330
7F8C
102
}
330
7F8C
100
AcDbVisualStyle
  2
EdgeColorOff
 70
    22
177
     3
291
     1
 70
    58
 90
        2
176
     0
 90
        2
176
     0
 90
        0
176
     0
 90
        0
176
     0
 40
0.6
176
     0
 40
30.0
176
     0
 62
     7
420
 16777215
176
     0
 90
        1
176
     0
 90
        4
176
     0
 62
     7
176
     0
 62
   257
176
     0
 90
        1
176
     0
 90
        1
176
     0
 40
1.0
176
     0
 90
        8
176
     2
 62
     7
176
     0
 40
1.0
176
     0
 90
        1
176
     0
 90
        6
176
     0
 90
        2
176
     0
 62
     7
176
     0
 90
        5
176
     0
 90
        0
176
     0
 90
        0
176
     0
290
     0
176
     0
 90
        1
176
     0
 40
0.0
176
     0
 90
        0
176
     0
290
     0
176
     0
290
     1
176
     0
290
     1
176
     0
290
     0
176
     0
290
     0
176
     0
290
     0
176
     0
290
     0
176
     0
290
     0
176
     0
290
     0
176
     0
 90
       50
176
     0
 40
0.0
176
     0
 40
1.0
176
     0
 90
        0
176
     0
 62
    18
420
        0
176
     0
 90
       50
176
     0
 90
        3
176
     0
 62
     5
420
      255
176
     0
290
     0
176
     0
 90
       50
176
     0
 90
       50
176
     0
 90
       50
176
     0
290
     0
176
     0
 90
       50
176
     0
 62
   256
176
     0
 40
1.0
176
     0
 90
        2
176
     0
  1
strokes_ogs.tif
176
     0
290
     0
176
     0
 40
1.0
176
     0
 40
1.0
176
     0
  0
VISUALSTYLE
  5
7F9B
102
{ACAD_REACTORS
330
7F8C
102
}
330
7F8C
100
AcDbVisualStyle
  2
Facepattern
 70
    15
177
     3
291
     1
 70
    58
 90
        2
176
     1
 90
        2
176
     1
 90
        0
176
     1
 90
        0
176
     1
 40
0.6
176
     1
 40
30.0
176
     1
 62
     7
420
 16777215
176
     1
 90
        1
176
     1
 90
        4
176
     1
 62
     7
176
     1
 62
   257
176
     1
 90
        1
176
     1
 90
        1
176
     1
 40
1.0
176
     1
 90
        8
176
     1
 62
     7
176
     1
 40
1.0
176
     1
 90
        1
176
     1
 90
        6
176
     1
 90
        2
176
     1
 62
     7
176
     1
 90
        5
176
     1
 90
        0
176
     1
 90
        0
176
     1
290
     0
176
     1
 90
        1
176
     1
 40
0.0
176
     1
 90
        0
176
     1
290
     0
176
     1
290
     1
176
     1
290
     1
176
     1
290
     0
176
     1
290
     0
176
     1
290
     0
176
     1
290
     0
176
     1
290
     0
176
     1
290
     0
176
     1
 90
       50
176
     1
 40
0.0
176
     1
 40
1.0
176
     1
 90
        0
176
     1
 62
    18
420
        0
176
     1
 90
       50
176
     1
 90
        3
176
     1
 62
     5
420
      255
176
     1
290
     0
176
     1
 90
       50
176
     1
 90
       50
176
     1
 90
       50
176
     1
290
     0
176
     1
 90
       50
176
     1
 62
   256
176
     0
 40
1.0
176
     0
 90
        2
176
     1
  1
strokes_ogs.tif
176
     1
290
     0
176
     1
 40
1.0
176
     1
 40
1.0
176
     1
  0
VISUALSTYLE
  5
7F8D
102
{ACAD_REACTORS
330
7F8C
102
}
330
7F8C
100
AcDbVisualStyle
  2
Flat
 70
     0
177
     3
291
     1
 70
    58
 90
        2
176
     1
 90
        1
176
     1
 90
        1
176
     1
 90
        2
176
     1
 40
0.6
176
     1
 40
30.0
176
     1
 62
     7
420
 16777215
176
     1
 90
        0
176
     1
 90
        0
176
     1
 62
     7
176
     1
 62
   257
176
     1
 90
        1
176
     1
 90
        1
176
     1
 40
1.0
176
     1
 90
        8
176
     1
 62
     7
176
     1
 40
1.0
176
     1
 90
        1
176
     1
 90
        6
176
     1
 90
        2
176
     1
 62
     7
176
     1
 90
        5
176
     1
 90
        0
176
     1
 90
        0
176
     1
290
     0
176
     1
 90
       13
176
     1
 40
0.0
176
     1
 90
        0
176
     1
290
     0
176
     1
290
     1
176
     1
290
     1
176
     1
290
     0
176
     1
290
     0
176
     1
290
     0
176
     1
290
     0
176
     1
290
     0
176
     1
290
     0
176
     1
 90
       50
176
     1
 40
0.0
176
     1
 40
1.0
176
     1
 90
        0
176
     1
 62
    18
420
        0
176
     1
 90
       50
176
     1
 90
        3
176
     1
 62
     5
420
      255
176
     1
290
     0
176
     1
 90
       50
176
     1
 90
       50
176
     1
 90
       50
176
     1
290
     0
176
     1
 90
       50
176
     1
 62
   256
176
     0
 40
1.0
176
     0
 90
        2
176
     1
  1
strokes_ogs.tif
176
     1
290
     0
176
     1
 40
1.0
176
     1
 40
1.0
176
     1
  0
VISUALSTYLE
  5
7F8E
102
{ACAD_REACTORS
330
7F8C
102
}
330
7F8C
100
AcDbVisualStyle
  2
FlatWithEdges
 70
     1
177
     3
291
     1
 70
    58
 90
        2
176
     1
 90
        1
176
     1
 90
        1
176
     1
 90
        2
176
     1
 40
0.6
176
     1
 40
30.0
176
     1
 62
     7
420
 16777215
176
     1
 90
        1
176
     1
 90
        0
176
     1
 62
     7
176
     1
 62
   257
176
     1
 90
        1
176
     1
 90
        1
176
     1
 40
1.0
176
     1
 90
        0
176
     1
 62
   257
176
     1
 40
1.0
176
     1
 90
        1
176
     1
 90
        6
176
     1
 90
        2
176
     1
 62
     7
176
     1
 90
        5
176
     1
 90
        0
176
     1
 90
        0
176
     1
290
     0
176
     1
 90
       13
176
     1
 40
0.0
176
     1
 90
        0
176
     1
290
     0
176
     1
290
     1
176
     1
290
     1
176
     1
290
     0
176
     1
290
     0
176
     1
290
     0
176
     1
290
     0
176
     1
290
     0
176
     1
290
     0
176
     1
 90
       50
176
     1
 40
0.0
176
     1
 40
1.0
176
     1
 90
        0
176
     1
 62
    18
420
        0
176
     1
 90
       50
176
     1
 90
        3
176
     1
 62
     5
420
      255
176
     1
290
     0
176
     1
 90
       50
176
     1
 90
       50
176
     1
 90
       50
176
     1
290
     0
176
     1
 90
       50
176
     1
 62
   256
176
     0
 40
1.0
176
     0
 90
        2
176
     1
  1
strokes_ogs.tif
176
     1
290
     0
176
     1
 40
1.0
176
     1
 40
1.0
176
     1
  0
VISUALSTYLE
  5
7F8F
102
{ACAD_REACTORS
330
7F8C
102
}
330
7F8C
100
AcDbVisualStyle
  2
Gouraud
 70
     2
177
     3
291
     1
 70
    58
 90
        2
176
     1
 90
        2
176
     1
 90
        1
176
     1
 90
        2
176
     1
 40
0.6
176
     1
 40
30.0
176
     1
 62
     7
420
 16777215
176
     1
 90
        0
176
     1
 90
        0
176
     1
 62
     7
176
     1
 62
   257
176
     1
 90
        1
176
     1
 90
        1
176
     1
 40
1.0
176
     1
 90
        0
176
     1
 62
     7
176
     1
 40
1.0
176
     1
 90
        1
176
     1
 90
        6
176
     1
 90
        2
176
     1
 62
     7
176
     1
 90
        5
176
     1
 90
        0
176
     1
 90
        0
176
     1
290
     0
176
     1
 90
       13
176
     1
 40
0.0
176
     1
 90
        0
176
     1
290
     0
176
     1
290
     1
176
     1
290
     1
176
     1
290
     0
176
     1
290
     0
176
     1
290
     0
176
     1
290
     0
176
     1
290
     0
176
     1
290
     0
176
     1
 90
       50
176
     1
 40
0.0
176
     1
 40
1.0
176
     1
 90
        0
176
     1
 62
    18
420
        0
176
     1
 90
       50
176
     1
 90
        3
176
     1
 62
     5
420
      255
176
     1
290
     0
176
     1
 90
       50
176
     1
 90
       50
176
     1
 90
       50
176
     1
290
     0
176
     1
 90
       50
176
     1
 62
   256
176
     0
 40
1.0
176
     0
 90
        2
176
     1
  1
strokes_ogs.tif
176
     1
290
     0
176
     1
 40
1.0
176
     1
 40
1.0
176
     1
  0
VISUALSTYLE
  5
7F90
102
{ACAD_REACTORS
330
7F8C
102
}
330
7F8C
100
AcDbVisualStyle
  2
GouraudWithEdges
 70
     3
177
     3
291
     1
 70
    58
 90
        2
176
     1
 90
        2
176
     1
 90
        1
176
     1
 90
        2
176
     1
 40
0.6
176
     1
 40
30.0
176
     1
 62
     7
420
 16777215
176
     1
 90
        1
176
     1
 90
        0
176
     1
 62
     7
176
     1
 62
   257
176
     1
 90
        1
176
     1
 90
        1
176
     1
 40
1.0
176
     1
 90
        0
176
     1
 62
   257
176
     1
 40
1.0
176
     1
 90
        1
176
     1
 90
        6
176
     1
 90
        2
176
     1
 62
     7
176
     1
 90
        5
176
     1
 90
        0
176
     1
 90
        0
176
     1
290
     0
176
     1
 90
       13
176
     1
 40
0.0
176
     1
 90
        0
176
     1
290
     0
176
     1
290
     1
176
     1
290
     1
176
     1
290
     0
176
     1
290
     0
176
     1
290
     0
176
     1
290
     0
176
     1
290
     0
176
     1
290
     0
176
     1
 90
       50
176
     1
 40
0.0
176
     1
 40
1.0
176
     1
 90
        0
176
     1
 62
    18
420
        0
176
     1
 90
       50
176
     1
 90
        3
176
     1
 62
     5
420
      255
176
     1
290
     0
176
     1
 90
       50
176
     1
 90
       50
176
     1
 90
       50
176
     1
290
     0
176
     1
 90
       50
176
     1
 62
   256
176
     0
 40
1.0
176
     0
 90
        2
176
     1
  1
strokes_ogs.tif
176
     1
290
     0
176
     1
 40
1.0
176
     1
 40
1.0
176
     1
  0
VISUALSTYLE
  5
7F94
102
{ACAD_REACTORS
330
7F8C
102
}
330
7F8C
100
AcDbVisualStyle
  2
Hidden
 70
     6
177
     3
291
     0
 70
    58
 90
        1
176
     1
 90
        2
176
     1
 90
        2
176
     1
 90
        0
176
     1
 40
0.6
176
     1
 40
30.0
176
     1
 62
     7
420
 16777215
176
     1
 90
        2
176
     1
 90
        2
176
     1
 62
     7
176
     1
 62
   257
176
     1
 90
        2
176
     1
 90
        1
176
     1
 40
40.0
176
     1
 90
        0
176
     1
 62
   257
176
     1
 40
1.0
176
     1
 90
        1
176
     1
 90
        6
176
     1
 90
        2
176
     1
 62
     7
176
     1
 90
        3
176
     1
 90
        0
176
     1
 90
        0
176
     1
290
     0
176
     1
 90
        1
176
     1
 40
0.0
176
     1
 90
        0
176
     1
290
     0
176
     1
290
     1
176
     1
290
     1
176
     1
290
     0
176
     1
290
     0
176
     1
290
     0
176
     1
290
     0
176
     1
290
     0
176
     1
290
     0
176
     1
 90
       50
176
     1
 40
0.0
176
     1
 40
1.0
176
     1
 90
        0
176
     1
 62
    18
420
        0
176
     1
 90
       50
176
     1
 90
        3
176
     1
 62
     5
420
      255
176
     1
290
     0
176
     1
 90
       50
176
     1
 90
       50
176
     1
 90
       50
176
     1
290
     0
176
     1
 90
       50
176
     1
 62
   256
176
     0
 40
1.0
176
     0
 90
        2
176
     1
  1
strokes_ogs.tif
176
     1
290
     0
176
     1
 40
1.0
176
     1
 40
1.0
176
     1
  0
VISUALSTYLE
  5
7FA2
102
{ACAD_REACTORS
330
7F8C
102
}
330
7F8C
100
AcDbVisualStyle
  2
JitterOff
 70
    20
177
     3
291
     1
 70
    58
 90
        2
176
     0
 90
        2
176
     0
 90
        0
176
     0
 90
        0
176
     0
 40
0.6
176
     0
 40
30.0
176
     0
 62
     7
420
 16777215
176
     0
 90
        1
176
     0
 90
        4
176
     0
 62
     7
176
     0
 62
   257
176
     0
 90
        1
176
     0
 90
        1
176
     0
 40
1.0
176
     0
 90
       10
176
     2
 62
     7
176
     0
 40
1.0
176
     0
 90
        1
176
     0
 90
        6
176
     0
 90
        2
176
     0
 62
     7
176
     0
 90
        5
176
     0
 90
        0
176
     0
 90
        0
176
     0
290
     0
176
     0
 90
        1
176
     0
 40
0.0
176
     0
 90
        0
176
     0
290
     0
176
     0
290
     1
176
     0
290
     1
176
     0
290
     0
176
     0
290
     0
176
     0
290
     0
176
     0
290
     0
176
     0
290
     0
176
     0
290
     0
176
     0
 90
       50
176
     0
 40
0.0
176
     0
 40
1.0
176
     0
 90
        0
176
     0
 62
    18
420
        0
176
     0
 90
       50
176
     0
 90
        3
176
     0
 62
     5
420
      255
176
     0
290
     0
176
     0
 90
       50
176
     0
 90
       50
176
     0
 90
       50
176
     0
290
     0
176
     0
 90
       50
176
     0
 62
   256
176
     0
 40
1.0
176
     0
 90
        2
176
     0
  1
strokes_ogs.tif
176
     0
290
     0
176
     0
 40
1.0
176
     0
 40
1.0
176
     0
  0
VISUALSTYLE
  5
7F9A
102
{ACAD_REACTORS
330
7F8C
102
}
330
7F8C
100
AcDbVisualStyle
  2
Linepattern
 70
    14
177
     3
291
     1
 70
    58
 90
        2
176
     1
 90
        2
176
     1
 90
        0
176
     1
 90
        0
176
     1
 40
0.6
176
     1
 40
30.0
176
     1
 62
     7
420
 16777215
176
     1
 90
        1
176
     1
 90
        4
176
     1
 62
     7
176
     1
 62
   257
176
     1
 90
        7
176
     1
 90
        7
176
     1
 40
1.0
176
     1
 90
        8
176
     1
 62
     7
176
     1
 40
1.0
176
     1
 90
        1
176
     1
 90
        6
176
     1
 90
        2
176
     1
 62
     7
176
     1
 90
        5
176
     1
 90
        0
176
     1
 90
        0
176
     1
290
     0
176
     1
 90
        1
176
     1
 40
0.0
176
     1
 90
        0
176
     1
290
     0
176
     1
290
     1
176
     1
290
     1
176
     1
290
     0
176
     1
290
     0
176
     1
290
     0
176
     1
290
     0
176
     1
290
     0
176
     1
290
     0
176
     1
 90
       50
176
     1
 40
0.0
176
     1
 40
1.0
176
     1
 90
        0
176
     1
 62
    18
420
        0
176
     1
 90
       50
176
     1
 90
        3
176
     1
 62
     5
420
      255
176
     1
290
     0
176
     1
 90
       50
176
     1
 90
       50
176
     1
 90
       50
176
     1
290
     0
176
     1
 90
       50
176
     1
 62
   256
176
     0
 40
1.0
176
     0
 90
        2
176
     1
  1
strokes_ogs.tif
176
     1
290
     0
176
     1
 40
1.0
176
     1
 40
1.0
176
     1
  0
VISUALSTYLE
  5
7FA3
102
{ACAD_REACTORS
330
7F8C
102
}
330
7F8C
100
AcDbVisualStyle
  2
OverhangOff
 70
    21
177
     3
291
     1
 70
    58
 90
        2
176
     0
 90
        2
176
     0
 90
        0
176
     0
 90
        0
176
     0
 40
0.6
176
     0
 40
30.0
176
     0
 62
     7
420
 16777215
176
     0
 90
        1
176
     0
 90
        4
176
     0
 62
     7
176
     0
 62
   257
176
     0
 90
        1
176
     0
 90
        1
176
     0
 40
1.0
176
     0
 90
        9
176
     2
 62
     7
176
     0
 40
1.0
176
     0
 90
        1
176
     0
 90
        6
176
     0
 90
        2
176
     0
 62
     7
176
     0
 90
        5
176
     0
 90
        0
176
     0
 90
        0
176
     0
290
     0
176
     0
 90
        1
176
     0
 40
0.0
176
     0
 90
        0
176
     0
290
     0
176
     0
290
     1
176
     0
290
     1
176
     0
290
     0
176
     0
290
     0
176
     0
290
     0
176
     0
290
     0
176
     0
290
     0
176
     0
290
     0
176
     0
 90
       50
176
     0
 40
0.0
176
     0
 40
1.0
176
     0
 90
        0
176
     0
 62
    18
420
        0
176
     0
 90
       50
176
     0
 90
        3
176
     0
 62
     5
420
      255
176
     0
290
     0
176
     0
 90
       50
176
     0
 90
       50
176
     0
 90
       50
176
     0
290
     0
176
     0
 90
       50
176
     0
 62
   256
176
     0
 40
1.0
176
     0
 90
        2
176
     0
  1
strokes_ogs.tif
176
     0
290
     0
176
     0
 40
1.0
176
     0
 40
1.0
176
     0
  0
VISUALSTYLE
  5
7F96
102
{ACAD_REACTORS
330
7F8C
102
}
330
7F8C
100
AcDbVisualStyle
  2
Realistic
 70
     8
177
     3
291
     0
 70
    58
 90
        2
176
     1
 90
        3
176
     1
 90
        0
176
     1
 90
        2
176
     1
 40
0.6
176
     1
 40
30.0
176
     1
 62
     7
420
 16777215
176
     1
 90
        0
176
     1
 90
        0
176
     1
 62
     7
176
     1
 62
   257
176
     1
 90
        1
176
     1
 90
        1
176
     1
 40
1.0
176
     1
 90
        8
176
     1
 62
   257
176
     1
 40
1.0
176
     1
 90
        1
176
     1
 90
        6
176
     1
 90
        2
176
     1
 62
     7
176
     1
 90
        3
176
     1
 90
        0
176
     1
 90
        0
176
     1
290
     0
176
     1
 90
       13
176
     1
 40
0.0
176
     1
 90
        0
176
     1
290
     0
176
     1
290
     1
176
     1
290
     1
176
     1
290
     0
176
     1
290
     0
176
     1
290
     0
176
     1
290
     0
176
     1
290
     0
176
     1
290
     0
176
     1
 90
       50
176
     1
 40
0.0
176
     1
 40
1.0
176
     1
 90
        0
176
     1
 62
    18
420
        0
176
     1
 90
       50
176
     1
 90
        3
176
     1
 62
     5
420
      255
176
     1
290
     0
176
     1
 90
       50
176
     1
 90
       50
176
     1
 90
       50
176
     1
290
     0
176
     1
 90
       50
176
     1
 62
   256
176
     0
 40
1.0
176
     0
 90
        2
176
     1
  1
strokes_ogs.tif
176
     1
290
     0
176
     1
 40
1.0
176
     1
 40
1.0
176
     1
  0
VISUALSTYLE
  5
7FA1
102
{ACAD_REACTORS
330
7F8C
102
}
330
7F8C
100
AcDbVisualStyle
  2
Shaded
 70
    27
177
     3
291
     0
 70
    58
 90
        2
176
     1
 90
        2
176
     1
 90
        1
176
     1
 90
        2
176
     1
 40
0.6
176
     1
 40
30.0
176
     1
 62
     7
420
 16777215
176
     1
 90
        0
176
     1
 90
        4
176
     1
 62
     7
176
     1
 62
   257
176
     1
 90
        1
176
     1
 90
        1
176
     1
 40
1.0
176
     1
 90
        8
176
     1
 62
   257
176
     1
 40
1.0
176
     1
 90
        1
176
     1
 90
        6
176
     1
 90
        2
176
     1
 62
     8
420
  7895160
176
     1
 90
        3
176
     1
 90
        0
176
     1
 90
        0
176
     1
290
     0
176
     1
 90
        5
176
     1
 40
0.0
176
     1
 90
        0
176
     1
290
     0
176
     1
290
     1
176
     1
290
     1
176
     1
290
     0
176
     1
290
     0
176
     1
290
     0
176
     1
290
     0
176
     1
290
     0
176
     1
290
     0
176
     1
 90
       50
176
     1
 40
0.0
176
     1
 40
1.0
176
     1
 90
        0
176
     1
 62
    18
420
        0
176
     1
 90
       50
176
     1
 90
        3
176
     1
 62
     5
420
      255
176
     1
290
     0
176
     1
 90
       50
176
     1
 90
       50
176
     1
 90
       50
176
     1
290
     0
176
     1
 90
       50
176
     1
 62
   256
176
     0
 40
1.0
176
     0
 90
        2
176
     1
  1
strokes_ogs.tif
176
     1
290
     0
176
     1
 40
1.0
176
     1
 40
1.0
176
     1
  0
VISUALSTYLE
  5
7FA0
102
{ACAD_REACTORS
330
7F8C
102
}
330
7F8C
100
AcDbVisualStyle
  2
Shaded with edges
 70
    26
177
     3
291
     0
 70
    58
 90
        2
176
     1
 90
        2
176
     1
 90
        1
176
     1
 90
        2
176
     1
 40
0.6
176
     1
 40
30.0
176
     1
 62
     7
420
 16777215
176
     1
 90
        1
176
     1
 90
       10
176
     1
 62
     7
176
     1
 62
   257
176
     1
 90
        2
176
     1
 90
        1
176
     1
 40
1.0
176
     1
 90
        8
176
     1
 62
   257
176
     1
 40
1.0
176
     1
 90
        1
176
     1
 90
        6
176
     1
 90
        2
176
     1
 62
     7
176
     1
 90
        3
176
     1
 90
        0
176
     1
 90
        0
176
     1
290
     0
176
     1
 90
        5
176
     1
 40
0.0
176
     1
 90
        0
176
     1
290
     0
176
     1
290
     1
176
     1
290
     1
176
     1
290
     0
176
     1
290
     0
176
     1
290
     0
176
     1
290
     0
176
     1
290
     0
176
     1
290
     0
176
     1
 90
       50
176
     1
 40
0.0
176
     1
 40
1.0
176
     1
 90
        0
176
     1
 62
    18
420
        0
176
     1
 90
       50
176
     1
 90
        3
176
     1
 62
     5
420
      255
176
     1
290
     0
176
     1
 90
       50
176
     1
 90
       50
176
     1
 90
       50
176
     1
290
     0
176
     1
 90
       50
176
     1
 62
   256
176
     0
 40
1.0
176
     0
 90
        2
176
     1
  1
strokes_ogs.tif
176
     1
290
     0
176
     1
 40
1.0
176
     1
 40
1.0
176
     1
  0
VISUALSTYLE
  5
7F9D
102
{ACAD_REACTORS
330
7F8C
102
}
330
7F8C
100
AcDbVisualStyle
  2
Shades of Gray
 70
    23
177
     3
291
     0
 70
    58
 90
        2
176
     1
 90
        2
176
     1
 90
        3
176
     1
 90
        0
176
     1
 40
0.6
176
     1
 40
30.0
176
     1
 62
     7
420
 16777215
176
     1
 90
        2
176
     1
 90
        2
176
     1
 62
     7
176
     1
 62
     7
176
     1
 90
        1
176
     1
 90
        1
176
     1
 40
40.0
176
     1
 90
        8
176
     1
 62
     7
176
     1
 40
1.0
176
     1
 90
        1
176
     1
 90
        6
176
     1
 90
        2
176
     1
 62
     7
176
     1
 90
        3
176
     1
 90
        0
176
     1
 90
        0
176
     1
290
     0
176
     1
 90
        1
176
     1
 40
0.0
176
     1
 90
        0
176
     1
290
     0
176
     1
290
     1
176
     1
290
     1
176
     1
290
     0
176
     1
290
     0
176
     1
290
     0
176
     1
290
     0
176
     1
290
     0
176
     1
290
     0
176
     1
 90
       50
176
     1
 40
0.0
176
     1
 40
1.0
176
     1
 90
        0
176
     1
 62
    18
420
        0
176
     1
 90
       50
176
     1
 90
        3
176
     1
 62
     5
420
      255
176
     1
290
     0
176
     1
 90
       50
176
     1
 90
       50
176
     1
 90
       50
176
     1
290
     0
176
     1
 90
       50
176
     1
 62
   256
176
     0
 40
1.0
176
     0
 90
        2
176
     1
  1
strokes_ogs.tif
176
     1
290
     0
176
     1
 40
1.0
176
     1
 40
1.0
176
     1
  0
VISUALSTYLE
  5
7F9E
102
{ACAD_REACTORS
330
7F8C
102
}
330
7F8C
100
AcDbVisualStyle
  2
Sketchy
 70
    24
177
     3
291
     0
 70
    58
 90
        1
176
     1
 90
        2
176
     1
 90
        2
176
     1
 90
        0
176
     1
 40
0.6
176
     1
 40
30.0
176
     1
 62
     7
420
 16777215
176
     1
 90
        2
176
     1
 90
        2
176
     1
 62
     7
176
     1
 62
     7
176
     1
 90
        1
176
     1
 90
        1
176
     1
 40
40.0
176
     1
 90
       11
176
     1
 62
     7
176
     1
 40
1.0
176
     1
 90
        1
176
     1
 90
        6
176
     1
 90
        2
176
     1
 62
     7
176
     1
 90
        6
176
     1
 90
        0
176
     1
 90
        0
176
     1
290
     0
176
     1
 90
        1
176
     1
 40
0.0
176
     1
 90
        0
176
     1
290
     0
176
     1
290
     1
176
     1
290
     1
176
     1
290
     0
176
     1
290
     0
176
     1
290
     0
176
     1
290
     0
176
     1
290
     0
176
     1
290
     0
176
     1
 90
       50
176
     1
 40
0.0
176
     1
 40
1.0
176
     1
 90
        0
176
     1
 62
    18
420
        0
176
     1
 90
       50
176
     1
 90
        3
176
     1
 62
     5
420
      255
176
     1
290
     0
176
     1
 90
       50
176
     1
 90
       50
176
     1
 90
       50
176
     1
290
     0
176
     1
 90
       50
176
     1
 62
   256
176
     0
 40
1.0
176
     0
 90
        2
176
     1
  1
strokes_ogs.tif
176
     1
290
     0
176
     1
 40
1.0
176
     1
 40
1.0
176
     1
  0
VISUALSTYLE
  5
7F99
102
{ACAD_REACTORS
330
7F8C
102
}
330
7F8C
100
AcDbVisualStyle
  2
Thicken
 70
    13
177
     3
291
     1
 70
    58
 90
        2
176
     1
 90
        2
176
     1
 90
        0
176
     1
 90
        0
176
     1
 40
0.6
176
     1
 40
30.0
176
     1
 62
     7
420
 16777215
176
     1
 90
        1
176
     1
 90
        4
176
     1
 62
     7
176
     1
 62
   257
176
     1
 90
        1
176
     1
 90
        1
176
     1
 40
1.0
176
     1
 90
       12
176
     1
 62
     7
176
     1
 40
1.0
176
     1
 90
        1
176
     1
 90
        6
176
     1
 90
        2
176
     1
 62
     7
176
     1
 90
        5
176
     1
 90
        0
176
     1
 90
        0
176
     1
290
     0
176
     1
 90
        1
176
     1
 40
0.0
176
     1
 90
        0
176
     1
290
     0
176
     1
290
     1
176
     1
290
     1
176
     1
290
     0
176
     1
290
     0
176
     1
290
     0
176
     1
290
     0
176
     1
290
     0
176
     1
290
     0
176
     1
 90
       50
176
     1
 40
0.0
176
     1
 40
1.0
176
     1
 90
        0
176
     1
 62
    18
420
        0
176
     1
 90
       50
176
     1
 90
        3
176
     1
 62
     5
420
      255
176
     1
290
     0
176
     1
 90
       50
176
     1
 90
       50
176
     1
 90
       50
176
     1
290
     0
176
     1
 90
       50
176
     1
 62
   256
176
     0
 40
1.0
176
     0
 90
        2
176
     1
  1
strokes_ogs.tif
176
     1
290
     0
176
     1
 40
1.0
176
     1
 40
1.0
176
     1
  0
VISUALSTYLE
  5
7F93
102
{ACAD_REACTORS
330
7F8C
102
}
330
7F8C
100
AcDbVisualStyle
  2
Wireframe
 70
     5
177
     3
291
     0
 70
    58
 90
        0
176
     1
 90
        2
176
     1
 90
        0
176
     1
 90
        0
176
     1
 40
0.6
176
     1
 40
30.0
176
     1
 62
     7
420
 16777215
176
     1
 90
        1
176
     1
 90
        4
176
     1
 62
     7
176
     1
 62
   257
176
     1
 90
        1
176
     1
 90
        1
176
     1
 40
1.0
176
     1
 90
        0
176
     1
 62
   257
176
     1
 40
1.0
176
     1
 90
        1
176
     1
 90
        6
176
     1
 90
        2
176
     1
 62
     7
176
     1
 90
        3
176
     1
 90
        0
176
     1
 90
        0
176
     1
290
     0
176
     1
 90
        1
176
     1
 40
0.0
176
     1
 90
        0
176
     1
290
     0
176
     1
290
     1
176
     1
290
     1
176
     1
290
     0
176
     1
290
     0
176
     1
290
     0
176
     1
290
     0
176
     1
290
     0
176
     1
290
     0
176
     1
 90
       50
176
     1
 40
0.0
176
     1
 40
1.0
176
     1
 90
        0
176
     1
 62
    18
420
        0
176
     1
 90
       50
176
     1
 90
        3
176
     1
 62
     5
420
      255
176
     1
290
     0
176
     1
 90
       50
176
     1
 90
       50
176
     1
 90
       50
176
     1
290
     0
176
     1
 90
       50
176
     1
 62
   256
176
     0
 40
1.0
176
     0
 90
        2
176
     1
  1
strokes_ogs.tif
176
     1
290
     0
176
     1
 40
1.0
176
     1
 40
1.0
176
     1
  0
VISUALSTYLE
  5
7F9F
102
{ACAD_REACTORS
330
7F8C
102
}
330
7F8C
100
AcDbVisualStyle
  2
X-Ray
 70
    25
177
     3
291
     0
 70
    58
 90
        2
176
     1
 90
        2
176
     1
 90
        1
176
     1
 90
        1
176
     1
 40
0.5
176
     1
 40
30.0
176
     1
 62
     7
420
 16777215
176
     1
 90
        1
176
     1
 90
        0
176
     1
 62
     7
176
     1
 62
   257
176
     1
 90
        1
176
     1
 90
        1
176
     1
 40
1.0
176
     1
 90
        8
176
     1
 62
     7
176
     1
 40
1.0
176
     1
 90
        1
176
     1
 90
        6
176
     1
 90
        2
176
     1
 62
     7
176
     1
 90
        3
176
     1
 90
        0
176
     1
 90
        0
176
     1
290
     0
176
     1
 90
       13
176
     1
 40
0.0
176
     1
 90
        0
176
     1
290
     0
176
     1
290
     1
176
     1
290
     1
176
     1
290
     0
176
     1
290
     0
176
     1
290
     0
176
     1
290
     0
176
     1
290
     0
176
     1
290
     0
176
     1
 90
       50
176
     1
 40
0.0
176
     1
 40
1.0
176
     1
 90
        0
176
     1
 62
    18
420
        0
176
     1
 90
       50
176
     1
 90
        3
176
     1
 62
     5
420
      255
176
     1
290
     0
176
     1
 90
       50
176
     1
 90
       50
176
     1
 90
       50
176
     1
290
     0
176
     1
 90
       50
176
     1
 62
   256
176
     0
 40
1.0
176
     0
 90
        2
176
     1
  1
strokes_ogs.tif
176
     1
290
     0
176
     1
 40
1.0
176
     1
 40
1.0
176
     1
  0
DICTIONARYVAR
  5
8054
102
{ACAD_REACTORS
330
7F66
102
}
330
7F66
100
DictionaryVariables
280
     0
  1
1:1
  0
DICTIONARYVAR
  5
8050
102
{ACAD_REACTORS
330
7F66
102
}
330
7F66
100
DictionaryVariables
280
     0
  1
STANDARD
  0
DICTIONARYVAR
  5
804F
102
{ACAD_REACTORS
330
7F66
102
}
330
7F66
100
DictionaryVariables
280
     0
  1
STANDARD
  0
DICTIONARYVAR
  5
8051
102
{ACAD_REACTORS
330
7F66
102
}
330
7F66
100
DictionaryVariables
280
     0
  1
Imperial24
  0
DICTIONARYVAR
  5
8052
102
{ACAD_REACTORS
330
7F66
102
}
330
7F66
100
DictionaryVariables
280
     0
  1
Imperial24
  0
DICTIONARYVAR
  5
7F67
102
{ACAD_REACTORS
330
7F66
102
}
330
7F66
100
DictionaryVariables
280
     0
  1
1
  0
DICTIONARYVAR
  5
8056
102
{ACAD_REACTORS
330
7F66
102
}
330
7F66
100
DictionaryVariables
280
     0
  1
1
  0
DICTIONARYVAR
  5
8057
102
{ACAD_REACTORS
330
7F66
102
}
330
7F66
100
DictionaryVariables
280
     0
  1
15
  0
DICTIONARYVAR
  5
8055
102
{ACAD_REACTORS
330
7F66
102
}
330
7F66
100
DictionaryVariables
280
     0
  1
0
  0
DICTIONARYVAR
  5
8053
102
{ACAD_REACTORS
330
7F66
102
}
330
7F66
100
DictionaryVariables
280
     0
  1
0
  0
DICTIONARY
  5
804C
330
7FBF
100
AcDbDictionary
280
     1
281
     1
  3
ACAD_XREC_ROUNDTRIP
360
8082
  0
DICTIONARY
  5
7F7D
330
7F7C
100
AcDbDictionary
280
     1
281
     1
  3
BUMPTILE
360
7F7F
  3
DIFFUSETILE
360
7F7E
  3
OPACITYTILE
360
7F82
  3
REFLECTIONTILE
360
7F81
  3
REFRACTIONTILE
360
7F83
  3
SPECULARTILE
360
7F80
  0
DICTIONARY
  5
7F75
330
7F74
100
AcDbDictionary
280
     1
281
     1
  3
BUMPTILE
360
7F77
  3
DIFFUSETILE
360
7F76
  3
OPACITYTILE
360
7F7A
  3
REFLECTIONTILE
360
7F79
  3
REFRACTIONTILE
360
7F7B
  3
SPECULARTILE
360
7F78
  0
DICTIONARY
  5
7F85
330
7F84
100
AcDbDictionary
280
     1
281
     1
  3
BUMPTILE
360
7F87
  3
DIFFUSETILE
360
7F86
  3
OPACITYTILE
360
7F8A
  3
REFLECTIONTILE
360
7F89
  3
REFRACTIONTILE
360
7F8B
  3
SPECULARTILE
360
7F88
  0
DICTIONARY
  5
804A
330
7FBD
100
AcDbDictionary
280
     1
281
     1
  3
ACAD_XREC_ROUNDTRIP
360
8081
  0
DICTIONARY
  5
807F
330
7FA7
100
AcDbDictionary
280
     1
281
     1
  3
ACAD_ROUNDTRIP_2008_TABLESTYLE_CELLSTYLEMAP
360
8080
  0
XRECORD
  5
8082
102
{ACAD_REACTORS
330
804C
102
}
330
804C
100
AcDbXrecord
280
     1
102
DISPLAYNAME
  1
Imperial24
102
FLAGS
 90
        0
  0
XRECORD
  5
7F7F
102
{ACAD_REACTORS
330
7F7D
102
}
330
7F7D
100
AcDbXrecord
280
     1
270
     1
271
     1
  0
XRECORD
  5
7F7E
102
{ACAD_REACTORS
330
7F7D
102
}
330
7F7D
100
AcDbXrecord
280
     1
270
     1
271
     1
  0
XRECORD
  5
7F82
102
{ACAD_REACTORS
330
7F7D
102
}
330
7F7D
100
AcDbXrecord
280
     1
270
     1
271
     1
  0
XRECORD
  5
7F81
102
{ACAD_REACTORS
330
7F7D
102
}
330
7F7D
100
AcDbXrecord
280
     1
270
     1
271
     1
  0
XRECORD
  5
7F83
102
{ACAD_REACTORS
330
7F7D
102
}
330
7F7D
100
AcDbXrecord
280
     1
270
     1
271
     1
  0
XRECORD
  5
7F80
102
{ACAD_REACTORS
330
7F7D
102
}
330
7F7D
100
AcDbXrecord
280
     1
270
     1
271
     1
  0
XRECORD
  5
7F77
102
{ACAD_REACTORS
330
7F75
102
}
330
7F75
100
AcDbXrecord
280
     1
270
     1
271
     1
  0
XRECORD
  5
7F76
102
{ACAD_REACTORS
330
7F75
102
}
330
7F75
100
AcDbXrecord
280
     1
270
     1
271
     1
  0
XRECORD
  5
7F7A
102
{ACAD_REACTORS
330
7F75
102
}
330
7F75
100
AcDbXrecord
280
     1
270
     1
271
     1
  0
XRECORD
  5
7F79
102
{ACAD_REACTORS
330
7F75
102
}
330
7F75
100
AcDbXrecord
280
     1
270
     1
271
     1
  0
XRECORD
  5
7F7B
102
{ACAD_REACTORS
330
7F75
102
}
330
7F75
100
AcDbXrecord
280
     1
270
     1
271
     1
  0
XRECORD
  5
7F78
102
{ACAD_REACTORS
330
7F75
102
}
330
7F75
100
AcDbXrecord
280
     1
270
     1
271
     1
  0
XRECORD
  5
7F87
102
{ACAD_REACTORS
330
7F85
102
}
330
7F85
100
AcDbXrecord
280
     1
270
     1
271
     1
  0
XRECORD
  5
7F86
102
{ACAD_REACTORS
330
7F85
102
}
330
7F85
100
AcDbXrecord
280
     1
270
     1
271
     1
  0
XRECORD
  5
7F8A
102
{ACAD_REACTORS
330
7F85
102
}
330
7F85
100
AcDbXrecord
280
     1
270
     1
271
     1
  0
XRECORD
  5
7F89
102
{ACAD_REACTORS
330
7F85
102
}
330
7F85
100
AcDbXrecord
280
     1
270
     1
271
     1
  0
XRECORD
  5
7F8B
102
{ACAD_REACTORS
330
7F85
102
}
330
7F85
100
AcDbXrecord
280
     1
270
     1
271
     1
  0
XRECORD
  5
7F88
102
{ACAD_REACTORS
330
7F85
102
}
330
7F85
100
AcDbXrecord
280
     1
270
     1
271
     1
  0
XRECORD
  5
8081
102
{ACAD_REACTORS
330
804A
102
}
330
804A
100
AcDbXrecord
280
     1
102
DISPLAYNAME
  1
Imperial24
102
FLAGS
 90
        0
  0
CELLSTYLEMAP
  5
8080
102
{ACAD_REACTORS
330
807F
102
}
330
807F
100
AcDbCellStyleMap
 90
        3
300
CELLSTYLE
  1
TABLEFORMAT_BEGIN
 90
        5
170
     1
 91
        0
 92
    32768
 62
   257
 93
        1
300
CONTENTFORMAT
  1
CONTENTFORMAT_BEGIN
 90
        0
 91
        0
 92
      512
 93
        0
300

 40
0.0
140
1.0
 94
        5
 62
     0
340
10
144
0.25
309
CONTENTFORMAT_END
171
     0
 94
        0
309
TABLEFORMAT_END
  1
CELLSTYLE_BEGIN
 90
        1
 91
        1
300
_TITLE
309
CELLSTYLE_END
300
CELLSTYLE
  1
TABLEFORMAT_BEGIN
 90
        5
170
     1
 91
        0
 92
        0
 62
   257
 93
        1
300
CONTENTFORMAT
  1
CONTENTFORMAT_BEGIN
 90
        0
 91
        0
 92
      512
 93
        0
300

 40
0.0
140
1.0
 94
        5
 62
     0
340
10
144
0.18
309
CONTENTFORMAT_END
171
     0
 94
        0
309
TABLEFORMAT_END
  1
CELLSTYLE_BEGIN
 90
        2
 91
        1
300
_HEADER
309
CELLSTYLE_END
300
CELLSTYLE
  1
TABLEFORMAT_BEGIN
 90
        5
170
     1
 91
        0
 92
        0
 62
   257
 93
        1
300
CONTENTFORMAT
  1
CONTENTFORMAT_BEGIN
 90
        0
 91
        0
 92
      512
 93
        0
300

 40
0.0
140
1.0
 94
        2
 62
     0
340
10
144
0.18
309
CONTENTFORMAT_END
171
     0
 94
        0
309
TABLEFORMAT_END
  1
CELLSTYLE_BEGIN
 90
        3
 91
        2
300
_DATA
309
CELLSTYLE_END
  0
ENDSEC
  0
SECTION
  2
ACDSDATA
 70
     2
 71
     8
  0
ACDSSCHEMA
 90
        0
  1
AcDb_Thumbnail_Schema
  2
AcDbDs::ID
280
    10
 91
        8
  2
Thumbnail_Data
280
    15
 91
        0
101
ACDSRECORD
 95
        0
 90
        1
  2
AcDbDs::TreatedAsObjectData
280
     1
291
     1
101
ACDSRECORD
 95
        0
 90
        2
  2
AcDbDs::Legacy
280
     1
291
     1
101
ACDSRECORD
  1
AcDbDs::ID
 90
        3
  2
AcDs:Indexable
280
     1
291
     1
101
ACDSRECORD
  1
AcDbDs::ID
 90
        4
  2
AcDbDs::HandleAttribute
280
     7
282
     1
  0
ACDSSCHEMA
 90
        1
  1
AcDbDs::TreatedAsObjectDataSchema
  2
AcDbDs::TreatedAsObjectData
280
     1
 91
        0
  0
ACDSSCHEMA
 90
        2
  1
AcDbDs::LegacySchema
  2
AcDbDs::Legacy
280
     1
 91
        0
  0
ACDSSCHEMA
 90
        3
  1
AcDbDs::IndexedPropertySchema
  2
AcDs:Indexable
280
     1
 91
        0
  0
ACDSSCHEMA
 90
        4
  1
AcDbDs::HandleAttributeSchema
  2
AcDbDs::HandleAttribute
280
     7
 91
        1
284
     1
  0
ACDSRECORD
 90
        0
  2
AcDbDs::ID
280
    10
320
7E90
  2
Thumbnail_Data
280
    15
 94
     1890
310
89504E470D0A1A0A0000000D49484452000001000000008208030000009EA3E63300000300504C5445000000000000C8C8C80000000000000000000000000000000000000000000000000000330000660000990000CC0000FF0033000033330033660033990033CC0033FF0066000066330066660066990066CC0066FF0099
310
000099330099660099990099CC0099FF00CC0000CC3300CC6600CC9900CCCC00CCFF00FF0000FF3300FF6600FF9900FFCC00FFFF3300003300333300663300993300CC3300FF3333003333333333663333993333CC3333FF3366003366333366663366993366CC3366FF3399003399333399663399993399CC3399FF33CC00
310
33CC3333CC6633CC9933CCCC33CCFF33FF0033FF3333FF6633FF9933FFCC33FFFF6600006600336600666600996600CC6600FF6633006633336633666633996633CC6633FF6666006666336666666666996666CC6666FF6699006699336699666699996699CC6699FF66CC0066CC3366CC6666CC9966CCCC66CCFF66FF0066
310
FF3366FF6666FF9966FFCC66FFFF9900009900339900669900999900CC9900FF9933009933339933669933999933CC9933FF9966009966339966669966999966CC9966FF9999009999339999669999999999CC9999FF99CC0099CC3399CC6699CC9999CCCC99CCFF99FF0099FF3399FF6699FF9999FFCC99FFFFCC0000CC00
310
33CC0066CC0099CC00CCCC00FFCC3300CC3333CC3366CC3399CC33CCCC33FFCC6600CC6633CC6666CC6699CC66CCCC66FFCC9900CC9933CC9966CC9999CC99CCCC99FFCCCC00CCCC33CCCC66CCCC99CCCCCCCCCCFFCCFF00CCFF33CCFF66CCFF99CCFFCCCCFFFFFF0000FF0033FF0066FF0099FF00CCFF00FFFF3300FF3333
310
FF3366FF3399FF33CCFF33FFFF6600FF6633FF6666FF6699FF66CCFF66FFFF9900FF9933FF9966FF9999FF99CCFF99FFFFCC00FFCC33FFCC66FFCC99FFCCCCFFCCFFFFFF00FFFF33FFFF66FFFF99FFFFCCFFFFFF0000000D0D0D1A1A1A2828283535354343435050505D5D5D6B6B6B787878868686939393A1A1A1AEAEAEBB
310
BBBBC9C9C9D6D6D6E4E4E4F1F1F1FFFFFF00000000000000000000000000000000000000000000000000000000000008F1915C0000040D4944415478DAED9D596EE0200C407D1C7EB8FF657C0DFE4761B30167991955AA17AB52B390AABC78031C01F00BA588027EA47CBE68154011BAEB0BC085A0F8067058BD3B13D8CDC0
310
A306288E02E507447F20FB757F3200FC348042674C8F878B6BB1AEDE8371F0A0ECFA00CCCE0D00D44166D86571181B039E11290400F4664F00A706D02D984F826600006B77168FBE69C182A5C06218E1040340005008C07B26F83AD88111266EEFCE60AA751C24BF448A764047AB86B3163042A81502C25560514F00200D8C
310
F56B006C96BDA839A5061380AB0951CDAE3F2424242424242424240472BEBF97582B6CE217406DE603409E9232930AC08309644903C03B801C0002805D00ABA42A9098F413AB00560C0E3560D1FB00F008007D00C8777900FA00709F097A014067892EBB070001C04D140800EC2C34C00F003EED016718B40CE041FCCC08BD
310
00A889806D00C00C8054234DED0F0060765618BF9980DD7581A72EA58FED0280550010005C02909D9D5D00285C112F9A05F051202424242424448C2101609E38EAFA01C09932B8CF9750006267C8F0C1B0517EC426007C0360CA043EDAF60AE03A4D46068DD407E487CF00E614AA05006F872200E833886600D4E9F0A7D981
310
A5A775D1C01480B64492E81097FBE601F4C592B632944F00601CC0582CA295A1D9B1EE18B1F93D0180FE5088AD58F0EA5E022A91DB0164603595991B8C7A007994C5D52EFD0300500F602C88A6593C2000904DC00480E6FAAA090C77703AC19C670D5527D100A87701572E379C7F825E3DFC08202F1AA01A403A645EDA8605
310
08AC8228A5F673896A0099D50BC1AA0123148E0CA86BC0F003CC65EA05304BE43A0919C06602C30BF4D659AF0950F767146C4A0E2E00B0B73F005CBFD2308C1540F50399D2E4E907EB2F9D00BAE7A7D759DF6FEA16D1E2C09CF46A0060D68EF5DEA7AC370FC87DE83301B4D79E8643D801C0A901BA53E1DA954496C04BE756
310
0D409C004002A0743054FB99A86C76E4054C3F44005932019D31A0A731D30F3E03C05303AA062906D03520F3A0B002E889D002209F61506D1234A33EF3EE0280D73C40E5DBE795C1332ABE02E051805261C5001E3F981831101700426B9549D0EDE870ED3F9B0F47E1D9A47510F400406A640FC01713B85916595B833911BB
310
74AE0B29D78000E01CC0D7EF06570F60C807E48F1A90290A3027685C0370FF7274444044E1C1B4B7D421F8F0FF22C37454CCE01D2E65D301F8F11EEE07B735238A01ECD339C8AE51D1D8F220AF276BD385AE01A046007FF7CD1003E0F5EB2217D5C0EE3759A16D4560DB51B47C7ADA0C80F38516D8F6D56A0AD31E81B17599
310
3100E5E60E6C7B908C6D584C9940394CA06FC142B766BF3B021300C209FE8F83B3EE04CBDC51A808BB2D3A0150E6FE94B453A35100A2139CBB71D11695D600BCA2A10DE64C6AC06F8C027F0014EA0676B3C293A50000000049454E44AE4260828758419A0000000049454E44AE426082
  0
ENDSEC
  0
EOF
