  0
SECTION
  2
HEADER
  9
$ACADVER
  1
AC1027
  9
$ACADMAINTVER
 70
    81
  9
$DWGCODEPAGE
  3
ANSI_932
  9
$LASTSAVEDBY
  1
reiko.miyawaki
  9
$REQUIREDVERSIONS
160
                 0
  9
$INSBASE
 10
0.0
 20
0.0
 30
0.0
  9
$EXTMIN
 10
217.07476
 20
300.0
 30
0.0
  9
$EXTMAX
 10
1850.0
 20
2786.652262
 30
0.0
  9
$LIMMIN
 10
0.0
 20
0.0
  9
$LIMMAX
 10
297.0
 20
210.0
  9
$ORTHOMODE
 70
     1
  9
$REGENMODE
 70
     1
  9
$FILLMODE
 70
     0
  9
$QTEXTMODE
 70
     0
  9
$MIRRTEXT
 70
     1
  9
$LTSCALE
 40
100.0
  9
$ATTMODE
 70
     1
  9
$TEXTSIZE
 40
180.0
  9
$TRACEWID
 40
0.05
  9
$TEXTSTYLE
  7
STANDARD
  9
$CLAYER
  8
3
  9
$CELTYPE
  6
BYLAYER
  9
$CECOLOR
 62
   256
  9
$CELTSCALE
 40
1.0
  9
$DISPSILH
 70
     0
  9
$DIMSCALE
 40
10.0
  9
$DIMASZ
 40
2.0
  9
$DIMEXO
 40
0.5
  9
$DIMDLI
 40
10.0
  9
$DIMRND
 40
0.0
  9
$DIMDLE
 40
0.0
  9
$DIMEXE
 40
1.0
  9
$DIMTP
 40
1.0
  9
$DIMTM
 40
1.0
  9
$DIMTXT
 40
3.0
  9
$DIMCEN
 40
0.0
  9
$DIMTSZ
 40
0.0
  9
$DIMTOL
 70
     0
  9
$DIMLIM
 70
     0
  9
$DIMTIH
 70
     0
  9
$DIMTOH
 70
     0
  9
$DIMSE1
 70
     0
  9
$DIMSE2
 70
     0
  9
$DIMTAD
 70
     1
  9
$DIMZIN
 70
     8
  9
$DIMBLK
  1

  9
$DIMASO
 70
     1
  9
$DIMSHO
 70
     1
  9
$DIMPOST
  1
(<>)
  9
$DIMAPOST
  1

  9
$DIMALT
 70
     0
  9
$DIMALTD
 70
     2
  9
$DIMALTF
 40
0.039
  9
$DIMLFAC
 40
1.0
  9
$DIMTOFL
 70
     1
  9
$DIMTVP
 40
0.0
  9
$DIMTIX
 70
     0
  9
$DIMSOXD
 70
     0
  9
$DIMSAH
 70
     1
  9
$DIMBLK1
  1
OPEN
  9
$DIMBLK2
  1
OPEN
  9
$DIMSTYLE
  2
IGA
  9
$DIMCLRD
 70
     0
  9
$DIMCLRE
 70
     0
  9
$DIMCLRT
 70
     0
  9
$DIMTFAC
 40
10.0
  9
$DIMGAP
 40
1.0
  9
$DIMJUST
 70
     0
  9
$DIMSD1
 70
     0
  9
$DIMSD2
 70
     0
  9
$DIMTOLJ
 70
     1
  9
$DIMTZIN
 70
     8
  9
$DIMALTZ
 70
     0
  9
$DIMALTTZ
 70
     0
  9
$DIMUPT
 70
     0
  9
$DIMDEC
 70
     0
  9
$DIMTDEC
 70
     0
  9
$DIMALTU
 70
     2
  9
$DIMALTTD
 70
     2
  9
$DIMTXSTY
  7
STANDARD
  9
$DIMAUNIT
 70
     0
  9
$DIMADEC
 70
     0
  9
$DIMALTRND
 40
0.0
  9
$DIMAZIN
 70
     0
  9
$DIMDSEP
 70
    46
  9
$DIMATFIT
 70
     3
  9
$DIMFRAC
 70
     0
  9
$DIMLDRBLK
  1
OPEN
  9
$DIMLUNIT
 70
     2
  9
$DIMLWD
 70
    -2
  9
$DIMLWE
 70
    -2
  9
$DIMTMOVE
 70
     0
  9
$DIMFXL
 40
1.0
  9
$DIMFXLON
 70
     0
  9
$DIMJOGANG
 40
0.7853981633974483
  9
$DIMTFILL
 70
     0
  9
$DIMTFILLCLR
 70
     0
  9
$DIMARCSYM
 70
     0
  9
$DIMLTYPE
  6

  9
$DIMLTEX1
  6

  9
$DIMLTEX2
  6

  9
$DIMTXTDIRECTION
 70
     0
  9
$LUNITS
 70
     2
  9
$LUPREC
 70
     3
  9
$SKETCHINC
 40
0.1
  9
$FILLETRAD
 40
50.0
  9
$AUNITS
 70
     0
  9
$AUPREC
 70
     0
  9
$MENU
  1
acad
  9
$ELEVATION
 40
0.0
  9
$PELEVATION
 40
0.0
  9
$THICKNESS
 40
0.0
  9
$LIMCHECK
 70
     0
  9
$CHAMFERA
 40
0.5
  9
$CHAMFERB
 40
0.5
  9
$CHAMFERC
 40
20.0
  9
$CHAMFERD
 40
0.0
  9
$SKPOLY
 70
     0
  9
$TDCREATE
 40
2450744.448732987
  9
$TDUCREATE
 40
2450744.073732986
  9
$TDUPDATE
 40
2459024.546200301
  9
$TDUUPDATE
 40
2459024.171200301
  9
$TDINDWG
 40
0.0114982292
  9
$TDUSRTIMER
 40
0.0114982292
  9
$USRTIMER
 70
     1
  9
$ANGBASE
 50
0.0
  9
$ANGDIR
 70
     0
  9
$PDMODE
 70
     0
  9
$PDSIZE
 40
0.0
  9
$PLINEWID
 40
0.0
  9
$SPLFRAME
 70
     0
  9
$SPLINETYPE
 70
     6
  9
$SPLINESEGS
 70
     8
  9
$HANDSEED
  5
7FD5
  9
$SURFTAB1
 70
     6
  9
$SURFTAB2
 70
     6
  9
$SURFTYPE
 70
     6
  9
$SURFU
 70
     6
  9
$SURFV
 70
     6
  9
$UCSBASE
  2

  9
$UCSNAME
  2

  9
$UCSORG
 10
0.0
 20
0.0
 30
0.0
  9
$UCSXDIR
 10
1.0
 20
0.0
 30
0.0
  9
$UCSYDIR
 10
0.0
 20
1.0
 30
0.0
  9
$UCSORTHOREF
  2

  9
$UCSORTHOVIEW
 70
     0
  9
$UCSORGTOP
 10
0.0
 20
0.0
 30
0.0
  9
$UCSORGBOTTOM
 10
0.0
 20
0.0
 30
0.0
  9
$UCSORGLEFT
 10
0.0
 20
0.0
 30
0.0
  9
$UCSORGRIGHT
 10
0.0
 20
0.0
 30
0.0
  9
$UCSORGFRONT
 10
0.0
 20
0.0
 30
0.0
  9
$UCSORGBACK
 10
0.0
 20
0.0
 30
0.0
  9
$PUCSBASE
  2

  9
$PUCSNAME
  2

  9
$PUCSORG
 10
0.0
 20
0.0
 30
0.0
  9
$PUCSXDIR
 10
1.0
 20
0.0
 30
0.0
  9
$PUCSYDIR
 10
0.0
 20
1.0
 30
0.0
  9
$PUCSORTHOREF
  2

  9
$PUCSORTHOVIEW
 70
     0
  9
$PUCSORGTOP
 10
0.0
 20
0.0
 30
0.0
  9
$PUCSORGBOTTOM
 10
0.0
 20
0.0
 30
0.0
  9
$PUCSORGLEFT
 10
0.0
 20
0.0
 30
0.0
  9
$PUCSORGRIGHT
 10
0.0
 20
0.0
 30
0.0
  9
$PUCSORGFRONT
 10
0.0
 20
0.0
 30
0.0
  9
$PUCSORGBACK
 10
0.0
 20
0.0
 30
0.0
  9
$USERI1
 70
     0
  9
$USERI2
 70
     0
  9
$USERI3
 70
     0
  9
$USERI4
 70
     0
  9
$USERI5
 70
     0
  9
$USERR1
 40
0.0
  9
$USERR2
 40
0.0
  9
$USERR3
 40
0.0
  9
$USERR4
 40
0.0
  9
$USERR5
 40
0.0
  9
$WORLDVIEW
 70
     1
  9
$SHADEDGE
 70
     3
  9
$SHADEDIF
 70
    70
  9
$TILEMODE
 70
     1
  9
$MAXACTVP
 70
    16
  9
$PINSBASE
 10
0.0
 20
0.0
 30
0.0
  9
$PLIMCHECK
 70
     0
  9
$PEXTMIN
 10
1.000000000000000E+20
 20
1.000000000000000E+20
 30
1.000000000000000E+20
  9
$PEXTMAX
 10
-1.000000000000000E+20
 20
-1.000000000000000E+20
 30
-1.000000000000000E+20
  9
$PLIMMIN
 10
0.0
 20
0.0
  9
$PLIMMAX
 10
12.0
 20
9.0
  9
$UNITMODE
 70
     0
  9
$VISRETAIN
 70
     0
  9
$PLINEGEN
 70
     0
  9
$PSLTSCALE
 70
     1
  9
$TREEDEPTH
 70
  3020
  9
$CMLSTYLE
  2
STANDARD
  9
$CMLJUST
 70
     0
  9
$CMLSCALE
 40
20.0
  9
$PROXYGRAPHICS
 70
     1
  9
$MEASUREMENT
 70
     0
  9
$CELWEIGHT
370
    -1
  9
$ENDCAPS
280
     0
  9
$JOINSTYLE
280
     0
  9
$LWDISPLAY
290
     0
  9
$INSUNITS
 70
     0
  9
$HYPERLINKBASE
  1

  9
$STYLESHEET
  1

  9
$XEDIT
290
     1
  9
$CEPSNTYPE
380
     0
  9
$PSTYLEMODE
290
     1
  9
$FINGERPRINTGUID
  2
{4236F6A7-BFD0-4BDC-9978-1EC91C78AFC1}
  9
$VERSIONGUID
  2
{689ADFE7-A6DC-427B-99A2-540F66CE0489}
  9
$EXTNAMES
290
     1
  9
$PSVPSCALE
 40
0.0
  9
$OLESTARTUP
290
     0
  9
$SORTENTS
280
   127
  9
$INDEXCTL
280
     0
  9
$HIDETEXT
280
     0
  9
$XCLIPFRAME
280
     2
  9
$HALOGAP
280
     0
  9
$OBSCOLOR
 70
   257
  9
$OBSLTYPE
280
     0
  9
$INTERSECTIONDISPLAY
280
     0
  9
$INTERSECTIONCOLOR
 70
   257
  9
$DIMASSOC
280
     1
  9
$PROJECTNAME
  1

  9
$CAMERADISPLAY
290
     0
  9
$LENSLENGTH
 40
50.0
  9
$CAMERAHEIGHT
 40
0.0
  9
$STEPSPERSEC
 40
2.0
  9
$STEPSIZE
 40
6.0
  9
$3DDWFPREC
 40
2.0
  9
$PSOLWIDTH
 40
0.25
  9
$PSOLHEIGHT
 40
4.0
  9
$LOFTANG1
 40
1.570796326794896
  9
$LOFTANG2
 40
1.570796326794896
  9
$LOFTMAG1
 40
0.0
  9
$LOFTMAG2
 40
0.0
  9
$LOFTPARAM
 70
     7
  9
$LOFTNORMALS
280
     1
  9
$LATITUDE
 40
37.795
  9
$LONGITUDE
 40
-122.394
  9
$NORTHDIRECTION
 40
0.0
  9
$TIMEZONE
 70
 -8000
  9
$LIGHTGLYPHDISPLAY
280
     1
  9
$TILEMODELIGHTSYNCH
280
     1
  9
$CMATERIAL
347
7ECC
  9
$SOLIDHIST
280
     0
  9
$SHOWHIST
280
     1
  9
$DWFFRAME
280
     2
  9
$DGNFRAME
280
     0
  9
$REALWORLDSCALE
290
     1
  9
$INTERFERECOLOR
 62
     1
  9
$INTERFEREOBJVS
345
7EEE
  9
$INTERFEREVPVS
346
7EEB
  9
$CSHADOW
280
     0
  9
$SHADOWPLANELOCATION
 40
0.0
  0
ENDSEC
  0
SECTION
  2
CLASSES
  0
CLASS
  1
ACDBDICTIONARYWDFLT
  2
AcDbDictionaryWithDefault
  3
ObjectDBX Classes
 90
        0
 91
        1
280
     0
281
     0
  0
CLASS
  1
DICTIONARYVAR
  2
AcDbDictionaryVar
  3
ObjectDBX Classes
 90
        0
 91
       10
280
     0
281
     0
  0
CLASS
  1
MATERIAL
  2
AcDbMaterial
  3
ObjectDBX Classes
 90
     1153
 91
        3
280
     0
281
     0
  0
CLASS
  1
VISUALSTYLE
  2
AcDbVisualStyle
  3
ObjectDBX Classes
 90
     4095
 91
       24
280
     0
281
     0
  0
CLASS
  1
TABLESTYLE
  2
AcDbTableStyle
  3
ObjectDBX Classes
 90
     4095
 91
        1
280
     0
281
     0
  0
CLASS
  1
SCALE
  2
AcDbScale
  3
ObjectDBX Classes
 90
     1153
 91
       17
280
     0
281
     0
  0
CLASS
  1
MLEADERSTYLE
  2
AcDbMLeaderStyle
  3
ACDB_MLEADERSTYLE_CLASS
 90
     4095
 91
        1
280
     0
281
     0
  0
CLASS
  1
ACDBSECTIONVIEWSTYLE
  2
AcDbSectionViewStyle
  3
ObjectDBX Classes
 90
     1025
 91
        1
280
     0
281
     0
  0
CLASS
  1
ACDBDETAILVIEWSTYLE
  2
AcDbDetailViewStyle
  3
ObjectDBX Classes
 90
     1025
 91
        1
280
     0
281
     0
  0
CLASS
  1
CELLSTYLEMAP
  2
AcDbCellStyleMap
  3
ObjectDBX Classes
 90
     1152
 91
        1
280
     0
281
     0
  0
ENDSEC
  0
SECTION
  2
TABLES
  0
TABLE
  2
VPORT
  5
8
330
0
100
AcDbSymbolTable
 70
     1
  0
VPORT
  5
7EC9
330
8
100
AcDbSymbolTableRecord
100
AcDbViewportTableRecord
  2
*Active
 70
     0
 10
0.0
 20
0.0
 11
1.0
 21
1.0
 12
1033.539585732552
 22
1602.850901348136
 13
0.0
 23
0.0
 14
10.0
 24
10.0
 15
10.0
 25
10.0
 16
0.0
 26
0.0
 36
1.0
 17
0.0
 27
0.0
 37
0.0
 40
2621.825673196056
 41
1.957107843137254
 42
50.0
 43
0.0
 44
0.0
 50
0.0
 51
0.0
 71
     0
 72
   100
 73
     1
 74
     0
 75
     0
 76
     0
 77
     0
 78
     0
281
     0
 65
     1
110
0.0
120
0.0
130
0.0
111
1.0
121
0.0
131
0.0
112
0.0
122
1.0
132
0.0
 79
     0
146
0.0
348
7EEA
 60
     3
 61
     5
292
     1
282
     1
141
0.0
142
0.0
 63
   250
421
  3355443
1001
ACAD_NAV_VCDISPLAY
1070
     3
  0
ENDTAB
  0
TABLE
  2
LTYPE
  5
5
330
0
100
AcDbSymbolTable
 70
     2
  0
LTYPE
  5
13
330
5
100
AcDbSymbolTableRecord
100
AcDbLinetypeTableRecord
  2
BYBLOCK
 70
     0
  3

 72
    65
 73
     0
 40
0.0
  0
LTYPE
  5
14
330
5
100
AcDbSymbolTableRecord
100
AcDbLinetypeTableRecord
  2
BYLAYER
 70
     0
  3

 72
    65
 73
     0
 40
0.0
  0
LTYPE
  5
15
330
5
100
AcDbSymbolTableRecord
100
AcDbLinetypeTableRecord
  2
CONTINUOUS
 70
     0
  3
Solid line
 72
    65
 73
     0
 40
0.0
  0
LTYPE
  5
1F
330
5
100
AcDbSymbolTableRecord
100
AcDbLinetypeTableRecord
  2
CENTER
 70
     0
  3
____ _ ____ _ ____ _ ____ _ ____ _ ____ _ ____ 
 72
    65
 73
     4
 40
2.0
 49
1.25
 74
     0
 49
-0.25
 74
     0
 49
0.25
 74
     0
 49
-0.25
 74
     0
  0
ENDTAB
  0
TABLE
  2
LAYER
  5
2
102
{ACAD_XDICTIONARY
360
7F1C
102
}
330
0
100
AcDbSymbolTable
 70
     6
  0
LAYER
  5
F
102
{ACAD_XDICTIONARY
360
7F7C
102
}
330
2
100
AcDbSymbolTableRecord
100
AcDbLayerTableRecord
  2
0
 70
     0
 62
     7
  6
CONTINUOUS
370
    -3
390
7DEE
347
7EDC
348
0
  0
LAYER
  5
31
102
{ACAD_XDICTIONARY
360
7F7E
102
}
330
2
100
AcDbSymbolTableRecord
100
AcDbLayerTableRecord
  2
3
 70
     0
 62
     2
  6
CONTINUOUS
370
    -3
390
7DEE
347
7EDC
348
0
  0
LAYER
  5
76D0
102
{ACAD_XDICTIONARY
360
7F80
102
}
330
2
100
AcDbSymbolTableRecord
100
AcDbLayerTableRecord
  2
2
 70
     0
 62
     3
  6
CENTER
370
    -3
390
7DEE
347
7EDC
348
0
  0
LAYER
  5
76D1
102
{ACAD_XDICTIONARY
360
7F82
102
}
330
2
100
AcDbSymbolTableRecord
100
AcDbLayerTableRecord
  2
1
 70
     0
 62
     4
  6
CONTINUOUS
370
    -3
390
7DEE
347
7EDC
348
0
  0
LAYER
  5
76D2
102
{ACAD_XDICTIONARY
360
7F84
102
}
330
2
100
AcDbSymbolTableRecord
100
AcDbLayerTableRecord
  2
4
 70
     0
 62
     7
  6
CONTINUOUS
370
    -3
390
7DEE
347
7EDC
348
0
  0
LAYER
  5
7B5D
330
2
100
AcDbSymbolTableRecord
100
AcDbLayerTableRecord
  2
DEFPOINTS
 70
     0
 62
     7
  6
CONTINUOUS
290
     0
370
    -3
390
7DEE
347
7EDC
348
0
  0
ENDTAB
  0
TABLE
  2
STYLE
  5
3
330
0
100
AcDbSymbolTable
 70
     1
  0
STYLE
  5
10
330
3
100
AcDbSymbolTableRecord
100
AcDbTextStyleTableRecord
  2
STANDARD
 70
     0
 40
0.0
 41
1.0
 50
0.0
 71
     0
 42
180.0
  3
simplex.shx
  4
extfont.shx
  0
ENDTAB
  0
TABLE
  2
VIEW
  5
6
330
0
100
AcDbSymbolTable
 70
     0
  0
ENDTAB
  0
TABLE
  2
UCS
  5
7
330
0
100
AcDbSymbolTable
 70
     0
  0
ENDTAB
  0
TABLE
  2
APPID
  5
9
330
0
100
AcDbSymbolTable
 70
     4
  0
APPID
  5
11
330
9
100
AcDbSymbolTableRecord
100
AcDbRegAppTableRecord
  2
ACAD
 70
     0
  0
APPID
  5
7F1B
330
9
100
AcDbSymbolTableRecord
100
AcDbRegAppTableRecord
  2
ACAD_NAV_VCDISPLAY
 70
     0
  0
APPID
  5
7F9F
330
9
100
AcDbSymbolTableRecord
100
AcDbRegAppTableRecord
  2
AcadAnnoMonitorAlertIconDisabled
 70
     0
  0
APPID
  5
7FA0
330
9
100
AcDbSymbolTableRecord
100
AcDbRegAppTableRecord
  2
ACAD_EXEMPT_FROM_CAD_STANDARDS
 70
     0
  0
ENDTAB
  0
TABLE
  2
DIMSTYLE
  5
A
330
0
100
AcDbSymbolTable
 70
     1
100
AcDbDimStyleTable
 71
     0
  0
DIMSTYLE
105
1D
102
{ACAD_REACTORS
330
7B7B
330
7B87
330
7BF9
330
7C06
330
7C12
330
7C1F
330
7C2C
330
7C56
330
7C63
330
7C71
330
7C98
330
7D95
330
7DA2
330
7DAF
330
7DBC
330
7DCB
330
7DD8
330
7DE5
102
}
330
A
100
AcDbSymbolTableRecord
100
AcDbDimStyleTableRecord
  2
IGA
 70
     0
 40
2.0
 41
2.0
 42
0.5
 43
10.0
 44
1.0
 47
1.0
 48
1.0
 73
     0
 74
     0
 77
     1
 78
     8
140
3.0
141
0.0
143
0.03937
146
10.0
147
1.0
173
     1
271
     1
272
     0
279
     2
284
     8
340
10
341
7B4F
343
7B4F
344
7B4F
  0
ENDTAB
  0
TABLE
  2
BLOCK_RECORD
  5
1
330
0
100
AcDbSymbolTable
 70
    20
  0
BLOCK_RECORD
  5
19
102
{ACAD_XDICTIONARY
360
7E1C
102
}
330
1
100
AcDbSymbolTableRecord
100
AcDbBlockTableRecord
  2
*MODEL_SPACE
340
7DF1
 70
     0
280
     1
281
     0
  0
BLOCK_RECORD
  5
16
102
{ACAD_XDICTIONARY
360
7E1A
102
}
330
1
100
AcDbSymbolTableRecord
100
AcDbBlockTableRecord
  2
*PAPER_SPACE
340
7DF2
 70
     0
280
     1
281
     0
  0
BLOCK_RECORD
  5
7B4F
330
1
100
AcDbSymbolTableRecord
100
AcDbBlockTableRecord
  2
_OPEN
340
0
102
{BLKREFS
331
7F75
331
7FAE
331
7FAF
331
7E25
331
7E26
331
7E2D
331
7E2E
331
7E36
331
7E37
331
7E3F
331
7E40
331
7E47
331
7E48
331
7E50
331
7E51
331
7E59
331
7E5A
331
7E62
331
7E63
331
7E74
331
7E75
331
7E7C
331
7E7D
331
7F2A
331
7F2B
331
7F33
331
7F34
331
7F3C
331
7F3D
331
7F45
331
7F46
331
7F61
331
7F62
331
7F6C
102
}
 70
     0
280
     1
281
     0
  0
BLOCK_RECORD
  5
7B6F
330
1
100
AcDbSymbolTableRecord
100
AcDbBlockTableRecord
  2
*D1
340
0
 70
     0
280
     1
281
     0
  0
BLOCK_RECORD
  5
7B7C
330
1
100
AcDbSymbolTableRecord
100
AcDbBlockTableRecord
  2
*D2
340
0
 70
     0
280
     1
281
     0
  0
BLOCK_RECORD
  5
7BED
330
1
100
AcDbSymbolTableRecord
100
AcDbBlockTableRecord
  2
*D3
340
0
 70
     0
280
     1
281
     0
  0
BLOCK_RECORD
  5
7BFA
330
1
100
AcDbSymbolTableRecord
100
AcDbBlockTableRecord
  2
*D4
340
0
 70
     0
280
     1
281
     0
  0
BLOCK_RECORD
  5
7C07
330
1
100
AcDbSymbolTableRecord
100
AcDbBlockTableRecord
  2
*D5
340
0
 70
     0
280
     1
281
     0
  0
BLOCK_RECORD
  5
7C13
330
1
100
AcDbSymbolTableRecord
100
AcDbBlockTableRecord
  2
*D6
340
0
 70
     0
280
     1
281
     0
  0
BLOCK_RECORD
  5
7C20
330
1
100
AcDbSymbolTableRecord
100
AcDbBlockTableRecord
  2
*D7
340
0
 70
     0
280
     1
281
     0
  0
BLOCK_RECORD
  5
7C4A
330
1
100
AcDbSymbolTableRecord
100
AcDbBlockTableRecord
  2
*D8
340
0
 70
     0
280
     1
281
     0
  0
BLOCK_RECORD
  5
7C57
330
1
100
AcDbSymbolTableRecord
100
AcDbBlockTableRecord
  2
*D9
340
0
 70
     0
280
     1
281
     0
  0
BLOCK_RECORD
  5
7C64
330
1
100
AcDbSymbolTableRecord
100
AcDbBlockTableRecord
  2
*D10
340
0
 70
     0
280
     1
281
     0
  0
BLOCK_RECORD
  5
7C8C
330
1
100
AcDbSymbolTableRecord
100
AcDbBlockTableRecord
  2
*D11
340
0
 70
     0
280
     1
281
     0
  0
BLOCK_RECORD
  5
7D21
330
1
100
AcDbSymbolTableRecord
100
AcDbBlockTableRecord
  2
_DOT
340
0
102
{BLKREFS
331
7F74
331
7F6B
102
}
 70
     0
280
     1
281
     0
  0
BLOCK_RECORD
  5
7D89
330
1
100
AcDbSymbolTableRecord
100
AcDbBlockTableRecord
  2
*D13
340
0
 70
     0
280
     1
281
     0
  0
BLOCK_RECORD
  5
7D96
330
1
100
AcDbSymbolTableRecord
100
AcDbBlockTableRecord
  2
*D14
340
0
 70
     0
280
     1
281
     0
  0
BLOCK_RECORD
  5
7DA3
330
1
100
AcDbSymbolTableRecord
100
AcDbBlockTableRecord
  2
*D15
340
0
 70
     0
280
     1
281
     0
  0
BLOCK_RECORD
  5
7DB0
330
1
100
AcDbSymbolTableRecord
100
AcDbBlockTableRecord
  2
*D16
340
0
 70
     0
280
     1
281
     0
  0
BLOCK_RECORD
  5
7DBD
330
1
100
AcDbSymbolTableRecord
100
AcDbBlockTableRecord
  2
*D17
340
0
 70
     0
280
     1
281
     0
  0
BLOCK_RECORD
  5
7DCC
330
1
100
AcDbSymbolTableRecord
100
AcDbBlockTableRecord
  2
*D18
340
0
 70
     0
280
     1
281
     0
  0
BLOCK_RECORD
  5
7DD9
330
1
100
AcDbSymbolTableRecord
100
AcDbBlockTableRecord
  2
*D19
340
0
 70
     0
280
     1
281
     0
  0
ENDTAB
  0
ENDSEC
  0
SECTION
  2
BLOCKS
  0
BLOCK
  5
1A
330
19
100
AcDbEntity
  8
0
100
AcDbBlockBegin
  2
*MODEL_SPACE
 70
     0
 10
0.0
 20
0.0
 30
0.0
  3
*MODEL_SPACE
  1

  0
ENDBLK
  5
1B
330
19
100
AcDbEntity
  8
0
100
AcDbBlockEnd
  0
BLOCK
  5
17
330
16
100
AcDbEntity
 67
     1
  8
0
100
AcDbBlockBegin
  2
*PAPER_SPACE
 70
     0
 10
0.0
 20
0.0
 30
0.0
  3
*PAPER_SPACE
  1

  0
ENDBLK
  5
18
330
16
100
AcDbEntity
 67
     1
  8
0
100
AcDbBlockEnd
  0
BLOCK
  5
7B50
330
7B4F
100
AcDbEntity
  8
0
100
AcDbBlockBegin
  2
_OPEN
 70
     0
 10
0.0
 20
0.0
 30
0.0
  3
_OPEN
  1

  0
LINE
  5
7B51
330
7B4F
100
AcDbEntity
  8
0
  6
ByBlock
 62
     0
100
AcDbLine
 10
-1.0
 20
0.166667
 30
0.0
 11
0.0
 21
0.0
 31
0.0
  0
LINE
  5
7B52
330
7B4F
100
AcDbEntity
  8
0
  6
ByBlock
 62
     0
100
AcDbLine
 10
0.0
 20
0.0
 30
0.0
 11
-1.0
 21
-0.166667
 31
0.0
  0
LINE
  5
7B53
330
7B4F
100
AcDbEntity
  8
0
  6
ByBlock
 62
     0
100
AcDbLine
 10
0.0
 20
0.0
 30
0.0
 11
-1.0
 21
0.0
 31
0.0
  0
ENDBLK
  5
7B54
330
7B4F
100
AcDbEntity
  8
0
100
AcDbBlockEnd
  0
BLOCK
  5
7D54
330
7B6F
100
AcDbEntity
  8
0
100
AcDbBlockBegin
  2
*D1
 70
     1
 10
0.0
 20
0.0
 30
0.0
  3
*D1
  1

  0
LINE
  5
7E22
330
7B6F
100
AcDbEntity
  8
3
  6
Continuous
 62
     0
440
 16777216
100
AcDbLine
 10
761.1268363055142
 20
1324.678870119567
 30
0.0
 11
1120.327109633201
 21
1324.678870119567
 31
0.0
  0
LINE
  5
7E23
330
7B6F
100
AcDbEntity
  8
3
  6
Continuous
 62
     0
440
 16777216
100
AcDbLine
 10
750.1268363055141
 20
1124.678870119567
 30
0.0
 11
1120.327109633201
 21
1124.678870119567
 31
0.0
  0
LINE
  5
7E24
330
7B6F
100
AcDbEntity
  8
3
  6
Continuous
 62
     0
440
 16777216
100
AcDbLine
 10
1110.327109633201
 20
1304.678870119567
 30
0.0
 11
1110.327109633201
 21
1144.678870119567
 31
0.0
  0
INSERT
  5
7E25
330
7B6F
100
AcDbEntity
  8
3
  6
Continuous
 62
     0
440
 16777216
100
AcDbBlockReference
  2
_OPEN
 10
1110.327109633201
 20
1324.678870119567
 30
0.0
 41
20.0
 42
20.0
 43
20.0
 50
90.0
  0
INSERT
  5
7E26
330
7B6F
100
AcDbEntity
  8
3
  6
Continuous
 62
     0
440
 16777216
100
AcDbBlockReference
  2
_OPEN
 10
1110.327109633201
 20
1124.678870119567
 30
0.0
 41
20.0
 42
20.0
 43
20.0
 50
270.0
  0
MTEXT
  5
7E27
330
7B6F
100
AcDbEntity
  8
3
  6
Continuous
 62
     0
440
 16777216
100
AcDbMText
 10
1085.327109633201
 20
1229.637330119567
 30
0.0
 40
30.0
 41
0.0
 46
0.0
 71
     5
 72
     5
  1
\A1;200
 11
0.0000000000000001
 21
1.0
 31
0.0
 73
     1
 44
1.0
  0
POINT
  5
7E28
330
7B6F
100
AcDbEntity
  8
DEFPOINTS
  6
Continuous
 62
     0
440
 16777216
100
AcDbPoint
 10
756.1268363055141
 20
1324.678870119567
 30
0.0
  0
POINT
  5
7E29
330
7B6F
100
AcDbEntity
  8
DEFPOINTS
  6
Continuous
 62
     0
440
 16777216
100
AcDbPoint
 10
745.1268363055142
 20
1124.678870119567
 30
0.0
  0
POINT
  5
7E2A
330
7B6F
100
AcDbEntity
  8
DEFPOINTS
  6
Continuous
 62
     0
440
 16777216
100
AcDbPoint
 10
1110.327109633201
 20
1124.678870119567
 30
0.0
  0
ENDBLK
  5
7D5E
330
7B6F
100
AcDbEntity
  8
0
100
AcDbBlockEnd
  0
BLOCK
  5
7D5F
330
7B7C
100
AcDbEntity
  8
0
100
AcDbBlockBegin
  2
*D2
 70
     1
 10
0.0
 20
0.0
 30
0.0
  3
*D2
  1

  0
LINE
  5
7E2B
330
7B7C
100
AcDbEntity
  8
3
  6
Continuous
 62
     0
440
 16777216
100
AcDbLine
 10
1010.126836305514
 20
809.6788701195672
 30
0.0
 11
1120.327109633201
 21
809.6788701195672
 31
0.0
  0
LINE
  5
7E2C
330
7B7C
100
AcDbEntity
  8
3
  6
Continuous
 62
     0
440
 16777216
100
AcDbLine
 10
1110.327109633201
 20
1104.678870119567
 30
0.0
 11
1110.327109633201
 21
829.6788701195673
 31
0.0
  0
INSERT
  5
7E2D
330
7B7C
100
AcDbEntity
  8
3
  6
Continuous
 62
     0
440
 16777216
100
AcDbBlockReference
  2
_OPEN
 10
1110.327109633201
 20
1124.678870119567
 30
0.0
 41
20.0
 42
20.0
 43
20.0
 50
90.0
  0
INSERT
  5
7E2E
330
7B7C
100
AcDbEntity
  8
3
  6
Continuous
 62
     0
440
 16777216
100
AcDbBlockReference
  2
_OPEN
 10
1110.327109633201
 20
809.6788701195672
 30
0.0
 41
20.0
 42
20.0
 43
20.0
 50
270.0
  0
MTEXT
  5
7E2F
330
7B7C
100
AcDbEntity
  8
3
  6
Continuous
 62
     0
440
 16777216
100
AcDbMText
 10
1085.3271096332
 20
967.1788701195675
 30
0.0
 40
30.0
 41
0.0
 46
0.0
 71
     5
 72
     5
  1
\A1;315
 11
0.0000000000000001
 21
1.0
 31
0.0
 73
     1
 44
1.0
  0
POINT
  5
7E30
330
7B7C
100
AcDbEntity
  8
DEFPOINTS
  6
Continuous
 62
     0
440
 16777216
100
AcDbPoint
 10
745.1268363055142
 20
1124.678870119567
 30
0.0
  0
POINT
  5
7E31
330
7B7C
100
AcDbEntity
  8
DEFPOINTS
  6
Continuous
 62
     0
440
 16777216
100
AcDbPoint
 10
1005.126836305514
 20
809.6788701195672
 30
0.0
  0
POINT
  5
7E32
330
7B7C
100
AcDbEntity
  8
DEFPOINTS
  6
Continuous
 62
     0
440
 16777216
100
AcDbPoint
 10
1110.327109633201
 20
809.6788701195672
 30
0.0
  0
ENDBLK
  5
7D68
330
7B7C
100
AcDbEntity
  8
0
100
AcDbBlockEnd
  0
BLOCK
  5
7BEE
330
7BED
100
AcDbEntity
  8
0
100
AcDbBlockBegin
  2
*D3
 70
     1
 10
0.0
 20
0.0
 30
0.0
  3
*D3
  1

  0
LINE
  5
7E33
330
7BED
100
AcDbEntity
  8
3
  6
Continuous
 62
     0
440
 16777216
100
AcDbLine
 10
485.1268363055141
 20
1329.678870119567
 30
0.0
 11
485.1268363055141
 21
1374.973886119567
 31
0.0
  0
LINE
  5
7E34
330
7BED
100
AcDbEntity
  8
3
  6
Continuous
 62
     0
440
 16777216
100
AcDbLine
 10
735.1268363055141
 20
1329.678870119567
 30
0.0
 11
735.1268363055141
 21
1374.973886119567
 31
0.0
  0
LINE
  5
7E35
330
7BED
100
AcDbEntity
  8
3
  6
Continuous
 62
     0
440
 16777216
100
AcDbLine
 10
505.1268363055141
 20
1364.973886119567
 30
0.0
 11
715.1268363055142
 21
1364.973886119567
 31
0.0
  0
INSERT
  5
7E36
330
7BED
100
AcDbEntity
  8
3
  6
Continuous
 62
     0
440
 16777216
100
AcDbBlockReference
  2
_OPEN
 10
485.1268363055141
 20
1364.973886119567
 30
0.0
 41
20.0
 42
20.0
 43
20.0
 50
180.0
  0
INSERT
  5
7E37
330
7BED
100
AcDbEntity
  8
3
  6
Continuous
 62
     0
440
 16777216
100
AcDbBlockReference
  2
_OPEN
 10
735.1268363055141
 20
1364.973886119567
 30
0.0
 41
20.0
 42
20.0
 43
20.0
  0
MTEXT
  5
7E38
330
7BED
100
AcDbEntity
  8
3
  6
Continuous
 62
     0
440
 16777216
100
AcDbMText
 10
615.0466993055142
 20
1389.973886119567
 30
0.0
 40
30.0
 41
0.0
 46
0.0
 71
     5
 72
     5
  1
\A1;250
 73
     1
 44
1.0
  0
POINT
  5
7E39
330
7BED
100
AcDbEntity
  8
DEFPOINTS
  6
Continuous
 62
     0
440
 16777216
100
AcDbPoint
 10
485.1268363055141
 20
1324.678870119567
 30
0.0
  0
POINT
  5
7E3A
330
7BED
100
AcDbEntity
  8
DEFPOINTS
  6
Continuous
 62
     0
440
 16777216
100
AcDbPoint
 10
735.1268363055141
 20
1324.678870119567
 30
0.0
  0
POINT
  5
7E3B
330
7BED
100
AcDbEntity
  8
DEFPOINTS
  6
Continuous
 62
     0
440
 16777216
100
AcDbPoint
 10
735.1268363055141
 20
1364.973886119567
 30
0.0
  0
ENDBLK
  5
7BF8
330
7BED
100
AcDbEntity
  8
0
100
AcDbBlockEnd
  0
BLOCK
  5
7BFB
330
7BFA
100
AcDbEntity
  8
0
100
AcDbBlockBegin
  2
*D4
 70
     1
 10
0.0
 20
0.0
 30
0.0
  3
*D4
  1

  0
LINE
  5
7E3C
330
7BFA
100
AcDbEntity
  8
3
  6
Continuous
 62
     0
440
 16777216
100
AcDbLine
 10
299.1374523055142
 20
1129.678870119567
 30
0.0
 11
299.1374523055142
 21
1443.524021119567
 31
0.0
  0
LINE
  5
7E3D
330
7BFA
100
AcDbEntity
  8
3
  6
Continuous
 62
     0
440
 16777216
100
AcDbLine
 10
485.1268363055141
 20
1329.678870119567
 30
0.0
 11
485.1268363055141
 21
1443.524021119567
 31
0.0
  0
LINE
  5
7E3E
330
7BFA
100
AcDbEntity
  8
3
  6
Continuous
 62
     0
440
 16777216
100
AcDbLine
 10
319.1374523055142
 20
1433.524021119567
 30
0.0
 11
465.1268363055142
 21
1433.524021119567
 31
0.0
  0
INSERT
  5
7E3F
330
7BFA
100
AcDbEntity
  8
3
  6
Continuous
 62
     0
440
 16777216
100
AcDbBlockReference
  2
_OPEN
 10
299.1374523055142
 20
1433.524021119567
 30
0.0
 41
20.0
 42
20.0
 43
20.0
 50
180.0
  0
INSERT
  5
7E40
330
7BFA
100
AcDbEntity
  8
3
  6
Continuous
 62
     0
440
 16777216
100
AcDbBlockReference
  2
_OPEN
 10
485.1268363055141
 20
1433.524021119567
 30
0.0
 41
20.0
 42
20.0
 43
20.0
  0
MTEXT
  5
7E41
330
7BFA
100
AcDbEntity
  8
3
  6
Continuous
 62
     0
440
 16777216
100
AcDbMText
 10
379.7635883055141
 20
1458.524021119567
 30
0.0
 40
30.0
 41
0.0
 46
0.0
 71
     5
 72
     5
  1
\A1;186
 73
     1
 44
1.0
  0
POINT
  5
7E42
330
7BFA
100
AcDbEntity
  8
DEFPOINTS
  6
Continuous
 62
     0
440
 16777216
100
AcDbPoint
 10
299.1374523055142
 20
1124.678870119567
 30
0.0
  0
POINT
  5
7E43
330
7BFA
100
AcDbEntity
  8
DEFPOINTS
  6
Continuous
 62
     0
440
 16777216
100
AcDbPoint
 10
485.1268363055141
 20
1324.678870119567
 30
0.0
  0
POINT
  5
7E44
330
7BFA
100
AcDbEntity
  8
DEFPOINTS
  6
Continuous
 62
     0
440
 16777216
100
AcDbPoint
 10
485.1268363055141
 20
1433.524021119567
 30
0.0
  0
ENDBLK
  5
7C05
330
7BFA
100
AcDbEntity
  8
0
100
AcDbBlockEnd
  0
BLOCK
  5
7C08
330
7C07
100
AcDbEntity
  8
0
100
AcDbBlockBegin
  2
*D5
 70
     1
 10
0.0
 20
0.0
 30
0.0
  3
*D5
  1

  0
LINE
  5
7E45
330
7C07
100
AcDbEntity
  8
3
  6
Continuous
 62
     0
440
 16777216
100
AcDbLine
 10
745.1268363055142
 20
1309.678870119567
 30
0.0
 11
745.1268363055142
 21
1443.524021119567
 31
0.0
  0
LINE
  5
7E46
330
7C07
100
AcDbEntity
  8
3
  6
Continuous
 62
     0
440
 16777216
100
AcDbLine
 10
505.1268363055141
 20
1433.524021119567
 30
0.0
 11
725.1268363055141
 21
1433.524021119567
 31
0.0
  0
INSERT
  5
7E47
330
7C07
100
AcDbEntity
  8
3
  6
Continuous
 62
     0
440
 16777216
100
AcDbBlockReference
  2
_OPEN
 10
485.1268363055141
 20
1433.524021119567
 30
0.0
 41
20.0
 42
20.0
 43
20.0
 50
180.0
  0
INSERT
  5
7E48
330
7C07
100
AcDbEntity
  8
3
  6
Continuous
 62
     0
440
 16777216
100
AcDbBlockReference
  2
_OPEN
 10
745.1268363055142
 20
1433.524021119567
 30
0.0
 41
20.0
 42
20.0
 43
20.0
  0
MTEXT
  5
7E49
330
7C07
100
AcDbEntity
  8
3
  6
Continuous
 62
     0
440
 16777216
100
AcDbMText
 10
615.1268363055142
 20
1458.524021119567
 30
0.0
 40
30.0
 41
0.0
 46
0.0
 71
     5
 72
     5
  1
\A1;260
 73
     1
 44
1.0
  0
POINT
  5
7E4A
330
7C07
100
AcDbEntity
  8
DEFPOINTS
  6
Continuous
 62
     0
440
 16777216
100
AcDbPoint
 10
485.1268363055141
 20
1324.678870119567
 30
0.0
  0
POINT
  5
7E4B
330
7C07
100
AcDbEntity
  8
DEFPOINTS
  6
Continuous
 62
     0
440
 16777216
100
AcDbPoint
 10
745.1268363055142
 20
1304.678870119567
 30
0.0
  0
POINT
  5
7E4C
330
7C07
100
AcDbEntity
  8
DEFPOINTS
  6
Continuous
 62
     0
440
 16777216
100
AcDbPoint
 10
745.1268363055142
 20
1433.524021119567
 30
0.0
  0
ENDBLK
  5
7C11
330
7C07
100
AcDbEntity
  8
0
100
AcDbBlockEnd
  0
BLOCK
  5
7C14
330
7C13
100
AcDbEntity
  8
0
100
AcDbBlockBegin
  2
*D6
 70
     1
 10
0.0
 20
0.0
 30
0.0
  3
*D6
  1

  0
LINE
  5
7E4D
330
7C13
100
AcDbEntity
  8
3
  6
Continuous
 62
     0
440
 16777216
100
AcDbLine
 10
265.1268363055142
 20
1725.50079792769
 30
0.0
 11
265.1268363055142
 21
1614.30967092769
 31
0.0
  0
LINE
  5
7E4E
330
7C13
100
AcDbEntity
  8
3
  6
Continuous
 62
     0
440
 16777216
100
AcDbLine
 10
1035.126836305514
 20
1725.50079792769
 30
0.0
 11
1035.126836305514
 21
1614.30967092769
 31
0.0
  0
LINE
  5
7E4F
330
7C13
100
AcDbEntity
  8
3
  6
Continuous
 62
     0
440
 16777216
100
AcDbLine
 10
285.1268363055142
 20
1624.30967092769
 30
0.0
 11
1015.126836305514
 21
1624.30967092769
 31
0.0
  0
INSERT
  5
7E50
330
7C13
100
AcDbEntity
  8
3
  6
Continuous
 62
     0
440
 16777216
100
AcDbBlockReference
  2
_OPEN
 10
265.1268363055142
 20
1624.30967092769
 30
0.0
 41
20.0
 42
20.0
 43
20.0
 50
180.0
  0
INSERT
  5
7E51
330
7C13
100
AcDbEntity
  8
3
  6
Continuous
 62
     0
440
 16777216
100
AcDbBlockReference
  2
_OPEN
 10
1035.126836305514
 20
1624.30967092769
 30
0.0
 41
20.0
 42
20.0
 43
20.0
  0
MTEXT
  5
7E52
330
7C13
100
AcDbEntity
  8
3
  6
Continuous
 62
     0
440
 16777216
100
AcDbMText
 10
640.0187903055141
 20
1649.30967092769
 30
0.0
 40
30.0
 41
0.0
 46
0.0
 71
     5
 72
     5
  1
\A1;770
 73
     1
 44
1.0
  0
POINT
  5
7E53
330
7C13
100
AcDbEntity
  8
DEFPOINTS
  6
Continuous
 62
     0
440
 16777216
100
AcDbPoint
 10
265.1268363055142
 20
1730.50079792769
 30
0.0
  0
POINT
  5
7E54
330
7C13
100
AcDbEntity
  8
DEFPOINTS
  6
Continuous
 62
     0
440
 16777216
100
AcDbPoint
 10
1035.126836305514
 20
1730.50079792769
 30
0.0
  0
POINT
  5
7E55
330
7C13
100
AcDbEntity
  8
DEFPOINTS
  6
Continuous
 62
     0
440
 16777216
100
AcDbPoint
 10
1035.126836305514
 20
1624.30967092769
 30
0.0
  0
ENDBLK
  5
7C1E
330
7C13
100
AcDbEntity
  8
0
100
AcDbBlockEnd
  0
BLOCK
  5
7C21
330
7C20
100
AcDbEntity
  8
0
100
AcDbBlockBegin
  2
*D7
 70
     1
 10
0.0
 20
0.0
 30
0.0
  3
*D7
  1

  0
LINE
  5
7E56
330
7C20
100
AcDbEntity
  8
3
  6
Continuous
 62
     0
440
 16777216
100
AcDbLine
 10
1040.126836305514
 20
2210.500797927691
 30
0.0
 11
1141.118805305514
 21
2210.500797927691
 31
0.0
  0
LINE
  5
7E57
330
7C20
100
AcDbEntity
  8
3
  6
Continuous
 62
     0
440
 16777216
100
AcDbLine
 10
1040.126836305514
 20
1730.50079792769
 30
0.0
 11
1141.118805305514
 21
1730.50079792769
 31
0.0
  0
LINE
  5
7E58
330
7C20
100
AcDbEntity
  8
3
  6
Continuous
 62
     0
440
 16777216
100
AcDbLine
 10
1131.118805305514
 20
2190.500797927691
 30
0.0
 11
1131.118805305514
 21
1750.50079792769
 31
0.0
  0
INSERT
  5
7E59
330
7C20
100
AcDbEntity
  8
3
  6
Continuous
 62
     0
440
 16777216
100
AcDbBlockReference
  2
_OPEN
 10
1131.118805305514
 20
2210.500797927691
 30
0.0
 41
20.0
 42
20.0
 43
20.0
 50
90.0
  0
INSERT
  5
7E5A
330
7C20
100
AcDbEntity
  8
3
  6
Continuous
 62
     0
440
 16777216
100
AcDbBlockReference
  2
_OPEN
 10
1131.118805305514
 20
1730.50079792769
 30
0.0
 41
20.0
 42
20.0
 43
20.0
 50
270.0
  0
MTEXT
  5
7E5B
330
7C20
100
AcDbEntity
  8
3
  6
Continuous
 62
     0
440
 16777216
100
AcDbMText
 10
1106.118805305514
 20
1971.446805927691
 30
0.0
 40
30.0
 41
0.0
 46
0.0
 71
     5
 72
     5
  1
\A1;480
 11
0.0000000000000001
 21
1.0
 31
0.0
 73
     1
 44
1.0
  0
POINT
  5
7E5C
330
7C20
100
AcDbEntity
  8
DEFPOINTS
  6
Continuous
 62
     0
440
 16777216
100
AcDbPoint
 10
1035.126836305514
 20
2210.500797927691
 30
0.0
  0
POINT
  5
7E5D
330
7C20
100
AcDbEntity
  8
DEFPOINTS
  6
Continuous
 62
     0
440
 16777216
100
AcDbPoint
 10
1035.126836305514
 20
1730.50079792769
 30
0.0
  0
POINT
  5
7E5E
330
7C20
100
AcDbEntity
  8
DEFPOINTS
  6
Continuous
 62
     0
440
 16777216
100
AcDbPoint
 10
1131.118805305514
 20
1730.50079792769
 30
0.0
  0
ENDBLK
  5
7C2B
330
7C20
100
AcDbEntity
  8
0
100
AcDbBlockEnd
  0
BLOCK
  5
7C4B
330
7C4A
100
AcDbEntity
  8
0
100
AcDbBlockBegin
  2
*D8
 70
     1
 10
0.0
 20
0.0
 30
0.0
  3
*D8
  1

  0
LINE
  5
7E5F
330
7C4A
100
AcDbEntity
  8
3
  6
Continuous
 62
     0
440
 16777216
100
AcDbLine
 10
1523.454285812667
 20
1329.678870119567
 30
0.0
 11
1523.454285812667
 21
1380.565813119567
 31
0.0
  0
LINE
  5
7E60
330
7C4A
100
AcDbEntity
  8
3
  6
Continuous
 62
     0
440
 16777216
100
AcDbLine
 10
1703.054285812667
 20
1329.678870119567
 30
0.0
 11
1703.054285812667
 21
1380.565813119567
 31
0.0
  0
LINE
  5
7E61
330
7C4A
100
AcDbEntity
  8
3
  6
Continuous
 62
     0
440
 16777216
100
AcDbLine
 10
1543.454285812667
 20
1370.565813119567
 30
0.0
 11
1683.054285812667
 21
1370.565813119567
 31
0.0
  0
INSERT
  5
7E62
330
7C4A
100
AcDbEntity
  8
3
  6
Continuous
 62
     0
440
 16777216
100
AcDbBlockReference
  2
_OPEN
 10
1523.454285812667
 20
1370.565813119567
 30
0.0
 41
20.0
 42
20.0
 43
20.0
 50
180.0
  0
INSERT
  5
7E63
330
7C4A
100
AcDbEntity
  8
3
  6
Continuous
 62
     0
440
 16777216
100
AcDbBlockReference
  2
_OPEN
 10
1703.054285812667
 20
1370.565813119567
 30
0.0
 41
20.0
 42
20.0
 43
20.0
  0
MTEXT
  5
7E64
330
7C4A
100
AcDbEntity
  8
3
  6
Continuous
 62
     0
440
 16777216
100
AcDbMText
 10
1602.153309812667
 20
1395.565813119567
 30
0.0
 40
30.0
 41
0.0
 46
0.0
 71
     5
 72
     5
  1
\A1;180
 73
     1
 44
1.0
  0
POINT
  5
7E65
330
7C4A
100
AcDbEntity
  8
DEFPOINTS
  6
Continuous
 62
     0
440
 16777216
100
AcDbPoint
 10
1523.454285812667
 20
1324.678870119567
 30
0.0
  0
POINT
  5
7E66
330
7C4A
100
AcDbEntity
  8
DEFPOINTS
  6
Continuous
 62
     0
440
 16777216
100
AcDbPoint
 10
1703.054285812667
 20
1324.678870119567
 30
0.0
  0
POINT
  5
7E67
330
7C4A
100
AcDbEntity
  8
DEFPOINTS
  6
Continuous
 62
     0
440
 16777216
100
AcDbPoint
 10
1703.054285812667
 20
1370.565813119567
 30
0.0
  0
ENDBLK
  5
7C55
330
7C4A
100
AcDbEntity
  8
0
100
AcDbBlockEnd
  0
BLOCK
  5
7CD9
330
7C57
100
AcDbEntity
  8
0
100
AcDbBlockBegin
  2
*D9
 70
     1
 10
0.0
 20
0.0
 30
0.0
  3
*D9
  1

  0
LINE
  5
7FAB
330
7C57
100
AcDbEntity
  8
3
  6
Continuous
 62
     0
440
 16777216
370
    -2
100
AcDbLine
 10
1273.254285812667
 20
1254.678870119567
 30
0.0
 11
1273.254285812667
 21
1446.373949119567
 31
0.0
  0
LINE
  5
7FAC
330
7C57
100
AcDbEntity
  8
3
  6
Continuous
 62
     0
440
 16777216
370
    -2
100
AcDbLine
 10
1613.254285812667
 20
1425.287804119567
 30
0.0
 11
1613.254285812667
 21
1446.373949119567
 31
0.0
  0
LINE
  5
7FAD
330
7C57
100
AcDbEntity
  8
3
  6
Continuous
 62
     0
440
 16777216
370
    -2
100
AcDbLine
 10
1293.254285812667
 20
1436.373949119567
 30
0.0
 11
1593.254285812667
 21
1436.373949119567
 31
0.0
  0
INSERT
  5
7FAE
330
7C57
100
AcDbEntity
  8
3
  6
Continuous
 62
     0
440
 16777216
370
    -2
100
AcDbBlockReference
  2
_OPEN
 10
1273.254285812667
 20
1436.373949119567
 30
0.0
 41
20.0
 42
20.0
 43
20.0
 50
180.0
  0
INSERT
  5
7FAF
330
7C57
100
AcDbEntity
  8
3
  6
Continuous
 62
     0
440
 16777216
370
    -2
100
AcDbBlockReference
  2
_OPEN
 10
1613.254285812667
 20
1436.373949119567
 30
0.0
 41
20.0
 42
20.0
 43
20.0
  0
MTEXT
  5
7FB0
330
7C57
100
AcDbEntity
  8
3
  6
Continuous
 62
     0
440
 16777216
100
AcDbMText
 10
1452.427684812667
 20
1469.23109197671
 30
0.0
 40
30.0
 41
0.0
 46
0.0
 71
     5
 72
     1
  1
\A1;(340)
 73
     1
 44
1.0
  0
POINT
  5
7FB1
330
7C57
100
AcDbEntity
  8
DEFPOINTS
  6
Continuous
 62
     0
440
 16777216
100
AcDbPoint
 10
1273.254285812667
 20
1249.678870119567
 30
0.0
  0
POINT
  5
7FB2
330
7C57
100
AcDbEntity
  8
DEFPOINTS
  6
Continuous
 62
     0
440
 16777216
100
AcDbPoint
 10
1613.254285812667
 20
1420.287804119567
 30
0.0
  0
POINT
  5
7FB3
330
7C57
100
AcDbEntity
  8
DEFPOINTS
  6
Continuous
 62
     0
440
 16777216
100
AcDbPoint
 10
1613.254285812667
 20
1436.373949119567
 30
0.0
  0
ENDBLK
  5
7CE3
330
7C57
100
AcDbEntity
  8
0
100
AcDbBlockEnd
  0
BLOCK
  5
7CA9
330
7C64
100
AcDbEntity
  8
0
100
AcDbBlockBegin
  2
*D10
 70
     1
 10
0.0
 20
0.0
 30
0.0
  3
*D10
  1

  0
LINE
  5
7E71
330
7C64
100
AcDbEntity
  8
3
  6
Continuous
 62
     0
440
 16777216
100
AcDbLine
 10
1712.254285812667
 20
1276.678870119567
 30
0.0
 11
1712.254285812667
 21
1446.373949119567
 31
0.0
  0
LINE
  5
7E72
330
7C64
100
AcDbEntity
  8
3
  6
Continuous
 62
     0
440
 16777216
100
AcDbLine
 10
1633.254285812667
 20
1436.373949119567
 30
0.0
 11
1692.254285812667
 21
1436.373949119567
 31
0.0
  0
MTEXT
  5
7E73
330
7C64
100
AcDbEntity
  8
3
  6
Continuous
 62
     0
440
 16777216
100
AcDbMText
 10
1662.043557812667
 20
1461.373949119567
 30
0.0
 40
30.0
 41
0.0
 46
0.0
 71
     5
 72
     5
  1
\A1;99
 73
     1
 44
1.0
  0
INSERT
  5
7E74
330
7C64
100
AcDbEntity
  8
3
  6
Continuous
 62
     0
440
 16777216
100
AcDbBlockReference
  2
_OPEN
 10
1613.254285812667
 20
1436.373949119567
 30
0.0
 41
20.0
 42
20.0
 43
20.0
 50
180.0
  0
INSERT
  5
7E75
330
7C64
100
AcDbEntity
  8
3
  6
Continuous
 62
     0
440
 16777216
100
AcDbBlockReference
  2
_OPEN
 10
1712.254285812667
 20
1436.373949119567
 30
0.0
 41
20.0
 42
20.0
 43
20.0
  0
POINT
  5
7E76
330
7C64
100
AcDbEntity
  8
DEFPOINTS
  6
Continuous
 62
     0
440
 16777216
100
AcDbPoint
 10
1613.254285812667
 20
1420.287804119567
 30
0.0
  0
POINT
  5
7E77
330
7C64
100
AcDbEntity
  8
DEFPOINTS
  6
Continuous
 62
     0
440
 16777216
100
AcDbPoint
 10
1712.254285812667
 20
1271.678870119567
 30
0.0
  0
POINT
  5
7E78
330
7C64
100
AcDbEntity
  8
DEFPOINTS
  6
Continuous
 62
     0
440
 16777216
100
AcDbPoint
 10
1712.254285812667
 20
1436.373949119567
 30
0.0
  0
ENDBLK
  5
7CB2
330
7C64
100
AcDbEntity
  8
0
100
AcDbBlockEnd
  0
BLOCK
  5
7CE4
330
7C8C
100
AcDbEntity
  8
0
100
AcDbBlockBegin
  2
*D11
 70
     1
 10
0.0
 20
0.0
 30
0.0
  3
*D11
  1

  0
LINE
  5
7E79
330
7C8C
100
AcDbEntity
  8
3
  6
Continuous
 62
     0
440
 16777216
100
AcDbLine
 10
1717.254285812667
 20
1249.678870119567
 30
0.0
 11
1791.381136812667
 21
1249.678870119567
 31
0.0
  0
LINE
  5
7E7A
330
7C8C
100
AcDbEntity
  8
3
  6
Continuous
 62
     0
440
 16777216
100
AcDbLine
 10
1717.254285812667
 20
999.6788701195674
 30
0.0
 11
1791.381136812667
 21
999.6788701195674
 31
0.0
  0
LINE
  5
7E7B
330
7C8C
100
AcDbEntity
  8
3
  6
Continuous
 62
     0
440
 16777216
100
AcDbLine
 10
1781.381136812667
 20
1229.678870119567
 30
0.0
 11
1781.381136812667
 21
1019.678870119567
 31
0.0
  0
INSERT
  5
7E7C
330
7C8C
100
AcDbEntity
  8
3
  6
Continuous
 62
     0
440
 16777216
100
AcDbBlockReference
  2
_OPEN
 10
1781.381136812667
 20
1249.678870119567
 30
0.0
 41
20.0
 42
20.0
 43
20.0
 50
90.0
  0
INSERT
  5
7E7D
330
7C8C
100
AcDbEntity
  8
3
  6
Continuous
 62
     0
440
 16777216
100
AcDbBlockReference
  2
_OPEN
 10
1781.381136812667
 20
999.6788701195674
 30
0.0
 41
20.0
 42
20.0
 43
20.0
 50
270.0
  0
MTEXT
  5
7E7E
330
7C8C
100
AcDbEntity
  8
3
  6
Continuous
 62
     0
440
 16777216
100
AcDbMText
 10
1756.381136812667
 20
1111.291195119567
 30
0.0
 40
30.0
 41
0.0
 46
0.0
 71
     5
 72
     5
  1
\A1;φ250
 11
0.0000000000000001
 21
1.0
 31
0.0
 73
     1
 44
1.0
  0
POINT
  5
7E7F
330
7C8C
100
AcDbEntity
  8
DEFPOINTS
  6
Continuous
 62
     0
440
 16777216
100
AcDbPoint
 10
1712.254285812667
 20
1249.678870119567
 30
0.0
  0
POINT
  5
7E80
330
7C8C
100
AcDbEntity
  8
DEFPOINTS
  6
Continuous
 62
     0
440
 16777216
100
AcDbPoint
 10
1712.254285812667
 20
999.6788701195674
 30
0.0
  0
POINT
  5
7E81
330
7C8C
100
AcDbEntity
  8
DEFPOINTS
  6
Continuous
 62
     0
440
 16777216
100
AcDbPoint
 10
1781.381136812667
 20
999.6788701195674
 30
0.0
  0
ENDBLK
  5
7CEE
330
7C8C
100
AcDbEntity
  8
0
100
AcDbBlockEnd
  0
BLOCK
  5
7D22
330
7D21
100
AcDbEntity
  8
0
100
AcDbBlockBegin
  2
_DOT
 70
     0
 10
0.0
 20
0.0
 30
0.0
  3
_DOT
  1

  0
LINE
  5
7D42
330
7D21
100
AcDbEntity
  8
0
  6
ByBlock
 62
     0
100
AcDbLine
 10
0.0
 20
0.0
 30
0.0
 11
-1.0
 21
-0.0000000000000284
 31
0.0
  0
LWPOLYLINE
  5
7D43
330
7D21
100
AcDbEntity
  8
0
  6
ByBlock
 62
     0
100
AcDbPolyline
 90
        2
 70
     1
 43
0.1666666666666666
 10
-0.0833333333333286
 20
-0.0000000000000284
 42
1.0
 10
0.0833333333333286
 20
-0.0000000000000284
 42
1.0
  0
ENDBLK
  5
7D28
330
7D21
100
AcDbEntity
  8
0
100
AcDbBlockEnd
  0
BLOCK
  5
7D8A
330
7D89
100
AcDbEntity
  8
0
100
AcDbBlockBegin
  2
*D13
 70
     1
 10
0.0
 20
0.0
 30
0.0
  3
*D13
  1

  0
LINE
  5
7F27
330
7D89
100
AcDbEntity
  8
3
 62
     0
440
 16777216
370
    -2
100
AcDbLine
 10
265.1268363055142
 20
674.6788701195672
 30
0.0
 11
265.1268363055142
 21
595.5337292218501
 31
0.0
  0
LINE
  5
7F28
330
7D89
100
AcDbEntity
  8
3
 62
     0
440
 16777216
370
    -2
100
AcDbLine
 10
485.1268363055141
 20
704.6788701195671
 30
0.0
 11
485.1268363055141
 21
595.5337292218501
 31
0.0
  0
LINE
  5
7F29
330
7D89
100
AcDbEntity
  8
3
 62
     0
440
 16777216
370
    -2
100
AcDbLine
 10
285.1268363055142
 20
605.53372922185
 30
0.0
 11
465.1268363055142
 21
605.53372922185
 31
0.0
  0
INSERT
  5
7F2A
330
7D89
100
AcDbEntity
  8
3
 62
     0
440
 16777216
370
    -2
100
AcDbBlockReference
  2
_OPEN
 10
265.1268363055142
 20
605.53372922185
 30
0.0
 41
20.0
 42
20.0
 43
20.0
 50
180.0
  0
INSERT
  5
7F2B
330
7D89
100
AcDbEntity
  8
3
 62
     0
440
 16777216
370
    -2
100
AcDbBlockReference
  2
_OPEN
 10
485.1268363055141
 20
605.53372922185
 30
0.0
 41
20.0
 42
20.0
 43
20.0
  0
MTEXT
  5
7F2C
330
7D89
100
AcDbEntity
  8
3
 62
     0
440
 16777216
100
AcDbMText
 10
375.1268363055142
 20
630.53372922185
 30
0.0
 40
30.0
 41
0.0
 46
0.0
 71
     5
 72
     1
  1
\A1;220
 73
     1
 44
1.0
  0
POINT
  5
7F2D
330
7D89
100
AcDbEntity
  8
DEFPOINTS
 62
     0
440
 16777216
100
AcDbPoint
 10
265.1268363055142
 20
679.6788701195672
 30
0.0
  0
POINT
  5
7F2E
330
7D89
100
AcDbEntity
  8
DEFPOINTS
 62
     0
440
 16777216
100
AcDbPoint
 10
485.1268363055141
 20
709.6788701195671
 30
0.0
  0
POINT
  5
7F2F
330
7D89
100
AcDbEntity
  8
DEFPOINTS
 62
     0
440
 16777216
100
AcDbPoint
 10
485.1268363055141
 20
605.53372922185
 30
0.0
  0
ENDBLK
  5
7D94
330
7D89
100
AcDbEntity
  8
0
100
AcDbBlockEnd
  0
BLOCK
  5
7D97
330
7D96
100
AcDbEntity
  8
0
100
AcDbBlockBegin
  2
*D14
 70
     1
 10
0.0
 20
0.0
 30
0.0
  3
*D14
  1

  0
LINE
  5
7F30
330
7D96
100
AcDbEntity
  8
3
 62
     0
440
 16777216
370
    -2
100
AcDbLine
 10
485.1268363055141
 20
704.6788701195671
 30
0.0
 11
485.1268363055141
 21
595.5337292218501
 31
0.0
  0
LINE
  5
7F31
330
7D96
100
AcDbEntity
  8
3
 62
     0
440
 16777216
370
    -2
100
AcDbLine
 10
1035.126836305514
 20
674.6788701195672
 30
0.0
 11
1035.126836305514
 21
595.5337292218501
 31
0.0
  0
LINE
  5
7F32
330
7D96
100
AcDbEntity
  8
3
 62
     0
440
 16777216
370
    -2
100
AcDbLine
 10
505.1268363055141
 20
605.53372922185
 30
0.0
 11
1015.126836305514
 21
605.53372922185
 31
0.0
  0
INSERT
  5
7F33
330
7D96
100
AcDbEntity
  8
3
 62
     0
440
 16777216
370
    -2
100
AcDbBlockReference
  2
_OPEN
 10
485.1268363055141
 20
605.53372922185
 30
0.0
 41
20.0
 42
20.0
 43
20.0
 50
180.0
  0
INSERT
  5
7F34
330
7D96
100
AcDbEntity
  8
3
 62
     0
440
 16777216
370
    -2
100
AcDbBlockReference
  2
_OPEN
 10
1035.126836305514
 20
605.53372922185
 30
0.0
 41
20.0
 42
20.0
 43
20.0
  0
MTEXT
  5
7F35
330
7D96
100
AcDbEntity
  8
3
 62
     0
440
 16777216
100
AcDbMText
 10
760.1268363055141
 20
630.53372922185
 30
0.0
 40
30.0
 41
0.0
 46
0.0
 71
     5
 72
     1
  1
\A1;550
 73
     1
 44
1.0
  0
POINT
  5
7F36
330
7D96
100
AcDbEntity
  8
DEFPOINTS
 62
     0
440
 16777216
100
AcDbPoint
 10
485.1268363055141
 20
709.6788701195671
 30
0.0
  0
POINT
  5
7F37
330
7D96
100
AcDbEntity
  8
DEFPOINTS
 62
     0
440
 16777216
100
AcDbPoint
 10
1035.126836305514
 20
679.6788701195672
 30
0.0
  0
POINT
  5
7F38
330
7D96
100
AcDbEntity
  8
DEFPOINTS
 62
     0
440
 16777216
100
AcDbPoint
 10
1035.126836305514
 20
605.53372922185
 30
0.0
  0
ENDBLK
  5
7DA1
330
7D96
100
AcDbEntity
  8
0
100
AcDbBlockEnd
  0
BLOCK
  5
7DA4
330
7DA3
100
AcDbEntity
  8
0
100
AcDbBlockBegin
  2
*D15
 70
     1
 10
0.0
 20
0.0
 30
0.0
  3
*D15
  1

  0
LINE
  5
7F39
330
7DA3
100
AcDbEntity
  8
3
 62
     0
440
 16777216
370
    -2
100
AcDbLine
 10
1275.254285812667
 20
674.6788701195672
 30
0.0
 11
1275.254285812667
 21
595.5337292218501
 31
0.0
  0
LINE
  5
7F3A
330
7DA3
100
AcDbEntity
  8
3
 62
     0
440
 16777216
370
    -2
100
AcDbLine
 10
1613.254285812667
 20
674.6788701195672
 30
0.0
 11
1613.254285812667
 21
595.5337292218501
 31
0.0
  0
LINE
  5
7F3B
330
7DA3
100
AcDbEntity
  8
3
 62
     0
440
 16777216
370
    -2
100
AcDbLine
 10
1295.254285812667
 20
605.53372922185
 30
0.0
 11
1593.254285812667
 21
605.53372922185
 31
0.0
  0
INSERT
  5
7F3C
330
7DA3
100
AcDbEntity
  8
3
 62
     0
440
 16777216
370
    -2
100
AcDbBlockReference
  2
_OPEN
 10
1275.254285812667
 20
605.53372922185
 30
0.0
 41
20.0
 42
20.0
 43
20.0
 50
180.0
  0
INSERT
  5
7F3D
330
7DA3
100
AcDbEntity
  8
3
 62
     0
440
 16777216
370
    -2
100
AcDbBlockReference
  2
_OPEN
 10
1613.254285812667
 20
605.53372922185
 30
0.0
 41
20.0
 42
20.0
 43
20.0
  0
MTEXT
  5
7F3E
330
7DA3
100
AcDbEntity
  8
3
 62
     0
440
 16777216
100
AcDbMText
 10
1444.254285812667
 20
630.53372922185
 30
0.0
 40
30.0
 41
0.0
 46
0.0
 71
     5
 72
     1
  1
\A1;338
 73
     1
 44
1.0
  0
POINT
  5
7F3F
330
7DA3
100
AcDbEntity
  8
DEFPOINTS
 62
     0
440
 16777216
100
AcDbPoint
 10
1275.254285812667
 20
679.6788701195672
 30
0.0
  0
POINT
  5
7F40
330
7DA3
100
AcDbEntity
  8
DEFPOINTS
 62
     0
440
 16777216
100
AcDbPoint
 10
1613.254285812667
 20
679.6788701195672
 30
0.0
  0
POINT
  5
7F41
330
7DA3
100
AcDbEntity
  8
DEFPOINTS
 62
     0
440
 16777216
100
AcDbPoint
 10
1613.254285812667
 20
605.53372922185
 30
0.0
  0
ENDBLK
  5
7DAE
330
7DA3
100
AcDbEntity
  8
0
100
AcDbBlockEnd
  0
BLOCK
  5
7DB1
330
7DB0
100
AcDbEntity
  8
0
100
AcDbBlockBegin
  2
*D16
 70
     1
 10
0.0
 20
0.0
 30
0.0
  3
*D16
  1

  0
LINE
  5
7F42
330
7DB0
100
AcDbEntity
  8
3
 62
     0
440
 16777216
370
    -2
100
AcDbLine
 10
1613.254285812667
 20
674.6788701195672
 30
0.0
 11
1613.254285812667
 21
595.5337292218501
 31
0.0
  0
LINE
  5
7F43
330
7DB0
100
AcDbEntity
  8
3
 62
     0
440
 16777216
370
    -2
100
AcDbLine
 10
1755.254285812667
 20
674.6788701195672
 30
0.0
 11
1755.254285812667
 21
595.5337292218501
 31
0.0
  0
LINE
  5
7F44
330
7DB0
100
AcDbEntity
  8
3
 62
     0
440
 16777216
370
    -2
100
AcDbLine
 10
1633.254285812667
 20
605.53372922185
 30
0.0
 11
1735.254285812667
 21
605.53372922185
 31
0.0
  0
INSERT
  5
7F45
330
7DB0
100
AcDbEntity
  8
3
 62
     0
440
 16777216
370
    -2
100
AcDbBlockReference
  2
_OPEN
 10
1613.254285812667
 20
605.53372922185
 30
0.0
 41
20.0
 42
20.0
 43
20.0
 50
180.0
  0
INSERT
  5
7F46
330
7DB0
100
AcDbEntity
  8
3
 62
     0
440
 16777216
370
    -2
100
AcDbBlockReference
  2
_OPEN
 10
1755.254285812667
 20
605.53372922185
 30
0.0
 41
20.0
 42
20.0
 43
20.0
  0
MTEXT
  5
7F47
330
7DB0
100
AcDbEntity
  8
3
 62
     0
440
 16777216
100
AcDbMText
 10
1684.254285812667
 20
630.53372922185
 30
0.0
 40
30.0
 41
0.0
 46
0.0
 71
     5
 72
     1
  1
\A1;142
 73
     1
 44
1.0
  0
POINT
  5
7F48
330
7DB0
100
AcDbEntity
  8
DEFPOINTS
 62
     0
440
 16777216
100
AcDbPoint
 10
1613.254285812667
 20
679.6788701195672
 30
0.0
  0
POINT
  5
7F49
330
7DB0
100
AcDbEntity
  8
DEFPOINTS
 62
     0
440
 16777216
100
AcDbPoint
 10
1755.254285812667
 20
679.6788701195672
 30
0.0
  0
POINT
  5
7F4A
330
7DB0
100
AcDbEntity
  8
DEFPOINTS
 62
     0
440
 16777216
100
AcDbPoint
 10
1755.254285812667
 20
605.53372922185
 30
0.0
  0
ENDBLK
  5
7DBB
330
7DB0
100
AcDbEntity
  8
0
100
AcDbBlockEnd
  0
BLOCK
  5
7DBE
330
7DBD
100
AcDbEntity
  8
0
100
AcDbBlockBegin
  2
*D17
 70
     1
 10
0.0
 20
0.0
 30
0.0
  3
*D17
  1

  0
LINE
  5
7F70
330
7DBD
100
AcDbEntity
  8
3
 62
     0
440
 16777216
370
    -2
100
AcDbLine
 10
1040.126836305514
 20
739.6788701195672
 30
0.0
 11
1121.387086709939
 21
739.6788701195672
 31
0.0
  0
LINE
  5
7F71
330
7DBD
100
AcDbEntity
  8
3
 62
     0
440
 16777216
370
    -2
100
AcDbLine
 10
1040.126836305514
 20
679.6788701195672
 30
0.0
 11
1121.387086709939
 21
679.6788701195672
 31
0.0
  0
LINE
  5
7F72
330
7DBD
100
AcDbEntity
  8
3
 62
     0
440
 16777216
370
    -2
100
AcDbLine
 10
1111.387086709939
 20
719.6788701195672
 30
0.0
 11
1111.387086709939
 21
699.6788701195672
 31
0.0
  0
LINE
  5
7F73
330
7DBD
100
AcDbEntity
  8
3
 62
     0
440
 16777216
370
    -2
100
AcDbLine
 10
1111.387086709939
 20
679.6788701195672
 30
0.0
 11
1111.387086709939
 21
591.1074415481386
 31
0.0
  0
INSERT
  5
7F74
330
7DBD
100
AcDbEntity
  8
3
 62
     0
440
 16777216
370
    -2
100
AcDbBlockReference
  2
_DOT
 10
1111.387086709939
 20
739.6788701195672
 30
0.0
 41
20.0
 42
20.0
 43
20.0
 50
90.0
  0
INSERT
  5
7F75
330
7DBD
100
AcDbEntity
  8
3
 62
     0
440
 16777216
370
    -2
100
AcDbBlockReference
  2
_OPEN
 10
1111.387086709939
 20
679.6788701195672
 30
0.0
 41
20.0
 42
20.0
 43
20.0
 50
90.0
  0
LINE
  5
7F76
330
7DBD
100
AcDbEntity
  8
3
 62
     0
440
 16777216
370
    -2
100
AcDbLine
 10
1111.387086709939
 20
659.6788701195672
 30
0.0
 11
1111.387086709939
 21
639.6788701195672
 31
0.0
  0
LINE
  5
7F77
330
7DBD
100
AcDbEntity
  8
3
 62
     0
440
 16777216
370
    -2
100
AcDbLine
 10
1111.387086709939
 20
679.6788701195672
 30
0.0
 11
1111.387086709939
 21
699.6788701195672
 31
0.0
  0
MTEXT
  5
7F78
330
7DBD
100
AcDbEntity
  8
3
 62
     0
440
 16777216
100
AcDbMText
 10
1086.387086709939
 20
625.393155833853
 30
0.0
 40
30.0
 41
0.0
 46
0.0
 71
     5
 72
     1
  1
\A1;60
 11
0.0000000000000001
 21
1.0
 31
0.0
 73
     1
 44
1.0
  0
POINT
  5
7F79
330
7DBD
100
AcDbEntity
  8
DEFPOINTS
 62
     0
440
 16777216
100
AcDbPoint
 10
1035.126836305514
 20
739.6788701195672
 30
0.0
  0
POINT
  5
7F7A
330
7DBD
100
AcDbEntity
  8
DEFPOINTS
 62
     0
440
 16777216
100
AcDbPoint
 10
1035.126836305514
 20
679.6788701195672
 30
0.0
  0
POINT
  5
7F7B
330
7DBD
100
AcDbEntity
  8
DEFPOINTS
 62
     0
440
 16777216
100
AcDbPoint
 10
1111.387086709939
 20
679.6788701195672
 30
0.0
  0
ENDBLK
  5
7DCA
330
7DBD
100
AcDbEntity
  8
0
100
AcDbBlockEnd
  0
BLOCK
  5
7DCD
330
7DCC
100
AcDbEntity
  8
0
100
AcDbBlockBegin
  2
*D18
 70
     1
 10
0.0
 20
0.0
 30
0.0
  3
*D18
  1

  0
LINE
  5
7F67
330
7DCC
100
AcDbEntity
  8
3
 62
     0
440
 16777216
370
    -2
100
AcDbLine
 10
1040.126836305514
 20
739.6788701195672
 30
0.0
 11
1121.387086709939
 21
739.6788701195672
 31
0.0
  0
LINE
  5
7F68
330
7DCC
100
AcDbEntity
  8
3
 62
     0
440
 16777216
370
    -2
100
AcDbLine
 10
1010.126836305514
 20
809.6788701195672
 30
0.0
 11
1121.387086709939
 21
809.6788701195672
 31
0.0
  0
LINE
  5
7F69
330
7DCC
100
AcDbEntity
  8
3
 62
     0
440
 16777216
370
    -2
100
AcDbLine
 10
1111.387086709939
 20
759.6788701195672
 30
0.0
 11
1111.387086709939
 21
789.6788701195672
 31
0.0
  0
MTEXT
  5
7F6A
330
7DCC
100
AcDbEntity
  8
3
 62
     0
440
 16777216
100
AcDbMText
 10
1156.650359557241
 20
774.6788701195673
 30
0.0
 40
30.0
 41
0.0
 46
0.0
 71
     5
 72
     1
  1
\A1;(70)
 11
0.0000000000000001
 21
1.0
 31
0.0
 73
     1
 44
1.0
  0
INSERT
  5
7F6B
330
7DCC
100
AcDbEntity
  8
3
 62
     0
440
 16777216
370
    -2
100
AcDbBlockReference
  2
_DOT
 10
1111.387086709939
 20
739.6788701195672
 30
0.0
 41
20.0
 42
20.0
 43
20.0
 50
270.0
  0
INSERT
  5
7F6C
330
7DCC
100
AcDbEntity
  8
3
 62
     0
440
 16777216
370
    -2
100
AcDbBlockReference
  2
_OPEN
 10
1111.387086709939
 20
809.6788701195672
 30
0.0
 41
20.0
 42
20.0
 43
20.0
 50
90.0
  0
POINT
  5
7F6D
330
7DCC
100
AcDbEntity
  8
DEFPOINTS
 62
     0
440
 16777216
100
AcDbPoint
 10
1035.126836305514
 20
739.6788701195672
 30
0.0
  0
POINT
  5
7F6E
330
7DCC
100
AcDbEntity
  8
DEFPOINTS
 62
     0
440
 16777216
100
AcDbPoint
 10
1005.126836305514
 20
809.6788701195672
 30
0.0
  0
POINT
  5
7F6F
330
7DCC
100
AcDbEntity
  8
DEFPOINTS
 62
     0
440
 16777216
100
AcDbPoint
 10
1111.387086709939
 20
809.6788701195672
 30
0.0
  0
ENDBLK
  5
7DD7
330
7DCC
100
AcDbEntity
  8
0
100
AcDbBlockEnd
  0
BLOCK
  5
7DDA
330
7DD9
100
AcDbEntity
  8
0
100
AcDbBlockBegin
  2
*D19
 70
     1
 10
0.0
 20
0.0
 30
0.0
  3
*D19
  1

  0
LINE
  5
7F5E
330
7DD9
100
AcDbEntity
  8
3
 62
     0
440
 16777216
370
    -2
100
AcDbLine
 10
761.1268363055142
 20
1324.678870119567
 30
0.0
 11
1208.450699927454
 21
1324.678870119567
 31
0.0
  0
LINE
  5
7F5F
330
7DD9
100
AcDbEntity
  8
3
 62
     0
440
 16777216
370
    -2
100
AcDbLine
 10
1040.126836305514
 20
679.6788701195672
 30
0.0
 11
1208.450699927454
 21
679.6788701195672
 31
0.0
  0
LINE
  5
7F60
330
7DD9
100
AcDbEntity
  8
3
 62
     0
440
 16777216
370
    -2
100
AcDbLine
 10
1198.450699927454
 20
1304.678870119567
 30
0.0
 11
1198.450699927454
 21
699.6788701195672
 31
0.0
  0
INSERT
  5
7F61
330
7DD9
100
AcDbEntity
  8
3
 62
     0
440
 16777216
370
    -2
100
AcDbBlockReference
  2
_OPEN
 10
1198.450699927454
 20
1324.678870119567
 30
0.0
 41
20.0
 42
20.0
 43
20.0
 50
90.0
  0
INSERT
  5
7F62
330
7DD9
100
AcDbEntity
  8
3
 62
     0
440
 16777216
370
    -2
100
AcDbBlockReference
  2
_OPEN
 10
1198.450699927454
 20
679.6788701195672
 30
0.0
 41
20.0
 42
20.0
 43
20.0
 50
270.0
  0
MTEXT
  5
7F63
330
7DD9
100
AcDbEntity
  8
3
 62
     0
440
 16777216
100
AcDbMText
 10
1165.593557070311
 20
1002.178870119567
 30
0.0
 40
30.0
 41
0.0
 46
0.0
 71
     5
 72
     1
  1
\A1;(645)
 11
0.0000000000000001
 21
1.0
 31
0.0
 73
     1
 44
1.0
  0
POINT
  5
7F64
330
7DD9
100
AcDbEntity
  8
DEFPOINTS
 62
     0
440
 16777216
100
AcDbPoint
 10
756.1268363055141
 20
1324.678870119567
 30
0.0
  0
POINT
  5
7F65
330
7DD9
100
AcDbEntity
  8
DEFPOINTS
 62
     0
440
 16777216
100
AcDbPoint
 10
1035.126836305514
 20
679.6788701195672
 30
0.0
  0
POINT
  5
7F66
330
7DD9
100
AcDbEntity
  8
DEFPOINTS
 62
     0
440
 16777216
100
AcDbPoint
 10
1198.450699927454
 20
679.6788701195672
 30
0.0
  0
ENDBLK
  5
7DE4
330
7DD9
100
AcDbEntity
  8
0
100
AcDbBlockEnd
  0
ENDSEC
  0
SECTION
  2
ENTITIES
  0
LINE
  5
7A98
330
19
100
AcDbEntity
  8
1
  6
Continuous
100
AcDbLine
 10
286.2268363055142
 20
1978.50079792769
 30
0.0
 11
736.1268363055142
 21
1978.50079792769
 31
0.0
  0
LINE
  5
7A99
330
19
100
AcDbEntity
  8
1
  6
Continuous
100
AcDbLine
 10
484.1268363055141
 20
2158.500797927691
 30
0.0
 11
736.1268363055142
 21
1978.50079792769
 31
0.0
  0
LINE
  5
7A9A
330
19
100
AcDbEntity
  8
1
  6
Continuous
100
AcDbLine
 10
736.1268363055142
 20
2158.500797927691
 30
0.0
 11
484.1268363055141
 21
1978.50079792769
 31
0.0
  0
LINE
  5
7A9B
330
19
100
AcDbEntity
  8
1
  6
Continuous
100
AcDbLine
 10
632.1268363055142
 20
2167.500797927691
 30
0.0
 11
338.1268363055142
 21
2167.500797927691
 31
0.0
  0
LINE
  5
7A9C
330
19
100
AcDbEntity
  8
1
  6
Continuous
100
AcDbLine
 10
736.1268363055142
 20
2158.500797927691
 30
0.0
 11
286.2268363055142
 21
2158.500797927691
 31
0.0
  0
CIRCLE
  5
7A9D
330
19
100
AcDbEntity
  8
1
  6
Continuous
100
AcDbCircle
 10
485.1268363055141
 20
1124.678870119567
 30
0.0
 40
145.0
  0
LINE
  5
7A9E
330
19
100
AcDbEntity
  8
1
  6
Continuous
100
AcDbLine
 10
1035.126836305514
 20
739.6788701195672
 30
0.0
 11
265.1268363055142
 21
739.6788701195672
 31
0.0
  0
LINE
  5
7A9F
330
19
100
AcDbEntity
  8
1
  6
Continuous
100
AcDbLine
 10
1035.126836305514
 20
709.6788701195672
 30
0.0
 11
265.1268363055142
 21
709.6788701195672
 31
0.0
  0
LINE
  5
7AA0
330
19
100
AcDbEntity
  8
1
  6
Continuous
100
AcDbLine
 10
715.1268363055142
 20
1304.678870119567
 30
0.0
 11
505.1268363055141
 21
1304.678870119567
 31
0.0
  0
ARC
  5
7AA1
330
19
100
AcDbEntity
  8
1
  6
Continuous
100
AcDbCircle
 10
505.1268363055141
 20
1144.678870119567
 30
0.0
 40
240.9
100
AcDbArc
 50
265.4
 51
355.1
  0
LINE
  5
7AA2
330
19
100
AcDbEntity
  8
1
  6
Continuous
100
AcDbLine
 10
464.1268363055141
 20
1324.678870119567
 30
0.0
 11
756.1268363055141
 21
1324.678870119567
 31
0.0
  0
LINE
  5
7AA3
330
19
100
AcDbEntity
  8
1
  6
Continuous
100
AcDbLine
 10
645.1268363055142
 20
1969.50079792769
 30
0.0
 11
325.1268363055142
 21
1969.50079792769
 31
0.0
  0
LINE
  5
7AA4
330
19
100
AcDbEntity
  8
1
  6
Continuous
100
AcDbLine
 10
325.1268363055142
 20
1091.378870119567
 30
0.0
 11
645.1268363055142
 21
1091.378870119567
 31
0.0
  0
LINE
  5
7AA5
330
19
100
AcDbEntity
  8
1
  6
Continuous
100
AcDbLine
 10
546.7268363055141
 20
1274.678870119567
 30
0.0
 11
645.1268363055142
 21
1190.778870119567
 31
0.0
  0
LINE
  5
7AA6
330
19
100
AcDbEntity
  8
1
  6
Continuous
100
AcDbLine
 10
645.1268363055142
 20
809.6788701195672
 30
0.0
 11
325.1268363055142
 21
809.6788701195672
 31
0.0
  0
LINE
  5
7AA7
330
19
100
AcDbEntity
  8
1
  6
Continuous
100
AcDbLine
 10
1005.126836305514
 20
809.6788701195672
 30
0.0
 11
295.1268363055142
 21
809.6788701195672
 31
0.0
  0
LINE
  5
7AA8
330
19
100
AcDbEntity
  8
1
  6
Continuous
100
AcDbLine
 10
871.2268363055141
 20
1004.678870119567
 30
0.0
 11
513.2268363055141
 21
1181.578870119567
 31
0.0
  0
LINE
  5
7AA9
330
19
100
AcDbEntity
  8
1
  6
Continuous
100
AcDbLine
 10
826.826836305514
 20
908.4788701195673
 30
0.0
 11
460.0268363055143
 21
1066.378870119567
 31
0.0
  0
LINE
  5
7AAA
330
19
100
AcDbEntity
  8
1
  6
Continuous
100
AcDbLine
 10
484.9268363055141
 20
1249.678870119567
 30
0.0
 11
940.1268363055141
 21
1049.678870119567
 31
0.0
  0
LINE
  5
7AAB
330
19
100
AcDbEntity
  8
1
  6
Continuous
100
AcDbLine
 10
1005.126836305514
 20
869.6788701195671
 30
0.0
 11
295.1268363055142
 21
869.6788701195671
 31
0.0
  0
LINE
  5
7AAC
330
19
100
AcDbEntity
  8
1
  6
Continuous
100
AcDbLine
 10
360.1268363055142
 20
1803.50079792769
 30
0.0
 11
940.1268363055141
 21
1803.50079792769
 31
0.0
  0
LINE
  5
7AAD
330
19
100
AcDbEntity
  8
1
  6
Continuous
100
AcDbLine
 10
360.1268363055142
 20
1728.50079792769
 30
0.0
 11
940.1268363055141
 21
1728.50079792769
 31
0.0
  0
LINE
  5
7AAE
330
19
100
AcDbEntity
  8
1
  6
Continuous
100
AcDbLine
 10
497.1268363055141
 20
1840.50079792769
 30
0.0
 11
645.1268363055142
 21
1840.50079792769
 31
0.0
  0
LINE
  5
7AAF
330
19
100
AcDbEntity
  8
1
  6
Continuous
100
AcDbLine
 10
497.1268363055141
 20
1810.50079792769
 30
0.0
 11
835.8268363055142
 21
1810.50079792769
 31
0.0
  0
ARC
  5
7AB0
330
19
100
AcDbEntity
  8
1
  6
Continuous
100
AcDbCircle
 10
502.1268363055141
 20
1107.678870119567
 30
0.0
 40
203.7
100
AcDbArc
 50
174.5
 51
265.4
  0
LINE
  5
7AB1
330
19
100
AcDbEntity
  8
1
  6
Continuous
100
AcDbLine
 10
325.1268363055142
 20
869.6788701195671
 30
0.0
 11
325.1268363055142
 21
1190.778870119567
 31
0.0
  0
LINE
  5
7AB2
330
19
100
AcDbEntity
  8
1
  6
Continuous
100
AcDbLine
 10
360.1268363055142
 20
869.6788701195671
 30
0.0
 11
360.1268363055142
 21
1179.678870119567
 31
0.0
  0
LINE
  5
7AB3
330
19
100
AcDbEntity
  8
1
  6
Continuous
100
AcDbLine
 10
265.1268363055142
 20
679.6788701195672
 30
0.0
 11
295.1268363055142
 21
679.6788701195672
 31
0.0
  0
LINE
  5
7AB4
330
19
100
AcDbEntity
  8
1
  6
Continuous
100
AcDbLine
 10
265.1268363055142
 20
739.6788701195672
 30
0.0
 11
265.1268363055142
 21
679.6788701195672
 31
0.0
  0
LINE
  5
7AB5
330
19
100
AcDbEntity
  8
1
  6
Continuous
100
AcDbLine
 10
295.1268363055142
 20
869.6788701195671
 30
0.0
 11
295.1268363055142
 21
809.6788701195672
 31
0.0
  0
LINE
  5
7AB6
330
19
100
AcDbEntity
  8
1
  6
Continuous
100
AcDbLine
 10
295.1268363055142
 20
709.6788701195672
 30
0.0
 11
295.1268363055142
 21
679.6788701195672
 31
0.0
  0
CIRCLE
  5
7AB7
330
19
100
AcDbEntity
  8
1
  6
Continuous
100
AcDbCircle
 10
485.1268363055141
 20
1124.678870119567
 30
0.0
 40
125.0
  0
ARC
  5
7AB8
330
19
100
AcDbEntity
  8
1
  6
Continuous
100
AcDbCircle
 10
471.1268363055141
 20
1110.678870119567
 30
0.0
 40
172.6
100
AcDbArc
 50
88.7
 51
174.5
  0
LINE
  5
7AB9
330
19
100
AcDbEntity
  8
1
  6
Continuous
100
AcDbLine
 10
423.5268363055142
 20
1274.678870119567
 30
0.0
 11
325.1268363055142
 21
1190.778870119567
 31
0.0
  0
LINE
  5
7ABA
330
19
100
AcDbEntity
  8
1
  6
Continuous
100
AcDbLine
 10
360.1268363055142
 20
1179.678870119567
 30
0.0
 11
484.9268363055141
 21
1249.678870119567
 31
0.0
  0
LINE
  5
7ABB
330
19
100
AcDbEntity
  8
1
  6
Continuous
100
AcDbLine
 10
475.1268363055141
 20
1304.678870119567
 30
0.0
 11
475.1268363055141
 21
1283.278870119567
 31
0.0
  0
LINE
  5
7ABC
330
19
100
AcDbEntity
  8
2
  6
CENTER
100
AcDbLine
 10
1738.466609812667
 20
1124.678870119567
 30
0.0
 11
1238.353825812667
 21
1124.678870119567
 31
0.0
  0
LINE
  5
7ABD
330
19
100
AcDbEntity
  8
1
  6
Continuous
100
AcDbLine
 10
423.5268363055142
 20
1274.678870119567
 30
0.0
 11
546.7268363055141
 21
1274.678870119567
 31
0.0
  0
CIRCLE
  5
7ABE
330
19
100
AcDbEntity
  8
1
  6
Continuous
100
AcDbCircle
 10
485.1268363055141
 20
1124.678870119567
 30
0.0
 40
63.5
  0
LINE
  5
7ABF
330
19
100
AcDbEntity
  8
2
  6
CENTER
100
AcDbLine
 10
485.1268363055141
 20
2218.331703927691
 30
0.0
 11
485.1268363055141
 21
1718.98518292769
 31
0.0
  0
LINE
  5
7AC0
330
19
100
AcDbEntity
  8
1
  6
Continuous
100
AcDbLine
 10
485.1268363055141
 20
1324.678870119567
 30
0.0
 11
505.1268363055141
 21
1304.678870119567
 31
0.0
  0
LINE
  5
7AC1
330
19
100
AcDbEntity
  8
1
  6
Continuous
100
AcDbLine
 10
485.1268363055141
 20
1324.678870119567
 30
0.0
 11
485.1268363055141
 21
1304.678870119567
 31
0.0
  0
LINE
  5
7AC2
330
19
100
AcDbEntity
  8
1
  6
Continuous
100
AcDbLine
 10
485.1268363055141
 20
1304.678870119567
 30
0.0
 11
475.1268363055141
 21
1304.678870119567
 31
0.0
  0
LINE
  5
7AC3
330
19
100
AcDbEntity
  8
1
  6
Continuous
100
AcDbLine
 10
274.2268363055142
 20
2146.500797927691
 30
0.0
 11
274.2268363055142
 21
1990.50079792769
 31
0.0
  0
LINE
  5
7AC4
330
19
100
AcDbEntity
  8
1
  6
Continuous
100
AcDbLine
 10
484.1268363055141
 20
2158.500797927691
 30
0.0
 11
484.1268363055141
 21
1978.50079792769
 31
0.0
  0
LINE
  5
7AC5
330
19
100
AcDbEntity
  8
1
  6
Continuous
100
AcDbLine
 10
265.1268363055142
 20
2210.500797927691
 30
0.0
 11
265.1268363055142
 21
1730.50079792769
 31
0.0
  0
LINE
  5
7AC6
330
19
100
AcDbEntity
  8
1
  6
Continuous
100
AcDbLine
 10
265.1268363055142
 20
1810.50079792769
 30
0.0
 11
473.1268363055142
 21
1810.50079792769
 31
0.0
  0
LINE
  5
7AC7
330
19
100
AcDbEntity
  8
1
  6
Continuous
100
AcDbLine
 10
325.1268363055142
 20
1840.50079792769
 30
0.0
 11
473.1268363055142
 21
1840.50079792769
 31
0.0
  0
LINE
  5
7AC8
330
19
100
AcDbEntity
  8
1
  6
Continuous
100
AcDbLine
 10
295.1268363055142
 20
1730.50079792769
 30
0.0
 11
265.1268363055142
 21
1730.50079792769
 31
0.0
  0
ARC
  5
7AC9
330
19
100
AcDbEntity
  8
1
  6
Continuous
100
AcDbCircle
 10
286.2268363055142
 20
1990.50079792769
 30
0.0
 40
12.0
100
AcDbArc
 50
180.0
 51
270.0
  0
LINE
  5
7ACA
330
19
100
AcDbEntity
  8
1
  6
Continuous
100
AcDbLine
 10
338.1268363055142
 20
1978.50079792769
 30
0.0
 11
338.1268363055142
 21
1969.50079792769
 31
0.0
  0
LINE
  5
7ACB
330
19
100
AcDbEntity
  8
1
  6
Continuous
100
AcDbLine
 10
360.1268363055142
 20
1728.50079792769
 30
0.0
 11
360.1268363055142
 21
1803.50079792769
 31
0.0
  0
LINE
  5
7ACC
330
19
100
AcDbEntity
  8
1
  6
Continuous
100
AcDbLine
 10
325.1268363055142
 20
1840.50079792769
 30
0.0
 11
325.1268363055142
 21
1969.50079792769
 31
0.0
  0
LINE
  5
7ACD
330
19
100
AcDbEntity
  8
1
  6
Continuous
100
AcDbLine
 10
295.1268363055142
 20
1810.50079792769
 30
0.0
 11
295.1268363055142
 21
1730.50079792769
 31
0.0
  0
LINE
  5
7ACE
330
19
100
AcDbEntity
  8
1
  6
Continuous
100
AcDbLine
 10
421.6268363055141
 20
1748.50079792769
 30
0.0
 11
548.6268363055142
 21
1748.50079792769
 31
0.0
  0
LINE
  5
7ACF
330
19
100
AcDbEntity
  8
1
  6
Continuous
100
AcDbLine
 10
421.6268363055141
 20
1783.50079792769
 30
0.0
 11
548.6268363055142
 21
1783.50079792769
 31
0.0
  0
LINE
  5
7AD0
330
19
100
AcDbEntity
  8
1
  6
Continuous
100
AcDbLine
 10
473.1268363055142
 20
1783.50079792769
 30
0.0
 11
473.1268363055142
 21
1969.50079792769
 31
0.0
  0
LINE
  5
7AD1
330
19
100
AcDbEntity
  8
1
  6
Continuous
100
AcDbLine
 10
497.1268363055141
 20
1783.50079792769
 30
0.0
 11
497.1268363055141
 21
1969.50079792769
 31
0.0
  0
LINE
  5
7AD2
330
19
100
AcDbEntity
  8
1
  6
Continuous
100
AcDbLine
 10
421.6268363055141
 20
1748.50079792769
 30
0.0
 11
421.6268363055141
 21
1783.50079792769
 31
0.0
  0
LINE
  5
7AD3
330
19
100
AcDbEntity
  8
1
  6
Continuous
100
AcDbLine
 10
548.6268363055142
 20
1748.50079792769
 30
0.0
 11
548.6268363055142
 21
1783.50079792769
 31
0.0
  0
LINE
  5
7AD4
330
19
100
AcDbEntity
  8
1
  6
Continuous
100
AcDbLine
 10
295.1268363055142
 20
2210.500797927691
 30
0.0
 11
265.1268363055142
 21
2210.500797927691
 31
0.0
  0
ARC
  5
7AD5
330
19
100
AcDbEntity
  8
1
  6
Continuous
100
AcDbCircle
 10
286.2268363055142
 20
2146.500797927691
 30
0.0
 40
12.0
100
AcDbArc
 50
90.0
 51
180.0
  0
LINE
  5
7AD6
330
19
100
AcDbEntity
  8
1
  6
Continuous
100
AcDbLine
 10
338.1268363055142
 20
2158.500797927691
 30
0.0
 11
338.1268363055142
 21
2167.500797927691
 31
0.0
  0
LINE
  5
7AD7
330
19
100
AcDbEntity
  8
1
  6
Continuous
100
AcDbLine
 10
295.1268363055142
 20
2210.500797927691
 30
0.0
 11
295.1268363055142
 21
2159.300797927691
 31
0.0
  0
LINE
  5
7AD8
330
19
100
AcDbEntity
  8
1
  6
Continuous
100
AcDbLine
 10
645.1268363055142
 20
1190.778870119567
 30
0.0
 11
645.1268363055142
 21
869.6788701195671
 31
0.0
  0
LINE
  5
7AD9
330
19
100
AcDbEntity
  8
2
  6
CENTER
100
AcDbLine
 10
847.8268363055139
 20
904.1788701195672
 30
0.0
 11
847.8268363055139
 21
1010.178870119567
 31
0.0
  0
CIRCLE
  5
7ADA
330
19
100
AcDbEntity
  8
1
  6
Continuous
100
AcDbCircle
 10
847.8268363055139
 20
957.1788701195671
 30
0.0
 40
53.0
  0
LINE
  5
7ADB
330
19
100
AcDbEntity
  8
1
  6
Continuous
100
AcDbLine
 10
940.1268363055141
 20
869.6788701195671
 30
0.0
 11
940.1268363055141
 21
1049.678870119567
 31
0.0
  0
ARC
  5
7ADC
330
19
100
AcDbEntity
  8
1
  6
Continuous
100
AcDbCircle
 10
847.8268363055139
 20
957.1788701195671
 30
0.0
 40
75.8
100
AcDbArc
 50
322.9
 51
217.1
  0
LINE
  5
7ADD
330
19
100
AcDbEntity
  8
2
  6
CENTER
100
AcDbLine
 10
900.826836305514
 20
957.1788701195671
 30
0.0
 11
794.826836305514
 21
957.1788701195671
 31
0.0
  0
LINE
  5
7ADE
330
19
100
AcDbEntity
  8
1
  6
Continuous
100
AcDbLine
 10
750.4268363055141
 20
889.6788701195672
 30
0.0
 11
1005.126836305514
 21
889.6788701195672
 31
0.0
  0
LINE
  5
7ADF
330
19
100
AcDbEntity
  8
1
  6
Continuous
100
AcDbLine
 10
750.4268363055141
 20
869.6788701195671
 30
0.0
 11
750.4268363055141
 21
889.6788701195672
 31
0.0
  0
LINE
  5
7AE0
330
19
100
AcDbEntity
  8
1
  6
Continuous
100
AcDbLine
 10
781.826836305514
 20
889.6788701195672
 30
0.0
 11
781.826836305514
 21
897.1788701195672
 31
0.0
  0
LINE
  5
7AE1
330
19
100
AcDbEntity
  8
1
  6
Continuous
100
AcDbLine
 10
781.826836305514
 20
897.1788701195672
 30
0.0
 11
787.326836305514
 21
911.4788701195672
 31
0.0
  0
LINE
  5
7AE2
330
19
100
AcDbEntity
  8
1
  6
Continuous
100
AcDbLine
 10
913.8268363055139
 20
897.1788701195672
 30
0.0
 11
908.226836305514
 21
911.4788701195672
 31
0.0
  0
LINE
  5
7AE3
330
19
100
AcDbEntity
  8
1
  6
Continuous
100
AcDbLine
 10
913.8268363055139
 20
889.6788701195672
 30
0.0
 11
913.8268363055139
 21
897.1788701195672
 31
0.0
  0
LINE
  5
7AE4
330
19
100
AcDbEntity
  8
1
  6
Continuous
100
AcDbLine
 10
1035.126836305514
 20
739.6788701195672
 30
0.0
 11
1035.126836305514
 21
679.6788701195672
 31
0.0
  0
LINE
  5
7AE5
330
19
100
AcDbEntity
  8
1
  6
Continuous
100
AcDbLine
 10
1005.126836305514
 20
869.6788701195671
 30
0.0
 11
1005.126836305514
 21
809.6788701195672
 31
0.0
  0
LINE
  5
7AE6
330
19
100
AcDbEntity
  8
1
  6
Continuous
100
AcDbLine
 10
1005.126836305514
 20
889.6788701195672
 30
0.0
 11
1005.126836305514
 21
869.6788701195671
 31
0.0
  0
LINE
  5
7AE7
330
19
100
AcDbEntity
  8
1
  6
Continuous
100
AcDbLine
 10
1035.126836305514
 20
679.6788701195672
 30
0.0
 11
1005.126836305514
 21
679.6788701195672
 31
0.0
  0
LINE
  5
7AE8
330
19
100
AcDbEntity
  8
1
  6
Continuous
100
AcDbLine
 10
1005.126836305514
 20
709.6788701195672
 30
0.0
 11
1005.126836305514
 21
679.6788701195672
 31
0.0
  0
LINE
  5
7AE9
330
19
100
AcDbEntity
  8
1
  6
Continuous
100
AcDbLine
 10
745.1268363055142
 20
1304.678870119567
 30
0.0
 11
745.1268363055142
 21
1124.278870119567
 31
0.0
  0
LINE
  5
7AEA
330
19
100
AcDbEntity
  8
1
  6
Continuous
100
AcDbLine
 10
735.1268363055141
 20
1324.678870119567
 30
0.0
 11
715.1268363055142
 21
1304.678870119567
 31
0.0
  0
LINE
  5
7AEB
330
19
100
AcDbEntity
  8
1
  6
Continuous
100
AcDbLine
 10
735.1268363055141
 20
1324.678870119567
 30
0.0
 11
735.1268363055141
 21
1304.678870119567
 31
0.0
  0
LINE
  5
7AEC
330
19
100
AcDbEntity
  8
1
  6
Continuous
100
AcDbLine
 10
745.1268363055142
 20
1304.678870119567
 30
0.0
 11
735.1268363055141
 21
1304.678870119567
 31
0.0
  0
LINE
  5
7AED
330
19
100
AcDbEntity
  8
1
  6
Continuous
100
AcDbLine
 10
736.1268363055142
 20
1978.50079792769
 30
0.0
 11
736.1268363055142
 21
2158.500797927691
 31
0.0
  0
LINE
  5
7AEE
330
19
100
AcDbEntity
  8
1
  6
Continuous
100
AcDbLine
 10
1035.126836305514
 20
2210.500797927691
 30
0.0
 11
1035.126836305514
 21
1730.50079792769
 31
0.0
  0
LINE
  5
7AEF
330
19
100
AcDbEntity
  8
1
  6
Continuous
100
AcDbLine
 10
922.6268363055142
 20
1834.800797927691
 30
0.0
 11
922.6268363055142
 21
2038.80079792769
 31
0.0
  0
LINE
  5
7AF0
330
19
100
AcDbEntity
  8
1
  6
Continuous
100
AcDbLine
 10
771.1268363055141
 20
1834.800797927691
 30
0.0
 11
771.1268363055141
 21
2038.80079792769
 31
0.0
  0
LINE
  5
7AF1
330
19
100
AcDbEntity
  8
1
  6
Continuous
100
AcDbLine
 10
794.8268363055141
 20
1748.50079792769
 30
0.0
 11
900.826836305514
 21
1748.50079792769
 31
0.0
  0
LINE
  5
7AF2
330
19
100
AcDbEntity
  8
1
  6
Continuous
100
AcDbLine
 10
794.8268363055141
 20
1783.50079792769
 30
0.0
 11
900.826836305514
 21
1783.50079792769
 31
0.0
  0
LINE
  5
7AF3
330
19
100
AcDbEntity
  8
1
  6
Continuous
100
AcDbLine
 10
771.1268363055141
 20
1834.800797927691
 30
0.0
 11
922.6268363055142
 21
1834.800797927691
 31
0.0
  0
LINE
  5
7AF4
330
19
100
AcDbEntity
  8
1
  6
Continuous
100
AcDbLine
 10
632.1268363055142
 20
1978.50079792769
 30
0.0
 11
632.1268363055142
 21
1969.50079792769
 31
0.0
  0
LINE
  5
7AF5
330
19
100
AcDbEntity
  8
1
  6
Continuous
100
AcDbLine
 10
645.1268363055142
 20
1969.50079792769
 30
0.0
 11
645.1268363055142
 21
1840.50079792769
 31
0.0
  0
LINE
  5
7AF6
330
19
100
AcDbEntity
  8
1
  6
Continuous
100
AcDbLine
 10
794.8268363055141
 20
1748.50079792769
 30
0.0
 11
794.8268363055141
 21
1783.50079792769
 31
0.0
  0
LINE
  5
7AF7
330
19
100
AcDbEntity
  8
1
  6
Continuous
100
AcDbLine
 10
835.8268363055142
 20
1783.50079792769
 30
0.0
 11
835.8268363055142
 21
1834.800797927691
 31
0.0
  0
LINE
  5
7AF8
330
19
100
AcDbEntity
  8
1
  6
Continuous
100
AcDbLine
 10
859.826836305514
 20
1810.50079792769
 30
0.0
 11
1035.126836305514
 21
1810.50079792769
 31
0.0
  0
LINE
  5
7AF9
330
19
100
AcDbEntity
  8
1
  6
Continuous
100
AcDbLine
 10
900.826836305514
 20
1748.50079792769
 30
0.0
 11
900.826836305514
 21
1783.50079792769
 31
0.0
  0
LINE
  5
7AFA
330
19
100
AcDbEntity
  8
1
  6
Continuous
100
AcDbLine
 10
940.1268363055141
 20
1728.50079792769
 30
0.0
 11
940.1268363055141
 21
1803.50079792769
 31
0.0
  0
LINE
  5
7AFB
330
19
100
AcDbEntity
  8
1
  6
Continuous
100
AcDbLine
 10
859.826836305514
 20
1783.50079792769
 30
0.0
 11
859.826836305514
 21
1834.800797927691
 31
0.0
  0
LINE
  5
7AFC
330
19
100
AcDbEntity
  8
1
  6
Continuous
100
AcDbLine
 10
1005.126836305514
 20
1730.50079792769
 30
0.0
 11
1035.126836305514
 21
1730.50079792769
 31
0.0
  0
LINE
  5
7AFD
330
19
100
AcDbEntity
  8
1
  6
Continuous
100
AcDbLine
 10
1005.126836305514
 20
1810.50079792769
 30
0.0
 11
1005.126836305514
 21
1730.50079792769
 31
0.0
  0
LINE
  5
7AFE
330
19
100
AcDbEntity
  8
1
  6
Continuous
100
AcDbLine
 10
736.1268363055142
 20
2060.500797927691
 30
0.0
 11
1035.126836305514
 21
2060.500797927691
 31
0.0
  0
LINE
  5
7AFF
330
19
100
AcDbEntity
  8
1
  6
Continuous
100
AcDbLine
 10
771.1268363055141
 20
2038.80079792769
 30
0.0
 11
922.6268363055142
 21
2038.80079792769
 31
0.0
  0
LINE
  5
7B00
330
19
100
AcDbEntity
  8
1
  6
Continuous
100
AcDbLine
 10
632.1268363055142
 20
2158.500797927691
 30
0.0
 11
632.1268363055142
 21
2167.500797927691
 31
0.0
  0
LINE
  5
7B01
330
19
100
AcDbEntity
  8
1
  6
Continuous
100
AcDbLine
 10
1005.126836305514
 20
2210.500797927691
 30
0.0
 11
1005.126836305514
 21
2060.500797927691
 31
0.0
  0
LINE
  5
7B02
330
19
100
AcDbEntity
  8
1
  6
Continuous
100
AcDbLine
 10
1005.126836305514
 20
2210.500797927691
 30
0.0
 11
1035.126836305514
 21
2210.500797927691
 31
0.0
  0
LINE
  5
7B03
330
19
100
AcDbEntity
  8
1
  6
Continuous
100
AcDbLine
 10
1275.254285812667
 20
679.6788701195672
 30
0.0
 11
1755.254285812667
 21
679.6788701195672
 31
0.0
  0
LINE
  5
7B04
330
19
100
AcDbEntity
  8
1
  6
Continuous
100
AcDbLine
 10
1273.254285812667
 20
869.6788701195671
 30
0.0
 11
1605.254285812667
 21
869.6788701195671
 31
0.0
  0
LINE
  5
7B05
330
19
100
AcDbEntity
  8
1
  6
Continuous
100
AcDbLine
 10
1328.254285812667
 20
1136.678870119567
 30
0.0
 11
1447.354285812667
 21
1136.678870119567
 31
0.0
  0
LINE
  5
7B06
330
19
100
AcDbEntity
  8
1
  6
Continuous
100
AcDbLine
 10
1328.254285812667
 20
1112.678870119567
 30
0.0
 11
1417.654285812667
 21
1112.678870119567
 31
0.0
  0
LINE
  5
7B07
330
19
100
AcDbEntity
  8
1
  6
Continuous
100
AcDbLine
 10
1328.254285812667
 20
945.1788701195672
 30
0.0
 11
1385.254285812667
 21
945.1788701195672
 31
0.0
  0
LINE
  5
7B08
330
19
100
AcDbEntity
  8
1
  6
Continuous
100
AcDbLine
 10
1328.254285812667
 20
969.1788701195674
 30
0.0
 11
1385.254285812667
 21
969.1788701195674
 31
0.0
  0
LINE
  5
7B09
330
19
100
AcDbEntity
  8
1
  6
Continuous
100
AcDbLine
 10
1275.254285812667
 20
709.6788701195672
 30
0.0
 11
1755.254285812667
 21
709.6788701195672
 31
0.0
  0
LINE
  5
7B0A
330
19
100
AcDbEntity
  8
1
  6
Continuous
100
AcDbLine
 10
1273.254285812667
 20
869.6788701195671
 30
0.0
 11
1273.254285812667
 21
1249.678870119567
 31
0.0
  0
LINE
  5
7B0B
330
19
100
AcDbEntity
  8
1
  6
Continuous
100
AcDbLine
 10
1348.254285812667
 20
869.6788701195671
 30
0.0
 11
1348.254285812667
 21
1249.678870119567
 31
0.0
  0
LINE
  5
7B0C
330
19
100
AcDbEntity
  8
1
  6
Continuous
100
AcDbLine
 10
1293.254285812667
 20
1010.178870119567
 30
0.0
 11
1293.254285812667
 21
904.1788701195672
 31
0.0
  0
LINE
  5
7B0D
330
19
100
AcDbEntity
  8
1
  6
Continuous
100
AcDbLine
 10
1328.254285812667
 20
1010.178870119567
 30
0.0
 11
1328.254285812667
 21
904.1788701195672
 31
0.0
  0
LINE
  5
7B0E
330
19
100
AcDbEntity
  8
1
  6
Continuous
100
AcDbLine
 10
1275.254285812667
 20
709.6788701195672
 30
0.0
 11
1275.254285812667
 21
679.6788701195672
 31
0.0
  0
LINE
  5
7B0F
330
19
100
AcDbEntity
  8
1
  6
Continuous
100
AcDbLine
 10
1293.254285812667
 20
904.1788701195672
 30
0.0
 11
1328.254285812667
 21
904.1788701195672
 31
0.0
  0
LINE
  5
7B10
330
19
100
AcDbEntity
  8
1
  6
Continuous
100
AcDbLine
 10
1273.254285812667
 20
1249.678870119567
 30
0.0
 11
1348.254285812667
 21
1249.678870119567
 31
0.0
  0
LINE
  5
7B11
330
19
100
AcDbEntity
  8
1
  6
Continuous
100
AcDbLine
 10
1293.254285812667
 20
1188.178870119567
 30
0.0
 11
1293.254285812667
 21
1061.178870119567
 31
0.0
  0
LINE
  5
7B12
330
19
100
AcDbEntity
  8
1
  6
Continuous
100
AcDbLine
 10
1293.254285812667
 20
1188.178870119567
 30
0.0
 11
1328.254285812667
 21
1188.178870119567
 31
0.0
  0
LINE
  5
7B13
330
19
100
AcDbEntity
  8
1
  6
Continuous
100
AcDbLine
 10
1293.254285812667
 20
1061.178870119567
 30
0.0
 11
1328.254285812667
 21
1061.178870119567
 31
0.0
  0
LINE
  5
7B14
330
19
100
AcDbEntity
  8
1
  6
Continuous
100
AcDbLine
 10
1328.254285812667
 20
1188.178870119567
 30
0.0
 11
1328.254285812667
 21
1061.178870119567
 31
0.0
  0
LINE
  5
7B15
330
19
100
AcDbEntity
  8
1
  6
Continuous
100
AcDbLine
 10
1293.254285812667
 20
1010.178870119567
 30
0.0
 11
1328.254285812667
 21
1010.178870119567
 31
0.0
  0
LINE
  5
7B16
330
19
100
AcDbEntity
  8
1
  6
Continuous
100
AcDbLine
 10
1712.254285812667
 20
1271.678870119567
 30
0.0
 11
1712.254285812667
 21
977.6788701195673
 31
0.0
  0
LINE
  5
7B17
330
19
100
AcDbEntity
  8
1
  6
Continuous
100
AcDbLine
 10
1703.054285812667
 20
925.7788701195673
 30
0.0
 11
1703.054285812667
 21
1124.678870119567
 31
0.0
  0
LINE
  5
7B18
330
19
100
AcDbEntity
  8
1
  6
Continuous
100
AcDbLine
 10
1523.454285812667
 20
1324.678870119567
 30
0.0
 11
1523.454285812667
 21
925.7788701195673
 31
0.0
  0
LINE
  5
7B19
330
19
100
AcDbEntity
  8
1
  6
Continuous
100
AcDbLine
 10
1514.254285812667
 20
1271.678870119567
 30
0.0
 11
1514.254285812667
 21
869.6788701195671
 31
0.0
  0
LINE
  5
7B1A
330
19
100
AcDbEntity
  8
1
  6
Continuous
100
AcDbLine
 10
1385.254285812667
 20
869.6788701195671
 30
0.0
 11
1385.254285812667
 21
1086.478870119567
 31
0.0
  0
LINE
  5
7B1B
330
19
100
AcDbEntity
  8
1
  6
Continuous
100
AcDbLine
 10
1535.454285812667
 20
913.7788701195672
 30
0.0
 11
1691.054285812667
 21
913.7788701195672
 31
0.0
  0
LINE
  5
7B1C
330
19
100
AcDbEntity
  8
1
  6
Continuous
100
AcDbLine
 10
1355.254285812667
 20
809.6788701195672
 30
0.0
 11
1605.254285812667
 21
809.6788701195672
 31
0.0
  0
LINE
  5
7B1D
330
19
100
AcDbEntity
  8
1
  6
Continuous
100
AcDbLine
 10
1355.254285812667
 20
739.6788701195672
 30
0.0
 11
1605.254285812667
 21
739.6788701195672
 31
0.0
  0
LINE
  5
7B1E
330
19
100
AcDbEntity
  8
1
  6
Continuous
100
AcDbLine
 10
1355.254285812667
 20
869.6788701195671
 30
0.0
 11
1355.254285812667
 21
809.6788701195672
 31
0.0
  0
LINE
  5
7B1F
330
19
100
AcDbEntity
  8
1
  6
Continuous
100
AcDbLine
 10
1355.254285812667
 20
739.6788701195672
 30
0.0
 11
1355.254285812667
 21
709.6788701195672
 31
0.0
  0
LINE
  5
7B20
330
19
100
AcDbEntity
  8
1
  6
Continuous
100
AcDbLine
 10
1523.454285812667
 20
977.6788701195673
 30
0.0
 11
1514.254285812667
 21
977.6788701195673
 31
0.0
  0
ARC
  5
7B21
330
19
100
AcDbEntity
  8
1
  6
Continuous
100
AcDbCircle
 10
1535.454285812667
 20
925.7788701195673
 30
0.0
 40
12.0
100
AcDbArc
 50
180.0
 51
270.0
  0
LINE
  5
7B22
330
19
100
AcDbEntity
  8
1
  6
Continuous
100
AcDbLine
 10
1605.254285812667
 20
869.6788701195671
 30
0.0
 11
1605.254285812667
 21
809.6788701195672
 31
0.0
  0
LINE
  5
7B23
330
19
100
AcDbEntity
  8
1
  6
Continuous
100
AcDbLine
 10
1605.254285812667
 20
739.6788701195672
 30
0.0
 11
1605.254285812667
 21
709.6788701195672
 31
0.0
  0
LINE
  5
7B24
330
19
100
AcDbEntity
  8
1
  6
Continuous
100
AcDbLine
 10
1703.054285812667
 20
977.6788701195673
 30
0.0
 11
1712.254285812667
 21
977.6788701195673
 31
0.0
  0
ARC
  5
7B25
330
19
100
AcDbEntity
  8
1
  6
Continuous
100
AcDbCircle
 10
1691.054285812667
 20
925.7788701195673
 30
0.0
 40
12.0
100
AcDbArc
 50
270.0
 51
0.0
  0
LINE
  5
7B26
330
19
100
AcDbEntity
  8
1
  6
Continuous
100
AcDbLine
 10
1755.254285812667
 20
709.6788701195672
 30
0.0
 11
1755.254285812667
 21
679.6788701195672
 31
0.0
  0
LINE
  5
7B27
330
19
100
AcDbEntity
  8
1
  6
Continuous
100
AcDbLine
 10
1502.254285812667
 20
1324.678870119567
 30
0.0
 11
1724.254285812667
 21
1324.678870119567
 31
0.0
  0
LINE
  5
7B28
330
19
100
AcDbEntity
  8
1
  6
Continuous
100
AcDbLine
 10
1552.454285812667
 20
1304.678870119567
 30
0.0
 11
1674.054285812667
 21
1304.678870119567
 31
0.0
  0
LINE
  5
7B29
330
19
100
AcDbEntity
  8
1
  6
Continuous
100
AcDbLine
 10
1385.254285812667
 20
1086.478870119567
 30
0.0
 11
1514.254285812667
 21
1190.778870119567
 31
0.0
  0
LINE
  5
7B2A
330
19
100
AcDbEntity
  8
1
  6
Continuous
100
AcDbLine
 10
1523.454285812667
 20
1271.678870119567
 30
0.0
 11
1514.254285812667
 21
1271.678870119567
 31
0.0
  0
LINE
  5
7B2B
330
19
100
AcDbEntity
  8
1
  6
Continuous
100
AcDbLine
 10
1514.254285812667
 20
1271.678870119567
 30
0.0
 11
1514.254285812667
 21
1124.678870119567
 31
0.0
  0
LINE
  5
7B2C
330
19
100
AcDbEntity
  8
1
  6
Continuous
100
AcDbLine
 10
1532.454285812667
 20
1324.678870119567
 30
0.0
 11
1552.454285812667
 21
1304.678870119567
 31
0.0
  0
LINE
  5
7B2D
330
19
100
AcDbEntity
  8
1
  6
Continuous
100
AcDbLine
 10
1703.054285812667
 20
1324.678870119567
 30
0.0
 11
1703.054285812667
 21
1124.678870119567
 31
0.0
  0
LINE
  5
7B2E
330
19
100
AcDbEntity
  8
1
  6
Continuous
100
AcDbLine
 10
1703.054285812667
 20
1271.678870119567
 30
0.0
 11
1712.254285812667
 21
1271.678870119567
 31
0.0
  0
LINE
  5
7B2F
330
19
100
AcDbEntity
  8
1
  6
Continuous
100
AcDbLine
 10
1694.054285812667
 20
1324.678870119567
 30
0.0
 11
1674.054285812667
 21
1304.678870119567
 31
0.0
  0
LINE
  5
7B30
330
19
100
AcDbEntity
  8
4
  6
Continuous
100
AcDbLine
 10
1850.0
 20
500.0
 30
0.0
 11
1850.0
 21
300.0
 31
0.0
  0
LINE
  5
7B31
330
19
100
AcDbEntity
  8
4
  6
Continuous
100
AcDbLine
 10
1150.0
 20
500.0
 30
0.0
 11
1150.0
 21
300.0
 31
0.0
  0
LINE
  5
7B32
330
19
100
AcDbEntity
  8
4
  6
Continuous
100
AcDbLine
 10
650.0
 20
500.0
 30
0.0
 11
650.0
 21
300.0
 31
0.0
  0
LINE
  5
7B35
330
19
100
AcDbEntity
  8
4
  6
Continuous
100
AcDbLine
 10
650.0
 20
300.0
 30
0.0
 11
1850.0
 21
300.0
 31
0.0
  0
LINE
  5
7B36
330
19
100
AcDbEntity
  8
4
  6
Continuous
100
AcDbLine
 10
650.0
 20
400.0
 30
0.0
 11
1850.0
 21
400.0
 31
0.0
  0
TEXT
  5
7B37
330
19
100
AcDbEntity
  8
4
  6
Continuous
100
AcDbText
 10
688.502081
 20
431.543026
 30
0.0
 40
50.0
  1
機器名称
100
AcDbText
  0
TEXT
  5
7B38
330
19
100
AcDbEntity
  8
4
  6
Continuous
100
AcDbText
 10
686.258106
 20
321.645157
 30
0.0
 40
50.0
  1
機器型番
100
AcDbText
  0
TEXT
  5
7B39
330
19
100
AcDbEntity
  8
4
  6
Continuous
100
AcDbText
 10
1177.678745
 20
422.571769
 30
0.0
 40
45.0
  1
ミツヤニューマルチファン
100
AcDbText
  0
TEXT
  5
7B3A
330
19
100
AcDbEntity
  8
4
  6
Continuous
100
AcDbText
 10
1186.654496
 20
317.159584
 30
0.0
 40
50.0
  1
NM#1 1/2-1
100
AcDbText
  0
TEXT
  5
7B3C
330
19
100
AcDbEntity
  8
4
  6
Continuous
100
AcDbText
 10
708.645213
 20
2383.428841
 30
0.0
 40
54.0
  1
天井吊防振ベット
100
AcDbText
  0
TEXT
  5
7B3D
330
19
100
AcDbEntity
  8
4
  6
Continuous
100
AcDbText
 10
316.167593
 20
2533.880976000001
 30
0.0
 40
72.0
  1
ベルト駆動式片吸込片持多翼ファン
100
AcDbText
  0
LINE
  5
7B3E
330
19
100
AcDbEntity
  8
4
  6
Continuous
100
AcDbLine
 10
250.0
 20
2469.408754
 30
0.0
 11
1850.0
 21
2469.408754
 31
0.0
  0
LINE
  5
7B3F
330
19
100
AcDbEntity
  8
4
  6
Continuous
100
AcDbLine
 10
250.0
 20
2669.408754
 30
0.0
 11
1850.0
 21
2669.408754
 31
0.0
  0
LINE
  5
7B40
330
19
100
AcDbEntity
  8
4
  6
Continuous
100
AcDbLine
 10
650.0
 20
500.0
 30
0.0
 11
1850.0
 21
500.0
 31
0.0
  0
LINE
  5
7B41
330
19
100
AcDbEntity
  8
4
  6
Continuous
100
AcDbLine
 10
250.0
 20
2669.408754
 30
0.0
 11
250.0
 21
2469.408754
 31
0.0
  0
TEXT
  5
7B42
330
19
100
AcDbEntity
  8
4
  6
Continuous
100
AcDbText
 10
272.786381
 20
2382.319478000001
 30
0.0
 40
54.0
  1
左回転上向
100
AcDbText
  0
TEXT
  5
7B43
330
19
100
AcDbEntity
  8
4
  6
Continuous
100
AcDbText
 10
1468.969559
 20
2706.061081
 30
0.0
 40
56.0
  1
No.
100
AcDbText
  0
TEXT
  5
7B44
330
19
100
AcDbEntity
  8
4
  6
Continuous
100
AcDbText
 10
1423.376385
 20
2383.428841
 30
0.0
 40
54.0
  1
縮尺：1/10
100
AcDbText
  0
LINE
  5
7B45
330
19
100
AcDbEntity
  8
4
  6
Continuous
100
AcDbLine
 10
1850.0
 20
2669.408754
 30
0.0
 11
1850.0
 21
2469.408754
 31
0.0
  0
LINE
  5
7B47
330
19
100
AcDbEntity
  8
4
  6
Continuous
100
AcDbLine
 10
1440.617422
 20
2681.263583
 30
0.0
 11
1440.617422
 21
2786.652262
 31
0.0
  0
LINE
  5
7B48
330
19
100
AcDbEntity
  8
4
  6
Continuous
100
AcDbLine
 10
1440.617422
 20
2786.652262
 30
0.0
 11
1850.0
 21
2786.652262
 31
0.0
  0
LINE
  5
7B49
330
19
100
AcDbEntity
  8
4
  6
Continuous
100
AcDbLine
 10
1850.0
 20
2786.652262
 30
0.0
 11
1850.0
 21
2681.263583
 31
0.0
  0
LINE
  5
7B4A
330
19
100
AcDbEntity
  8
4
  6
Continuous
100
AcDbLine
 10
1850.0
 20
2681.263583
 30
0.0
 11
1440.617422
 21
2681.263583
 31
0.0
  0
DIMENSION
  5
7B7B
330
19
100
AcDbEntity
  8
3
  6
Continuous
100
AcDbDimension
280
     0
  2
*D1
 10
1110.327109633201
 20
1124.678870119567
 30
0.0
 11
1110.327109633201
 21
1229.637330119567
 31
0.0
 70
   160
 71
     5
 42
-1.0
 73
     0
 74
     0
 75
     0
  3
IGA
100
AcDbAlignedDimension
 13
756.1268363055141
 23
1324.678870119567
 33
0.0
 14
745.1268363055142
 24
1124.678870119567
 34
0.0
 50
90.0
100
AcDbRotatedDimension
1001
ACAD
1000
DSTYLE
1002
{
1070
   287
1070
     3
1070
    40
1040
10.0
1070
   143
1040
0.039
1070
   172
1070
     1
1070
   271
1070
     0
1070
   279
1070
     0
1070
   288
1070
     1
1002
}
  0
DIMENSION
  5
7B87
330
19
100
AcDbEntity
  8
3
  6
Continuous
100
AcDbDimension
280
     0
  2
*D2
 10
1110.327109633201
 20
809.6788701195672
 30
0.0
 11
1085.3271096332
 21
967.1788701195675
 31
0.0
 70
    32
 71
     5
 42
-1.0
 73
     0
 74
     0
 75
     0
  3
IGA
100
AcDbAlignedDimension
 13
745.1268363055142
 23
1124.678870119567
 33
0.0
 14
1005.126836305514
 24
809.6788701195672
 34
0.0
 50
90.0
100
AcDbRotatedDimension
1001
ACAD
1000
DSTYLE
1002
{
1070
   287
1070
     4
1070
    40
1040
10.0
1070
    75
1070
     1
1070
   143
1040
0.039
1070
   172
1070
     1
1070
   271
1070
     0
1070
   279
1070
     1
1070
   288
1070
     1
1002
}
  0
DIMENSION
  5
7BF9
330
19
100
AcDbEntity
  8
3
  6
Continuous
100
AcDbDimension
280
     0
  2
*D3
 10
735.1268363055141
 20
1364.973886119567
 30
0.0
 11
615.0466993055142
 21
1364.973886119567
 31
0.0
 70
   160
 71
     5
 42
-1.0
 73
     0
 74
     0
 75
     0
  3
IGA
100
AcDbAlignedDimension
 13
485.1268363055141
 23
1324.678870119567
 33
0.0
 14
735.1268363055141
 24
1324.678870119567
 34
0.0
100
AcDbRotatedDimension
1001
ACAD
1000
DSTYLE
1002
{
1070
   287
1070
     3
1070
    40
1040
10.0
1070
   143
1040
0.039
1070
   172
1070
     1
1070
   271
1070
     0
1070
   279
1070
     0
1070
   288
1070
     1
1002
}
  0
DIMENSION
  5
7C06
330
19
100
AcDbEntity
  8
3
  6
Continuous
100
AcDbDimension
280
     0
  2
*D4
 10
485.1268363055141
 20
1433.524021119567
 30
0.0
 11
379.7635883055141
 21
1433.524021119567
 31
0.0
 70
   160
 71
     5
 42
-1.0
 73
     0
 74
     0
 75
     0
  3
IGA
100
AcDbAlignedDimension
 13
299.1374523055142
 23
1124.678870119567
 33
0.0
 14
485.1268363055141
 24
1324.678870119567
 34
0.0
100
AcDbRotatedDimension
1001
ACAD
1000
DSTYLE
1002
{
1070
   287
1070
     3
1070
    40
1040
10.0
1070
   143
1040
0.039
1070
   172
1070
     1
1070
   271
1070
     0
1070
   279
1070
     0
1070
   288
1070
     1
1002
}
  0
DIMENSION
  5
7C12
330
19
100
AcDbEntity
  8
3
  6
Continuous
100
AcDbDimension
280
     0
  2
*D5
 10
745.1268363055142
 20
1433.524021119567
 30
0.0
 11
615.1268363055142
 21
1458.524021119567
 31
0.0
 70
    32
 71
     5
 42
-1.0
 73
     0
 74
     0
 75
     0
  3
IGA
100
AcDbAlignedDimension
 13
485.1268363055141
 23
1324.678870119567
 33
0.0
 14
745.1268363055142
 24
1304.678870119567
 34
0.0
100
AcDbRotatedDimension
1001
ACAD
1000
DSTYLE
1002
{
1070
   287
1070
     4
1070
    40
1040
10.0
1070
    75
1070
     1
1070
   143
1040
0.039
1070
   172
1070
     1
1070
   271
1070
     0
1070
   279
1070
     1
1070
   288
1070
     1
1002
}
  0
DIMENSION
  5
7C1F
330
19
100
AcDbEntity
  8
3
  6
Continuous
100
AcDbDimension
280
     0
  2
*D6
 10
1035.126836305514
 20
1624.30967092769
 30
0.0
 11
640.0187903055141
 21
1624.30967092769
 31
0.0
 70
   160
 71
     5
 42
-1.0
 73
     0
 74
     0
 75
     0
  3
IGA
100
AcDbAlignedDimension
 13
265.1268363055142
 23
1730.50079792769
 33
0.0
 14
1035.126836305514
 24
1730.50079792769
 34
0.0
100
AcDbRotatedDimension
1001
ACAD
1000
DSTYLE
1002
{
1070
   287
1070
     3
1070
    40
1040
10.0
1070
   143
1040
0.039
1070
   172
1070
     1
1070
   271
1070
     0
1070
   279
1070
     0
1070
   288
1070
     1
1002
}
  0
DIMENSION
  5
7C2C
330
19
100
AcDbEntity
  8
3
  6
Continuous
100
AcDbDimension
280
     0
  2
*D7
 10
1131.118805305514
 20
1730.50079792769
 30
0.0
 11
1131.118805305514
 21
1971.446805927691
 31
0.0
 70
   160
 71
     5
 42
-1.0
 73
     0
 74
     0
 75
     0
  3
IGA
100
AcDbAlignedDimension
 13
1035.126836305514
 23
2210.500797927691
 33
0.0
 14
1035.126836305514
 24
1730.50079792769
 34
0.0
 50
90.0
100
AcDbRotatedDimension
1001
ACAD
1000
DSTYLE
1002
{
1070
   287
1070
     3
1070
    40
1040
10.0
1070
   143
1040
0.039
1070
   172
1070
     1
1070
   271
1070
     0
1070
   279
1070
     0
1070
   288
1070
     1
1002
}
  0
LINE
  5
7C2D
330
19
100
AcDbEntity
  8
2
  6
CENTER
100
AcDbLine
 10
485.1268363055141
 20
1335.120598119567
 30
0.0
 11
485.1268363055141
 21
709.6788701195671
 31
0.0
  0
LINE
  5
7C2E
330
19
100
AcDbEntity
  8
2
  6
CENTER
100
AcDbLine
 10
857.135285
 20
2032.069074163347
 30
0.0
 11
217.07476
 21
2032.069074163347
 31
0.0
  0
LINE
  5
7C2F
330
19
100
AcDbEntity
  8
2
  6
CENTER
100
AcDbLine
 10
1613.254285812667
 20
1374.897322119567
 30
0.0
 11
1613.254285812667
 21
679.6788701195672
 31
0.0
  0
DIMENSION
  5
7C56
330
19
100
AcDbEntity
  8
3
  6
Continuous
100
AcDbDimension
280
     0
  2
*D8
 10
1703.054285812667
 20
1370.565813119567
 30
0.0
 11
1602.153309812667
 21
1370.565813119567
 31
0.0
 70
   160
 71
     5
 42
-1.0
 73
     0
 74
     0
 75
     0
  3
IGA
100
AcDbAlignedDimension
 13
1523.454285812667
 23
1324.678870119567
 33
0.0
 14
1703.054285812667
 24
1324.678870119567
 34
0.0
100
AcDbRotatedDimension
1001
ACAD
1000
DSTYLE
1002
{
1070
   287
1070
     3
1070
    40
1040
10.0
1070
   143
1040
0.039
1070
   172
1070
     1
1070
   271
1070
     0
1070
   279
1070
     0
1070
   288
1070
     1
1002
}
  0
DIMENSION
  5
7C63
330
19
100
AcDbEntity
  8
3
  6
Continuous
100
AcDbDimension
280
     0
  2
*D9
 10
1613.254285812667
 20
1436.373949119567
 30
0.0
 11
1452.427684812667
 21
1436.373949119567
 31
0.0
 70
   160
  1
(340)
 71
     5
 42
340.0
 73
     0
 74
     0
 75
     0
  3
IGA
100
AcDbAlignedDimension
 13
1273.254285812667
 23
1249.678870119567
 33
0.0
 14
1613.254285812667
 24
1420.287804119567
 34
0.0
100
AcDbRotatedDimension
1001
ACAD
1000
DSTYLE
1002
{
1070
   287
1070
     3
1070
    40
1040
10.0
1070
   143
1040
0.039
1070
   172
1070
     1
1070
   271
1070
     0
1070
   279
1070
     0
1070
   288
1070
     1
1002
}
  0
DIMENSION
  5
7C71
330
19
100
AcDbEntity
  8
3
  6
Continuous
100
AcDbDimension
280
     0
  2
*D10
 10
1712.254285812667
 20
1436.373949119567
 30
0.0
 11
1662.043557812667
 21
1436.373949119567
 31
0.0
 70
   160
 71
     5
 42
-1.0
 73
     0
 74
     0
 75
     0
  3
IGA
100
AcDbAlignedDimension
 13
1613.254285812667
 23
1420.287804119567
 33
0.0
 14
1712.254285812667
 24
1271.678870119567
 34
0.0
100
AcDbRotatedDimension
1001
ACAD
1000
DSTYLE
1002
{
1070
   287
1070
     4
1070
    40
1040
10.0
1070
    75
1070
     1
1070
   143
1040
0.039
1070
   172
1070
     1
1070
   271
1070
     0
1070
   279
1070
     1
1070
   288
1070
     1
1002
}
  0
LINE
  5
7C89
330
19
100
AcDbEntity
  8
3
  6
Continuous
100
AcDbLine
 10
1712.254285812667
 20
1249.678870119567
 30
0.0
 11
1727.892349812667
 21
1249.678870119567
 31
0.0
  0
LINE
  5
7C8B
330
19
100
AcDbEntity
  8
3
  6
Continuous
100
AcDbLine
 10
1712.254285812667
 20
999.6788701195674
 30
0.0
 11
1729.370558812667
 21
999.6788701195674
 31
0.0
  0
DIMENSION
  5
7C98
330
19
100
AcDbEntity
  8
3
  6
Continuous
100
AcDbDimension
280
     0
  2
*D11
 10
1781.381136812667
 20
999.6788701195674
 30
0.0
 11
1781.381136812667
 21
1111.291195119567
 31
0.0
 70
   160
 71
     5
 42
-1.0
 73
     0
 74
     0
 75
     0
  3
IGA
100
AcDbAlignedDimension
 13
1712.254285812667
 23
1249.678870119567
 33
0.0
 14
1712.254285812667
 24
999.6788701195674
 34
0.0
 50
90.0
100
AcDbRotatedDimension
1001
ACAD
1000
DSTYLE
1002
{
1070
   287
1070
     3
1070
     3
1000
φ<>
1070
    40
1040
10.0
1070
   143
1040
0.039
1070
   172
1070
     1
1070
   271
1070
     0
1070
   279
1070
     0
1070
   288
1070
     1
1002
}
  0
LINE
  5
7C99
330
19
100
AcDbEntity
  8
2
  6
CENTER
100
AcDbLine
 10
827.443180305514
 20
1124.678870119567
 30
0.0
 11
270.6535063055144
 21
1124.678870119567
 31
0.0
  0
DIMENSION
  5
7D95
330
19
100
AcDbEntity
  8
3
100
AcDbDimension
280
     0
  2
*D13
 10
485.1268363055141
 20
605.53372922185
 30
0.0
 11
375.1268363055142
 21
630.53372922185
 31
0.0
 70
    32
 71
     5
 42
220.0
 73
     0
 74
     0
 75
     0
  3
IGA
100
AcDbAlignedDimension
 13
265.1268363055142
 23
679.6788701195672
 33
0.0
 14
485.1268363055141
 24
709.6788701195671
 34
0.0
100
AcDbRotatedDimension
1001
ACAD
1000
DSTYLE
1002
{
1070
   287
1070
     3
1070
    40
1040
10.0
1070
   143
1040
0.039
1070
   172
1070
     1
1070
   271
1070
     0
1070
   279
1070
     0
1002
}
  0
DIMENSION
  5
7DA2
330
19
100
AcDbEntity
  8
3
100
AcDbDimension
280
     0
  2
*D14
 10
1035.126836305514
 20
605.53372922185
 30
0.0
 11
760.1268363055141
 21
630.53372922185
 31
0.0
 70
    32
 71
     5
 42
550.0
 73
     0
 74
     0
 75
     0
  3
IGA
100
AcDbAlignedDimension
 13
485.1268363055141
 23
709.6788701195671
 33
0.0
 14
1035.126836305514
 24
679.6788701195672
 34
0.0
100
AcDbRotatedDimension
1001
ACAD
1000
DSTYLE
1002
{
1070
   287
1070
     3
1070
    40
1040
10.0
1070
   143
1040
0.039
1070
   172
1070
     1
1070
   271
1070
     0
1070
   279
1070
     0
1002
}
  0
DIMENSION
  5
7DAF
330
19
100
AcDbEntity
  8
3
100
AcDbDimension
280
     0
  2
*D15
 10
1613.254285812667
 20
605.53372922185
 30
0.0
 11
1444.254285812667
 21
630.53372922185
 31
0.0
 70
    32
 71
     5
 42
338.0
 73
     0
 74
     0
 75
     0
  3
IGA
100
AcDbAlignedDimension
 13
1275.254285812667
 23
679.6788701195672
 33
0.0
 14
1613.254285812667
 24
679.6788701195672
 34
0.0
100
AcDbRotatedDimension
1001
ACAD
1000
DSTYLE
1002
{
1070
   287
1070
     3
1070
    40
1040
10.0
1070
   143
1040
0.039
1070
   172
1070
     1
1070
   271
1070
     0
1070
   279
1070
     0
1002
}
  0
DIMENSION
  5
7DBC
330
19
100
AcDbEntity
  8
3
100
AcDbDimension
280
     0
  2
*D16
 10
1755.254285812667
 20
605.53372922185
 30
0.0
 11
1684.254285812667
 21
630.53372922185
 31
0.0
 70
    32
 71
     5
 42
141.9999999999997
 73
     0
 74
     0
 75
     0
  3
IGA
100
AcDbAlignedDimension
 13
1613.254285812667
 23
679.6788701195672
 33
0.0
 14
1755.254285812667
 24
679.6788701195672
 34
0.0
100
AcDbRotatedDimension
1001
ACAD
1000
DSTYLE
1002
{
1070
   287
1070
     3
1070
    40
1040
10.0
1070
   143
1040
0.039
1070
   172
1070
     1
1070
   271
1070
     0
1070
   279
1070
     0
1002
}
  0
DIMENSION
  5
7DCB
330
19
100
AcDbEntity
  8
3
100
AcDbDimension
280
     0
  2
*D17
 10
1111.387086709939
 20
679.6788701195672
 30
0.0
 11
1086.387086709939
 21
625.393155833853
 31
0.0
 70
    32
 71
     5
 42
60.0
 73
     0
 74
     0
 75
     1
  3
IGA
100
AcDbAlignedDimension
 13
1035.126836305514
 23
739.6788701195672
 33
0.0
 14
1035.126836305514
 24
679.6788701195672
 34
0.0
 50
90.0
100
AcDbRotatedDimension
1001
ACAD
1000
DSTYLE
1002
{
1070
    40
1040
10.0
1070
   143
1040
0.039
1070
   172
1070
     1
1070
   271
1070
     0
1070
   279
1070
     0
1070
   343
1005
7D21
1002
}
  0
DIMENSION
  5
7DD8
330
19
100
AcDbEntity
  8
3
100
AcDbDimension
280
     0
  2
*D18
 10
1111.387086709939
 20
809.6788701195672
 30
0.0
 11
1156.650359557241
 21
774.6788701195673
 31
0.0
 70
   160
 71
     5
 42
70.0
 73
     0
 74
     0
 75
     0
  3
IGA
100
AcDbAlignedDimension
 13
1035.126836305514
 23
739.6788701195672
 33
0.0
 14
1005.126836305514
 24
809.6788701195672
 34
0.0
 50
90.0
100
AcDbRotatedDimension
1001
ACAD
1000
DSTYLE
1002
{
1070
     3
1000
(<>)
1070
    40
1040
10.0
1070
   143
1040
0.039
1070
   172
1070
     1
1070
   271
1070
     0
1070
   343
1005
7D21
1002
}
  0
DIMENSION
  5
7DE5
330
19
100
AcDbEntity
  8
3
100
AcDbDimension
280
     0
  2
*D19
 10
1198.450699927454
 20
679.6788701195672
 30
0.0
 11
1165.593557070311
 21
1002.178870119567
 31
0.0
 70
    32
 71
     5
 42
645.0000000000001
 73
     0
 74
     0
 75
     0
  3
IGA
100
AcDbAlignedDimension
 13
756.1268363055141
 23
1324.678870119567
 33
0.0
 14
1035.126836305514
 24
679.6788701195672
 34
0.0
 50
90.0
100
AcDbRotatedDimension
1001
ACAD
1000
DSTYLE
1002
{
1070
   287
1070
     3
1070
     3
1000
(<>)
1070
    40
1040
10.0
1070
   143
1040
0.039
1070
   172
1070
     1
1070
   271
1070
     0
1070
   279
1070
     0
1002
}
  0
ENDSEC
  0
SECTION
  2
OBJECTS
  0
DICTIONARY
  5
C
330
0
100
AcDbDictionary
281
     1
  3
ACAD_CIP_PREVIOUS_PRODUCT_INFO
350
7F1A
  3
ACAD_COLOR
350
7EFD
  3
ACAD_DETAILVIEWSTYLE
350
7F16
  3
ACAD_GROUP
350
D
  3
ACAD_LAYOUT
350
7DEF
  3
ACAD_MATERIAL
350
7ECB
  3
ACAD_MLEADERSTYLE
350
7F12
  3
ACAD_MLINESTYLE
350
E
  3
ACAD_PLOTSETTINGS
350
7DF0
  3
ACAD_PLOTSTYLENAME
350
7DED
  3
ACAD_SCALELIST
350
7F00
  3
ACAD_SECTIONVIEWSTYLE
350
7F14
  3
ACAD_TABLESTYLE
350
7EFE
  3
ACAD_VISUALSTYLE
350
7EE4
  3
ACDB_RECOMPOSE_DATA
350
7FD4
  3
AcDbVariableDictionary
350
7EBE
  0
DICTIONARY
  5
7F1C
330
2
100
AcDbDictionary
280
     1
281
     1
  3
ACAD_LAYERSTATES
360
7F1D
  0
DICTIONARY
  5
7F7C
330
F
100
AcDbDictionary
280
     1
281
     1
  3
ADSK_XREC_LAYER_RECONCILED
360
7F7D
  0
DICTIONARY
  5
7F7E
330
31
100
AcDbDictionary
280
     1
281
     1
  3
ADSK_XREC_LAYER_RECONCILED
360
7F7F
  0
DICTIONARY
  5
7F80
330
76D0
100
AcDbDictionary
280
     1
281
     1
  3
ADSK_XREC_LAYER_RECONCILED
360
7F81
  0
DICTIONARY
  5
7F82
330
76D1
100
AcDbDictionary
280
     1
281
     1
  3
ADSK_XREC_LAYER_RECONCILED
360
7F83
  0
DICTIONARY
  5
7F84
330
76D2
100
AcDbDictionary
280
     1
281
     1
  3
ADSK_XREC_LAYER_RECONCILED
360
7F85
  0
DICTIONARY
  5
7E1C
330
19
100
AcDbDictionary
280
     1
281
     1
  3
ACAD_LAYOUTSELFREF
360
7E1D
  0
DICTIONARY
  5
7E1A
330
16
100
AcDbDictionary
280
     1
281
     1
  3
ACAD_LAYOUTSELFREF
360
7E1B
  0
XRECORD
  5
7F1A
102
{ACAD_REACTORS
330
C
102
}
330
C
100
AcDbXrecord
280
     1
300
ACDLT
300
2015
300
INVLTS_F_S
  0
DICTIONARY
  5
7EFD
102
{ACAD_REACTORS
330
C
102
}
330
C
100
AcDbDictionary
281
     1
  0
DICTIONARY
  5
7F16
102
{ACAD_REACTORS
330
C
102
}
330
C
100
AcDbDictionary
281
     1
  3
Imperial24
350
7F17
  0
DICTIONARY
  5
D
102
{ACAD_REACTORS
330
C
102
}
330
0
100
AcDbDictionary
281
     1
  0
DICTIONARY
  5
7DEF
102
{ACAD_REACTORS
330
C
102
}
330
C
100
AcDbDictionary
281
     1
  3
Model
350
7DF1
  3
ﾚｲｱｳﾄ1
350
7DF2
  0
DICTIONARY
  5
7ECB
102
{ACAD_REACTORS
330
C
102
}
330
C
100
AcDbDictionary
281
     1
  3
ByBlock
350
7ED4
  3
ByLayer
350
7ECC
  3
Global
350
7EDC
  0
DICTIONARY
  5
7F12
102
{ACAD_REACTORS
330
C
102
}
330
C
100
AcDbDictionary
281
     1
  3
Standard
350
7F13
  0
DICTIONARY
  5
E
102
{ACAD_REACTORS
330
C
102
}
330
0
100
AcDbDictionary
281
     1
  3
STANDARD
350
1C
  0
DICTIONARY
  5
7DF0
102
{ACAD_REACTORS
330
C
102
}
330
C
100
AcDbDictionary
281
     1
  0
ACDBDICTIONARYWDFLT
  5
7DED
102
{ACAD_REACTORS
330
C
102
}
330
C
100
AcDbDictionary
281
     1
  3
Normal
350
7DEE
100
AcDbDictionaryWithDefault
340
7DEE
1001
ACAD
1000
TREAT_AS_HARD
1070
     0
  0
DICTIONARY
  5
7F00
102
{ACAD_REACTORS
330
C
102
}
330
C
100
AcDbDictionary
281
     1
  3
A0
350
7F01
  3
A1
350
7F02
  3
A2
350
7F03
  3
A3
350
7F04
  3
A4
350
7F05
  3
A5
350
7F06
  3
A6
350
7F07
  3
A7
350
7F08
  3
A8
350
7F09
  3
A9
350
7F0A
  3
B0
350
7F0B
  3
B1
350
7F0C
  3
B2
350
7F0D
  3
B3
350
7F0E
  3
B4
350
7F0F
  3
B5
350
7F10
  3
B6
350
7F11
  0
DICTIONARY
  5
7F14
102
{ACAD_REACTORS
330
C
102
}
330
C
100
AcDbDictionary
281
     1
  3
Imperial24
350
7F15
  0
DICTIONARY
  5
7EFE
102
{ACAD_REACTORS
330
C
102
}
330
C
100
AcDbDictionary
281
     1
  3
Standard
350
7EFF
  0
DICTIONARY
  5
7EE4
102
{ACAD_REACTORS
330
C
102
}
330
C
100
AcDbDictionary
281
     1
  3
2dWireframe
350
7EEA
  3
Basic
350
7EE9
  3
Brighten
350
7EF0
  3
ColorChange
350
7EF4
  3
Conceptual
350
7EED
  3
Dim
350
7EEF
  3
EdgeColorOff
350
7EFC
  3
Facepattern
350
7EF3
  3
Flat
350
7EE5
  3
FlatWithEdges
350
7EE6
  3
Gouraud
350
7EE7
  3
GouraudWithEdges
350
7EE8
  3
Hidden
350
7EEC
  3
JitterOff
350
7EFA
  3
Linepattern
350
7EF2
  3
OverhangOff
350
7EFB
  3
Realistic
350
7EEE
  3
Shaded
350
7EF9
  3
Shaded with edges
350
7EF8
  3
Shades of Gray
350
7EF5
  3
Sketchy
350
7EF6
  3
Thicken
350
7EF1
  3
Wireframe
350
7EEB
  3
X-Ray
350
7EF7
  0
XRECORD
  5
7FD4
102
{ACAD_REACTORS
330
C
102
}
330
C
100
AcDbXrecord
280
     1
 90
        1
330
7EFF
330
7F15
330
7F17
  0
DICTIONARY
  5
7EBE
102
{ACAD_REACTORS
330
C
102
}
330
C
100
AcDbDictionary
281
     1
  3
CANNOSCALE
350
7F97
  3
CMLEADERSTYLE
350
7F93
  3
CTABLESTYLE
350
7F92
  3
CVIEWDETAILSTYLE
350
7F94
  3
CVIEWSECTIONSTYLE
350
7F95
  3
DIMASSOC
350
7EBF
  3
LAYEREVAL
350
7F99
  3
LAYERNOTIFY
350
7F9A
  3
LIGHTINGUNITS
350
7F98
  3
MSLTSCALE
350
7F96
  0
DICTIONARY
  5
7F1D
102
{ACAD_REACTORS
330
7F1C
102
}
330
7F1C
100
AcDbDictionary
281
     1
  0
XRECORD
  5
7F7D
102
{ACAD_REACTORS
330
7F7C
102
}
330
7F7C
100
AcDbXrecord
280
     1
290
     1
  0
XRECORD
  5
7F7F
102
{ACAD_REACTORS
330
7F7E
102
}
330
7F7E
100
AcDbXrecord
280
     1
290
     1
  0
XRECORD
  5
7F81
102
{ACAD_REACTORS
330
7F80
102
}
330
7F80
100
AcDbXrecord
280
     1
290
     1
  0
XRECORD
  5
7F83
102
{ACAD_REACTORS
330
7F82
102
}
330
7F82
100
AcDbXrecord
280
     1
290
     1
  0
XRECORD
  5
7F85
102
{ACAD_REACTORS
330
7F84
102
}
330
7F84
100
AcDbXrecord
280
     1
290
     1
  0
XRECORD
  5
7E1D
102
{ACAD_REACTORS
330
7E1C
102
}
330
7E1C
100
AcDbXrecord
280
     1
340
19
  0
XRECORD
  5
7E1B
102
{ACAD_REACTORS
330
7E1A
102
}
330
7E1A
100
AcDbXrecord
280
     1
340
16
  0
ACDBDETAILVIEWSTYLE
  5
7F17
102
{ACAD_XDICTIONARY
360
7F8F
102
}
102
{ACAD_REACTORS
330
7F16
102
}
330
7F16
100
AcDbModelDocViewStyle
 70
     0
  3
Imperial24
290
     0
100
AcDbDetailViewStyle
 70
     0
 71
     0
 90
        3
 71
     1
340
10
 62
   256
 40
0.24
340
0
 62
   256
 40
0.24
300

 40
0.36
280
     3
 71
     2
340
15
 90
       25
 62
   256
 71
     3
340
10
 62
   256
 40
0.24
 90
        1
 40
0.75
 90
        1
300
%<\AcVar ViewType \f "%tc1">% %<\AcVar ViewDetailId>%\PSCALE %<\AcVar ViewScale \f "%sn">%
 71
     4
340
15
 90
       25
 62
   256
340
15
 90
       25
 62
   256
280
     0
  0
LAYOUT
  5
7DF1
102
{ACAD_REACTORS
330
7DEF
102
}
330
7DEF
100
AcDbPlotSettings
  1

  2
\\Txbo34x8944cqyd\EPSON LP-6100
  4

  6

 40
0.0
 41
0.0
 42
0.0
 43
0.0
 44
0.0
 45
0.0
 46
0.0
 47
0.0
 48
0.0
 49
0.0
140
0.0
141
0.0
142
1.0
143
1.0
 70
  1712
 72
     0
 73
     0
 74
     0
  7
GOD2000TABLE.ctb
 75
     0
147
1.0
 76
     0
 77
     2
 78
   300
148
0.0
149
0.0
100
AcDbLayout
  1
Model
 70
     1
 71
     0
 10
0.0
 20
0.0
 11
12.0
 21
9.0
 12
0.0
 22
0.0
 32
0.0
 14
0.0
 24
0.0
 34
0.0
 15
0.0
 25
0.0
 35
0.0
146
0.0
 13
0.0
 23
0.0
 33
0.0
 16
1.0
 26
0.0
 36
0.0
 17
0.0
 27
1.0
 37
0.0
 76
     0
330
19
331
7EC9
  0
LAYOUT
  5
7DF2
102
{ACAD_REACTORS
330
7DEF
102
}
330
7DEF
100
AcDbPlotSettings
  1

  2
\\Txbo34x8944cqyd\EPSON LP-6100
  4

  6

 40
0.0
 41
0.0
 42
0.0
 43
0.0
 44
0.0
 45
0.0
 46
0.0
 47
0.0
 48
0.0
 49
0.0
140
0.0
141
0.0
142
1.0
143
1.0
 70
   688
 72
     0
 73
     0
 74
     5
  7
GOD2000TABLE.ctb
 75
    16
147
1.0
 76
     0
 77
     2
 78
   300
148
0.0
149
0.0
100
AcDbLayout
  1
ﾚｲｱｳﾄ1
 70
     1
 71
     1
 10
0.0
 20
0.0
 11
12.0
 21
9.0
 12
0.0
 22
0.0
 32
0.0
 14
1.000000000000000E+20
 24
1.000000000000000E+20
 34
1.000000000000000E+20
 15
-1.000000000000000E+20
 25
-1.000000000000000E+20
 35
-1.000000000000000E+20
146
0.0
 13
0.0
 23
0.0
 33
0.0
 16
1.0
 26
0.0
 36
0.0
 17
0.0
 27
1.0
 37
0.0
 76
     0
330
16
  0
MATERIAL
  5
7ED4
102
{ACAD_XDICTIONARY
360
7ED5
102
}
102
{ACAD_REACTORS
330
7ECB
102
}
330
7ECB
100
AcDbMaterial
  1
ByBlock
 72
     0
 43
0.0208333333333333
 43
0.0
 43
0.0
 43
0.0
 43
0.0
 43
0.0208333333333333
 43
0.0
 43
0.0
 43
0.0
 43
0.0
 43
1.0
 43
0.0
 43
0.0
 43
0.0
 43
0.0
 43
1.0
 77
     0
 47
0.0208333333333333
 47
0.0
 47
0.0
 47
0.0
 47
0.0
 47
0.0208333333333333
 47
0.0
 47
0.0
 47
0.0
 47
0.0
 47
1.0
 47
0.0
 47
0.0
 47
0.0
 47
0.0
 47
1.0
171
     0
 49
0.0208333333333333
 49
0.0
 49
0.0
 49
0.0
 49
0.0
 49
0.0208333333333333
 49
0.0
 49
0.0
 49
0.0
 49
0.0
 49
1.0
 49
0.0
 49
0.0
 49
0.0
 49
0.0
 49
1.0
175
     0
142
0.0208333333333333
142
0.0
142
0.0
142
0.0
142
0.0
142
0.0208333333333333
142
0.0
142
0.0
142
0.0
142
0.0
142
1.0
142
0.0
142
0.0
142
0.0
142
0.0
142
1.0
179
     0
144
0.0208333333333333
144
0.0
144
0.0
144
0.0
144
0.0
144
0.0208333333333333
144
0.0
144
0.0
144
0.0
144
0.0
144
1.0
144
0.0
144
0.0
144
0.0
144
0.0
144
1.0
147
0.0208333333333333
147
0.0
147
0.0
147
0.0
147
0.0
147
0.0208333333333333
147
0.0
147
0.0
147
0.0
147
0.0
147
1.0
147
0.0
147
0.0
147
0.0
147
0.0
147
1.0
  0
MATERIAL
  5
7ECC
102
{ACAD_XDICTIONARY
360
7ECD
102
}
102
{ACAD_REACTORS
330
7ECB
102
}
330
7ECB
100
AcDbMaterial
  1
ByLayer
 72
     0
 43
0.0208333333333333
 43
0.0
 43
0.0
 43
0.0
 43
0.0
 43
0.0208333333333333
 43
0.0
 43
0.0
 43
0.0
 43
0.0
 43
1.0
 43
0.0
 43
0.0
 43
0.0
 43
0.0
 43
1.0
 77
     0
 47
0.0208333333333333
 47
0.0
 47
0.0
 47
0.0
 47
0.0
 47
0.0208333333333333
 47
0.0
 47
0.0
 47
0.0
 47
0.0
 47
1.0
 47
0.0
 47
0.0
 47
0.0
 47
0.0
 47
1.0
171
     0
 49
0.0208333333333333
 49
0.0
 49
0.0
 49
0.0
 49
0.0
 49
0.0208333333333333
 49
0.0
 49
0.0
 49
0.0
 49
0.0
 49
1.0
 49
0.0
 49
0.0
 49
0.0
 49
0.0
 49
1.0
175
     0
142
0.0208333333333333
142
0.0
142
0.0
142
0.0
142
0.0
142
0.0208333333333333
142
0.0
142
0.0
142
0.0
142
0.0
142
1.0
142
0.0
142
0.0
142
0.0
142
0.0
142
1.0
179
     0
144
0.0208333333333333
144
0.0
144
0.0
144
0.0
144
0.0
144
0.0208333333333333
144
0.0
144
0.0
144
0.0
144
0.0
144
1.0
144
0.0
144
0.0
144
0.0
144
0.0
144
1.0
147
0.0208333333333333
147
0.0
147
0.0
147
0.0
147
0.0
147
0.0208333333333333
147
0.0
147
0.0
147
0.0
147
0.0
147
1.0
147
0.0
147
0.0
147
0.0
147
0.0
147
1.0
  0
MATERIAL
  5
7EDC
102
{ACAD_XDICTIONARY
360
7EDD
102
}
102
{ACAD_REACTORS
330
7ECB
102
}
330
7ECB
100
AcDbMaterial
  1
Global
 72
     0
 43
0.0208333333333333
 43
0.0
 43
0.0
 43
0.0
 43
0.0
 43
0.0208333333333333
 43
0.0
 43
0.0
 43
0.0
 43
0.0
 43
1.0
 43
0.0
 43
0.0
 43
0.0
 43
0.0
 43
1.0
 77
     0
 47
0.0208333333333333
 47
0.0
 47
0.0
 47
0.0
 47
0.0
 47
0.0208333333333333
 47
0.0
 47
0.0
 47
0.0
 47
0.0
 47
1.0
 47
0.0
 47
0.0
 47
0.0
 47
0.0
 47
1.0
171
     0
 49
0.0208333333333333
 49
0.0
 49
0.0
 49
0.0
 49
0.0
 49
0.0208333333333333
 49
0.0
 49
0.0
 49
0.0
 49
0.0
 49
1.0
 49
0.0
 49
0.0
 49
0.0
 49
0.0
 49
1.0
175
     0
142
0.0208333333333333
142
0.0
142
0.0
142
0.0
142
0.0
142
0.0208333333333333
142
0.0
142
0.0
142
0.0
142
0.0
142
1.0
142
0.0
142
0.0
142
0.0
142
0.0
142
1.0
179
     0
144
0.0208333333333333
144
0.0
144
0.0
144
0.0
144
0.0
144
0.0208333333333333
144
0.0
144
0.0
144
0.0
144
0.0
144
1.0
144
0.0
144
0.0
144
0.0
144
0.0
144
1.0
147
0.0208333333333333
147
0.0
147
0.0
147
0.0
147
0.0
147
0.0208333333333333
147
0.0
147
0.0
147
0.0
147
0.0
147
1.0
147
0.0
147
0.0
147
0.0
147
0.0
147
1.0
  0
MLEADERSTYLE
  5
7F13
102
{ACAD_REACTORS
330
7F12
102
}
330
7F12
100
AcDbMLeaderStyle
179
     2
170
     2
171
     1
172
     0
 90
        2
 40
0.0
 41
0.0
173
     1
 91
-1056964608
340
13
 92
       -2
290
     1
 42
0.09
291
     1
 43
0.36
  3
Standard
 44
0.18
300

342
10
174
     1
178
     6
175
     1
176
     0
 93
-1056964608
 45
0.18
292
     0
297
     0
 46
0.18
 94
-1056964608
 47
1.0
 49
1.0
140
1.0
293
     1
141
0.0
294
     1
177
     0
142
1.0
295
     1
296
     0
143
0.125
271
     0
272
     9
273
     9
298
     1
  0
MLINESTYLE
  5
1C
102
{ACAD_REACTORS
330
E
102
}
330
0
100
AcDbMlineStyle
  2
STANDARD
 70
     0
  3

 62
     0
 51
90.0
 52
90.0
 71
     2
 49
0.5
 62
   256
  6
BYLAYER
 49
-0.5
 62
   256
  6
BYLAYER
  0
ACDBPLACEHOLDER
  5
7DEE
102
{ACAD_REACTORS
330
7DED
102
}
330
7DED
  0
SCALE
  5
7F01
102
{ACAD_REACTORS
330
7F00
102
}
330
7F00
100
AcDbScale
 70
     0
300
1:1
140
1.0
141
1.0
290
     1
  0
SCALE
  5
7F02
102
{ACAD_REACTORS
330
7F00
102
}
330
7F00
100
AcDbScale
 70
     0
300
1/128" = 1'-0"
140
0.0078125
141
12.0
290
     0
  0
SCALE
  5
7F03
102
{ACAD_REACTORS
330
7F00
102
}
330
7F00
100
AcDbScale
 70
     0
300
1/64" = 1'-0"
140
0.015625
141
12.0
290
     0
  0
SCALE
  5
7F04
102
{ACAD_REACTORS
330
7F00
102
}
330
7F00
100
AcDbScale
 70
     0
300
1/32" = 1'-0"
140
0.03125
141
12.0
290
     0
  0
SCALE
  5
7F05
102
{ACAD_REACTORS
330
7F00
102
}
330
7F00
100
AcDbScale
 70
     0
300
1/16" = 1'-0"
140
0.0625
141
12.0
290
     0
  0
SCALE
  5
7F06
102
{ACAD_REACTORS
330
7F00
102
}
330
7F00
100
AcDbScale
 70
     0
300
3/32" = 1'-0"
140
0.09375
141
12.0
290
     0
  0
SCALE
  5
7F07
102
{ACAD_REACTORS
330
7F00
102
}
330
7F00
100
AcDbScale
 70
     0
300
1/8" = 1'-0"
140
0.125
141
12.0
290
     0
  0
SCALE
  5
7F08
102
{ACAD_REACTORS
330
7F00
102
}
330
7F00
100
AcDbScale
 70
     0
300
3/16" = 1'-0"
140
0.1875
141
12.0
290
     0
  0
SCALE
  5
7F09
102
{ACAD_REACTORS
330
7F00
102
}
330
7F00
100
AcDbScale
 70
     0
300
1/4" = 1'-0"
140
0.25
141
12.0
290
     0
  0
SCALE
  5
7F0A
102
{ACAD_REACTORS
330
7F00
102
}
330
7F00
100
AcDbScale
 70
     0
300
3/8" = 1'-0"
140
0.375
141
12.0
290
     0
  0
SCALE
  5
7F0B
102
{ACAD_REACTORS
330
7F00
102
}
330
7F00
100
AcDbScale
 70
     0
300
1/2" = 1'-0"
140
0.5
141
12.0
290
     0
  0
SCALE
  5
7F0C
102
{ACAD_REACTORS
330
7F00
102
}
330
7F00
100
AcDbScale
 70
     0
300
3/4" = 1'-0"
140
0.75
141
12.0
290
     0
  0
SCALE
  5
7F0D
102
{ACAD_REACTORS
330
7F00
102
}
330
7F00
100
AcDbScale
 70
     0
300
1" = 1'-0"
140
1.0
141
12.0
290
     0
  0
SCALE
  5
7F0E
102
{ACAD_REACTORS
330
7F00
102
}
330
7F00
100
AcDbScale
 70
     0
300
1-1/2" = 1'-0"
140
1.5
141
12.0
290
     0
  0
SCALE
  5
7F0F
102
{ACAD_REACTORS
330
7F00
102
}
330
7F00
100
AcDbScale
 70
     0
300
3" = 1'-0"
140
3.0
141
12.0
290
     0
  0
SCALE
  5
7F10
102
{ACAD_REACTORS
330
7F00
102
}
330
7F00
100
AcDbScale
 70
     0
300
6" = 1'-0"
140
6.0
141
12.0
290
     0
  0
SCALE
  5
7F11
102
{ACAD_REACTORS
330
7F00
102
}
330
7F00
100
AcDbScale
 70
     0
300
1'-0" = 1'-0"
140
12.0
141
12.0
290
     0
  0
ACDBSECTIONVIEWSTYLE
  5
7F15
102
{ACAD_XDICTIONARY
360
7F8D
102
}
102
{ACAD_REACTORS
330
7F14
102
}
330
7F14
100
AcDbModelDocViewStyle
 70
     0
  3
Imperial24
290
     0
100
AcDbSectionViewStyle
 70
     0
 71
     0
 90
       78
 71
     1
340
10
 62
   256
 40
0.24
340
0
340
0
 62
   256
 40
0.24
300
I, O, Q, S, X, Z
 40
0.48
 90
        3
 40
0.18
 90
        1
 71
     2
340
15
 90
       25
 62
   256
340
15
 90
       50
 62
   256
 40
0.24
 40
0.0
 40
0.24
 71
     3
340
10
 62
   256
 40
0.24
 90
        1
 40
0.75
 90
        1
300
%<\AcVar ViewType \f "%tc1">% %<\AcVar ViewSectionStartId>%-%<\AcVar ViewSectionEndId>%\PSCALE %<\AcVar ViewScale \f "%sn">%
 71
     4
 62
   256
 62
   257
300
ANSI31
 40
1.0
 90
        0
290
     0
290
     0
 90
        6
 40
0.0
 40
1.570796326794896
 40
0.2617993877991494
 40
1.308996938995747
 40
-0.2617993877991494
 40
1.832595714594046
  0
TABLESTYLE
  5
7EFF
102
{ACAD_XDICTIONARY
360
7FD0
102
}
102
{ACAD_REACTORS
330
7EFE
102
}
330
7EFE
100
AcDbTableStyle
280
     0
  3
Standard
 70
     0
 71
     0
 40
0.06
 41
0.06
280
     0
281
     0
  7
STANDARD
140
0.18
170
     2
 62
     0
 63
     7
283
     0
 90
      512
 91
        0
  1

274
    -2
284
     1
 64
     0
275
    -2
285
     1
 65
     0
276
    -2
286
     1
 66
     0
277
    -2
287
     1
 67
     0
278
    -2
288
     1
 68
     0
279
    -2
289
     1
 69
     0
  7
STANDARD
140
0.25
170
     5
 62
     0
 63
     7
283
     0
 90
      512
 91
        0
  1

274
    -2
284
     1
 64
     0
275
    -2
285
     1
 65
     0
276
    -2
286
     1
 66
     0
277
    -2
287
     1
 67
     0
278
    -2
288
     1
 68
     0
279
    -2
289
     1
 69
     0
  7
STANDARD
140
0.18
170
     5
 62
     0
 63
     7
283
     0
 90
      512
 91
        0
  1

274
    -2
284
     1
 64
     0
275
    -2
285
     1
 65
     0
276
    -2
286
     1
 66
     0
277
    -2
287
     1
 67
     0
278
    -2
288
     1
 68
     0
279
    -2
289
     1
 69
     0
  0
VISUALSTYLE
  5
7EEA
102
{ACAD_REACTORS
330
7EE4
102
}
330
7EE4
100
AcDbVisualStyle
  2
2dWireframe
 70
     4
177
     3
291
     0
 70
    58
 90
        0
176
     1
 90
        2
176
     1
 90
        0
176
     1
 90
        0
176
     1
 40
0.6
176
     1
 40
30.0
176
     1
 62
     7
420
 16777215
176
     1
 90
        1
176
     1
 90
        4
176
     1
 62
     7
176
     1
 62
   257
176
     1
 90
        1
176
     1
 90
        1
176
     1
 40
1.0
176
     1
 90
        0
176
     1
 62
   257
176
     1
 40
1.0
176
     1
 90
        1
176
     1
 90
        6
176
     1
 90
        2
176
     1
 62
     7
176
     1
 90
        5
176
     1
 90
        0
176
     1
 90
        0
176
     1
290
     0
176
     1
 90
        1
176
     1
 40
0.0
176
     1
 90
        0
176
     1
290
     1
176
     1
290
     1
176
     1
290
     0
176
     1
290
     0
176
     1
290
     0
176
     1
290
     0
176
     1
290
     0
176
     1
290
     0
176
     1
290
     0
176
     1
 90
       50
176
     1
 40
0.0
176
     1
 40
1.0
176
     1
 90
        0
176
     1
 62
    18
420
        0
176
     1
 90
       50
176
     1
 90
        3
176
     1
 62
     5
420
      255
176
     1
290
     0
176
     1
 90
       50
176
     1
 90
       50
176
     1
 90
       50
176
     1
290
     0
176
     1
 90
       50
176
     1
 62
   256
176
     0
 40
1.0
176
     0
 90
        2
176
     1
  1
strokes_ogs.tif
176
     1
290
     0
176
     1
 40
1.0
176
     1
 40
1.0
176
     1
  0
VISUALSTYLE
  5
7EE9
102
{ACAD_REACTORS
330
7EE4
102
}
330
7EE4
100
AcDbVisualStyle
  2
Basic
 70
     7
177
     3
291
     1
 70
    58
 90
        1
176
     1
 90
        0
176
     1
 90
        1
176
     1
 90
        0
176
     1
 40
0.6
176
     1
 40
30.0
176
     1
 62
     7
420
 16777215
176
     1
 90
        0
176
     1
 90
        4
176
     1
 62
     7
176
     1
 62
   257
176
     1
 90
        1
176
     1
 90
        1
176
     1
 40
1.0
176
     1
 90
        8
176
     1
 62
     7
176
     1
 40
1.0
176
     1
 90
        1
176
     1
 90
        6
176
     1
 90
        2
176
     1
 62
     7
176
     1
 90
        5
176
     1
 90
        0
176
     1
 90
        0
176
     1
290
     0
176
     1
 90
        1
176
     1
 40
0.0
176
     1
 90
        0
176
     1
290
     0
176
     1
290
     1
176
     1
290
     1
176
     1
290
     0
176
     1
290
     0
176
     1
290
     0
176
     1
290
     0
176
     1
290
     0
176
     1
290
     0
176
     1
 90
       50
176
     1
 40
0.0
176
     1
 40
1.0
176
     1
 90
        0
176
     1
 62
    18
420
        0
176
     1
 90
       50
176
     1
 90
        3
176
     1
 62
     5
420
      255
176
     1
290
     0
176
     1
 90
       50
176
     1
 90
       50
176
     1
 90
       50
176
     1
290
     0
176
     1
 90
       50
176
     1
 62
   256
176
     0
 40
1.0
176
     0
 90
        2
176
     1
  1
strokes_ogs.tif
176
     1
290
     0
176
     1
 40
1.0
176
     1
 40
1.0
176
     1
  0
VISUALSTYLE
  5
7EF0
102
{ACAD_REACTORS
330
7EE4
102
}
330
7EE4
100
AcDbVisualStyle
  2
Brighten
 70
    12
177
     3
291
     1
 70
    58
 90
        2
176
     1
 90
        2
176
     1
 90
        0
176
     1
 90
        0
176
     1
 40
0.6
176
     1
 40
30.0
176
     1
 62
     7
420
 16777215
176
     1
 90
        1
176
     1
 90
        4
176
     1
 62
     7
176
     1
 62
   257
176
     1
 90
        1
176
     1
 90
        1
176
     1
 40
1.0
176
     1
 90
        8
176
     1
 62
     7
176
     1
 40
1.0
176
     1
 90
        1
176
     1
 90
        6
176
     1
 90
        2
176
     1
 62
     7
176
     1
 90
        5
176
     1
 90
        0
176
     1
 90
        0
176
     1
290
     0
176
     1
 90
        1
176
     1
 40
50.0
176
     1
 90
        0
176
     1
290
     0
176
     1
290
     1
176
     1
290
     1
176
     1
290
     0
176
     1
290
     0
176
     1
290
     0
176
     1
290
     0
176
     1
290
     0
176
     1
290
     0
176
     1
 90
       50
176
     1
 40
0.0
176
     1
 40
1.0
176
     1
 90
        0
176
     1
 62
    18
420
        0
176
     1
 90
       50
176
     1
 90
        3
176
     1
 62
     5
420
      255
176
     1
290
     0
176
     1
 90
       50
176
     1
 90
       50
176
     1
 90
       50
176
     1
290
     0
176
     1
 90
       50
176
     1
 62
   256
176
     0
 40
1.0
176
     0
 90
        2
176
     1
  1
strokes_ogs.tif
176
     1
290
     0
176
     1
 40
1.0
176
     1
 40
1.0
176
     1
  0
VISUALSTYLE
  5
7EF4
102
{ACAD_REACTORS
330
7EE4
102
}
330
7EE4
100
AcDbVisualStyle
  2
ColorChange
 70
    16
177
     3
291
     1
 70
    58
 90
        2
176
     1
 90
        2
176
     1
 90
        3
176
     1
 90
        0
176
     1
 40
0.6
176
     1
 40
30.0
176
     1
 62
     8
420
  8421504
176
     1
 90
        1
176
     1
 90
        4
176
     1
 62
     7
176
     1
 62
   257
176
     1
 90
        1
176
     1
 90
        1
176
     1
 40
1.0
176
     1
 90
        8
176
     1
 62
     8
420
  8421504
176
     1
 40
1.0
176
     1
 90
        1
176
     1
 90
        6
176
     1
 90
        2
176
     1
 62
     7
176
     1
 90
        5
176
     1
 90
        0
176
     1
 90
        0
176
     1
290
     0
176
     1
 90
        1
176
     1
 40
0.0
176
     1
 90
        0
176
     1
290
     0
176
     1
290
     1
176
     1
290
     1
176
     1
290
     0
176
     1
290
     0
176
     1
290
     0
176
     1
290
     0
176
     1
290
     0
176
     1
290
     0
176
     1
 90
       50
176
     1
 40
0.0
176
     1
 40
1.0
176
     1
 90
        0
176
     1
 62
    18
420
        0
176
     1
 90
       50
176
     1
 90
        3
176
     1
 62
     5
420
      255
176
     1
290
     0
176
     1
 90
       50
176
     1
 90
       50
176
     1
 90
       50
176
     1
290
     0
176
     1
 90
       50
176
     1
 62
   256
176
     0
 40
1.0
176
     0
 90
        2
176
     1
  1
strokes_ogs.tif
176
     1
290
     0
176
     1
 40
1.0
176
     1
 40
1.0
176
     1
  0
VISUALSTYLE
  5
7EED
102
{ACAD_REACTORS
330
7EE4
102
}
330
7EE4
100
AcDbVisualStyle
  2
Conceptual
 70
     9
177
     3
291
     0
 70
    58
 90
        3
176
     1
 90
        2
176
     1
 90
        0
176
     1
 90
        0
176
     1
 40
0.6
176
     1
 40
30.0
176
     1
 62
     7
420
 16777215
176
     1
 90
        2
176
     1
 90
        2
176
     1
 62
     7
176
     1
 62
   257
176
     1
 90
        1
176
     1
 90
        1
176
     1
 40
179.0
176
     1
 90
        8
176
     1
 62
     7
176
     1
 40
1.0
176
     1
 90
        1
176
     1
 90
        6
176
     1
 90
        2
176
     1
 62
     7
176
     1
 90
        3
176
     1
 90
        0
176
     1
 90
        0
176
     1
290
     0
176
     1
 90
        1
176
     1
 40
0.0
176
     1
 90
        0
176
     1
290
     0
176
     1
290
     1
176
     1
290
     1
176
     1
290
     0
176
     1
290
     0
176
     1
290
     0
176
     1
290
     0
176
     1
290
     0
176
     1
290
     0
176
     1
 90
       50
176
     1
 40
0.0
176
     1
 40
1.0
176
     1
 90
        0
176
     1
 62
    18
420
        0
176
     1
 90
       50
176
     1
 90
        3
176
     1
 62
     5
420
      255
176
     1
290
     0
176
     1
 90
       50
176
     1
 90
       50
176
     1
 90
       50
176
     1
290
     0
176
     1
 90
       50
176
     1
 62
   256
176
     0
 40
1.0
176
     0
 90
        2
176
     1
  1
strokes_ogs.tif
176
     1
290
     0
176
     1
 40
1.0
176
     1
 40
1.0
176
     1
  0
VISUALSTYLE
  5
7EEF
102
{ACAD_REACTORS
330
7EE4
102
}
330
7EE4
100
AcDbVisualStyle
  2
Dim
 70
    11
177
     3
291
     1
 70
    58
 90
        2
176
     1
 90
        2
176
     1
 90
        0
176
     1
 90
        0
176
     1
 40
0.6
176
     1
 40
30.0
176
     1
 62
     7
420
 16777215
176
     1
 90
        1
176
     1
 90
        4
176
     1
 62
     7
176
     1
 62
   257
176
     1
 90
        1
176
     1
 90
        1
176
     1
 40
1.0
176
     1
 90
        8
176
     1
 62
     7
176
     1
 40
1.0
176
     1
 90
        1
176
     1
 90
        6
176
     1
 90
        2
176
     1
 62
     7
176
     1
 90
        5
176
     1
 90
        0
176
     1
 90
        0
176
     1
290
     0
176
     1
 90
        1
176
     1
 40
-50.0
176
     1
 90
        0
176
     1
290
     0
176
     1
290
     1
176
     1
290
     1
176
     1
290
     0
176
     1
290
     0
176
     1
290
     0
176
     1
290
     0
176
     1
290
     0
176
     1
290
     0
176
     1
 90
       50
176
     1
 40
0.0
176
     1
 40
1.0
176
     1
 90
        0
176
     1
 62
    18
420
        0
176
     1
 90
       50
176
     1
 90
        3
176
     1
 62
     5
420
      255
176
     1
290
     0
176
     1
 90
       50
176
     1
 90
       50
176
     1
 90
       50
176
     1
290
     0
176
     1
 90
       50
176
     1
 62
   256
176
     0
 40
1.0
176
     0
 90
        2
176
     1
  1
strokes_ogs.tif
176
     1
290
     0
176
     1
 40
1.0
176
     1
 40
1.0
176
     1
  0
VISUALSTYLE
  5
7EFC
102
{ACAD_REACTORS
330
7EE4
102
}
330
7EE4
100
AcDbVisualStyle
  2
EdgeColorOff
 70
    22
177
     3
291
     1
 70
    58
 90
        2
176
     0
 90
        2
176
     0
 90
        0
176
     0
 90
        0
176
     0
 40
0.6
176
     0
 40
30.0
176
     0
 62
     7
420
 16777215
176
     0
 90
        1
176
     0
 90
        4
176
     0
 62
     7
176
     0
 62
   257
176
     0
 90
        1
176
     0
 90
        1
176
     0
 40
1.0
176
     0
 90
        8
176
     2
 62
     7
176
     0
 40
1.0
176
     0
 90
        1
176
     0
 90
        6
176
     0
 90
        2
176
     0
 62
     7
176
     0
 90
        5
176
     0
 90
        0
176
     0
 90
        0
176
     0
290
     0
176
     0
 90
        1
176
     0
 40
0.0
176
     0
 90
        0
176
     0
290
     0
176
     0
290
     1
176
     0
290
     1
176
     0
290
     0
176
     0
290
     0
176
     0
290
     0
176
     0
290
     0
176
     0
290
     0
176
     0
290
     0
176
     0
 90
       50
176
     0
 40
0.0
176
     0
 40
1.0
176
     0
 90
        0
176
     0
 62
    18
420
        0
176
     0
 90
       50
176
     0
 90
        3
176
     0
 62
     5
420
      255
176
     0
290
     0
176
     0
 90
       50
176
     0
 90
       50
176
     0
 90
       50
176
     0
290
     0
176
     0
 90
       50
176
     0
 62
   256
176
     0
 40
1.0
176
     0
 90
        2
176
     0
  1
strokes_ogs.tif
176
     0
290
     0
176
     0
 40
1.0
176
     0
 40
1.0
176
     0
  0
VISUALSTYLE
  5
7EF3
102
{ACAD_REACTORS
330
7EE4
102
}
330
7EE4
100
AcDbVisualStyle
  2
Facepattern
 70
    15
177
     3
291
     1
 70
    58
 90
        2
176
     1
 90
        2
176
     1
 90
        0
176
     1
 90
        0
176
     1
 40
0.6
176
     1
 40
30.0
176
     1
 62
     7
420
 16777215
176
     1
 90
        1
176
     1
 90
        4
176
     1
 62
     7
176
     1
 62
   257
176
     1
 90
        1
176
     1
 90
        1
176
     1
 40
1.0
176
     1
 90
        8
176
     1
 62
     7
176
     1
 40
1.0
176
     1
 90
        1
176
     1
 90
        6
176
     1
 90
        2
176
     1
 62
     7
176
     1
 90
        5
176
     1
 90
        0
176
     1
 90
        0
176
     1
290
     0
176
     1
 90
        1
176
     1
 40
0.0
176
     1
 90
        0
176
     1
290
     0
176
     1
290
     1
176
     1
290
     1
176
     1
290
     0
176
     1
290
     0
176
     1
290
     0
176
     1
290
     0
176
     1
290
     0
176
     1
290
     0
176
     1
 90
       50
176
     1
 40
0.0
176
     1
 40
1.0
176
     1
 90
        0
176
     1
 62
    18
420
        0
176
     1
 90
       50
176
     1
 90
        3
176
     1
 62
     5
420
      255
176
     1
290
     0
176
     1
 90
       50
176
     1
 90
       50
176
     1
 90
       50
176
     1
290
     0
176
     1
 90
       50
176
     1
 62
   256
176
     0
 40
1.0
176
     0
 90
        2
176
     1
  1
strokes_ogs.tif
176
     1
290
     0
176
     1
 40
1.0
176
     1
 40
1.0
176
     1
  0
VISUALSTYLE
  5
7EE5
102
{ACAD_REACTORS
330
7EE4
102
}
330
7EE4
100
AcDbVisualStyle
  2
Flat
 70
     0
177
     3
291
     1
 70
    58
 90
        2
176
     1
 90
        1
176
     1
 90
        1
176
     1
 90
        2
176
     1
 40
0.6
176
     1
 40
30.0
176
     1
 62
     7
420
 16777215
176
     1
 90
        0
176
     1
 90
        0
176
     1
 62
     7
176
     1
 62
   257
176
     1
 90
        1
176
     1
 90
        1
176
     1
 40
1.0
176
     1
 90
        8
176
     1
 62
     7
176
     1
 40
1.0
176
     1
 90
        1
176
     1
 90
        6
176
     1
 90
        2
176
     1
 62
     7
176
     1
 90
        5
176
     1
 90
        0
176
     1
 90
        0
176
     1
290
     0
176
     1
 90
       13
176
     1
 40
0.0
176
     1
 90
        0
176
     1
290
     0
176
     1
290
     1
176
     1
290
     1
176
     1
290
     0
176
     1
290
     0
176
     1
290
     0
176
     1
290
     0
176
     1
290
     0
176
     1
290
     0
176
     1
 90
       50
176
     1
 40
0.0
176
     1
 40
1.0
176
     1
 90
        0
176
     1
 62
    18
420
        0
176
     1
 90
       50
176
     1
 90
        3
176
     1
 62
     5
420
      255
176
     1
290
     0
176
     1
 90
       50
176
     1
 90
       50
176
     1
 90
       50
176
     1
290
     0
176
     1
 90
       50
176
     1
 62
   256
176
     0
 40
1.0
176
     0
 90
        2
176
     1
  1
strokes_ogs.tif
176
     1
290
     0
176
     1
 40
1.0
176
     1
 40
1.0
176
     1
  0
VISUALSTYLE
  5
7EE6
102
{ACAD_REACTORS
330
7EE4
102
}
330
7EE4
100
AcDbVisualStyle
  2
FlatWithEdges
 70
     1
177
     3
291
     1
 70
    58
 90
        2
176
     1
 90
        1
176
     1
 90
        1
176
     1
 90
        2
176
     1
 40
0.6
176
     1
 40
30.0
176
     1
 62
     7
420
 16777215
176
     1
 90
        1
176
     1
 90
        0
176
     1
 62
     7
176
     1
 62
   257
176
     1
 90
        1
176
     1
 90
        1
176
     1
 40
1.0
176
     1
 90
        0
176
     1
 62
   257
176
     1
 40
1.0
176
     1
 90
        1
176
     1
 90
        6
176
     1
 90
        2
176
     1
 62
     7
176
     1
 90
        5
176
     1
 90
        0
176
     1
 90
        0
176
     1
290
     0
176
     1
 90
       13
176
     1
 40
0.0
176
     1
 90
        0
176
     1
290
     0
176
     1
290
     1
176
     1
290
     1
176
     1
290
     0
176
     1
290
     0
176
     1
290
     0
176
     1
290
     0
176
     1
290
     0
176
     1
290
     0
176
     1
 90
       50
176
     1
 40
0.0
176
     1
 40
1.0
176
     1
 90
        0
176
     1
 62
    18
420
        0
176
     1
 90
       50
176
     1
 90
        3
176
     1
 62
     5
420
      255
176
     1
290
     0
176
     1
 90
       50
176
     1
 90
       50
176
     1
 90
       50
176
     1
290
     0
176
     1
 90
       50
176
     1
 62
   256
176
     0
 40
1.0
176
     0
 90
        2
176
     1
  1
strokes_ogs.tif
176
     1
290
     0
176
     1
 40
1.0
176
     1
 40
1.0
176
     1
  0
VISUALSTYLE
  5
7EE7
102
{ACAD_REACTORS
330
7EE4
102
}
330
7EE4
100
AcDbVisualStyle
  2
Gouraud
 70
     2
177
     3
291
     1
 70
    58
 90
        2
176
     1
 90
        2
176
     1
 90
        1
176
     1
 90
        2
176
     1
 40
0.6
176
     1
 40
30.0
176
     1
 62
     7
420
 16777215
176
     1
 90
        0
176
     1
 90
        0
176
     1
 62
     7
176
     1
 62
   257
176
     1
 90
        1
176
     1
 90
        1
176
     1
 40
1.0
176
     1
 90
        0
176
     1
 62
     7
176
     1
 40
1.0
176
     1
 90
        1
176
     1
 90
        6
176
     1
 90
        2
176
     1
 62
     7
176
     1
 90
        5
176
     1
 90
        0
176
     1
 90
        0
176
     1
290
     0
176
     1
 90
       13
176
     1
 40
0.0
176
     1
 90
        0
176
     1
290
     0
176
     1
290
     1
176
     1
290
     1
176
     1
290
     0
176
     1
290
     0
176
     1
290
     0
176
     1
290
     0
176
     1
290
     0
176
     1
290
     0
176
     1
 90
       50
176
     1
 40
0.0
176
     1
 40
1.0
176
     1
 90
        0
176
     1
 62
    18
420
        0
176
     1
 90
       50
176
     1
 90
        3
176
     1
 62
     5
420
      255
176
     1
290
     0
176
     1
 90
       50
176
     1
 90
       50
176
     1
 90
       50
176
     1
290
     0
176
     1
 90
       50
176
     1
 62
   256
176
     0
 40
1.0
176
     0
 90
        2
176
     1
  1
strokes_ogs.tif
176
     1
290
     0
176
     1
 40
1.0
176
     1
 40
1.0
176
     1
  0
VISUALSTYLE
  5
7EE8
102
{ACAD_REACTORS
330
7EE4
102
}
330
7EE4
100
AcDbVisualStyle
  2
GouraudWithEdges
 70
     3
177
     3
291
     1
 70
    58
 90
        2
176
     1
 90
        2
176
     1
 90
        1
176
     1
 90
        2
176
     1
 40
0.6
176
     1
 40
30.0
176
     1
 62
     7
420
 16777215
176
     1
 90
        1
176
     1
 90
        0
176
     1
 62
     7
176
     1
 62
   257
176
     1
 90
        1
176
     1
 90
        1
176
     1
 40
1.0
176
     1
 90
        0
176
     1
 62
   257
176
     1
 40
1.0
176
     1
 90
        1
176
     1
 90
        6
176
     1
 90
        2
176
     1
 62
     7
176
     1
 90
        5
176
     1
 90
        0
176
     1
 90
        0
176
     1
290
     0
176
     1
 90
       13
176
     1
 40
0.0
176
     1
 90
        0
176
     1
290
     0
176
     1
290
     1
176
     1
290
     1
176
     1
290
     0
176
     1
290
     0
176
     1
290
     0
176
     1
290
     0
176
     1
290
     0
176
     1
290
     0
176
     1
 90
       50
176
     1
 40
0.0
176
     1
 40
1.0
176
     1
 90
        0
176
     1
 62
    18
420
        0
176
     1
 90
       50
176
     1
 90
        3
176
     1
 62
     5
420
      255
176
     1
290
     0
176
     1
 90
       50
176
     1
 90
       50
176
     1
 90
       50
176
     1
290
     0
176
     1
 90
       50
176
     1
 62
   256
176
     0
 40
1.0
176
     0
 90
        2
176
     1
  1
strokes_ogs.tif
176
     1
290
     0
176
     1
 40
1.0
176
     1
 40
1.0
176
     1
  0
VISUALSTYLE
  5
7EEC
102
{ACAD_REACTORS
330
7EE4
102
}
330
7EE4
100
AcDbVisualStyle
  2
Hidden
 70
     6
177
     3
291
     0
 70
    58
 90
        1
176
     1
 90
        2
176
     1
 90
        2
176
     1
 90
        0
176
     1
 40
0.6
176
     1
 40
30.0
176
     1
 62
     7
420
 16777215
176
     1
 90
        2
176
     1
 90
        2
176
     1
 62
     7
176
     1
 62
   257
176
     1
 90
        2
176
     1
 90
        1
176
     1
 40
40.0
176
     1
 90
        0
176
     1
 62
   257
176
     1
 40
1.0
176
     1
 90
        1
176
     1
 90
        6
176
     1
 90
        2
176
     1
 62
     7
176
     1
 90
        3
176
     1
 90
        0
176
     1
 90
        0
176
     1
290
     0
176
     1
 90
        1
176
     1
 40
0.0
176
     1
 90
        0
176
     1
290
     0
176
     1
290
     1
176
     1
290
     1
176
     1
290
     0
176
     1
290
     0
176
     1
290
     0
176
     1
290
     0
176
     1
290
     0
176
     1
290
     0
176
     1
 90
       50
176
     1
 40
0.0
176
     1
 40
1.0
176
     1
 90
        0
176
     1
 62
    18
420
        0
176
     1
 90
       50
176
     1
 90
        3
176
     1
 62
     5
420
      255
176
     1
290
     0
176
     1
 90
       50
176
     1
 90
       50
176
     1
 90
       50
176
     1
290
     0
176
     1
 90
       50
176
     1
 62
   256
176
     0
 40
1.0
176
     0
 90
        2
176
     1
  1
strokes_ogs.tif
176
     1
290
     0
176
     1
 40
1.0
176
     1
 40
1.0
176
     1
  0
VISUALSTYLE
  5
7EFA
102
{ACAD_REACTORS
330
7EE4
102
}
330
7EE4
100
AcDbVisualStyle
  2
JitterOff
 70
    20
177
     3
291
     1
 70
    58
 90
        2
176
     0
 90
        2
176
     0
 90
        0
176
     0
 90
        0
176
     0
 40
0.6
176
     0
 40
30.0
176
     0
 62
     7
420
 16777215
176
     0
 90
        1
176
     0
 90
        4
176
     0
 62
     7
176
     0
 62
   257
176
     0
 90
        1
176
     0
 90
        1
176
     0
 40
1.0
176
     0
 90
       10
176
     2
 62
     7
176
     0
 40
1.0
176
     0
 90
        1
176
     0
 90
        6
176
     0
 90
        2
176
     0
 62
     7
176
     0
 90
        5
176
     0
 90
        0
176
     0
 90
        0
176
     0
290
     0
176
     0
 90
        1
176
     0
 40
0.0
176
     0
 90
        0
176
     0
290
     0
176
     0
290
     1
176
     0
290
     1
176
     0
290
     0
176
     0
290
     0
176
     0
290
     0
176
     0
290
     0
176
     0
290
     0
176
     0
290
     0
176
     0
 90
       50
176
     0
 40
0.0
176
     0
 40
1.0
176
     0
 90
        0
176
     0
 62
    18
420
        0
176
     0
 90
       50
176
     0
 90
        3
176
     0
 62
     5
420
      255
176
     0
290
     0
176
     0
 90
       50
176
     0
 90
       50
176
     0
 90
       50
176
     0
290
     0
176
     0
 90
       50
176
     0
 62
   256
176
     0
 40
1.0
176
     0
 90
        2
176
     0
  1
strokes_ogs.tif
176
     0
290
     0
176
     0
 40
1.0
176
     0
 40
1.0
176
     0
  0
VISUALSTYLE
  5
7EF2
102
{ACAD_REACTORS
330
7EE4
102
}
330
7EE4
100
AcDbVisualStyle
  2
Linepattern
 70
    14
177
     3
291
     1
 70
    58
 90
        2
176
     1
 90
        2
176
     1
 90
        0
176
     1
 90
        0
176
     1
 40
0.6
176
     1
 40
30.0
176
     1
 62
     7
420
 16777215
176
     1
 90
        1
176
     1
 90
        4
176
     1
 62
     7
176
     1
 62
   257
176
     1
 90
        7
176
     1
 90
        7
176
     1
 40
1.0
176
     1
 90
        8
176
     1
 62
     7
176
     1
 40
1.0
176
     1
 90
        1
176
     1
 90
        6
176
     1
 90
        2
176
     1
 62
     7
176
     1
 90
        5
176
     1
 90
        0
176
     1
 90
        0
176
     1
290
     0
176
     1
 90
        1
176
     1
 40
0.0
176
     1
 90
        0
176
     1
290
     0
176
     1
290
     1
176
     1
290
     1
176
     1
290
     0
176
     1
290
     0
176
     1
290
     0
176
     1
290
     0
176
     1
290
     0
176
     1
290
     0
176
     1
 90
       50
176
     1
 40
0.0
176
     1
 40
1.0
176
     1
 90
        0
176
     1
 62
    18
420
        0
176
     1
 90
       50
176
     1
 90
        3
176
     1
 62
     5
420
      255
176
     1
290
     0
176
     1
 90
       50
176
     1
 90
       50
176
     1
 90
       50
176
     1
290
     0
176
     1
 90
       50
176
     1
 62
   256
176
     0
 40
1.0
176
     0
 90
        2
176
     1
  1
strokes_ogs.tif
176
     1
290
     0
176
     1
 40
1.0
176
     1
 40
1.0
176
     1
  0
VISUALSTYLE
  5
7EFB
102
{ACAD_REACTORS
330
7EE4
102
}
330
7EE4
100
AcDbVisualStyle
  2
OverhangOff
 70
    21
177
     3
291
     1
 70
    58
 90
        2
176
     0
 90
        2
176
     0
 90
        0
176
     0
 90
        0
176
     0
 40
0.6
176
     0
 40
30.0
176
     0
 62
     7
420
 16777215
176
     0
 90
        1
176
     0
 90
        4
176
     0
 62
     7
176
     0
 62
   257
176
     0
 90
        1
176
     0
 90
        1
176
     0
 40
1.0
176
     0
 90
        9
176
     2
 62
     7
176
     0
 40
1.0
176
     0
 90
        1
176
     0
 90
        6
176
     0
 90
        2
176
     0
 62
     7
176
     0
 90
        5
176
     0
 90
        0
176
     0
 90
        0
176
     0
290
     0
176
     0
 90
        1
176
     0
 40
0.0
176
     0
 90
        0
176
     0
290
     0
176
     0
290
     1
176
     0
290
     1
176
     0
290
     0
176
     0
290
     0
176
     0
290
     0
176
     0
290
     0
176
     0
290
     0
176
     0
290
     0
176
     0
 90
       50
176
     0
 40
0.0
176
     0
 40
1.0
176
     0
 90
        0
176
     0
 62
    18
420
        0
176
     0
 90
       50
176
     0
 90
        3
176
     0
 62
     5
420
      255
176
     0
290
     0
176
     0
 90
       50
176
     0
 90
       50
176
     0
 90
       50
176
     0
290
     0
176
     0
 90
       50
176
     0
 62
   256
176
     0
 40
1.0
176
     0
 90
        2
176
     0
  1
strokes_ogs.tif
176
     0
290
     0
176
     0
 40
1.0
176
     0
 40
1.0
176
     0
  0
VISUALSTYLE
  5
7EEE
102
{ACAD_REACTORS
330
7EE4
102
}
330
7EE4
100
AcDbVisualStyle
  2
Realistic
 70
     8
177
     3
291
     0
 70
    58
 90
        2
176
     1
 90
        3
176
     1
 90
        0
176
     1
 90
        2
176
     1
 40
0.6
176
     1
 40
30.0
176
     1
 62
     7
420
 16777215
176
     1
 90
        0
176
     1
 90
        0
176
     1
 62
     7
176
     1
 62
   257
176
     1
 90
        1
176
     1
 90
        1
176
     1
 40
1.0
176
     1
 90
        8
176
     1
 62
   257
176
     1
 40
1.0
176
     1
 90
        1
176
     1
 90
        6
176
     1
 90
        2
176
     1
 62
     7
176
     1
 90
        3
176
     1
 90
        0
176
     1
 90
        0
176
     1
290
     0
176
     1
 90
       13
176
     1
 40
0.0
176
     1
 90
        0
176
     1
290
     0
176
     1
290
     1
176
     1
290
     1
176
     1
290
     0
176
     1
290
     0
176
     1
290
     0
176
     1
290
     0
176
     1
290
     0
176
     1
290
     0
176
     1
 90
       50
176
     1
 40
0.0
176
     1
 40
1.0
176
     1
 90
        0
176
     1
 62
    18
420
        0
176
     1
 90
       50
176
     1
 90
        3
176
     1
 62
     5
420
      255
176
     1
290
     0
176
     1
 90
       50
176
     1
 90
       50
176
     1
 90
       50
176
     1
290
     0
176
     1
 90
       50
176
     1
 62
   256
176
     0
 40
1.0
176
     0
 90
        2
176
     1
  1
strokes_ogs.tif
176
     1
290
     0
176
     1
 40
1.0
176
     1
 40
1.0
176
     1
  0
VISUALSTYLE
  5
7EF9
102
{ACAD_REACTORS
330
7EE4
102
}
330
7EE4
100
AcDbVisualStyle
  2
Shaded
 70
    27
177
     3
291
     0
 70
    58
 90
        2
176
     1
 90
        2
176
     1
 90
        1
176
     1
 90
        2
176
     1
 40
0.6
176
     1
 40
30.0
176
     1
 62
     7
420
 16777215
176
     1
 90
        0
176
     1
 90
        4
176
     1
 62
     7
176
     1
 62
   257
176
     1
 90
        1
176
     1
 90
        1
176
     1
 40
1.0
176
     1
 90
        8
176
     1
 62
   257
176
     1
 40
1.0
176
     1
 90
        1
176
     1
 90
        6
176
     1
 90
        2
176
     1
 62
     8
420
  7895160
176
     1
 90
        3
176
     1
 90
        0
176
     1
 90
        0
176
     1
290
     0
176
     1
 90
        5
176
     1
 40
0.0
176
     1
 90
        0
176
     1
290
     0
176
     1
290
     1
176
     1
290
     1
176
     1
290
     0
176
     1
290
     0
176
     1
290
     0
176
     1
290
     0
176
     1
290
     0
176
     1
290
     0
176
     1
 90
       50
176
     1
 40
0.0
176
     1
 40
1.0
176
     1
 90
        0
176
     1
 62
    18
420
        0
176
     1
 90
       50
176
     1
 90
        3
176
     1
 62
     5
420
      255
176
     1
290
     0
176
     1
 90
       50
176
     1
 90
       50
176
     1
 90
       50
176
     1
290
     0
176
     1
 90
       50
176
     1
 62
   256
176
     0
 40
1.0
176
     0
 90
        2
176
     1
  1
strokes_ogs.tif
176
     1
290
     0
176
     1
 40
1.0
176
     1
 40
1.0
176
     1
  0
VISUALSTYLE
  5
7EF8
102
{ACAD_REACTORS
330
7EE4
102
}
330
7EE4
100
AcDbVisualStyle
  2
Shaded with edges
 70
    26
177
     3
291
     0
 70
    58
 90
        2
176
     1
 90
        2
176
     1
 90
        1
176
     1
 90
        2
176
     1
 40
0.6
176
     1
 40
30.0
176
     1
 62
     7
420
 16777215
176
     1
 90
        1
176
     1
 90
       10
176
     1
 62
     7
176
     1
 62
   257
176
     1
 90
        2
176
     1
 90
        1
176
     1
 40
1.0
176
     1
 90
        8
176
     1
 62
   257
176
     1
 40
1.0
176
     1
 90
        1
176
     1
 90
        6
176
     1
 90
        2
176
     1
 62
     7
176
     1
 90
        3
176
     1
 90
        0
176
     1
 90
        0
176
     1
290
     0
176
     1
 90
        5
176
     1
 40
0.0
176
     1
 90
        0
176
     1
290
     0
176
     1
290
     1
176
     1
290
     1
176
     1
290
     0
176
     1
290
     0
176
     1
290
     0
176
     1
290
     0
176
     1
290
     0
176
     1
290
     0
176
     1
 90
       50
176
     1
 40
0.0
176
     1
 40
1.0
176
     1
 90
        0
176
     1
 62
    18
420
        0
176
     1
 90
       50
176
     1
 90
        3
176
     1
 62
     5
420
      255
176
     1
290
     0
176
     1
 90
       50
176
     1
 90
       50
176
     1
 90
       50
176
     1
290
     0
176
     1
 90
       50
176
     1
 62
   256
176
     0
 40
1.0
176
     0
 90
        2
176
     1
  1
strokes_ogs.tif
176
     1
290
     0
176
     1
 40
1.0
176
     1
 40
1.0
176
     1
  0
VISUALSTYLE
  5
7EF5
102
{ACAD_REACTORS
330
7EE4
102
}
330
7EE4
100
AcDbVisualStyle
  2
Shades of Gray
 70
    23
177
     3
291
     0
 70
    58
 90
        2
176
     1
 90
        2
176
     1
 90
        3
176
     1
 90
        0
176
     1
 40
0.6
176
     1
 40
30.0
176
     1
 62
     7
420
 16777215
176
     1
 90
        2
176
     1
 90
        2
176
     1
 62
     7
176
     1
 62
     7
176
     1
 90
        1
176
     1
 90
        1
176
     1
 40
40.0
176
     1
 90
        8
176
     1
 62
     7
176
     1
 40
1.0
176
     1
 90
        1
176
     1
 90
        6
176
     1
 90
        2
176
     1
 62
     7
176
     1
 90
        3
176
     1
 90
        0
176
     1
 90
        0
176
     1
290
     0
176
     1
 90
        1
176
     1
 40
0.0
176
     1
 90
        0
176
     1
290
     0
176
     1
290
     1
176
     1
290
     1
176
     1
290
     0
176
     1
290
     0
176
     1
290
     0
176
     1
290
     0
176
     1
290
     0
176
     1
290
     0
176
     1
 90
       50
176
     1
 40
0.0
176
     1
 40
1.0
176
     1
 90
        0
176
     1
 62
    18
420
        0
176
     1
 90
       50
176
     1
 90
        3
176
     1
 62
     5
420
      255
176
     1
290
     0
176
     1
 90
       50
176
     1
 90
       50
176
     1
 90
       50
176
     1
290
     0
176
     1
 90
       50
176
     1
 62
   256
176
     0
 40
1.0
176
     0
 90
        2
176
     1
  1
strokes_ogs.tif
176
     1
290
     0
176
     1
 40
1.0
176
     1
 40
1.0
176
     1
  0
VISUALSTYLE
  5
7EF6
102
{ACAD_REACTORS
330
7EE4
102
}
330
7EE4
100
AcDbVisualStyle
  2
Sketchy
 70
    24
177
     3
291
     0
 70
    58
 90
        1
176
     1
 90
        2
176
     1
 90
        2
176
     1
 90
        0
176
     1
 40
0.6
176
     1
 40
30.0
176
     1
 62
     7
420
 16777215
176
     1
 90
        2
176
     1
 90
        2
176
     1
 62
     7
176
     1
 62
     7
176
     1
 90
        1
176
     1
 90
        1
176
     1
 40
40.0
176
     1
 90
       11
176
     1
 62
     7
176
     1
 40
1.0
176
     1
 90
        1
176
     1
 90
        6
176
     1
 90
        2
176
     1
 62
     7
176
     1
 90
        6
176
     1
 90
        0
176
     1
 90
        0
176
     1
290
     0
176
     1
 90
        1
176
     1
 40
0.0
176
     1
 90
        0
176
     1
290
     0
176
     1
290
     1
176
     1
290
     1
176
     1
290
     0
176
     1
290
     0
176
     1
290
     0
176
     1
290
     0
176
     1
290
     0
176
     1
290
     0
176
     1
 90
       50
176
     1
 40
0.0
176
     1
 40
1.0
176
     1
 90
        0
176
     1
 62
    18
420
        0
176
     1
 90
       50
176
     1
 90
        3
176
     1
 62
     5
420
      255
176
     1
290
     0
176
     1
 90
       50
176
     1
 90
       50
176
     1
 90
       50
176
     1
290
     0
176
     1
 90
       50
176
     1
 62
   256
176
     0
 40
1.0
176
     0
 90
        2
176
     1
  1
strokes_ogs.tif
176
     1
290
     0
176
     1
 40
1.0
176
     1
 40
1.0
176
     1
  0
VISUALSTYLE
  5
7EF1
102
{ACAD_REACTORS
330
7EE4
102
}
330
7EE4
100
AcDbVisualStyle
  2
Thicken
 70
    13
177
     3
291
     1
 70
    58
 90
        2
176
     1
 90
        2
176
     1
 90
        0
176
     1
 90
        0
176
     1
 40
0.6
176
     1
 40
30.0
176
     1
 62
     7
420
 16777215
176
     1
 90
        1
176
     1
 90
        4
176
     1
 62
     7
176
     1
 62
   257
176
     1
 90
        1
176
     1
 90
        1
176
     1
 40
1.0
176
     1
 90
       12
176
     1
 62
     7
176
     1
 40
1.0
176
     1
 90
        1
176
     1
 90
        6
176
     1
 90
        2
176
     1
 62
     7
176
     1
 90
        5
176
     1
 90
        0
176
     1
 90
        0
176
     1
290
     0
176
     1
 90
        1
176
     1
 40
0.0
176
     1
 90
        0
176
     1
290
     0
176
     1
290
     1
176
     1
290
     1
176
     1
290
     0
176
     1
290
     0
176
     1
290
     0
176
     1
290
     0
176
     1
290
     0
176
     1
290
     0
176
     1
 90
       50
176
     1
 40
0.0
176
     1
 40
1.0
176
     1
 90
        0
176
     1
 62
    18
420
        0
176
     1
 90
       50
176
     1
 90
        3
176
     1
 62
     5
420
      255
176
     1
290
     0
176
     1
 90
       50
176
     1
 90
       50
176
     1
 90
       50
176
     1
290
     0
176
     1
 90
       50
176
     1
 62
   256
176
     0
 40
1.0
176
     0
 90
        2
176
     1
  1
strokes_ogs.tif
176
     1
290
     0
176
     1
 40
1.0
176
     1
 40
1.0
176
     1
  0
VISUALSTYLE
  5
7EEB
102
{ACAD_REACTORS
330
7EE4
102
}
330
7EE4
100
AcDbVisualStyle
  2
Wireframe
 70
     5
177
     3
291
     0
 70
    58
 90
        0
176
     1
 90
        2
176
     1
 90
        0
176
     1
 90
        0
176
     1
 40
0.6
176
     1
 40
30.0
176
     1
 62
     7
420
 16777215
176
     1
 90
        1
176
     1
 90
        4
176
     1
 62
     7
176
     1
 62
   257
176
     1
 90
        1
176
     1
 90
        1
176
     1
 40
1.0
176
     1
 90
        0
176
     1
 62
   257
176
     1
 40
1.0
176
     1
 90
        1
176
     1
 90
        6
176
     1
 90
        2
176
     1
 62
     7
176
     1
 90
        3
176
     1
 90
        0
176
     1
 90
        0
176
     1
290
     0
176
     1
 90
        1
176
     1
 40
0.0
176
     1
 90
        0
176
     1
290
     0
176
     1
290
     1
176
     1
290
     1
176
     1
290
     0
176
     1
290
     0
176
     1
290
     0
176
     1
290
     0
176
     1
290
     0
176
     1
290
     0
176
     1
 90
       50
176
     1
 40
0.0
176
     1
 40
1.0
176
     1
 90
        0
176
     1
 62
    18
420
        0
176
     1
 90
       50
176
     1
 90
        3
176
     1
 62
     5
420
      255
176
     1
290
     0
176
     1
 90
       50
176
     1
 90
       50
176
     1
 90
       50
176
     1
290
     0
176
     1
 90
       50
176
     1
 62
   256
176
     0
 40
1.0
176
     0
 90
        2
176
     1
  1
strokes_ogs.tif
176
     1
290
     0
176
     1
 40
1.0
176
     1
 40
1.0
176
     1
  0
VISUALSTYLE
  5
7EF7
102
{ACAD_REACTORS
330
7EE4
102
}
330
7EE4
100
AcDbVisualStyle
  2
X-Ray
 70
    25
177
     3
291
     0
 70
    58
 90
        2
176
     1
 90
        2
176
     1
 90
        1
176
     1
 90
        1
176
     1
 40
0.5
176
     1
 40
30.0
176
     1
 62
     7
420
 16777215
176
     1
 90
        1
176
     1
 90
        0
176
     1
 62
     7
176
     1
 62
   257
176
     1
 90
        1
176
     1
 90
        1
176
     1
 40
1.0
176
     1
 90
        8
176
     1
 62
     7
176
     1
 40
1.0
176
     1
 90
        1
176
     1
 90
        6
176
     1
 90
        2
176
     1
 62
     7
176
     1
 90
        3
176
     1
 90
        0
176
     1
 90
        0
176
     1
290
     0
176
     1
 90
       13
176
     1
 40
0.0
176
     1
 90
        0
176
     1
290
     0
176
     1
290
     1
176
     1
290
     1
176
     1
290
     0
176
     1
290
     0
176
     1
290
     0
176
     1
290
     0
176
     1
290
     0
176
     1
290
     0
176
     1
 90
       50
176
     1
 40
0.0
176
     1
 40
1.0
176
     1
 90
        0
176
     1
 62
    18
420
        0
176
     1
 90
       50
176
     1
 90
        3
176
     1
 62
     5
420
      255
176
     1
290
     0
176
     1
 90
       50
176
     1
 90
       50
176
     1
 90
       50
176
     1
290
     0
176
     1
 90
       50
176
     1
 62
   256
176
     0
 40
1.0
176
     0
 90
        2
176
     1
  1
strokes_ogs.tif
176
     1
290
     0
176
     1
 40
1.0
176
     1
 40
1.0
176
     1
  0
DICTIONARYVAR
  5
7F97
102
{ACAD_REACTORS
330
7EBE
102
}
330
7EBE
100
DictionaryVariables
280
     0
  1
1:1
  0
DICTIONARYVAR
  5
7F93
102
{ACAD_REACTORS
330
7EBE
102
}
330
7EBE
100
DictionaryVariables
280
     0
  1
STANDARD
  0
DICTIONARYVAR
  5
7F92
102
{ACAD_REACTORS
330
7EBE
102
}
330
7EBE
100
DictionaryVariables
280
     0
  1
STANDARD
  0
DICTIONARYVAR
  5
7F94
102
{ACAD_REACTORS
330
7EBE
102
}
330
7EBE
100
DictionaryVariables
280
     0
  1
Imperial24
  0
DICTIONARYVAR
  5
7F95
102
{ACAD_REACTORS
330
7EBE
102
}
330
7EBE
100
DictionaryVariables
280
     0
  1
Imperial24
  0
DICTIONARYVAR
  5
7EBF
102
{ACAD_REACTORS
330
7EBE
102
}
330
7EBE
100
DictionaryVariables
280
     0
  1
1
  0
DICTIONARYVAR
  5
7F99
102
{ACAD_REACTORS
330
7EBE
102
}
330
7EBE
100
DictionaryVariables
280
     0
  1
1
  0
DICTIONARYVAR
  5
7F9A
102
{ACAD_REACTORS
330
7EBE
102
}
330
7EBE
100
DictionaryVariables
280
     0
  1
15
  0
DICTIONARYVAR
  5
7F98
102
{ACAD_REACTORS
330
7EBE
102
}
330
7EBE
100
DictionaryVariables
280
     0
  1
0
  0
DICTIONARYVAR
  5
7F96
102
{ACAD_REACTORS
330
7EBE
102
}
330
7EBE
100
DictionaryVariables
280
     0
  1
0
  0
DICTIONARY
  5
7F8F
330
7F17
100
AcDbDictionary
280
     1
281
     1
  3
ACAD_XREC_ROUNDTRIP
360
7FD3
  0
DICTIONARY
  5
7ED5
330
7ED4
100
AcDbDictionary
280
     1
281
     1
  3
BUMPTILE
360
7ED7
  3
DIFFUSETILE
360
7ED6
  3
OPACITYTILE
360
7EDA
  3
REFLECTIONTILE
360
7ED9
  3
REFRACTIONTILE
360
7EDB
  3
SPECULARTILE
360
7ED8
  0
DICTIONARY
  5
7ECD
330
7ECC
100
AcDbDictionary
280
     1
281
     1
  3
BUMPTILE
360
7ECF
  3
DIFFUSETILE
360
7ECE
  3
OPACITYTILE
360
7ED2
  3
REFLECTIONTILE
360
7ED1
  3
REFRACTIONTILE
360
7ED3
  3
SPECULARTILE
360
7ED0
  0
DICTIONARY
  5
7EDD
330
7EDC
100
AcDbDictionary
280
     1
281
     1
  3
BUMPTILE
360
7EDF
  3
DIFFUSETILE
360
7EDE
  3
OPACITYTILE
360
7EE2
  3
REFLECTIONTILE
360
7EE1
  3
REFRACTIONTILE
360
7EE3
  3
SPECULARTILE
360
7EE0
  0
DICTIONARY
  5
7F8D
330
7F15
100
AcDbDictionary
280
     1
281
     1
  3
ACAD_XREC_ROUNDTRIP
360
7FD2
  0
DICTIONARY
  5
7FD0
330
7EFF
100
AcDbDictionary
280
     1
281
     1
  3
ACAD_ROUNDTRIP_2008_TABLESTYLE_CELLSTYLEMAP
360
7FD1
  0
XRECORD
  5
7FD3
102
{ACAD_REACTORS
330
7F8F
102
}
330
7F8F
100
AcDbXrecord
280
     1
102
DISPLAYNAME
  1
Imperial24
102
FLAGS
 90
        0
  0
XRECORD
  5
7ED7
102
{ACAD_REACTORS
330
7ED5
102
}
330
7ED5
100
AcDbXrecord
280
     1
270
     1
271
     1
  0
XRECORD
  5
7ED6
102
{ACAD_REACTORS
330
7ED5
102
}
330
7ED5
100
AcDbXrecord
280
     1
270
     1
271
     1
  0
XRECORD
  5
7EDA
102
{ACAD_REACTORS
330
7ED5
102
}
330
7ED5
100
AcDbXrecord
280
     1
270
     1
271
     1
  0
XRECORD
  5
7ED9
102
{ACAD_REACTORS
330
7ED5
102
}
330
7ED5
100
AcDbXrecord
280
     1
270
     1
271
     1
  0
XRECORD
  5
7EDB
102
{ACAD_REACTORS
330
7ED5
102
}
330
7ED5
100
AcDbXrecord
280
     1
270
     1
271
     1
  0
XRECORD
  5
7ED8
102
{ACAD_REACTORS
330
7ED5
102
}
330
7ED5
100
AcDbXrecord
280
     1
270
     1
271
     1
  0
XRECORD
  5
7ECF
102
{ACAD_REACTORS
330
7ECD
102
}
330
7ECD
100
AcDbXrecord
280
     1
270
     1
271
     1
  0
XRECORD
  5
7ECE
102
{ACAD_REACTORS
330
7ECD
102
}
330
7ECD
100
AcDbXrecord
280
     1
270
     1
271
     1
  0
XRECORD
  5
7ED2
102
{ACAD_REACTORS
330
7ECD
102
}
330
7ECD
100
AcDbXrecord
280
     1
270
     1
271
     1
  0
XRECORD
  5
7ED1
102
{ACAD_REACTORS
330
7ECD
102
}
330
7ECD
100
AcDbXrecord
280
     1
270
     1
271
     1
  0
XRECORD
  5
7ED3
102
{ACAD_REACTORS
330
7ECD
102
}
330
7ECD
100
AcDbXrecord
280
     1
270
     1
271
     1
  0
XRECORD
  5
7ED0
102
{ACAD_REACTORS
330
7ECD
102
}
330
7ECD
100
AcDbXrecord
280
     1
270
     1
271
     1
  0
XRECORD
  5
7EDF
102
{ACAD_REACTORS
330
7EDD
102
}
330
7EDD
100
AcDbXrecord
280
     1
270
     1
271
     1
  0
XRECORD
  5
7EDE
102
{ACAD_REACTORS
330
7EDD
102
}
330
7EDD
100
AcDbXrecord
280
     1
270
     1
271
     1
  0
XRECORD
  5
7EE2
102
{ACAD_REACTORS
330
7EDD
102
}
330
7EDD
100
AcDbXrecord
280
     1
270
     1
271
     1
  0
XRECORD
  5
7EE1
102
{ACAD_REACTORS
330
7EDD
102
}
330
7EDD
100
AcDbXrecord
280
     1
270
     1
271
     1
  0
XRECORD
  5
7EE3
102
{ACAD_REACTORS
330
7EDD
102
}
330
7EDD
100
AcDbXrecord
280
     1
270
     1
271
     1
  0
XRECORD
  5
7EE0
102
{ACAD_REACTORS
330
7EDD
102
}
330
7EDD
100
AcDbXrecord
280
     1
270
     1
271
     1
  0
XRECORD
  5
7FD2
102
{ACAD_REACTORS
330
7F8D
102
}
330
7F8D
100
AcDbXrecord
280
     1
102
DISPLAYNAME
  1
Imperial24
102
FLAGS
 90
        0
  0
CELLSTYLEMAP
  5
7FD1
102
{ACAD_REACTORS
330
7FD0
102
}
330
7FD0
100
AcDbCellStyleMap
 90
        3
300
CELLSTYLE
  1
TABLEFORMAT_BEGIN
 90
        5
170
     1
 91
        0
 92
    32768
 62
   257
 93
        1
300
CONTENTFORMAT
  1
CONTENTFORMAT_BEGIN
 90
        0
 91
        0
 92
      512
 93
        0
300

 40
0.0
140
1.0
 94
        5
 62
     0
340
10
144
0.25
309
CONTENTFORMAT_END
171
     0
 94
        0
309
TABLEFORMAT_END
  1
CELLSTYLE_BEGIN
 90
        1
 91
        1
300
_TITLE
309
CELLSTYLE_END
300
CELLSTYLE
  1
TABLEFORMAT_BEGIN
 90
        5
170
     1
 91
        0
 92
        0
 62
   257
 93
        1
300
CONTENTFORMAT
  1
CONTENTFORMAT_BEGIN
 90
        0
 91
        0
 92
      512
 93
        0
300

 40
0.0
140
1.0
 94
        5
 62
     0
340
10
144
0.18
309
CONTENTFORMAT_END
171
     0
 94
        0
309
TABLEFORMAT_END
  1
CELLSTYLE_BEGIN
 90
        2
 91
        1
300
_HEADER
309
CELLSTYLE_END
300
CELLSTYLE
  1
TABLEFORMAT_BEGIN
 90
        5
170
     1
 91
        0
 92
        0
 62
   257
 93
        1
300
CONTENTFORMAT
  1
CONTENTFORMAT_BEGIN
 90
        0
 91
        0
 92
      512
 93
        0
300

 40
0.0
140
1.0
 94
        2
 62
     0
340
10
144
0.18
309
CONTENTFORMAT_END
171
     0
 94
        0
309
TABLEFORMAT_END
  1
CELLSTYLE_BEGIN
 90
        3
 91
        2
300
_DATA
309
CELLSTYLE_END
  0
ENDSEC
  0
SECTION
  2
ACDSDATA
 70
     2
 71
     8
  0
ACDSSCHEMA
 90
        0
  1
AcDb_Thumbnail_Schema
  2
AcDbDs::ID
280
    10
 91
        8
  2
Thumbnail_Data
280
    15
 91
        0
101
ACDSRECORD
 95
        0
 90
        1
  2
AcDbDs::TreatedAsObjectData
280
     1
291
     1
101
ACDSRECORD
 95
        0
 90
        2
  2
AcDbDs::Legacy
280
     1
291
     1
101
ACDSRECORD
  1
AcDbDs::ID
 90
        3
  2
AcDs:Indexable
280
     1
291
     1
101
ACDSRECORD
  1
AcDbDs::ID
 90
        4
  2
AcDbDs::HandleAttribute
280
     7
282
     1
  0
ACDSSCHEMA
 90
        1
  1
AcDbDs::TreatedAsObjectDataSchema
  2
AcDbDs::TreatedAsObjectData
280
     1
 91
        0
  0
ACDSSCHEMA
 90
        2
  1
AcDbDs::LegacySchema
  2
AcDbDs::Legacy
280
     1
 91
        0
  0
ACDSSCHEMA
 90
        3
  1
AcDbDs::IndexedPropertySchema
  2
AcDs:Indexable
280
     1
 91
        0
  0
ACDSSCHEMA
 90
        4
  1
AcDbDs::HandleAttributeSchema
  2
AcDbDs::HandleAttribute
280
     7
 91
        1
284
     1
  0
ACDSRECORD
 90
        0
  2
AcDbDs::ID
280
    10
320
7DF1
  2
Thumbnail_Data
280
    15
 94
     1923
310
89504E470D0A1A0A0000000D49484452000001000000007C0803000000B13B9E5A00000300504C5445000000000000C8C8C80000000000000000000000000000000000000000000000000000330000660000990000CC0000FF0033000033330033660033990033CC0033FF0066000066330066660066990066CC0066FF0099
310
000099330099660099990099CC0099FF00CC0000CC3300CC6600CC9900CCCC00CCFF00FF0000FF3300FF6600FF9900FFCC00FFFF3300003300333300663300993300CC3300FF3333003333333333663333993333CC3333FF3366003366333366663366993366CC3366FF3399003399333399663399993399CC3399FF33CC00
310
33CC3333CC6633CC9933CCCC33CCFF33FF0033FF3333FF6633FF9933FFCC33FFFF6600006600336600666600996600CC6600FF6633006633336633666633996633CC6633FF6666006666336666666666996666CC6666FF6699006699336699666699996699CC6699FF66CC0066CC3366CC6666CC9966CCCC66CCFF66FF0066
310
FF3366FF6666FF9966FFCC66FFFF9900009900339900669900999900CC9900FF9933009933339933669933999933CC9933FF9966009966339966669966999966CC9966FF9999009999339999669999999999CC9999FF99CC0099CC3399CC6699CC9999CCCC99CCFF99FF0099FF3399FF6699FF9999FFCC99FFFFCC0000CC00
310
33CC0066CC0099CC00CCCC00FFCC3300CC3333CC3366CC3399CC33CCCC33FFCC6600CC6633CC6666CC6699CC66CCCC66FFCC9900CC9933CC9966CC9999CC99CCCC99FFCCCC00CCCC33CCCC66CCCC99CCCCCCCCCCFFCCFF00CCFF33CCFF66CCFF99CCFFCCCCFFFFFF0000FF0033FF0066FF0099FF00CCFF00FFFF3300FF3333
310
FF3366FF3399FF33CCFF33FFFF6600FF6633FF6666FF6699FF66CCFF66FFFF9900FF9933FF9966FF9999FF99CCFF99FFFFCC00FFCC33FFCC66FFCC99FFCCCCFFCCFFFFFF00FFFF33FFFF66FFFF99FFFFCCFFFFFF0000000D0D0D1A1A1A2828283535354343435050505D5D5D6B6B6B787878868686939393A1A1A1AEAEAEBB
310
BBBBC9C9C9D6D6D6E4E4E4F1F1F1FFFFFF00000000000000000000000000000000000000000000000000000000000008F1915C0000040B4944415478DAED9D5B8EE42A0C40BD9CFC78FF9BF136F89F2982C1E69150A32BDDB2B1D5EA4ED2A4251FFCE2510DC00F4A9A091C2469F3995F0069D4F73000A3D11F67013D818801
310
56EDF83F1317DDF83B7F2E00FC4F00727ECB592EDD4EC20FEF07004B6BB70920E5780E4DB5C1B1D3E2378297610029B56FD0E9DD1E8C3759F3FC9A7100ACB8B28062E5F74F7103BD5D68B5EDC600E502DCC14939053082DA8A5D28B24000884AF0C4F90027C340D1771CFCD6393FE917217154042E254C1390B54D570ED462
310
6801204DA7474C0601F150E6FC5A28A81781D361C99011014242424242428CCA75A4D688F80E0091B2B804003B007223A700563201E0D40566DE70280060776857A701C8B7F9D1A900EA830030C6448F00AE5EB0BB426110870541D476715E1AEC01382D04D785D03100260C541A380140E70D01600AC06D100C00012000CC
310
B3C090134EAB038E180B9481DE9BEEAE4783250ACC26C2EE2701C0F7A42861D5FE5ABB80E36971A1D4B5D7CC2F000800012087BA99B33B064083AA1300E419C09E40484848484888CA8C6E9283CC73BB394F6547DB24E8D6A6547BAC16BDD58ECD02086C170ADF563EEE2A25521754BB7573F4F06A310601D03E00E2175C00
310
D87481B93F78B180F7F1EFD0EC021F2EA0E704D7A342A92A12CF2512DAB7000D60DEAEF7769E4CB56F011F4594669B00BCB840EDC91580961D950B3801D09600700380DC40D400D8CD0494B787FDFDBA402C0EAD01C88DB40D00DA9D3824C0A6C8B047EA0B0056DD808AFE9F180075B7E00380A90B980650B6875FC517CA8A
310
F82A0B20B6BD241280DD18C00A5F7919B8AC86BE00E098E900C0F520E388973EE5D2C757EEDDD4886D6FB5590B406501CD057A2B182CA08B01A601E8FD012D12E23206E01004ED8E085B1600E875170878E64B564C6E00DC35FD6DDC9CE87B041500B44F1BBA4883757BD055BA9F2B9D2E21BE0220C300B24A97DC15D5B860
310
2D84162E00C6C702A53BB15482B51A1636D101980741BBC2DA5C2A2F4249F17300E80C00360035C13F5A803700F78448D1A86E96FE8C0E641698D501B57EF0E0027A20C8D5FE08400441E93A7E6280AA0F6BF7EAF9004700C65278FE113AEAE7CFEA7BE60D80C785CF4DE492A1F2F86300E444E011C0BB0B0C4B86EBFFB661
310
595E7A525A0078B2806D00E012808CE60F9F1B7A72013700E8F99353350B0C69D0742810AB61F4DCA80198BB805100843B00940BF49642AB05751B00A697D308488B76F4FEFA8F03986CFDE82778E42D752DC8F44E4122D645A9D00150B7A4B69381F16D52B42F6FAF40484848880739FE80057DD6CE7727A83801002B00ED
310
5FEE83386F509DC4E3C8026001403100790A831F0BF807FB4E8E5C208220CC3512876D413BA5CCF84953DF6501E9ED15403A0C400D80F530427F001E5DA01DB3C607CBB803F08341F00F9EBC97E50C64A2600000000049454E44AE426082AFE7C952B905B0ADA7DAF652EA2C608FA6D748E8031A5DE003B3C0172317D561C7
310
E556BA0000000049454E44AE426082426082
  0
ENDSEC
  0
EOF
