  0
SECTION
  2
HEADER
  9
$ACADVER
  1
AC1009
  9
$INSBASE
 10
0.0
 20
0.0
 30
0.0
  9
$EXTMIN
 10
-1550.323627
 20
-2339.1804039999988
 30
0.0
  9
$EXTMAX
 10
49.676372999999991
 20
147.471858
 30
0.0
  9
$LIMMIN
 10
0.0
 20
0.0
  9
$LIMMAX
 10
297.0
 20
210.0
  9
$ORTHOMODE
 70
     0
  9
$REGENMODE
 70
     1
  9
$FILLMODE
 70
     0
  9
$QTEXTMODE
 70
     0
  9
$MIRRTEXT
 70
     1
  9
$DRAGMODE
 70
     2
  9
$LTSCALE
 40
100.0
  9
$OSMODE
 70
    37
  9
$ATTMODE
 70
     1
  9
$TEXTSIZE
 40
180.0
  9
$TRACEWID
 40
0.05
  9
$TEXTSTYLE
  7
STANDARD
  9
$CLAYER
  8
3
  9
$CELTYPE
  6
BYLAYER
  9
$CECOLOR
 62
   256
  9
$DIMSCALE
 40
10.0
  9
$DIMASZ
 40
2.0
  9
$DIMEXO
 40
0.5
  9
$DIMDLI
 40
10.0
  9
$DIMRND
 40
0.0
  9
$DIMDLE
 40
0.0
  9
$DIMEXE
 40
1.0
  9
$DIMTP
 40
1.0
  9
$DIMTM
 40
1.0
  9
$DIMTXT
 40
3.0
  9
$DIMCEN
 40
0.0
  9
$DIMTSZ
 40
0.0
  9
$DIMTOL
 70
     0
  9
$DIMLIM
 70
     0
  9
$DIMTIH
 70
     0
  9
$DIMTOH
 70
     0
  9
$DIMSE1
 70
     0
  9
$DIMSE2
 70
     0
  9
$DIMTAD
 70
     1
  9
$DIMZIN
 70
     8
  9
$DIMBLK
  1

  9
$DIMASO
 70
     1
  9
$DIMSHO
 70
     1
  9
$DIMPOST
  1

  9
$DIMAPOST
  1

  9
$DIMALT
 70
     0
  9
$DIMALTD
 70
     2
  9
$DIMALTF
 40
0.039
  9
$DIMLFAC
 40
1.0
  9
$DIMTOFL
 70
     1
  9
$DIMTVP
 40
0.0
  9
$DIMTIX
 70
     0
  9
$DIMSOXD
 70
     0
  9
$DIMSAH
 70
     1
  9
$DIMBLK1
  1
OPEN
  9
$DIMBLK2
  1
OPEN
  9
$DIMSTYLE
  2
IGA
  9
$DIMCLRD
 70
     0
  9
$DIMCLRE
 70
     0
  9
$DIMCLRT
 70
     0
  9
$DIMTFAC
 40
10.0
  9
$DIMGAP
 40
1.0
  9
$LUNITS
 70
     2
  9
$LUPREC
 70
     3
  9
$SKETCHINC
 40
0.1
  9
$FILLETRAD
 40
50.0
  9
$AUNITS
 70
     0
  9
$AUPREC
 70
     0
  9
$MENU
  1
acad
  9
$ELEVATION
 40
0.0
  9
$PELEVATION
 40
0.0
  9
$THICKNESS
 40
0.0
  9
$LIMCHECK
 70
     0
  9
$BLIPMODE
 70
     0
  9
$CHAMFERA
 40
0.5
  9
$CHAMFERB
 40
0.5
  9
$SKPOLY
 70
     0
  9
$TDCREATE
 40
2450744.4812935181
  9
$TDUPDATE
 40
2454953.8631503349
  9
$TDINDWG
 40
0.0034508102
  9
$TDUSRTIMER
 40
0.0034508102
  9
$USRTIMER
 70
     1
  9
$ANGBASE
 50
0.0
  9
$ANGDIR
 70
     0
  9
$PDMODE
 70
     0
  9
$PDSIZE
 40
0.0
  9
$PLINEWID
 40
0.0
  9
$COORDS
 70
     1
  9
$SPLFRAME
 70
     0
  9
$SPLINETYPE
 70
     6
  9
$SPLINESEGS
 70
     8
  9
$ATTDIA
 70
     0
  9
$ATTREQ
 70
     1
  9
$HANDLING
 70
 10241
  9
$HANDSEED
  5
7F47
  9
$SURFTAB1
 70
     6
  9
$SURFTAB2
 70
     6
  9
$SURFTYPE
 70
     6
  9
$SURFU
 70
     6
  9
$SURFV
 70
     6
  9
$UCSNAME
  2

  9
$UCSORG
 10
0.0
 20
0.0
 30
0.0
  9
$UCSXDIR
 10
1.0
 20
0.0
 30
0.0
  9
$UCSYDIR
 10
0.0
 20
1.0
 30
0.0
  9
$PUCSNAME
  2

  9
$PUCSORG
 10
0.0
 20
0.0
 30
0.0
  9
$PUCSXDIR
 10
1.0
 20
0.0
 30
0.0
  9
$PUCSYDIR
 10
0.0
 20
1.0
 30
0.0
  9
$USERI1
 70
     0
  9
$USERI2
 70
     0
  9
$USERI3
 70
     0
  9
$USERI4
 70
     0
  9
$USERI5
 70
     0
  9
$USERR1
 40
0.0
  9
$USERR2
 40
0.0
  9
$USERR3
 40
0.0
  9
$USERR4
 40
0.0
  9
$USERR5
 40
0.0
  9
$WORLDVIEW
 70
     1
  9
$SHADEDGE
 70
     3
  9
$SHADEDIF
 70
    70
  9
$TILEMODE
 70
     1
  9
$MAXACTVP
 70
    16
  9
$PLIMCHECK
 70
     0
  9
$PEXTMIN
 10
1.0000000000000000E+020
 20
1.0000000000000000E+020
 30
1.0000000000000000E+020
  9
$PEXTMAX
 10
-1.0000000000000000E+020
 20
-1.0000000000000000E+020
 30
-1.0000000000000000E+020
  9
$PLIMMIN
 10
0.0
 20
0.0
  9
$PLIMMAX
 10
12.0
 20
9.0
  9
$UNITMODE
 70
     0
  9
$VISRETAIN
 70
     0
  9
$PLINEGEN
 70
     0
  9
$PSLTSCALE
 70
     1
  0
ENDSEC
  0
SECTION
  2
TABLES
  0
TABLE
  2
VPORT
 70
     2
  0
VPORT
  2
*ACTIVE
 70
     0
 10
0.0
 20
0.0
 11
1.0
 21
1.0
 12
1087.834114675338
 22
-739.17068882068395
 13
0.0
 23
0.0
 14
10.0
 24
10.0
 15
10.0
 25
10.0
 16
0.0
 26
0.0
 36
1.0
 17
0.0
 27
0.0
 37
0.0
 40
3860.430891718911
 41
1.5051150895140659
 42
50.0
 43
0.0
 44
0.0
 50
0.0
 51
0.0
 71
     0
 72
   100
 73
     1
 74
     0
 75
     0
 76
     0
 77
     0
 78
     0
  0
ENDTAB
  0
TABLE
  2
LTYPE
 70
     2
  0
LTYPE
  2
CONTINUOUS
 70
     0
  3
Solid line
 72
    65
 73
     0
 40
0.0
  0
LTYPE
  2
CENTER
 70
     0
  3
____ _ ____ _ ____ _ ____ _ ____ _ ____ _ ____ 
 72
    65
 73
     4
 40
2.0
 49
1.25
 49
-0.25
 49
0.25
 49
-0.25
  0
ENDTAB
  0
TABLE
  2
LAYER
 70
     6
  0
LAYER
  2
0
 70
     0
 62
     7
  6
CONTINUOUS
  0
LAYER
  2
3
 70
     0
 62
     2
  6
CONTINUOUS
  0
LAYER
  2
2
 70
     0
 62
     3
  6
CENTER
  0
LAYER
  2
1
 70
     0
 62
     4
  6
CONTINUOUS
  0
LAYER
  2
4
 70
     0
 62
     7
  6
CONTINUOUS
  0
LAYER
  2
DEFPOINTS
 70
     0
 62
     7
  6
CONTINUOUS
  0
ENDTAB
  0
TABLE
  2
STYLE
 70
     1
  0
STYLE
  2
STANDARD
 70
     0
 40
0.0
 41
1.0
 50
0.0
 71
     0
 42
180.0
  3
simplex.shx
  4
extfont.shx
  0
ENDTAB
  0
TABLE
  2
VIEW
 70
     0
  0
ENDTAB
  0
TABLE
  2
UCS
 70
     0
  0
ENDTAB
  0
TABLE
  2
APPID
 70
     1
  0
APPID
  2
ACAD
 70
     0
  0
ENDTAB
  0
TABLE
  2
DIMSTYLE
 70
     1
  0
DIMSTYLE
  2
IGA
 70
     0
  3

  4

  5

  6
OPEN
  7
OPEN
 40
2.0
 41
2.0
 42
0.5
 43
10.0
 44
1.0
 45
0.0
 46
0.0
 47
1.0
 48
1.0
140
3.0
141
0.0
142
0.0
143
0.03937
144
1.0
145
0.0
146
10.0
147
1.0
 71
     0
 72
     0
 73
     0
 74
     0
 75
     0
 76
     0
 77
     1
 78
     8
170
     0
171
     2
172
     0
173
     1
174
     0
175
     0
176
     0
177
     0
178
     0
  0
ENDTAB
  0
ENDSEC
  0
SECTION
  2
BLOCKS
  0
BLOCK
  8
0
  2
$MODEL_SPACE
 70
     0
 10
0.0
 20
0.0
 30
0.0
  3
$MODEL_SPACE
  1

  0
ENDBLK
  5
1B
  8
0
  0
BLOCK
 67
     1
  8
0
  2
$PAPER_SPACE
 70
     0
 10
0.0
 20
0.0
 30
0.0
  3
$PAPER_SPACE
  1

  0
ENDBLK
  5
18
 67
     1
  8
0
  0
BLOCK
  8
0
  2
_OPEN
 70
     0
 10
0.0
 20
0.0
 30
0.0
  3
_OPEN
  1

  0
LINE
  5
7B5D
  8
0
  6
BYBLOCK
 62
     0
 10
-1.0
 20
0.166667
 30
0.0
 11
0.0
 21
0.0
 31
0.0
  0
LINE
  5
7B5E
  8
0
  6
BYBLOCK
 62
     0
 10
0.0
 20
0.0
 30
0.0
 11
-1.0
 21
-0.166667
 31
0.0
  0
LINE
  5
7B5F
  8
0
  6
BYBLOCK
 62
     0
 10
0.0
 20
0.0
 30
0.0
 11
-1.0
 21
0.0
 31
0.0
  0
ENDBLK
  5
7B60
  8
0
  0
BLOCK
  8
0
  2
*D1
 70
     1
 10
0.0
 20
0.0
 30
0.0
  3
*D1
  1

  0
LINE
  5
7E92
  8
3
  6
CONTINUOUS
 62
     0
 10
-1511.2385019999999
 20
-1964.140071396326
 30
0.0
 11
-1511.2385019999999
 21
-2042.184786396326
 31
0.0
  0
LINE
  5
7E93
  8
3
  6
CONTINUOUS
 62
     0
 10
-961.23850199999993
 20
-1948.214159396327
 30
0.0
 11
-961.23850199999993
 21
-2042.184786396326
 31
0.0
  0
LINE
  5
7E94
  8
3
  6
CONTINUOUS
 62
     0
 10
-1491.2385019999999
 20
-2032.1847863963269
 30
0.0
 11
-981.23850199999981
 21
-2032.1847863963269
 31
0.0
  0
INSERT
  5
7E95
  8
3
  6
CONTINUOUS
 62
     0
  2
_OPEN
 10
-1511.2385019999999
 20
-2032.1847863963269
 30
0.0
 41
20.0
 42
20.0
 43
20.0
 50
180.0
  0
INSERT
  5
7E96
  8
3
  6
CONTINUOUS
 62
     0
  2
_OPEN
 10
-961.23850199999993
 20
-2032.1847863963269
 30
0.0
 41
20.0
 42
20.0
 43
20.0
  0
TEXT
  8
3
  40
30
  5
7F34
  62
0
  72
0
  71
0
 10
-1288.49
 20
-2060.28
 30
0.000000
  1
550
  0
POINT
  5
7E98
  8
DEFPOINTS
  6
CONTINUOUS
 62
     0
 10
-1511.2385019999999
 20
-1959.140071396326
 30
0.0
  0
POINT
  5
7E99
  8
DEFPOINTS
  6
CONTINUOUS
 62
     0
 10
-961.23850199999993
 20
-1943.2141593963261
 30
0.0
  0
POINT
  5
7E9A
  8
DEFPOINTS
  6
CONTINUOUS
 62
     0
 10
-961.23850199999993
 20
-2032.1847863963269
 30
0.0
  0
ENDBLK
  5
7B6E
  8
0
  0
BLOCK
  8
0
  2
*D2
 70
     1
 10
0.0
 20
0.0
 30
0.0
  3
*D2
  1

  0
LINE
  5
7E9B
  8
3
  6
CONTINUOUS
 62
     0
 10
-741.23850199999993
 20
-1964.140071396326
 30
0.0
 11
-741.23850199999993
 21
-2042.184786396326
 31
0.0
  0
LINE
  5
7E9C
  8
3
  6
CONTINUOUS
 62
     0
 10
-941.23850200000004
 20
-2032.1847863963269
 30
0.0
 11
-761.23850199999993
 21
-2032.1847863963269
 31
0.0
  0
INSERT
  5
7E9D
  8
3
  6
CONTINUOUS
 62
     0
  2
_OPEN
 10
-961.23850199999993
 20
-2032.1847863963269
 30
0.0
 41
20.0
 42
20.0
 43
20.0
 50
180.0
  0
INSERT
  5
7E9E
  8
3
  6
CONTINUOUS
 62
     0
  2
_OPEN
 10
-741.23850199999993
 20
-2032.1847863963269
 30
0.0
 41
20.0
 42
20.0
 43
20.0
  0
TEXT
  8
3
  40
30
  5
7F35
  62
0
  72
0
  71
0
 10
-911.239
 20
-2060.28
 30
0.000000
  1
220
  0
POINT
  5
7EA0
  8
DEFPOINTS
  6
CONTINUOUS
 62
     0
 10
-961.23850199999993
 20
-1943.2141593963261
 30
0.0
  0
POINT
  5
7EA1
  8
DEFPOINTS
  6
CONTINUOUS
 62
     0
 10
-741.23850199999993
 20
-1959.140071396326
 30
0.0
  0
POINT
  5
7EA2
  8
DEFPOINTS
  6
CONTINUOUS
 62
     0
 10
-741.23850199999993
 20
-2032.1847863963269
 30
0.0
  0
ENDBLK
  5
7B7A
  8
0
  0
BLOCK
  8
0
  2
*D3
 70
     1
 10
0.0
 20
0.0
 30
0.0
  3
*D3
  1

  0
LINE
  5
7EA3
  8
3
  6
CONTINUOUS
 62
     0
 10
-935.23850199999993
 20
-1362.140071396326
 30
0.0
 11
-666.67466100000024
 21
-1362.140071396326
 31
0.0
  0
LINE
  5
7EA4
  8
3
  6
CONTINUOUS
 62
     0
 10
-770.24911799999995
 20
-1562.1400713963269
 30
0.0
 11
-666.67466100000024
 21
-1562.1400713963269
 31
0.0
  0
LINE
  5
7EA5
  8
3
  6
CONTINUOUS
 62
     0
 10
-676.67466100000024
 20
-1382.140071396326
 30
0.0
 11
-676.67466100000024
 21
-1542.140071396326
 31
0.0
  0
INSERT
  5
7EA6
  8
3
  6
CONTINUOUS
 62
     0
  2
_OPEN
 10
-676.67466100000024
 20
-1362.140071396326
 30
0.0
 41
20.0
 42
20.0
 43
20.0
 50
90.0
  0
INSERT
  5
7EA7
  8
3
  6
CONTINUOUS
 62
     0
  2
_OPEN
 10
-676.67466100000024
 20
-1562.1400713963269
 30
0.0
 41
20.0
 42
20.0
 43
20.0
 50
270.0
  0
TEXT
  8
3
  40
30
  5
7F36
  62
0
  72
0
  71
0
 10
-761.675
 20
-1511.22
 30
0.000000
  1
200
  0
POINT
  5
7EA9
  8
DEFPOINTS
  6
CONTINUOUS
 62
     0
 10
-940.23850199999981
 20
-1362.140071396326
 30
0.0
  0
POINT
  5
7EAA
  8
DEFPOINTS
  6
CONTINUOUS
 62
     0
 10
-775.24911799999995
 20
-1562.1400713963269
 30
0.0
  0
POINT
  5
7EAB
  8
DEFPOINTS
  6
CONTINUOUS
 62
     0
 10
-676.67466100000024
 20
-1562.1400713963269
 30
0.0
  0
ENDBLK
  5
7B87
  8
0
  0
BLOCK
  8
0
  2
*D4
 70
     1
 10
0.0
 20
0.0
 30
0.0
  3
*D4
  1

  0
LINE
  5
7EAC
  8
3
  6
CONTINUOUS
 62
     0
 10
-766.23850199999993
 20
-1877.140071396326
 30
0.0
 11
-666.67466100000001
 21
-1877.140071396326
 31
0.0
  0
LINE
  5
7EAD
  8
3
  6
CONTINUOUS
 62
     0
 10
-676.6746609999999
 20
-1582.140071396326
 30
0.0
 11
-676.67466100000001
 21
-1857.140071396326
 31
0.0
  0
INSERT
  5
7EAE
  8
3
  6
CONTINUOUS
 62
     0
  2
_OPEN
 10
-676.6746609999999
 20
-1562.1400713963269
 30
0.0
 41
20.0
 42
20.0
 43
20.0
 50
90.0
  0
INSERT
  5
7EAF
  8
3
  6
CONTINUOUS
 62
     0
  2
_OPEN
 10
-676.67466100000001
 20
-1877.140071396326
 30
0.0
 41
20.0
 42
20.0
 43
20.0
 50
270.0
  0
TEXT
  8
3
  40
30
  5
7F37
  62
0
  72
0
  71
0
 10
-761.675
 20
-1772.74
 30
0.000000
  1
315
  0
POINT
  5
7EB1
  8
DEFPOINTS
  6
CONTINUOUS
 62
     0
 10
-775.24911799999995
 20
-1562.1400713963269
 30
0.0
  0
POINT
  5
7EB2
  8
DEFPOINTS
  6
CONTINUOUS
 62
     0
 10
-771.23850199999993
 20
-1877.140071396326
 30
0.0
  0
POINT
  5
7EB3
  8
DEFPOINTS
  6
CONTINUOUS
 62
     0
 10
-676.67466100000001
 20
-1877.140071396326
 30
0.0
  0
ENDBLK
  5
7B93
  8
0
  0
BLOCK
  8
0
  2
*D5
 70
     1
 10
0.0
 20
0.0
 30
0.0
  3
*D5
  1

  0
LINE
  5
7D71
  8
0
  6
BYBLOCK
 62
     0
 10
-736.23850199999993
 20
-1867.9175329999989
 30
0.0
 11
-666.67466100000001
 21
-1867.9175329999989
 31
0.0
  0
LINE
  5
7D72
  8
0
  6
BYBLOCK
 62
     0
 10
-676.67466100000001
 20
-1795.9175329999989
 30
0.0
 11
-676.67466100000001
 21
-1775.9175329999989
 31
0.0
  0
LINE
  5
7D73
  8
0
  6
BYBLOCK
 62
     0
 10
-676.67466100000001
 20
-1887.9175329999989
 30
0.0
 11
-676.67466100000001
 21
-1907.9175329999989
 31
0.0
  0
TEXT
  5
7D74
  8
3
 62
     0
 10
-622.82946252388319
 20
-1865.1590885689791
 30
0.0
 40
30.0
  1
52
 50
90.0
  0
LINE
  5
7D75
  8
0
  6
BYBLOCK
 62
     0
 10
-676.67466100000001
 20
-1815.917533
 30
0.0
 11
-676.67466100000001
 21
-1867.9175329999989
 31
0.0
  0
INSERT
  5
7D76
  8
0
  6
BYBLOCK
 62
     0
  2
_OPEN
 10
-676.67466100000001
 20
-1815.917533
 30
0.0
 41
20.0
 42
20.0
 43
20.0
 50
270.0
  0
INSERT
  5
7D77
  8
0
  6
BYBLOCK
 62
     0
  2
_DOT
 10
-676.67466100000001
 20
-1867.9175329999989
 30
0.0
 41
20.0
 42
20.0
 43
20.0
 50
90.0
  0
POINT
  5
7D78
  8
DEFPOINTS
  6
BYBLOCK
 62
     0
 10
-771.23850199999993
 20
-1815.917533
 30
0.0
  0
POINT
  5
7D79
  8
DEFPOINTS
  6
BYBLOCK
 62
     0
 10
-741.23850199999993
 20
-1867.9175329999989
 30
0.0
  0
POINT
  5
7D7A
  8
DEFPOINTS
  6
BYBLOCK
 62
     0
 10
-676.67466100000001
 20
-1867.9175329999989
 30
0.0
  0
ENDBLK
  5
7D7B
  8
0
  0
BLOCK
  8
0
  2
*D6
 70
     1
 10
0.0
 20
0.0
 30
0.0
  3
*D6
  1

  0
LINE
  5
7EB4
  8
3
  6
CONTINUOUS
 62
     0
 10
-736.23850199999993
 20
-1929.140071396326
 30
0.0
 11
-666.67466100000036
 21
-1929.140071396326
 31
0.0
  0
LINE
  5
7EB5
  8
3
  6
CONTINUOUS
 62
     0
 10
-736.23850199999993
 20
-1959.140071396326
 30
0.0
 11
-666.67466100000036
 21
-1959.140071396326
 31
0.0
  0
LINE
  5
7EB6
  8
3
  6
CONTINUOUS
 62
     0
 10
-676.67466100000036
 20
-1909.140071396326
 30
0.0
 11
-676.67466100000036
 21
-1889.140071396326
 31
0.0
  0
LINE
  5
7EB7
  8
3
  6
CONTINUOUS
 62
     0
 10
-676.67466100000036
 20
-1979.140071396326
 30
0.0
 11
-676.67466100000036
 21
-2067.7114999677551
 31
0.0
  0
LINE
  5
7EB8
  8
3
  6
CONTINUOUS
 62
     0
 10
-676.67466100000036
 20
-1929.140071396326
 30
0.0
 11
-676.67466100000036
 21
-1959.140071396326
 31
0.0
  0
INSERT
  5
7EB9
  8
3
  6
CONTINUOUS
 62
     0
  2
_DOT
 10
-676.67466100000036
 20
-1929.140071396326
 30
0.0
 41
20.0
 42
20.0
 43
20.0
 50
270.0
  0
INSERT
  5
7EBA
  8
3
  6
CONTINUOUS
 62
     0
  2
_OPEN
 10
-676.67466100000036
 20
-1959.140071396326
 30
0.0
 41
20.0
 42
20.0
 43
20.0
 50
90.0
  0
TEXT
  8
3
  40
30
  5
7F38
  62
0
  72
0
  71
0
 10
-761.675
 20
-2086.53
 30
0.000000
  1
30
  0
POINT
  5
7EBC
  8
DEFPOINTS
  6
CONTINUOUS
 62
     0
 10
-741.23850199999993
 20
-1929.140071396326
 30
0.0
  0
POINT
  5
7EBD
  8
DEFPOINTS
  6
CONTINUOUS
 62
     0
 10
-741.23850199999993
 20
-1959.140071396326
 30
0.0
  0
POINT
  5
7EBE
  8
DEFPOINTS
  6
CONTINUOUS
 62
     0
 10
-676.67466100000036
 20
-1959.140071396326
 30
0.0
  0
ENDBLK
  5
7D88
  8
0
  0
BLOCK
  8
0
  2
*D7
 70
     1
 10
0.0
 20
0.0
 30
0.0
  3
*D7
  1

  0
LINE
  5
7EBF
  8
3
  6
CONTINUOUS
 62
     0
 10
-930.23850199999993
 20
-1362.140071396326
 30
0.0
 11
-591.43442700000014
 21
-1362.140071396326
 31
0.0
  0
LINE
  5
7EC0
  8
3
  6
CONTINUOUS
 62
     0
 10
-736.23850199999993
 20
-1959.140071396326
 30
0.0
 11
-591.43442700000026
 21
-1959.140071396326
 31
0.0
  0
LINE
  5
7EC1
  8
3
  6
CONTINUOUS
 62
     0
 10
-601.43442700000014
 20
-1382.140071396326
 30
0.0
 11
-601.43442700000026
 21
-1939.140071396326
 31
0.0
  0
INSERT
  5
7EC2
  8
3
  6
CONTINUOUS
 62
     0
  2
_OPEN
 10
-601.43442700000014
 20
-1362.140071396326
 30
0.0
 41
20.0
 42
20.0
 43
20.0
 50
90.0
  0
INSERT
  5
7EC3
  8
3
  6
CONTINUOUS
 62
     0
  2
_OPEN
 10
-601.43442700000026
 20
-1959.140071396326
 30
0.0
 41
20.0
 42
20.0
 43
20.0
 50
270.0
  0
TEXT
  8
3
  40
30
  5
7F39
  62
0
  72
0
  71
0
 10
-686.434
 20
-1615.24
 30
0.000000
  1
597
  0
POINT
  5
7EC5
  8
DEFPOINTS
  6
CONTINUOUS
 62
     0
 10
-935.23850199999993
 20
-1362.140071396326
 30
0.0
  0
POINT
  5
7EC6
  8
DEFPOINTS
  6
CONTINUOUS
 62
     0
 10
-741.23850199999993
 20
-1959.140071396326
 30
0.0
  0
POINT
  5
7EC7
  8
DEFPOINTS
  6
CONTINUOUS
 62
     0
 10
-601.43442700000026
 20
-1959.140071396326
 30
0.0
  0
ENDBLK
  5
7D0A
  8
0
  0
BLOCK
  8
0
  2
*D8
 70
     1
 10
0.0
 20
0.0
 30
0.0
  3
*D8
  1

  0
LINE
  5
7EC8
  8
3
  6
CONTINUOUS
 62
     0
 10
-1211.2385019999999
 20
-1357.1400713963269
 30
0.0
 11
-1211.2385019999999
 21
-1290.212388396327
 31
0.0
  0
LINE
  5
7EC9
  8
3
  6
CONTINUOUS
 62
     0
 10
-961.23850199999993
 20
-1357.1400713963269
 30
0.0
 11
-961.23850199999993
 21
-1290.212388396327
 31
0.0
  0
LINE
  5
7ECA
  8
3
  6
CONTINUOUS
 62
     0
 10
-1191.2385019999999
 20
-1300.2123883963261
 30
0.0
 11
-981.23850199999981
 21
-1300.2123883963261
 31
0.0
  0
INSERT
  5
7ECB
  8
3
  6
CONTINUOUS
 62
     0
  2
_OPEN
 10
-1211.2385019999999
 20
-1300.2123883963261
 30
0.0
 41
20.0
 42
20.0
 43
20.0
 50
180.0
  0
INSERT
  5
7ECC
  8
3
  6
CONTINUOUS
 62
     0
  2
_OPEN
 10
-961.23850199999993
 20
-1300.2123883963261
 30
0.0
 41
20.0
 42
20.0
 43
20.0
  0
TEXT
  8
3
  40
30
  5
7F3A
  62
0
  72
0
  71
0
 10
-1140.54
 20
-1328.31
 30
0.000000
  1
250
  0
POINT
  5
7ECE
  8
DEFPOINTS
  6
CONTINUOUS
 62
     0
 10
-1211.2385019999999
 20
-1362.140071396326
 30
0.0
  0
POINT
  5
7ECF
  8
DEFPOINTS
  6
CONTINUOUS
 62
     0
 10
-961.23850199999993
 20
-1362.140071396326
 30
0.0
  0
POINT
  5
7ED0
  8
DEFPOINTS
  6
CONTINUOUS
 62
     0
 10
-961.23850199999993
 20
-1300.2123883963261
 30
0.0
  0
ENDBLK
  5
7C05
  8
0
  0
BLOCK
  8
0
  2
*D9
 70
     1
 10
0.0
 20
0.0
 30
0.0
  3
*D9
  1

  0
LINE
  5
7ED1
  8
3
  6
CONTINUOUS
 62
     0
 10
-1221.2385019999999
 20
-1377.140071396326
 30
0.0
 11
-1221.2385019999999
 21
-1227.482527396327
 31
0.0
  0
LINE
  5
7ED2
  8
3
  6
CONTINUOUS
 62
     0
 10
-961.23850199999993
 20
-1357.1400713963269
 30
0.0
 11
-961.23850199999993
 21
-1227.482527396327
 31
0.0
  0
LINE
  5
7ED3
  8
3
  6
CONTINUOUS
 62
     0
 10
-1201.2385019999999
 20
-1237.482527396327
 30
0.0
 11
-981.23850199999981
 21
-1237.482527396327
 31
0.0
  0
INSERT
  5
7ED4
  8
3
  6
CONTINUOUS
 62
     0
  2
_OPEN
 10
-1221.2385019999999
 20
-1237.482527396327
 30
0.0
 41
20.0
 42
20.0
 43
20.0
 50
180.0
  0
INSERT
  5
7ED5
  8
3
  6
CONTINUOUS
 62
     0
  2
_OPEN
 10
-961.23850199999993
 20
-1237.482527396327
 30
0.0
 41
20.0
 42
20.0
 43
20.0
  0
TEXT
  8
3
  40
30
  5
7F3B
  62
0
  72
0
  71
0
 10
-1146.00
 20
-1265.58
 30
0.000000
  1
260
  0
POINT
  5
7ED7
  8
DEFPOINTS
  6
CONTINUOUS
 62
     0
 10
-1221.2385019999999
 20
-1382.140071396326
 30
0.0
  0
POINT
  5
7ED8
  8
DEFPOINTS
  6
CONTINUOUS
 62
     0
 10
-961.23850199999993
 20
-1362.140071396326
 30
0.0
  0
POINT
  5
7ED9
  8
DEFPOINTS
  6
CONTINUOUS
 62
     0
 10
-961.23850199999993
 20
-1237.482527396327
 30
0.0
  0
ENDBLK
  5
7C12
  8
0
  0
BLOCK
  8
0
  2
*D10
 70
     1
 10
0.0
 20
0.0
 30
0.0
  3
*D10
  1

  0
LINE
  5
7EDA
  8
3
  6
CONTINUOUS
 62
     0
 10
-775.24911799999995
 20
-1557.1400713963269
 30
0.0
 11
-775.24911799999995
 21
-1227.482527396327
 31
0.0
  0
LINE
  5
7EDB
  8
3
  6
CONTINUOUS
 62
     0
 10
-941.23850200000004
 20
-1237.482527396327
 30
0.0
 11
-795.24911799999995
 21
-1237.482527396327
 31
0.0
  0
INSERT
  5
7EDC
  8
3
  6
CONTINUOUS
 62
     0
  2
_OPEN
 10
-961.23850199999993
 20
-1237.482527396327
 30
0.0
 41
20.0
 42
20.0
 43
20.0
 50
180.0
  0
INSERT
  5
7EDD
  8
3
  6
CONTINUOUS
 62
     0
  2
_OPEN
 10
-775.24911799999995
 20
-1237.482527396327
 30
0.0
 41
20.0
 42
20.0
 43
20.0
  0
TEXT
  8
3
  40
30
  5
7F3C
  62
0
  72
0
  71
0
 10
-928.244
 20
-1265.58
 30
0.000000
  1
186
  0
POINT
  5
7EDF
  8
DEFPOINTS
  6
CONTINUOUS
 62
     0
 10
-961.23850199999993
 20
-1362.140071396326
 30
0.0
  0
POINT
  5
7EE0
  8
DEFPOINTS
  6
CONTINUOUS
 62
     0
 10
-775.24911799999995
 20
-1562.1400713963269
 30
0.0
  0
POINT
  5
7EE1
  8
DEFPOINTS
  6
CONTINUOUS
 62
     0
 10
-775.24911799999995
 20
-1237.482527396327
 30
0.0
  0
ENDBLK
  5
7C1E
  8
0
  0
BLOCK
  8
0
  2
*D11
 70
     1
 10
0.0
 20
0.0
 30
0.0
  3
*D11
  1

  0
LINE
  5
7EE2
  8
3
  6
CONTINUOUS
 62
     0
 10
-1511.2385019999999
 20
-885.92752800000005
 30
0.0
 11
-1511.2385019999999
 21
-986.70419200000003
 31
0.0
  0
LINE
  5
7EE3
  8
3
  6
CONTINUOUS
 62
     0
 10
-741.23850199999993
 20
-885.92752800000005
 30
0.0
 11
-741.23850199999993
 21
-986.70419200000003
 31
0.0
  0
LINE
  5
7EE4
  8
3
  6
CONTINUOUS
 62
     0
 10
-1491.2385019999999
 20
-976.70419200000003
 30
0.0
 11
-761.23850199999993
 21
-976.70419200000003
 31
0.0
  0
INSERT
  5
7EE5
  8
3
  6
CONTINUOUS
 62
     0
  2
_OPEN
 10
-1511.2385019999999
 20
-976.70419200000003
 30
0.0
 41
20.0
 42
20.0
 43
20.0
 50
180.0
  0
INSERT
  5
7EE6
  8
3
  6
CONTINUOUS
 62
     0
  2
_OPEN
 10
-741.23850199999993
 20
-976.70419200000003
 30
0.0
 41
20.0
 42
20.0
 43
20.0
  0
TEXT
  8
3
  40
30
  5
7F3D
  62
0
  72
0
  71
0
 10
-1206.61
 20
-1004.80
 30
0.000000
  1
770
  0
POINT
  5
7EE8
  8
DEFPOINTS
  6
CONTINUOUS
 62
     0
 10
-1511.2385019999999
 20
-880.92752799999994
 30
0.0
  0
POINT
  5
7EE9
  8
DEFPOINTS
  6
CONTINUOUS
 62
     0
 10
-741.23850199999993
 20
-880.92752799999994
 30
0.0
  0
POINT
  5
7EEA
  8
DEFPOINTS
  6
CONTINUOUS
 62
     0
 10
-741.23850199999993
 20
-976.70419200000003
 30
0.0
  0
ENDBLK
  5
7C2B
  8
0
  0
BLOCK
  8
0
  2
*D12
 70
     1
 10
0.0
 20
0.0
 30
0.0
  3
*D12
  1

  0
LINE
  5
7EEB
  8
3
  6
CONTINUOUS
 62
     0
 10
-736.23850199999993
 20
-400.92752799999988
 30
0.0
 11
-625.168048
 21
-400.927528
 31
0.0
  0
LINE
  5
7EEC
  8
3
  6
CONTINUOUS
 62
     0
 10
-736.23850199999993
 20
-880.92752799999994
 30
0.0
 11
-625.16804800000023
 21
-880.92752799999994
 31
0.0
  0
LINE
  5
7EED
  8
3
  6
CONTINUOUS
 62
     0
 10
-635.16804800000011
 20
-420.927528
 30
0.0
 11
-635.16804800000023
 21
-860.92752800000005
 31
0.0
  0
INSERT
  5
7EEE
  8
3
  6
CONTINUOUS
 62
     0
  2
_OPEN
 10
-635.16804800000011
 20
-400.927528
 30
0.0
 41
20.0
 42
20.0
 43
20.0
 50
90.0
  0
INSERT
  5
7EEF
  8
3
  6
CONTINUOUS
 62
     0
  2
_OPEN
 10
-635.16804800000023
 20
-880.92752799999994
 30
0.0
 41
20.0
 42
20.0
 43
20.0
 50
270.0
  0
TEXT
  8
3
  40
30
  5
7F3E
  62
0
  72
0
  71
0
 10
-720.168
 20
-694.336
 30
0.000000
  1
480
  0
POINT
  5
7EF1
  8
DEFPOINTS
  6
CONTINUOUS
 62
     0
 10
-741.23850199999993
 20
-400.92752799999988
 30
0.0
  0
POINT
  5
7EF2
  8
DEFPOINTS
  6
CONTINUOUS
 62
     0
 10
-741.23850199999993
 20
-880.92752799999994
 30
0.0
  0
POINT
  5
7EF3
  8
DEFPOINTS
  6
CONTINUOUS
 62
     0
 10
-635.16804800000023
 20
-880.92752799999994
 30
0.0
  0
ENDBLK
  5
7D15
  8
0
  0
BLOCK
  8
0
  2
*D13
 70
     1
 10
0.0
 20
0.0
 30
0.0
  3
*D13
  1

  0
LINE
  5
7EF4
  8
3
  6
CONTINUOUS
 62
     0
 10
-499.23850199999993
 20
-1964.140071396326
 30
0.0
 11
-499.23850199999993
 21
-2045.917605396327
 31
0.0
  0
LINE
  5
7EF5
  8
3
  6
CONTINUOUS
 62
     0
 10
-161.23850200000001
 20
-1964.140071396326
 30
0.0
 11
-161.23850200000001
 21
-2045.917605396327
 31
0.0
  0
LINE
  5
7EF6
  8
3
  6
CONTINUOUS
 62
     0
 10
-479.23850199999993
 20
-2035.917605396327
 30
0.0
 11
-181.23850200000001
 21
-2035.917605396327
 31
0.0
  0
INSERT
  5
7EF7
  8
3
  6
CONTINUOUS
 62
     0
  2
_OPEN
 10
-499.23850199999993
 20
-2035.917605396327
 30
0.0
 41
20.0
 42
20.0
 43
20.0
 50
180.0
  0
INSERT
  5
7EF8
  8
3
  6
CONTINUOUS
 62
     0
  2
_OPEN
 10
-161.23850200000001
 20
-2035.917605396327
 30
0.0
 41
20.0
 42
20.0
 43
20.0
  0
TEXT
  8
3
  40
30
  5
7F3F
  62
0
  72
0
  71
0
 10
-403.347
 20
-2064.02
 30
0.000000
  1
338
  0
POINT
  5
7EFA
  8
DEFPOINTS
  6
CONTINUOUS
 62
     0
 10
-499.23850199999993
 20
-1959.140071396326
 30
0.0
  0
POINT
  5
7EFB
  8
DEFPOINTS
  6
CONTINUOUS
 62
     0
 10
-161.23850200000001
 20
-1959.140071396326
 30
0.0
  0
POINT
  5
7EFC
  8
DEFPOINTS
  6
CONTINUOUS
 62
     0
 10
-161.23850200000001
 20
-2035.917605396327
 30
0.0
  0
ENDBLK
  5
7C47
  8
0
  0
BLOCK
  8
0
  2
*D14
 70
     1
 10
0.0
 20
0.0
 30
0.0
  3
*D14
  1

  0
LINE
  5
7EFD
  8
3
  6
CONTINUOUS
 62
     0
 10
-19.238501999999979
 20
-1964.140071396326
 30
0.0
 11
-19.238501999999979
 21
-2045.917605396327
 31
0.0
  0
LINE
  5
7EFE
  8
3
  6
CONTINUOUS
 62
     0
 10
-141.23850200000001
 20
-2035.917605396327
 30
0.0
 11
-39.238501999999983
 21
-2035.917605396327
 31
0.0
  0
INSERT
  5
7EFF
  8
3
  6
CONTINUOUS
 62
     0
  2
_OPEN
 10
-161.23850200000001
 20
-2035.917605396327
 30
0.0
 41
20.0
 42
20.0
 43
20.0
 50
180.0
  0
INSERT
  5
7F00
  8
3
  6
CONTINUOUS
 62
     0
  2
_OPEN
 10
-19.238501999999979
 20
-2035.917605396327
 30
0.0
 41
20.0
 42
20.0
 43
20.0
  0
TEXT
  8
3
  40
30
  5
7F40
  62
0
  72
0
  71
0
 10
-150.239
 20
-2064.02
 30
0.000000
  1
142
  0
POINT
  5
7F02
  8
DEFPOINTS
  6
CONTINUOUS
 62
     0
 10
-161.23850200000001
 20
-1959.140071396326
 30
0.0
  0
POINT
  5
7F03
  8
DEFPOINTS
  6
CONTINUOUS
 62
     0
 10
-19.238501999999979
 20
-1959.140071396326
 30
0.0
  0
POINT
  5
7F04
  8
DEFPOINTS
  6
CONTINUOUS
 62
     0
 10
-19.238501999999979
 20
-2035.917605396327
 30
0.0
  0
ENDBLK
  5
7C53
  8
0
  0
BLOCK
  8
0
  2
*D15
 70
     1
 10
0.0
 20
0.0
 30
0.0
  3
*D15
  1

  0
LINE
  5
7F05
  8
3
  6
CONTINUOUS
 62
     0
 10
-251.03850199999999
 20
-1357.1400713963269
 30
0.0
 11
-251.03850199999999
 21
-1316.7974143963261
 31
0.0
  0
LINE
  5
7F06
  8
3
  6
CONTINUOUS
 62
     0
 10
-71.438501999999971
 20
-1357.1400713963269
 30
0.0
 11
-71.438501999999971
 21
-1316.7974143963261
 31
0.0
  0
LINE
  5
7F07
  8
3
  6
CONTINUOUS
 62
     0
 10
-231.03850199999999
 20
-1326.797414396327
 30
0.0
 11
-91.438501999999971
 21
-1326.797414396327
 31
0.0
  0
INSERT
  5
7F08
  8
3
  6
CONTINUOUS
 62
     0
  2
_OPEN
 10
-251.03850199999999
 20
-1326.797414396327
 30
0.0
 41
20.0
 42
20.0
 43
20.0
 50
180.0
  0
INSERT
  5
7F09
  8
3
  6
CONTINUOUS
 62
     0
  2
_OPEN
 10
-71.438501999999971
 20
-1326.797414396327
 30
0.0
 41
20.0
 42
20.0
 43
20.0
  0
TEXT
  8
3
  40
30
  5
7F41
  62
0
  72
0
  71
0
 10
-225.875
 20
-1354.90
 30
0.000000
  1
180
  0
POINT
  5
7F0B
  8
DEFPOINTS
  6
CONTINUOUS
 62
     0
 10
-251.03850199999999
 20
-1362.140071396326
 30
0.0
  0
POINT
  5
7F0C
  8
DEFPOINTS
  6
CONTINUOUS
 62
     0
 10
-71.438501999999971
 20
-1362.140071396326
 30
0.0
  0
POINT
  5
7F0D
  8
DEFPOINTS
  6
CONTINUOUS
 62
     0
 10
-71.438501999999971
 20
-1326.797414396327
 30
0.0
  0
ENDBLK
  5
7C60
  8
0
  0
BLOCK
  8
0
  2
*D16
 70
     1
 10
0.0
 20
0.0
 30
0.0
  3
*D16
  1

  0
LINE
  5
7F0E
  8
3
  6
CONTINUOUS
 62
     0
 10
-501.23850199999993
 20
-1432.1400713963269
 30
0.0
 11
-501.23850199999993
 21
-1254.0675523963259
 31
0.0
  0
LINE
  5
7F0F
  8
3
  6
CONTINUOUS
 62
     0
 10
-161.23850200000001
 20
-1271.883921396327
 30
0.0
 11
-161.23850200000001
 21
-1254.0675523963259
 31
0.0
  0
LINE
  5
7F10
  8
3
  6
CONTINUOUS
 62
     0
 10
-481.23850199999993
 20
-1264.0675523963259
 30
0.0
 11
-181.23850200000001
 21
-1264.0675523963259
 31
0.0
  0
INSERT
  5
7F11
  8
3
  6
CONTINUOUS
 62
     0
  2
_OPEN
 10
-501.23850199999993
 20
-1264.0675523963259
 30
0.0
 41
20.0
 42
20.0
 43
20.0
 50
180.0
  0
INSERT
  5
7F12
  8
3
  6
CONTINUOUS
 62
     0
  2
_OPEN
 10
-161.23850200000001
 20
-1264.0675523963259
 30
0.0
 41
20.0
 42
20.0
 43
20.0
  0
TEXT
  8
3
  40
30
  5
7F42
  62
0
  72
0
  71
0
 10
-389.695
 20
-1267.17
 30
0.000000
  1
MAX
  0
TEXT
  8
3
  40
30
  5
7F43
  62
0
  72
0
  71
0
 10
-389.695
 20
-1306.17
 30
0.000000
  1
340
  0
POINT
  5
7F14
  8
DEFPOINTS
  6
CONTINUOUS
 62
     0
 10
-501.23850199999993
 20
-1437.140071396326
 30
0.0
  0
POINT
  5
7F15
  8
DEFPOINTS
  6
CONTINUOUS
 62
     0
 10
-161.23850200000001
 20
-1276.883921396327
 30
0.0
  0
POINT
  5
7F16
  8
DEFPOINTS
  6
CONTINUOUS
 62
     0
 10
-161.23850200000001
 20
-1264.0675523963259
 30
0.0
  0
ENDBLK
  5
7D2A
  8
0
  0
BLOCK
  8
0
  2
*D17
 70
     1
 10
0.0
 20
0.0
 30
0.0
  3
*D17
  1

  0
LINE
  5
7F17
  8
3
  6
CONTINUOUS
 62
     0
 10
-62.238501999999983
 20
-1410.1400713963269
 30
0.0
 11
-62.238501999999968
 21
-1254.0675523963259
 31
0.0
  0
LINE
  5
7F18
  8
3
  6
CONTINUOUS
 62
     0
 10
-141.23850200000001
 20
-1264.0675523963259
 30
0.0
 11
-82.238501999999997
 21
-1264.0675523963259
 31
0.0
  0
TEXT
  8
3
  40
30
  5
7F44
  62
0
  72
0
  71
0
 10
-171.268
 20
-1292.17
 30
0.000000
  1
99
  0
INSERT
  5
7F1A
  8
3
  6
CONTINUOUS
 62
     0
  2
_OPEN
 10
-161.23850200000001
 20
-1264.0675523963259
 30
0.0
 41
20.0
 42
20.0
 43
20.0
 50
180.0
  0
INSERT
  5
7F1B
  8
3
  6
CONTINUOUS
 62
     0
  2
_OPEN
 10
-62.238501999999968
 20
-1264.0675523963259
 30
0.0
 41
20.0
 42
20.0
 43
20.0
  0
POINT
  5
7F1C
  8
DEFPOINTS
  6
CONTINUOUS
 62
     0
 10
-161.23850200000001
 20
-1276.883921396327
 30
0.0
  0
POINT
  5
7F1D
  8
DEFPOINTS
  6
CONTINUOUS
 62
     0
 10
-62.238501999999983
 20
-1415.1400713963269
 30
0.0
  0
POINT
  5
7F1E
  8
DEFPOINTS
  6
CONTINUOUS
 62
     0
 10
-62.238501999999968
 20
-1264.0675523963259
 30
0.0
  0
ENDBLK
  5
7CC9
  8
0
  0
BLOCK
  8
0
  2
*D18
 70
     1
 10
0.0
 20
0.0
 30
0.0
  3
*D18
  1

  0
LINE
  5
7F1F
  8
3
  6
CONTINUOUS
 62
     0
 10
-57.238501999999983
 20
-1437.140071396326
 30
0.0
 11
29.20415899999977
 21
-1437.140071396326
 31
0.0
  0
LINE
  5
7F20
  8
3
  6
CONTINUOUS
 62
     0
 10
-57.238501999999983
 20
-1687.140071396326
 30
0.0
 11
29.20415899999972
 21
-1687.140071396326
 31
0.0
  0
LINE
  5
7F21
  8
3
  6
CONTINUOUS
 62
     0
 10
19.20415899999977
 20
-1457.140071396326
 30
0.0
 11
19.204158999999731
 21
-1667.140071396326
 31
0.0
  0
INSERT
  5
7F22
  8
3
  6
CONTINUOUS
 62
     0
  2
_OPEN
 10
19.20415899999978
 20
-1437.140071396326
 30
0.0
 41
20.0
 42
20.0
 43
20.0
 50
90.0
  0
INSERT
  5
7F23
  8
3
  6
CONTINUOUS
 62
     0
  2
_OPEN
 10
19.20415899999972
 20
-1687.140071396326
 30
0.0
 41
20.0
 42
20.0
 43
20.0
 50
270.0
  0
TEXT
  8
3
  40
30
  5
7F45
  62
0
  72
0
  71
0
 10
-65.7958
 20
-1634.77
 30
0.000000
  1
φ250
  0
POINT
  5
7F25
  8
DEFPOINTS
  6
CONTINUOUS
 62
     0
 10
-62.238501999999983
 20
-1437.140071396326
 30
0.0
  0
POINT
  5
7F26
  8
DEFPOINTS
  6
CONTINUOUS
 62
     0
 10
-62.238501999999983
 20
-1687.140071396326
 30
0.0
  0
POINT
  5
7F27
  8
DEFPOINTS
  6
CONTINUOUS
 62
     0
 10
19.20415899999972
 20
-1687.140071396326
 30
0.0
  0
ENDBLK
  5
7D35
  8
0
  0
BLOCK
  8
0
  2
_DOT
 70
     0
 10
0.0
 20
0.0
 30
0.0
  3
_DOT
  1

  0
LINE
  5
7D96
  8
0
  6
BYBLOCK
 62
     0
 10
0.0
 20
0.0
 30
0.0
 11
-1.0
 21
-0.0000000000000284
 31
0.0
  0
POLYLINE
  5
7D97
  8
0
  6
BYBLOCK
 62
     0
 66
     1
 10
0.0
 20
0.0
 30
0.0
 70
     1
 40
0.1666666666666666
 41
0.1666666666666666
  0
VERTEX
  5
7F31
  8
0
  6
BYBLOCK
 62
     0
 10
-0.0833333333333286
 20
-0.0000000000000284
 30
0.0
 42
1.0
  0
VERTEX
  5
7F32
  8
0
  6
BYBLOCK
 62
     0
 10
0.0833333333333286
 20
-0.0000000000000284
 30
0.0
 42
1.0
  0
SEQEND
  5
7F33
  8
0
  6
BYBLOCK
 62
     0
  0
ENDBLK
  5
7D6F
  8
0
  0
BLOCK
  8
0
  2
*D20
 70
     1
 10
0.0
 20
0.0
 30
0.0
  3
*D20
  1

  0
LINE
  5
7F28
  8
3
 62
     0
 10
-775.24911799999995
 20
-1552.140071396326
 30
0.0
 11
-775.24911799999995
 21
-1163.884410955294
 31
0.0
  0
LINE
  5
7F29
  8
3
 62
     0
 10
-1511.2385019999999
 20
-1894.1400713963269
 30
0.0
 11
-1511.2385019999999
 21
-1163.884410955294
 31
0.0
  0
LINE
  5
7F2A
  8
3
 62
     0
 10
-795.24911799999995
 20
-1173.884410955294
 30
0.0
 11
-1491.2385019999999
 21
-1173.884410955294
 31
0.0
  0
INSERT
  5
7F2B
  8
3
 62
     0
  2
_OPEN
 10
-775.24911799999995
 20
-1173.884410955294
 30
0.0
 41
20.0
 42
20.0
 43
20.0
  0
INSERT
  5
7F2C
  8
3
 62
     0
  2
_OPEN
 10
-1511.2385019999999
 20
-1173.884410955294
 30
0.0
 41
20.0
 42
20.0
 43
20.0
 50
180.0
  0
TEXT
  8
3
  40
30
  5
7F46
  62
0
  72
0
  71
0
 10
-1188.30
 20
-1201.98
 30
0.000000
  1
736
  0
POINT
  5
7F2E
  8
DEFPOINTS
 62
     0
 10
-775.24911799999995
 20
-1557.140071396326
 30
0.0
  0
POINT
  5
7F2F
  8
DEFPOINTS
 62
     0
 10
-1511.2385019999999
 20
-1899.140071396326
 30
0.0
  0
POINT
  5
7F30
  8
DEFPOINTS
 62
     0
 10
-1511.2385019999999
 20
-1173.884410955294
 30
0.0
  0
ENDBLK
  5
7D94
  8
0
  0
ENDSEC
  0
SECTION
  2
ENTITIES
  0
LINE
  5
7A9E
  8
1
  6
CONTINUOUS
 10
-499.23850199999993
 20
-1959.140071396326
 30
0.0
 11
-19.238501999999979
 21
-1959.140071396326
 31
0.0
  0
LINE
  5
7A9F
  8
1
  6
CONTINUOUS
 10
-501.23850199999993
 20
-1817.140071396326
 30
0.0
 11
-169.23850200000001
 21
-1817.140071396326
 31
0.0
  0
LINE
  5
7AA0
  8
1
  6
CONTINUOUS
 10
-446.23850199999993
 20
-1550.140071396326
 30
0.0
 11
-327.13850200000002
 21
-1550.140071396326
 31
0.0
  0
LINE
  5
7AA1
  8
1
  6
CONTINUOUS
 10
-446.23850199999993
 20
-1574.140071396326
 30
0.0
 11
-356.83850200000001
 21
-1574.140071396326
 31
0.0
  0
LINE
  5
7AA2
  8
1
  6
CONTINUOUS
 10
-446.23850199999993
 20
-1741.640071396326
 30
0.0
 11
-389.23850199999993
 21
-1741.640071396326
 31
0.0
  0
LINE
  5
7AA3
  8
1
  6
CONTINUOUS
 10
-446.23850199999993
 20
-1717.640071396326
 30
0.0
 11
-389.23850199999993
 21
-1717.640071396326
 31
0.0
  0
LINE
  5
7AA4
  8
1
  6
CONTINUOUS
 10
-499.23850199999993
 20
-1929.140071396326
 30
0.0
 11
-19.238501999999979
 21
-1929.140071396326
 31
0.0
  0
LINE
  5
7AA5
  8
1
  6
CONTINUOUS
 10
-1481.2385019999999
 20
-1817.140071396326
 30
0.0
 11
-771.23850199999993
 21
-1817.140071396326
 31
0.0
  0
ARC
  5
7AA6
  8
1
  6
CONTINUOUS
 10
-1323.8385020000001
 20
-1729.640071396326
 30
0.0
 40
75.799999999999997
 50
322.89999999999992
 51
217.09999999999991
  0
LINE
  5
7AA7
  8
1
  6
CONTINUOUS
 10
-1226.538501999999
 20
-1797.140071396326
 30
0.0
 11
-1481.2385019999999
 21
-1797.140071396326
 31
0.0
  0
LINE
  5
7AA8
  8
1
  6
CONTINUOUS
 10
-961.03850199999977
 20
-1437.140071396326
 30
0.0
 11
-1416.2385019999999
 21
-1637.140071396326
 31
0.0
  0
CIRCLE
  5
7AA9
  8
1
  6
CONTINUOUS
 10
-1323.8385020000001
 20
-1729.640071396326
 30
0.0
 40
53.0
  0
LINE
  5
7AAA
  8
1
  6
CONTINUOUS
 10
-1302.9385019999991
 20
-1778.340071396326
 30
0.0
 11
-936.13850199999979
 21
-1620.4400713963271
 31
0.0
  0
LINE
  5
7AAB
  8
1
  6
CONTINUOUS
 10
-1347.3385020000001
 20
-1682.140071396326
 30
0.0
 11
-989.33850199999995
 21
-1505.2400713963259
 31
0.0
  0
LINE
  5
7AAC
  8
2
  6
CENTER
 10
-1376.8385020000001
 20
-1729.640071396326
 30
0.0
 11
-1270.8385020000001
 21
-1729.640071396326
 31
0.0
  0
LINE
  5
7AAD
  8
1
  6
CONTINUOUS
 10
-1481.2385019999999
 20
-1877.140071396326
 30
0.0
 11
-771.23850199999993
 21
-1877.140071396326
 31
0.0
  0
LINE
  5
7AAE
  8
1
  6
CONTINUOUS
 10
-1511.2385019999999
 20
-1929.140071396326
 30
0.0
 11
-741.23850199999993
 21
-1929.140071396326
 31
0.0
  0
LINE
  5
7AAF
  8
1
  6
CONTINUOUS
 10
-1511.2385019999999
 20
-1899.140071396326
 30
0.0
 11
-741.23850199999993
 21
-1899.140071396326
 31
0.0
  0
LINE
  5
7AB0
  8
1
  6
CONTINUOUS
 10
-1416.2385019999999
 20
-1817.140071396326
 30
0.0
 11
-1416.2385019999999
 21
-1637.140071396326
 31
0.0
  0
LINE
  5
7AB1
  8
2
  6
CENTER
 10
-1323.8385020000001
 20
-1782.640071396326
 30
0.0
 11
-1323.8385020000001
 21
-1676.640071396326
 31
0.0
  0
LINE
  5
7AB2
  8
1
  6
CONTINUOUS
 10
-1481.2385019999999
 20
-1929.140071396326
 30
0.0
 11
-1481.2385019999999
 21
-1959.140071396326
 31
0.0
  0
LINE
  5
7AB3
  8
1
  6
CONTINUOUS
 10
-1511.2385019999999
 20
-1959.140071396326
 30
0.0
 11
-1481.2385019999999
 21
-1959.140071396326
 31
0.0
  0
LINE
  5
7AB4
  8
1
  6
CONTINUOUS
 10
-1481.2385019999999
 20
-1797.140071396326
 30
0.0
 11
-1481.2385019999999
 21
-1817.140071396326
 31
0.0
  0
LINE
  5
7AB5
  8
1
  6
CONTINUOUS
 10
-1481.2385019999999
 20
-1817.140071396326
 30
0.0
 11
-1481.2385019999999
 21
-1877.140071396326
 31
0.0
  0
LINE
  5
7AB6
  8
1
  6
CONTINUOUS
 10
-1511.2385019999999
 20
-1899.140071396326
 30
0.0
 11
-1511.2385019999999
 21
-1959.140071396326
 31
0.0
  0
LINE
  5
7AB7
  8
1
  6
CONTINUOUS
 10
-1389.8385020000001
 20
-1797.140071396326
 30
0.0
 11
-1389.8385020000001
 21
-1789.640071396326
 31
0.0
  0
LINE
  5
7AB8
  8
1
  6
CONTINUOUS
 10
-1389.8385020000001
 20
-1789.640071396326
 30
0.0
 11
-1384.3385020000001
 21
-1775.340071396326
 31
0.0
  0
CIRCLE
  5
7AB9
  8
1
  6
CONTINUOUS
 10
-961.23850199999993
 20
-1562.1400713963269
 30
0.0
 40
125.0
  0
CIRCLE
  5
7ABA
  8
1
  6
CONTINUOUS
 10
-961.23850199999993
 20
-1562.1400713963269
 30
0.0
 40
145.0
  0
LINE
  5
7ABB
  8
1
  6
CONTINUOUS
 10
-836.23850199999993
 20
-1507.140071396326
 30
0.0
 11
-961.03850199999977
 21
-1437.140071396326
 31
0.0
  0
LINE
  5
7ABC
  8
1
  6
CONTINUOUS
 10
-1121.238501999999
 20
-1877.140071396326
 30
0.0
 11
-801.23850199999993
 21
-1877.140071396326
 31
0.0
  0
LINE
  5
7ABD
  8
1
  6
CONTINUOUS
 10
-899.63850199999979
 20
-1412.1400713963269
 30
0.0
 11
-801.23850199999993
 21
-1496.0400713963261
 31
0.0
  0
LINE
  5
7ABE
  8
1
  6
CONTINUOUS
 10
-801.23850199999993
 20
-1595.4400713963271
 30
0.0
 11
-1121.238501999999
 21
-1595.4400713963271
 31
0.0
  0
ARC
  5
7ABF
  8
1
  6
CONTINUOUS
 10
-978.23850199999993
 20
-1579.1400713963269
 30
0.0
 40
203.6999999999999
 50
274.60000000000002
 51
5.5
  0
ARC
  5
7AC0
  8
1
  6
CONTINUOUS
 10
-947.23850199999993
 20
-1576.140071396326
 30
0.0
 40
172.59999999999991
 50
5.5
 51
91.299999999999997
  0
LINE
  5
7AC1
  8
1
  6
CONTINUOUS
 10
-1121.238501999999
 20
-1496.0400713963261
 30
0.0
 11
-1121.238501999999
 21
-1817.140071396326
 31
0.0
  0
ARC
  5
7AC2
  8
1
  6
CONTINUOUS
 10
-981.23850199999981
 20
-1542.140071396326
 30
0.0
 40
240.90000000000001
 50
184.90000000000001
 51
274.60000000000002
  0
LINE
  5
7AC3
  8
1
  6
CONTINUOUS
 10
-1257.8385020000001
 20
-1789.640071396326
 30
0.0
 11
-1263.438502
 21
-1775.340071396326
 31
0.0
  0
LINE
  5
7AC4
  8
1
  6
CONTINUOUS
 10
-1257.8385020000001
 20
-1797.140071396326
 30
0.0
 11
-1257.8385020000001
 21
-1789.640071396326
 31
0.0
  0
LINE
  5
7AC5
  8
1
  6
CONTINUOUS
 10
-1226.538501999999
 20
-1817.140071396326
 30
0.0
 11
-1226.538501999999
 21
-1797.140071396326
 31
0.0
  0
LINE
  5
7AC6
  8
1
  6
CONTINUOUS
 10
-1022.8385019999999
 20
-1412.1400713963269
 30
0.0
 11
-1121.238501999999
 21
-1496.0400713963261
 31
0.0
  0
LINE
  5
7AC7
  8
1
  6
CONTINUOUS
 10
-940.23850199999981
 20
-1362.140071396326
 30
0.0
 11
-1232.238501999999
 21
-1362.140071396326
 31
0.0
  0
LINE
  5
7AC8
  8
1
  6
CONTINUOUS
 10
-1191.2385019999999
 20
-1382.140071396326
 30
0.0
 11
-981.23850199999981
 21
-1382.140071396326
 31
0.0
  0
LINE
  5
7AC9
  8
1
  6
CONTINUOUS
 10
-1221.2385019999999
 20
-1382.140071396326
 30
0.0
 11
-1221.2385019999999
 21
-1562.5400713963261
 31
0.0
  0
LINE
  5
7ACA
  8
1
  6
CONTINUOUS
 10
-1221.2385019999999
 20
-1382.140071396326
 30
0.0
 11
-1211.2385019999999
 21
-1382.140071396326
 31
0.0
  0
LINE
  5
7ACB
  8
1
  6
CONTINUOUS
 10
-1211.2385019999999
 20
-1362.140071396326
 30
0.0
 11
-1211.2385019999999
 21
-1382.140071396326
 31
0.0
  0
LINE
  5
7ACC
  8
1
  6
CONTINUOUS
 10
-1211.2385019999999
 20
-1362.140071396326
 30
0.0
 11
-1191.2385019999999
 21
-1382.140071396326
 31
0.0
  0
LINE
  5
7ACD
  8
1
  6
CONTINUOUS
 10
-951.23850199999993
 20
-1382.140071396326
 30
0.0
 11
-951.23850199999993
 21
-1403.5400713963261
 31
0.0
  0
CIRCLE
  5
7ACE
  8
1
  6
CONTINUOUS
 10
-961.23850199999993
 20
-1562.1400713963269
 30
0.0
 40
63.5
  0
LINE
  5
7ACF
  8
1
  6
CONTINUOUS
 10
-899.63850199999979
 20
-1412.1400713963269
 30
0.0
 11
-1022.8385019999999
 21
-1412.1400713963269
 31
0.0
  0
LINE
  5
7AD0
  8
2
  6
CENTER
 10
-1328.057646
 20
-1562.1400713963269
 30
0.0
 11
-741.24384799999996
 21
-1562.1400713963269
 31
0.0
  0
LINE
  5
7AD1
  8
2
  6
CENTER
 10
-961.23850199999993
 20
-406.23119299999991
 30
0.0
 11
-961.23850199999993
 21
-931.22875199999987
 31
0.0
  0
LINE
  5
7AD2
  8
1
  6
CONTINUOUS
 10
-961.23850199999993
 20
-1362.140071396326
 30
0.0
 11
-981.23850199999981
 21
-1382.140071396326
 31
0.0
  0
LINE
  5
7AD3
  8
1
  6
CONTINUOUS
 10
-961.23850199999993
 20
-1382.140071396326
 30
0.0
 11
-951.23850199999993
 21
-1382.140071396326
 31
0.0
  0
LINE
  5
7AD4
  8
1
  6
CONTINUOUS
 10
-961.23850199999993
 20
-1362.140071396326
 30
0.0
 11
-961.23850199999993
 21
-1382.140071396326
 31
0.0
  0
LINE
  5
7AD5
  8
1
  6
CONTINUOUS
 10
-836.23850199999993
 20
-1817.140071396326
 30
0.0
 11
-836.23850199999993
 21
-1507.140071396326
 31
0.0
  0
LINE
  5
7AD6
  8
1
  6
CONTINUOUS
 10
-501.23850199999993
 20
-1817.140071396326
 30
0.0
 11
-501.23850199999993
 21
-1437.140071396326
 31
0.0
  0
LINE
  5
7AD7
  8
1
  6
CONTINUOUS
 10
-426.23850199999993
 20
-1817.140071396326
 30
0.0
 11
-426.23850199999993
 21
-1437.140071396326
 31
0.0
  0
LINE
  5
7AD8
  8
1
  6
CONTINUOUS
 10
-481.23850199999993
 20
-1676.640071396326
 30
0.0
 11
-481.23850199999993
 21
-1782.640071396326
 31
0.0
  0
LINE
  5
7AD9
  8
1
  6
CONTINUOUS
 10
-446.23850199999993
 20
-1676.640071396326
 30
0.0
 11
-446.23850199999993
 21
-1782.640071396326
 31
0.0
  0
LINE
  5
7ADA
  8
1
  6
CONTINUOUS
 10
-801.23850199999993
 20
-1817.140071396326
 30
0.0
 11
-801.23850199999993
 21
-1496.0400713963261
 31
0.0
  0
LINE
  5
7ADC
  8
1
  6
CONTINUOUS
 10
-741.23850199999993
 20
-1959.140071396326
 30
0.0
 11
-771.23850199999993
 21
-1959.140071396326
 31
0.0
  0
LINE
  5
7ADD
  8
1
  6
CONTINUOUS
 10
-771.23850199999993
 20
-1929.140071396326
 30
0.0
 11
-771.23850199999993
 21
-1959.140071396326
 31
0.0
  0
LINE
  5
7ADE
  8
1
  6
CONTINUOUS
 10
-771.23850199999993
 20
-1817.140071396326
 30
0.0
 11
-771.23850199999993
 21
-1877.140071396326
 31
0.0
  0
LINE
  5
7ADF
  8
1
  6
CONTINUOUS
 10
-741.23850199999993
 20
-1899.140071396326
 30
0.0
 11
-741.23850199999993
 21
-1959.140071396326
 31
0.0
  0
LINE
  5
7AE4
  8
1
  6
CONTINUOUS
 10
-499.23850199999993
 20
-1929.140071396326
 30
0.0
 11
-499.23850199999993
 21
-1959.140071396326
 31
0.0
  0
LINE
  5
7AE5
  8
1
  6
CONTINUOUS
 10
-481.23850199999993
 20
-1782.640071396326
 30
0.0
 11
-446.23850199999993
 21
-1782.640071396326
 31
0.0
  0
LINE
  5
7AE6
  8
1
  6
CONTINUOUS
 10
-501.23850199999993
 20
-1437.140071396326
 30
0.0
 11
-426.23850199999993
 21
-1437.140071396326
 31
0.0
  0
LINE
  5
7AE7
  8
1
  6
CONTINUOUS
 10
-481.23850199999993
 20
-1498.6400713963269
 30
0.0
 11
-481.23850199999993
 21
-1625.6400713963269
 31
0.0
  0
LINE
  5
7AE8
  8
1
  6
CONTINUOUS
 10
-481.23850199999993
 20
-1498.6400713963269
 30
0.0
 11
-446.23850199999993
 21
-1498.6400713963269
 31
0.0
  0
LINE
  5
7AE9
  8
1
  6
CONTINUOUS
 10
-481.23850199999993
 20
-1625.6400713963269
 30
0.0
 11
-446.23850199999993
 21
-1625.6400713963269
 31
0.0
  0
LINE
  5
7AEA
  8
1
  6
CONTINUOUS
 10
-446.23850199999993
 20
-1498.6400713963269
 30
0.0
 11
-446.23850199999993
 21
-1625.6400713963269
 31
0.0
  0
LINE
  5
7AEB
  8
1
  6
CONTINUOUS
 10
-481.23850199999993
 20
-1676.640071396326
 30
0.0
 11
-446.23850199999993
 21
-1676.640071396326
 31
0.0
  0
LINE
  5
7AEC
  8
1
  6
CONTINUOUS
 10
-973.23850199999981
 20
-800.92752800000005
 30
0.0
 11
-1311.8385020000001
 21
-800.92752800000005
 31
0.0
  0
LINE
  5
7AED
  8
1
  6
CONTINUOUS
 10
-1247.2385019999999
 20
-776.62752799999998
 30
0.0
 11
-1398.7385019999999
 21
-776.62752799999998
 31
0.0
  0
LINE
  5
7AEE
  8
1
  6
CONTINUOUS
 10
-1247.2385019999999
 20
-572.62752799999998
 30
0.0
 11
-1398.7385019999999
 21
-572.62752799999998
 31
0.0
  0
LINE
  5
7AEF
  8
1
  6
CONTINUOUS
 10
-836.23850199999993
 20
-882.92752799999994
 30
0.0
 11
-1416.2385019999999
 21
-882.92752799999994
 31
0.0
  0
LINE
  5
7AF0
  8
1
  6
CONTINUOUS
 10
-836.23850199999993
 20
-807.92752800000005
 30
0.0
 11
-1416.2385019999999
 21
-807.92752800000005
 31
0.0
  0
LINE
  5
7AF1
  8
1
  6
CONTINUOUS
 10
-1270.8385020000001
 20
-827.92752800000005
 30
0.0
 11
-1376.8385020000001
 21
-827.92752800000005
 31
0.0
  0
LINE
  5
7AF2
  8
1
  6
CONTINUOUS
 10
-1270.8385020000001
 20
-862.92752799999994
 30
0.0
 11
-1376.8385020000001
 21
-862.92752799999994
 31
0.0
  0
LINE
  5
7AF3
  8
1
  6
CONTINUOUS
 10
-1212.238501999999
 20
-550.92752800000005
 30
0.0
 11
-1511.2385019999999
 21
-550.92752800000005
 31
0.0
  0
LINE
  5
7AF4
  8
1
  6
CONTINUOUS
 10
-1398.7385019999999
 20
-776.62752799999998
 30
0.0
 11
-1398.7385019999999
 21
-572.62752799999998
 31
0.0
  0
LINE
  5
7AF5
  8
1
  6
CONTINUOUS
 10
-1511.2385019999999
 20
-400.92752799999988
 30
0.0
 11
-1511.2385019999999
 21
-880.92752799999994
 31
0.0
  0
LINE
  5
7AF6
  8
1
  6
CONTINUOUS
 10
-1335.938502
 20
-800.92752800000005
 30
0.0
 11
-1511.2385019999999
 21
-800.92752800000005
 31
0.0
  0
LINE
  5
7AF7
  8
1
  6
CONTINUOUS
 10
-1481.2385019999999
 20
-800.92752800000005
 30
0.0
 11
-1481.2385019999999
 21
-880.92752799999994
 31
0.0
  0
LINE
  5
7AF8
  8
1
  6
CONTINUOUS
 10
-1481.2385019999999
 20
-880.92752799999994
 30
0.0
 11
-1511.2385019999999
 21
-880.92752799999994
 31
0.0
  0
LINE
  5
7AF9
  8
1
  6
CONTINUOUS
 10
-1416.2385019999999
 20
-882.92752799999994
 30
0.0
 11
-1416.2385019999999
 21
-807.92752800000005
 31
0.0
  0
LINE
  5
7AFA
  8
1
  6
CONTINUOUS
 10
-1311.938502
 20
-827.92752800000005
 30
0.0
 11
-1311.8385020000001
 21
-776.62752799999998
 31
0.0
  0
LINE
  5
7AFB
  8
1
  6
CONTINUOUS
 10
-1335.8385020000001
 20
-827.92752800000005
 30
0.0
 11
-1335.938502
 21
-776.62752799999998
 31
0.0
  0
LINE
  5
7AFC
  8
1
  6
CONTINUOUS
 10
-1376.8385020000001
 20
-862.92752799999994
 30
0.0
 11
-1376.8385020000001
 21
-827.92752800000005
 31
0.0
  0
LINE
  5
7AFD
  8
1
  6
CONTINUOUS
 10
-1481.2385019999999
 20
-400.92752799999988
 30
0.0
 11
-1511.2385019999999
 21
-400.92752799999988
 31
0.0
  0
LINE
  5
7AFE
  8
1
  6
CONTINUOUS
 10
-1481.2385019999999
 20
-400.92752799999988
 30
0.0
 11
-1481.2385019999999
 21
-550.92752800000005
 31
0.0
  0
LINE
  5
7AFF
  8
1
  6
CONTINUOUS
 10
-762.33850199999995
 20
-632.92752800000005
 30
0.0
 11
-1212.238501999999
 21
-632.92752800000005
 31
0.0
  0
LINE
  5
7B00
  8
1
  6
CONTINUOUS
 10
-1212.238501999999
 20
-452.927528
 30
0.0
 11
-762.33850199999995
 21
-452.927528
 31
0.0
  0
LINE
  5
7B01
  8
1
  6
CONTINUOUS
 10
-1108.2385019999999
 20
-443.927528
 30
0.0
 11
-814.23850199999981
 21
-443.927528
 31
0.0
  0
LINE
  5
7B02
  8
1
  6
CONTINUOUS
 10
-801.23850199999993
 20
-770.92752800000005
 30
0.0
 11
-949.23850199999981
 21
-770.92752800000005
 31
0.0
  0
LINE
  5
7B03
  8
1
  6
CONTINUOUS
 10
-741.23850199999993
 20
-800.92752800000005
 30
0.0
 11
-949.23850199999981
 21
-800.92752800000005
 31
0.0
  0
LINE
  5
7B04
  8
1
  6
CONTINUOUS
 10
-1121.238501999999
 20
-641.92752800000005
 30
0.0
 11
-801.23850199999993
 21
-641.92752800000005
 31
0.0
  0
LINE
  5
7B05
  8
1
  6
CONTINUOUS
 10
-1212.238501999999
 20
-452.927528
 30
0.0
 11
-960.23850199999993
 21
-632.92752800000005
 31
0.0
  0
LINE
  5
7B06
  8
1
  6
CONTINUOUS
 10
-960.23850199999993
 20
-452.927528
 30
0.0
 11
-1212.238501999999
 21
-632.92752800000005
 31
0.0
  0
LINE
  5
7B07
  8
1
  6
CONTINUOUS
 10
-960.23850199999993
 20
-452.927528
 30
0.0
 11
-960.23850199999993
 21
-632.92752800000005
 31
0.0
  0
LINE
  5
7B08
  8
1
  6
CONTINUOUS
 10
-1212.238501999999
 20
-632.92752800000005
 30
0.0
 11
-1212.238501999999
 21
-452.927528
 31
0.0
  0
LINE
  5
7B09
  8
1
  6
CONTINUOUS
 10
-1247.2385019999999
 20
-776.62752799999998
 30
0.0
 11
-1247.2385019999999
 21
-572.62752799999998
 31
0.0
  0
LINE
  5
7B0A
  8
1
  6
CONTINUOUS
 10
-973.23850199999981
 20
-770.92752800000005
 30
0.0
 11
-1121.238501999999
 21
-770.92752800000005
 31
0.0
  0
LINE
  5
7B0B
  8
1
  6
CONTINUOUS
 10
-1270.8385020000001
 20
-862.92752799999994
 30
0.0
 11
-1270.8385020000001
 21
-827.92752800000005
 31
0.0
  0
LINE
  5
7B0C
  8
1
  6
CONTINUOUS
 10
-1108.2385019999999
 20
-632.92752800000005
 30
0.0
 11
-1108.2385019999999
 21
-641.92752800000005
 31
0.0
  0
LINE
  5
7B0D
  8
1
  6
CONTINUOUS
 10
-1121.238501999999
 20
-641.92752800000005
 30
0.0
 11
-1121.238501999999
 21
-770.92752800000005
 31
0.0
  0
LINE
  5
7B0E
  8
1
  6
CONTINUOUS
 10
-897.73850199999993
 20
-827.92752800000005
 30
0.0
 11
-1024.738501999999
 21
-827.92752800000005
 31
0.0
  0
LINE
  5
7B0F
  8
1
  6
CONTINUOUS
 10
-897.73850199999993
 20
-862.92752799999994
 30
0.0
 11
-1024.738501999999
 21
-862.92752799999994
 31
0.0
  0
LINE
  5
7B10
  8
1
  6
CONTINUOUS
 10
-1024.738501999999
 20
-862.92752799999994
 30
0.0
 11
-1024.738501999999
 21
-827.92752800000005
 31
0.0
  0
LINE
  5
7B11
  8
1
  6
CONTINUOUS
 10
-973.23850199999981
 20
-827.92752800000005
 30
0.0
 11
-973.23850199999981
 21
-641.92752800000005
 31
0.0
  0
LINE
  5
7B12
  8
1
  6
CONTINUOUS
 10
-897.73850199999993
 20
-862.92752799999994
 30
0.0
 11
-897.73850199999993
 21
-827.92752800000005
 31
0.0
  0
LINE
  5
7B13
  8
1
  6
CONTINUOUS
 10
-949.23850199999981
 20
-827.92752800000005
 30
0.0
 11
-949.23850199999981
 21
-641.92752800000005
 31
0.0
  0
LINE
  5
7B14
  8
1
  6
CONTINUOUS
 10
-1108.2385019999999
 20
-452.927528
 30
0.0
 11
-1108.2385019999999
 21
-443.927528
 31
0.0
  0
LINE
  5
7B15
  8
1
  6
CONTINUOUS
 10
-750.33850199999995
 20
-464.927528
 30
0.0
 11
-750.33850199999995
 21
-620.92752800000005
 31
0.0
  0
LINE
  5
7B16
  8
1
  6
CONTINUOUS
 10
-741.23850199999993
 20
-400.92752799999988
 30
0.0
 11
-741.23850199999993
 21
-880.92752799999994
 31
0.0
  0
ARC
  5
7B17
  8
1
  6
CONTINUOUS
 10
-762.33850199999995
 20
-620.92752800000005
 30
0.0
 40
12.0
 50
270.0
 51
0.0
  0
LINE
  5
7B18
  8
1
  6
CONTINUOUS
 10
-771.23850199999993
 20
-880.92752799999994
 30
0.0
 11
-741.23850199999993
 21
-880.92752799999994
 31
0.0
  0
LINE
  5
7B19
  8
1
  6
CONTINUOUS
 10
-814.23850199999981
 20
-632.92752800000005
 30
0.0
 11
-814.23850199999981
 21
-641.92752800000005
 31
0.0
  0
LINE
  5
7B1A
  8
1
  6
CONTINUOUS
 10
-771.23850199999993
 20
-800.92752800000005
 30
0.0
 11
-771.23850199999993
 21
-880.92752799999994
 31
0.0
  0
LINE
  5
7B1B
  8
1
  6
CONTINUOUS
 10
-801.23850199999993
 20
-770.92752800000005
 30
0.0
 11
-801.23850199999993
 21
-641.92752800000005
 31
0.0
  0
LINE
  5
7B1C
  8
1
  6
CONTINUOUS
 10
-836.23850199999993
 20
-882.92752799999994
 30
0.0
 11
-836.23850199999993
 21
-807.92752800000005
 31
0.0
  0
ARC
  5
7B1D
  8
1
  6
CONTINUOUS
 10
-762.33850199999995
 20
-464.927528
 30
0.0
 40
12.0
 50
0.0
 51
90.0
  0
LINE
  5
7B1E
  8
1
  6
CONTINUOUS
 10
-771.23850199999993
 20
-400.92752799999988
 30
0.0
 11
-741.23850199999993
 21
-400.92752799999988
 31
0.0
  0
LINE
  5
7B1F
  8
1
  6
CONTINUOUS
 10
-814.23850199999981
 20
-452.927528
 30
0.0
 11
-814.23850199999981
 21
-443.927528
 31
0.0
  0
LINE
  5
7B20
  8
1
  6
CONTINUOUS
 10
-771.23850199999993
 20
-400.92752799999988
 30
0.0
 11
-771.23850199999993
 21
-452.12752799999998
 31
0.0
  0
LINE
  5
7B21
  8
1
  6
CONTINUOUS
 10
-741.23850199999993
 20
-550.92752800000005
 30
0.0
 11
-750.33850199999995
 21
-550.92752800000005
 31
0.0
  0
LINE
  5
7B22
  8
1
  6
CONTINUOUS
 10
-62.238501999999983
 20
-1415.1400713963269
 30
0.0
 11
-62.238501999999983
 21
-1709.1400713963269
 31
0.0
  0
LINE
  5
7B23
  8
1
  6
CONTINUOUS
 10
-71.438501999999971
 20
-1761.040071396327
 30
0.0
 11
-71.438501999999971
 21
-1562.1400713963269
 31
0.0
  0
LINE
  5
7B24
  8
1
  6
CONTINUOUS
 10
-251.03850199999999
 20
-1362.140071396326
 30
0.0
 11
-251.03850199999999
 21
-1761.040071396327
 31
0.0
  0
LINE
  5
7B25
  8
1
  6
CONTINUOUS
 10
-260.23850199999993
 20
-1415.1400713963269
 30
0.0
 11
-260.23850199999993
 21
-1817.140071396326
 31
0.0
  0
LINE
  5
7B26
  8
1
  6
CONTINUOUS
 10
-389.23850199999993
 20
-1817.140071396326
 30
0.0
 11
-389.23850199999993
 21
-1600.3400713963269
 31
0.0
  0
LINE
  5
7B27
  8
1
  6
CONTINUOUS
 10
-239.03850199999999
 20
-1773.0400713963261
 30
0.0
 11
-83.438501999999957
 21
-1773.0400713963261
 31
0.0
  0
LINE
  5
7B28
  8
1
  6
CONTINUOUS
 10
-419.23850199999993
 20
-1877.140071396326
 30
0.0
 11
-169.23850200000001
 21
-1877.140071396326
 31
0.0
  0
LINE
  5
7B29
  8
1
  6
CONTINUOUS
 10
-419.23850199999993
 20
-1899.140071396326
 30
0.0
 11
-169.23850200000001
 21
-1899.140071396326
 31
0.0
  0
LINE
  5
7B2A
  8
1
  6
CONTINUOUS
 10
-419.23850199999993
 20
-1817.140071396326
 30
0.0
 11
-419.23850199999993
 21
-1877.140071396326
 31
0.0
  0
LINE
  5
7B2B
  8
1
  6
CONTINUOUS
 10
-419.23850199999993
 20
-1899.140071396326
 30
0.0
 11
-419.23850199999993
 21
-1929.140071396326
 31
0.0
  0
LINE
  5
7B2C
  8
1
  6
CONTINUOUS
 10
-251.03850199999999
 20
-1709.1400713963269
 30
0.0
 11
-260.23850199999993
 21
-1709.1400713963269
 31
0.0
  0
ARC
  5
7B2D
  8
1
  6
CONTINUOUS
 10
-239.03850199999999
 20
-1761.040071396327
 30
0.0
 40
12.0
 50
180.0
 51
270.0
  0
LINE
  5
7B2E
  8
1
  6
CONTINUOUS
 10
-169.23850200000001
 20
-1817.140071396326
 30
0.0
 11
-169.23850200000001
 21
-1877.140071396326
 31
0.0
  0
LINE
  5
7B2F
  8
1
  6
CONTINUOUS
 10
-169.23850200000001
 20
-1899.140071396326
 30
0.0
 11
-169.23850200000001
 21
-1929.140071396326
 31
0.0
  0
LINE
  5
7B30
  8
1
  6
CONTINUOUS
 10
-71.438501999999971
 20
-1709.1400713963269
 30
0.0
 11
-62.238501999999983
 21
-1709.1400713963269
 31
0.0
  0
ARC
  5
7B31
  8
1
  6
CONTINUOUS
 10
-83.438501999999957
 20
-1761.040071396327
 30
0.0
 40
12.0
 50
270.0
 51
0.0
  0
LINE
  5
7B32
  8
1
  6
CONTINUOUS
 10
-19.238501999999979
 20
-1929.140071396326
 30
0.0
 11
-19.238501999999979
 21
-1959.140071396326
 31
0.0
  0
LINE
  5
7B33
  8
1
  6
CONTINUOUS
 10
-272.23850199999993
 20
-1362.140071396326
 30
0.0
 11
-50.238501999999983
 21
-1362.140071396326
 31
0.0
  0
LINE
  5
7B34
  8
1
  6
CONTINUOUS
 10
-222.03850199999999
 20
-1382.140071396326
 30
0.0
 11
-100.4385019999999
 21
-1382.140071396326
 31
0.0
  0
LINE
  5
7B35
  8
1
  6
CONTINUOUS
 10
-389.23850199999993
 20
-1600.3400713963269
 30
0.0
 11
-260.23850199999993
 21
-1496.0400713963261
 31
0.0
  0
LINE
  5
7B36
  8
1
  6
CONTINUOUS
 10
-251.03850199999999
 20
-1415.1400713963269
 30
0.0
 11
-260.23850199999993
 21
-1415.1400713963269
 31
0.0
  0
LINE
  5
7B37
  8
1
  6
CONTINUOUS
 10
-260.23850199999993
 20
-1415.1400713963269
 30
0.0
 11
-260.23850199999993
 21
-1562.1400713963269
 31
0.0
  0
LINE
  5
7B38
  8
1
  6
CONTINUOUS
 10
-242.03850199999991
 20
-1362.140071396326
 30
0.0
 11
-222.03850199999999
 21
-1382.140071396326
 31
0.0
  0
LINE
  5
7B39
  8
1
  6
CONTINUOUS
 10
-71.438501999999971
 20
-1362.140071396326
 30
0.0
 11
-71.438501999999971
 21
-1562.1400713963269
 31
0.0
  0
LINE
  5
7B3A
  8
1
  6
CONTINUOUS
 10
-71.438501999999971
 20
-1415.1400713963269
 30
0.0
 11
-62.238501999999983
 21
-1415.1400713963269
 31
0.0
  0
LINE
  5
7B3B
  8
1
  6
CONTINUOUS
 10
-80.438501999999971
 20
-1362.140071396326
 30
0.0
 11
-100.4385019999999
 21
-1382.140071396326
 31
0.0
  0
LINE
  5
7B3C
  8
4
  6
CONTINUOUS
 10
49.676372999999991
 20
-2139.1804039999988
 30
0.0
 11
49.676372999999991
 21
-2339.1804039999988
 31
0.0
  0
LINE
  5
7B3D
  8
4
  6
CONTINUOUS
 10
-650.32362699999999
 20
-2139.1804039999988
 30
0.0
 11
-650.32362699999999
 21
-2339.1804039999988
 31
0.0
  0
LINE
  5
7B3E
  8
4
  6
CONTINUOUS
 10
-1150.323627
 20
-2139.1804039999988
 30
0.0
 11
-1150.323627
 21
-2339.1804039999988
 31
0.0
  0
LINE
  5
7B41
  8
4
  6
CONTINUOUS
 10
-1150.323627
 20
-2339.1804039999988
 30
0.0
 11
49.676372999999991
 21
-2339.1804039999988
 31
0.0
  0
LINE
  5
7B42
  8
4
  6
CONTINUOUS
 10
-1150.323627
 20
-2239.1804039999988
 30
0.0
 11
49.676372999999991
 21
-2239.1804039999988
 31
0.0
  0
TEXT
  5
7B43
  8
4
  6
CONTINUOUS
 10
-1111.8215459999999
 20
-2207.6373779999999
 30
0.0
 40
50.0
  1
機器名称
  0
TEXT
  5
7B44
  8
4
  6
CONTINUOUS
 10
-1114.065521
 20
-2317.5352469999989
 30
0.0
 40
50.0
  1
機器型番
  0
TEXT
  5
7B45
  8
4
  6
CONTINUOUS
 10
-622.64488200000005
 20
-2216.608635
 30
0.0
 40
45.0
  1
ミツヤニューマルチファン
  0
TEXT
  5
7B46
  8
4
  6
CONTINUOUS
 10
-613.66913199999988
 20
-2322.0208189999998
 30
0.0
 40
50.0
  1
NM#1 1/2-1
  0
TEXT
  5
7B48
  8
4
  6
CONTINUOUS
 10
-1072.5898669999999
 20
-255.75156200000001
 30
0.0
 40
54.0
  1
天井吊防振ベット
  0
TEXT
  5
7B49
  8
4
  6
CONTINUOUS
 10
-1484.1560340000001
 20
-105.29942800000001
 30
0.0
 40
72.0
  1
ベルト駆動式片吸込片持多翼ファン
  0
LINE
  5
7B4A
  8
4
  6
CONTINUOUS
 10
-1550.323627
 20
-169.77164899999991
 30
0.0
 11
49.676372999999991
 21
-169.77164899999991
 31
0.0
  0
LINE
  5
7B4B
  8
4
  6
CONTINUOUS
 10
-1550.323627
 20
30.228350999999989
 30
0.0
 11
49.676372999999991
 21
30.228350999999989
 31
0.0
  0
LINE
  5
7B4C
  8
4
  6
CONTINUOUS
 10
-1150.323627
 20
-2139.1804039999988
 30
0.0
 11
49.676372999999991
 21
-2139.1804039999988
 31
0.0
  0
LINE
  5
7B4D
  8
4
  6
CONTINUOUS
 10
-1550.323627
 20
30.228350999999989
 30
0.0
 11
-1550.323627
 21
-169.77164899999991
 31
0.0
  0
TEXT
  5
7B4E
  8
4
  6
CONTINUOUS
 10
-1508.448699
 20
-256.86092599999989
 30
0.0
 40
54.0
  1
右回転上向
  0
TEXT
  5
7B4F
  8
4
  6
CONTINUOUS
 10
-331.35406799999998
 20
66.880678000000003
 30
0.0
 40
56.0
  1
No.
  0
TEXT
  5
7B50
  8
4
  6
CONTINUOUS
 10
-418.20676099999991
 20
-255.75156200000001
 30
0.0
 40
54.0
  1
縮尺：1/10
  0
LINE
  5
7B51
  8
4
  6
CONTINUOUS
 10
49.676372999999991
 20
30.228350999999989
 30
0.0
 11
49.676372999999991
 21
-169.77164899999991
 31
0.0
  0
LINE
  5
7B53
  8
4
  6
CONTINUOUS
 10
-359.7062049999999
 20
42.083178999999987
 30
0.0
 11
-359.7062049999999
 21
147.471858
 31
0.0
  0
LINE
  5
7B54
  8
4
  6
CONTINUOUS
 10
-359.7062049999999
 20
147.471858
 30
0.0
 11
49.676372999999991
 21
147.471858
 31
0.0
  0
LINE
  5
7B55
  8
4
  6
CONTINUOUS
 10
49.676372999999991
 20
147.471858
 30
0.0
 11
49.676372999999991
 21
42.083178999999987
 31
0.0
  0
LINE
  5
7B56
  8
4
  6
CONTINUOUS
 10
49.676372999999991
 20
42.083178999999987
 30
0.0
 11
-359.7062049999999
 21
42.083178999999987
 31
0.0
  0
DIMENSION
  5
7B6F
  8
3
  6
CONTINUOUS
  2
*D1
 10
-961.23850199999993
 20
-2032.1847863963269
 30
0.0
 11
-1228.487936
 21
-2032.1847863963269
 31
0.0
 70
   128
 13
-1511.2385019999999
 23
-1959.140071396326
 33
0.0
 14
-961.23850199999993
 24
-1943.2141593963261
 34
0.0
1001
ACAD
1000
DSTYLE
1002
{
1070
   287
1070
     3
1070
   287
1070
     3
1070
    40
1040
10.0
1070
   143
1040
0.039
1070
   172
1070
     1
1070
   271
1070
     0
1070
   279
1070
     0
1070
   288
1070
     1
1002
}
  0
DIMENSION
  5
7B7B
  8
3
  6
CONTINUOUS
  2
*D2
 10
-741.23850199999993
 20
-2032.1847863963269
 30
0.0
 11
-851.23850199999993
 21
-2007.1847863963269
 31
0.0
 70
     0
 13
-961.23850199999993
 23
-1943.2141593963261
 33
0.0
 14
-741.23850199999993
 24
-1959.140071396326
 34
0.0
1001
ACAD
1000
DSTYLE
1002
{
1070
   287
1070
     4
1070
   287
1070
     4
1070
    40
1040
10.0
1070
    75
1070
     1
1070
   143
1040
0.039
1070
   172
1070
     1
1070
   271
1070
     0
1070
   279
1070
     1
1070
   288
1070
     1
1002
}
  0
DIMENSION
  5
7B88
  8
3
  6
CONTINUOUS
  2
*D3
 10
-676.67466100000024
 20
-1562.1400713963269
 30
0.0
 11
-676.67466100000001
 21
-1458.1234923963259
 31
0.0
 70
   128
 13
-940.23850199999981
 23
-1362.140071396326
 33
0.0
 14
-775.24911799999995
 24
-1562.1400713963269
 34
0.0
 50
90.0
1001
ACAD
1000
DSTYLE
1002
{
1070
   287
1070
     3
1070
   287
1070
     3
1070
    40
1040
10.0
1070
   143
1040
0.039
1070
   172
1070
     1
1070
   271
1070
     0
1070
   279
1070
     0
1070
   288
1070
     1
1002
}
  0
DIMENSION
  5
7B94
  8
3
  6
CONTINUOUS
  2
*D4
 10
-676.67466100000001
 20
-1877.140071396326
 30
0.0
 11
-701.67466099999956
 21
-1719.6400713963269
 31
0.0
 70
     0
 13
-775.24911799999995
 23
-1562.1400713963269
 33
0.0
 14
-771.23850199999993
 24
-1877.140071396326
 34
0.0
 50
90.0
1001
ACAD
1000
DSTYLE
1002
{
1070
   287
1070
     4
1070
   287
1070
     4
1070
    40
1040
10.0
1070
    75
1070
     1
1070
   143
1040
0.039
1070
   172
1070
     1
1070
   271
1070
     0
1070
   279
1070
     1
1070
   288
1070
     1
1002
}
  0
DIMENSION
  5
7BA4
  8
3
  6
CONTINUOUS
  2
*D5
 10
-676.67466100000001
 20
-1929.140071396326
 30
0.0
 11
-637.82946252388308
 21
-1902.0959126795919
 31
0.0
 12
0.0
 22
-61.222538396326847
 32
0.0
 70
   128
 13
-771.23850199999993
 23
-1877.140071396326
 33
0.0
 14
-741.23850199999993
 24
-1929.140071396326
 34
0.0
 50
90.0
1001
ACAD
1000
DSTYLE
1002
{
1070
   288
1070
     1
1070
   172
1070
     1
1070
    75
1070
     1
1070
    40
1040
10.0
1070
   271
1070
     0
1070
     7
1000
_DOT
1070
   143
1040
0.039
1002
}
  0
DIMENSION
  5
7BB4
  8
3
  6
CONTINUOUS
  2
*D6
 10
-676.67466100000036
 20
-1959.140071396326
 30
0.0
 11
-676.67466100000001
 21
-2033.4257856820409
 31
0.0
 70
   128
 13
-741.23850199999993
 23
-1929.140071396326
 33
0.0
 14
-741.23850199999993
 24
-1959.140071396326
 34
0.0
 50
90.0
1001
ACAD
1000
DSTYLE
1002
{
1070
   287
1070
     3
1070
   287
1070
     3
1070
    40
1040
10.0
1070
   143
1040
0.039
1070
   172
1070
     1
1070
   271
1070
     0
1070
   279
1070
     0
1070
   288
1070
     1
1070
     6
1000
DOT
1002
}
  0
DIMENSION
  5
7BF9
  8
3
  6
CONTINUOUS
  2
*D7
 10
-601.43442700000026
 20
-1959.140071396326
 30
0.0
 11
-601.43442699999991
 21
-1562.143544396326
 31
0.0
 70
   128
 13
-935.23850199999993
 23
-1362.140071396326
 33
0.0
 14
-741.23850199999993
 24
-1959.140071396326
 34
0.0
 50
90.0
1001
ACAD
1000
DSTYLE
1002
{
1070
   287
1070
     3
1070
   287
1070
     3
1070
    40
1040
10.0
1070
   143
1040
0.039
1070
   172
1070
     1
1070
   271
1070
     0
1070
   279
1070
     0
1070
   288
1070
     1
1002
}
  0
DIMENSION
  5
7C06
  8
3
  6
CONTINUOUS
  2
*D8
 10
-961.23850199999993
 20
-1300.2123883963261
 30
0.0
 11
-1080.5357160000001
 21
-1300.2123883963261
 31
0.0
 70
   128
 13
-1211.2385019999999
 23
-1362.140071396326
 33
0.0
 14
-961.23850199999993
 24
-1362.140071396326
 34
0.0
1001
ACAD
1000
DSTYLE
1002
{
1070
   287
1070
     3
1070
   287
1070
     3
1070
    40
1040
10.0
1070
   143
1040
0.039
1070
   172
1070
     1
1070
   271
1070
     0
1070
   279
1070
     0
1070
   288
1070
     1
1002
}
  0
DIMENSION
  5
7C13
  8
3
  6
CONTINUOUS
  2
*D9
 10
-961.23850199999993
 20
-1237.482527396327
 30
0.0
 11
-1085.9963889999999
 21
-1237.482527396327
 31
0.0
 70
   128
 13
-1221.2385019999999
 23
-1382.140071396326
 33
0.0
 14
-961.23850199999993
 24
-1362.140071396326
 34
0.0
1001
ACAD
1000
DSTYLE
1002
{
1070
   287
1070
     3
1070
   287
1070
     3
1070
    40
1040
10.0
1070
   143
1040
0.039
1070
   172
1070
     1
1070
   271
1070
     0
1070
   279
1070
     0
1070
   288
1070
     1
1002
}
  0
DIMENSION
  5
7C1F
  8
3
  6
CONTINUOUS
  2
*D10
 10
-775.24911799999995
 20
-1237.482527396327
 30
0.0
 11
-868.24380999999983
 21
-1212.482527396327
 31
0.0
 70
     0
 13
-961.23850199999993
 23
-1362.140071396326
 33
0.0
 14
-775.24911799999995
 24
-1562.1400713963269
 34
0.0
1001
ACAD
1000
DSTYLE
1002
{
1070
   287
1070
     4
1070
   287
1070
     4
1070
    40
1040
10.0
1070
    75
1070
     1
1070
   143
1040
0.039
1070
   172
1070
     1
1070
   271
1070
     0
1070
   279
1070
     1
1070
   288
1070
     1
1002
}
  0
DIMENSION
  5
7C2C
  8
3
  6
CONTINUOUS
  2
*D11
 10
-741.23850199999993
 20
-976.70419200000003
 30
0.0
 11
-1146.609999999999
 21
-976.70419200000003
 31
0.0
 70
   128
 13
-1511.2385019999999
 23
-880.92752799999994
 33
0.0
 14
-741.23850199999993
 24
-880.92752799999994
 34
0.0
1001
ACAD
1000
DSTYLE
1002
{
1070
   287
1070
     3
1070
   287
1070
     3
1070
    40
1040
10.0
1070
   143
1040
0.039
1070
   172
1070
     1
1070
   271
1070
     0
1070
   279
1070
     0
1070
   288
1070
     1
1002
}
  0
DIMENSION
  5
7C39
  8
3
  6
CONTINUOUS
  2
*D12
 10
-635.16804800000023
 20
-880.92752799999994
 30
0.0
 11
-635.16804799999989
 21
-641.23579699999993
 31
0.0
 70
   128
 13
-741.23850199999993
 23
-400.92752799999988
 33
0.0
 14
-741.23850199999993
 24
-880.92752799999994
 34
0.0
 50
90.0
1001
ACAD
1000
DSTYLE
1002
{
1070
   287
1070
     3
1070
   287
1070
     3
1070
    40
1040
10.0
1070
   143
1040
0.039
1070
   172
1070
     1
1070
   271
1070
     0
1070
   279
1070
     0
1070
   288
1070
     1
1002
}
  0
LINE
  5
7C3A
  8
2
  6
CENTER
 10
-1258.654174999999
 20
-542.92752800000005
 30
0.0
 11
-692.82934899999987
 21
-542.92752800000005
 31
0.0
  0
LINE
  5
7C3B
  8
2
  6
CENTER
 10
-161.23850200000001
 20
-2013.049984396326
 30
0.0
 11
-161.23850200000001
 21
-1323.850552396327
 31
0.0
  0
DIMENSION
  5
7C48
  8
3
  6
CONTINUOUS
  2
*D13
 10
-161.23850200000001
 20
-2035.917605396327
 30
0.0
 11
-343.34663599999999
 21
-2035.917605396327
 31
0.0
 70
   128
 13
-499.23850199999993
 23
-1959.140071396326
 33
0.0
 14
-161.23850200000001
 24
-1959.140071396326
 34
0.0
1001
ACAD
1000
DSTYLE
1002
{
1070
   287
1070
     3
1070
   287
1070
     3
1070
    40
1040
10.0
1070
   143
1040
0.039
1070
   172
1070
     1
1070
   271
1070
     0
1070
   279
1070
     0
1070
   288
1070
     1
1002
}
  0
DIMENSION
  5
7C54
  8
3
  6
CONTINUOUS
  2
*D14
 10
-19.238501999999979
 20
-2035.917605396327
 30
0.0
 11
-90.238502000000011
 21
-2010.917605396327
 31
0.0
 70
     0
 13
-161.23850200000001
 23
-1959.140071396326
 33
0.0
 14
-19.238501999999979
 24
-1959.140071396326
 34
0.0
1001
ACAD
1000
DSTYLE
1002
{
1070
   287
1070
     4
1070
   287
1070
     4
1070
    40
1040
10.0
1070
    75
1070
     1
1070
   143
1040
0.039
1070
   172
1070
     1
1070
   271
1070
     0
1070
   279
1070
     1
1070
   288
1070
     1
1002
}
  0
DIMENSION
  5
7C61
  8
3
  6
CONTINUOUS
  2
*D15
 10
-71.438501999999971
 20
-1326.797414396327
 30
0.0
 11
-165.87494899999999
 21
-1326.797414396327
 31
0.0
 70
   128
 13
-251.03850199999999
 23
-1362.140071396326
 33
0.0
 14
-71.438501999999971
 24
-1362.140071396326
 34
0.0
1001
ACAD
1000
DSTYLE
1002
{
1070
   287
1070
     3
1070
   287
1070
     3
1070
    40
1040
10.0
1070
   143
1040
0.039
1070
   172
1070
     1
1070
   271
1070
     0
1070
   279
1070
     0
1070
   288
1070
     1
1002
}
  0
DIMENSION
  5
7C6E
  8
3
  6
CONTINUOUS
  2
*D16
 10
-161.23850200000001
 20
-1264.0675523963259
 30
0.0
 11
-329.69497000000001
 21
-1264.0675523963259
 31
0.0
 70
   128
  1
MAX\P340
 13
-501.23850199999993
 23
-1437.140071396326
 33
0.0
 14
-161.23850200000001
 24
-1276.883921396327
 34
0.0
1001
ACAD
1000
DSTYLE
1002
{
1070
   287
1070
     3
1070
   287
1070
     3
1070
    40
1040
10.0
1070
   143
1040
0.039
1070
   172
1070
     1
1070
   271
1070
     0
1070
   279
1070
     0
1070
   288
1070
     1
1002
}
  0
DIMENSION
  5
7C7C
  8
3
  6
CONTINUOUS
  2
*D17
 10
-62.238501999999968
 20
-1264.0675523963259
 30
0.0
 11
-111.268272
 21
-1264.0675523963259
 31
0.0
 70
   128
 13
-161.23850200000001
 23
-1276.883921396327
 33
0.0
 14
-62.238501999999983
 24
-1415.1400713963269
 34
0.0
1001
ACAD
1000
DSTYLE
1002
{
1070
   287
1070
     4
1070
   287
1070
     4
1070
    40
1040
10.0
1070
    75
1070
     1
1070
   143
1040
0.039
1070
   172
1070
     1
1070
   271
1070
     0
1070
   279
1070
     1
1070
   288
1070
     1
1002
}
  0
LINE
  5
7C94
  8
3
  6
CONTINUOUS
 10
-62.238501999999983
 20
-1687.140071396326
 30
0.0
 11
-49.950405999999987
 21
-1687.140071396326
 31
0.0
  0
LINE
  5
7C96
  8
3
  6
CONTINUOUS
 10
-62.238501999999983
 20
-1437.140071396326
 30
0.0
 11
-49.950405999999987
 21
-1437.140071396326
 31
0.0
  0
DIMENSION
  5
7CA3
  8
3
  6
CONTINUOUS
  2
*D18
 10
19.20415899999972
 20
-1687.140071396326
 30
0.0
 11
19.204159000000001
 21
-1581.6726173963259
 31
0.0
 70
   128
 13
-62.238501999999983
 23
-1437.140071396326
 33
0.0
 14
-62.238501999999983
 24
-1687.140071396326
 34
0.0
 50
90.0
1001
ACAD
1000
DSTYLE
1002
{
1070
   287
1070
     3
1070
   287
1070
     3
1070
     3
1000
φ<>
1070
    40
1040
10.0
1070
   143
1040
0.039
1070
   172
1070
     1
1070
   271
1070
     0
1070
   279
1070
     0
1070
   288
1070
     1
1002
}
  0
LINE
  5
7CA4
  8
2
  6
CENTER
 10
-961.23850199999993
 20
-1324.6790093963259
 30
0.0
 11
-961.23850199999993
 21
-1943.2141593963261
 31
0.0
  0
LINE
  5
7CA5
  8
2
  6
CENTER
 10
-545.10329300000001
 20
-1562.1400713963269
 30
0.0
 11
-34.172005000000013
 21
-1562.1400713963269
 31
0.0
  0
DIMENSION
  5
7D95
  8
3
  2
*D20
 10
-1511.2385019999999
 20
-1173.884410955294
 30
0.0
 11
-1128.3006041261101
 21
-1173.884410955294
 31
0.0
 70
   128
 13
-775.24911799999995
 23
-1557.140071396326
 33
0.0
 14
-1511.2385019999999
 24
-1899.140071396326
 34
0.0
1001
ACAD
1000
DSTYLE
1002
{
1070
   287
1070
     3
1070
   287
1070
     3
1070
    40
1040
10.0
1070
   143
1040
0.039
1070
   172
1070
     1
1070
   271
1070
     0
1070
   279
1070
     0
1070
   288
1070
     1
1002
}
  0
ENDSEC
  0
EOF
